<?xml version="1.0" standalone="no"?>
<!DOCTYPE svg PUBLIC "-//W3C//DTD SVG 1.1//EN" "http://www.w3.org/Graphics/SVG/1.1/DTD/svg11.dtd" >
<svg xmlns="http://www.w3.org/2000/svg">
    <metadata></metadata>
    <defs>
        <font id="gt_walsheimbold" horiz-adv-x="1300" >
            <font-face units-per-em="2048" ascent="1536" descent="-512" />
            <missing-glyph horiz-adv-x="497" />
            <glyph unicode="&#xfb01;" horiz-adv-x="1429" d="M33 754v233h176v86q0 135 36 211t91 115t120.5 48t125.5 9q57 0 100 -8t70 -18v-226q-25 6 -46.5 9.5t-50.5 3.5q-25 0 -49 -3.5t-42.5 -16.5t-30 -37.5t-11.5 -67.5v-105h230v-233h-230v-754h-313v754h-176zM907 1313q0 82 56.5 138t138.5 56q84 0 140 -56t56 -138 q0 -41 -15 -76t-42 -60.5t-62.5 -41t-76.5 -15.5t-77 15.5t-61.5 41t-41 60.5t-15.5 76zM946 0v987h314v-987h-314z" />
            <glyph unicode="&#xfb02;" horiz-adv-x="1355" d="M33 754v233h176v86q0 135 36 211t91 115t120.5 48t125.5 9q57 0 100 -8t70 -18v-226q-25 6 -46.5 9.5t-50.5 3.5q-25 0 -49 -3.5t-42.5 -16.5t-30 -37.5t-11.5 -67.5v-105h230v-233h-230v-754h-313v754h-176zM909 0v1434h314v-1434h-314z" />
            <glyph unicode="&#xfb03;" horiz-adv-x="2211" d="M33 754v233h178v86q0 135 36 211t91 115t120.5 48t125.5 9q55 0 98 -8t72 -18v-226q-25 6 -46.5 9.5t-50.5 3.5q-27 0 -51 -3.5t-42.5 -16.5t-30 -37.5t-11.5 -67.5v-105h232v-233h-230v-754h-313v754h-178zM813 754v233h176v86q0 135 36 211t91 115t121 48t125 9 q57 0 100 -8t70 -18v-226q-25 6 -46.5 9.5t-49.5 3.5q-25 0 -49.5 -3.5t-43 -16.5t-29.5 -37.5t-11 -67.5v-105h229v-233h-229v-754h-314v754h-176zM1683 1315q0 84 57.5 141t143.5 57t143.5 -57t57.5 -141q0 -41 -15.5 -77t-43 -63.5t-63.5 -43t-79 -15.5t-79 15.5 t-63.5 43t-43 63.5t-15.5 77zM1729 0v987h313v-987h-313z" />
            <glyph unicode="&#xfb04;" horiz-adv-x="2131" d="M33 754v233h178v86q0 135 36 211t91 115t120.5 48t125.5 9q55 0 98 -8t72 -18v-226q-25 6 -46.5 9.5t-50.5 3.5q-27 0 -51 -3.5t-42.5 -16.5t-30 -37.5t-11.5 -67.5v-105h232v-233h-230v-754h-313v754h-178zM813 754v233h176v86q0 135 36 211t91 115t121 48t125 9 q57 0 100 -8t70 -18v-226q-25 6 -46.5 9.5t-49.5 3.5q-25 0 -49.5 -3.5t-43 -16.5t-29.5 -37.5t-11 -67.5v-105h229v-233h-229v-754h-314v754h-176zM1692 0v1434h313v-1434h-313z" />
            <glyph horiz-adv-x="0" />
            <glyph unicode="&#xd;" horiz-adv-x="512" />
            <glyph unicode=" "  horiz-adv-x="497" />
            <glyph unicode="&#x09;" horiz-adv-x="497" />
            <glyph unicode="&#xa0;" horiz-adv-x="497" />
            <glyph unicode="!" horiz-adv-x="692" d="M133 178q0 43 16.5 81t45 66.5t66.5 45t83 16.5t84 -16.5t68.5 -45t46 -66.5t16.5 -81t-16.5 -81t-46 -67.5t-68.5 -46t-84 -16.5t-83 16.5t-66.5 46t-45 67.5t-16.5 81zM178 496v938h336v-938h-336z" />
            <glyph unicode="&#x22;" horiz-adv-x="856" d="M100 1200v256h262v-256l-65 -315h-131zM492 1200v256h264v-256l-68 -315h-129z" />
            <glyph unicode="#" horiz-adv-x="1208" d="M53 369v221h207l35 254h-180v221h211l51 369h229l-51 -369h211l51 369h227l-51 -369h164v-221h-194l-35 -254h168v-221h-199l-51 -369h-228l50 369h-209l-53 -369h-228l51 369h-176zM489 590h211l35 254h-211z" />
            <glyph unicode="$" horiz-adv-x="1241" d="M131 475h332q0 -117 63.5 -182.5t165.5 -65.5q80 0 134.5 46t54.5 122q0 43 -17.5 73t-47.5 52.5t-70.5 40t-88.5 35.5q-98 37 -187 74t-154.5 89t-104.5 125.5t-39 182.5q0 86 33 155.5t88 120t130 81t159 40.5v219h182v-219q106 -12 186 -54t132.5 -102.5t78 -136 t25.5 -157.5h-332q0 96 -46 151.5t-132 55.5q-72 0 -123 -37t-51 -111q0 -72 56 -113.5t149 -74.5q88 -31 178 -67t161.5 -88t117.5 -127t46 -181q0 -98 -32.5 -178t-91 -137.5t-140.5 -92t-182 -45.5v-219h-182v219q-98 12 -181.5 51t-142.5 103.5t-93 153t-34 198.5z" />
            <glyph unicode="%" horiz-adv-x="1955" d="M147 911v256q0 57 21.5 109.5t62.5 91.5t100.5 61.5t133.5 22.5t132 -22.5t99 -61.5t63.5 -91t22.5 -110v-256q0 -57 -22.5 -109t-63.5 -91t-99 -61.5t-132 -22.5t-133.5 22.5t-100.5 61.5t-62.5 91t-21.5 109zM367 911q0 -43 26.5 -74.5t71.5 -31.5t71.5 31.5t26.5 74.5 v256q0 43 -26.5 75t-71.5 32t-71.5 -32t-26.5 -75v-256zM449 0l817 1544l217 -108l-819 -1545zM1171 266v256q0 57 21.5 109.5t62.5 91.5t100.5 61.5t133.5 22.5t132 -22.5t99 -61.5t63.5 -91t22.5 -110v-256q0 -57 -22.5 -109.5t-63.5 -91t-99 -61t-132 -22.5t-133.5 22.5 t-100.5 61t-62.5 91t-21.5 109.5zM1391 266q0 -43 26.5 -74.5t71.5 -31.5t71.5 31.5t26.5 74.5v256q0 43 -26.5 75t-71.5 32t-71.5 -32t-26.5 -75v-256z" />
            <glyph unicode="&#x26;" horiz-adv-x="1296" d="M82 412q0 63 18.5 115.5t51 93.5t74.5 71.5t91 52.5q-88 39 -150.5 115t-62.5 203q0 100 41 176t111 126t159 74.5t187 24.5q133 0 229.5 -37.5t158 -100t91 -145.5t29.5 -175h-332q0 94 -39 151t-141 57q-72 0 -119 -38.5t-47 -120.5q0 -37 10.5 -70t34 -56.5 t62.5 -36.5t98 -13v-256q-123 0 -173 -55.5t-50 -147.5q0 -35 14 -69t40 -59.5t64.5 -40.5t88.5 -15q84 0 146 61t64 176h-122v258h542v-258h-94q-2 -113 -39 -206t-107.5 -158.5t-171 -102.5t-229.5 -37q-98 0 -192 29t-169 84t-121 138t-46 192z" />
            <glyph unicode="'" horiz-adv-x="458" d="M98 1200v256h262v-256l-65 -315h-131z" />
            <glyph unicode="(" horiz-adv-x="817" d="M156 92v930q0 115 41 218t116.5 180t184 122t243.5 45v-282q-61 0 -110 -22.5t-83 -61.5t-52.5 -90.5t-18.5 -108.5v-930q0 -57 18.5 -108.5t52.5 -90t83 -61t110 -22.5v-283q-135 0 -243.5 45t-184 122t-116.5 180t-41 218z" />
            <glyph unicode=")" horiz-adv-x="817" d="M74 -190q61 0 111.5 22.5t84 61t52 90t18.5 108.5v930q0 57 -18.5 108.5t-52 90.5t-84 61.5t-111.5 22.5v282q135 0 244.5 -45t185.5 -122t117 -180t41 -218v-930q0 -115 -41 -218t-117 -180t-185.5 -122t-244.5 -45v283z" />
            <glyph unicode="*" horiz-adv-x="954" d="M82 1116l57 170l269 -108l-23 290h186l-22 -290l266 108l57 -170l-274 -72l197 -241l-154 -109l-164 269l-164 -269l-153 109l196 241z" />
            <glyph unicode="+" horiz-adv-x="1255" d="M190 457v252h304v311h268v-311h303v-252h-303v-312h-268v312h-304z" />
            <glyph unicode="," horiz-adv-x="632" d="M94 184q0 43 16.5 81t44 65.5t64.5 44t80 16.5q104 0 167.5 -72.5t63.5 -189.5t-28.5 -198t-84 -132t-134 -73.5t-179.5 -22.5v127q66 0 111 15.5t76 37.5q29 25 43 54.5t18 60.5q-4 -4 -20.5 -10t-32.5 -6q-94 0 -149.5 59t-55.5 143z" />
            <glyph unicode="-" horiz-adv-x="649" d="M66 483v250h518v-250h-518z" />
            <glyph unicode="." horiz-adv-x="618" d="M102 186q0 43 16.5 80t44 64.5t65.5 44t81 16.5t81 -16.5t65.5 -44t44 -64.5t16.5 -80t-16.5 -79.5t-44 -64.5t-65.5 -44t-81 -16t-81 16t-65.5 44t-44 64.5t-16.5 79.5z" />
            <glyph unicode="/" horiz-adv-x="1005" d="M16 -39l719 1671l254 -108l-719 -1671z" />
            <glyph unicode="0" horiz-adv-x="1261" d="M84 481v471q0 104 38 196.5t108.5 163t172 111.5t226.5 41t226 -41t173 -111.5t111 -162.5t39 -197v-471q0 -104 -39 -196t-111 -163t-173 -112t-226 -41t-226.5 41t-172 112t-108.5 163t-38 196zM416 481q0 -47 14 -89t42 -73.5t68 -50t89 -18.5t90 18.5t68.5 50 t43 73.5t15.5 89v471q0 47 -15.5 89t-43 74t-68.5 50.5t-90 18.5t-89 -18.5t-68 -50.5t-42 -74t-14 -89v-471z" />
            <glyph unicode="1" horiz-adv-x="829" d="M59 948v234q104 0 171 15t104 46t51 78t14 113h293v-1434h-338v948h-295z" />
            <glyph unicode="2" horiz-adv-x="1181" d="M92 0q0 174 27.5 293t79 200.5t120 139t152.5 108.5q63 37 117.5 71t95.5 68.5t64.5 76.5t23.5 96q0 86 -47 123.5t-117 37.5q-78 0 -130 -48t-52 -160h-330q0 98 34 182t99.5 145.5t159.5 96t217 34.5q98 0 187.5 -25.5t157 -77.5t107.5 -135t40 -196q0 -90 -39 -163.5 t-95.5 -131t-122 -101.5t-118.5 -75q-74 -49 -122 -85t-76.5 -66.5t-40 -63.5t-11.5 -76h614v-268h-995z" />
            <glyph unicode="3" horiz-adv-x="1230" d="M66 481h331q0 -117 59.5 -181t155.5 -64q92 0 141.5 57t49.5 131q0 90 -47 144.5t-164 54.5h-129v256h129q111 0 150.5 49t39.5 127q0 82 -46 120.5t-118 38.5q-106 0 -144 -57t-38 -151h-332q0 92 30 175t91.5 145.5t156.5 100t228 37.5q98 0 189.5 -24.5t160 -74.5 t109.5 -126t41 -176q0 -121 -62.5 -205t-148.5 -113q49 -18 91 -48.5t74 -73.5t50.5 -99.5t18.5 -124.5q0 -102 -42 -182t-114 -135t-165 -84t-196 -29q-133 0 -235 37t-173 104.5t-106.5 162t-35.5 208.5z" />
            <glyph unicode="4" horiz-adv-x="1251" d="M117 395v1039h332v-758h241v395h330v-395h174v-281h-174v-395h-330v395h-573z" />
            <glyph unicode="5" d="M109 487h321q0 -100 60.5 -171.5t164.5 -71.5q53 0 95.5 19.5t72 53t46 78.5t16.5 97q0 49 -15.5 93t-45 77.5t-71.5 53t-96 19.5q-74 0 -124 -32.5t-82 -98.5h-310v830h969v-258h-664v-320q20 33 53 57.5t73 41t82 24.5t83 8q119 0 207 -42t146.5 -111.5t87 -158.5 t28.5 -183q0 -106 -38 -201.5t-108.5 -166.5t-173 -113t-231.5 -42q-127 0 -228 42t-172 113t-108.5 165t-37.5 198z" />
            <glyph unicode="6" horiz-adv-x="1228" d="M63 492q0 82 24 156.5t65 139.5l413 646h373l-287 -430q43 -6 86 -23q98 -12 176 -55t133.5 -109.5t84 -149.5t28.5 -175q0 -106 -38 -200.5t-108.5 -165.5t-172 -113t-230.5 -42q-127 0 -228 42t-172 113t-109 165t-38 201zM385 492q0 -100 60.5 -172t164.5 -72 q51 0 94.5 19.5t73 52t46 77.5t16.5 95q0 51 -16.5 95t-46 76.5t-72.5 52t-95 19.5q-104 0 -164.5 -70.5t-60.5 -172.5z" />
            <glyph unicode="7" horiz-adv-x="1087" d="M72 1155v279h1030l-610 -1434h-355l498 1155h-563z" />
            <glyph unicode="8" horiz-adv-x="1261" d="M92 410q0 57 17.5 111t48 100.5t72.5 79t94 47.5q-92 35 -143.5 120.5t-51.5 184.5q0 84 34 158.5t98.5 131t157.5 89t214 32.5q119 0 212 -32.5t157.5 -89t98.5 -131t34 -158.5q0 -98 -51.5 -184.5t-143.5 -120.5q51 -16 93 -50t73 -79.5t47 -99.5t16 -111 q0 -88 -35.5 -167t-104 -139.5t-168 -96.5t-228.5 -36t-229.5 35t-169 94.5t-105.5 140t-37 171.5zM414 416q0 -39 15 -75t43 -62.5t69 -43t92 -16.5t91 16.5t67.5 44t43 62.5t15.5 74t-14.5 74.5t-42 63.5t-68.5 44t-92 16q-106 0 -162.5 -59t-56.5 -139zM442 1036 q0 -72 49.5 -125t141.5 -53q88 0 137 53.5t49 124.5q0 72 -49 125t-137 53q-92 0 -141.5 -53t-49.5 -125z" />
            <glyph unicode="9" horiz-adv-x="1228" d="M70 942q0 106 36.5 200.5t107.5 165t173 112.5t231 42q127 0 228.5 -42t172.5 -112.5t108.5 -164.5t37.5 -201q0 -84 -23.5 -158.5t-64.5 -138.5l-413 -645h-373l287 428q-119 6 -213.5 48t-160 110.5t-100 160t-34.5 195.5zM389 942q0 -51 16.5 -95t46 -77t71.5 -52.5 t95 -19.5q104 0 165 71t61 173q0 100 -61 172t-165 72q-53 0 -95 -19.5t-71.5 -52.5t-46 -78t-16.5 -94z" />
            <glyph unicode=":" horiz-adv-x="620" d="M102 186q0 43 16.5 80t44 64.5t65.5 44t81 16.5t82 -16.5t66.5 -44t44 -64.5t16.5 -80t-16.5 -79.5t-44 -64.5t-66.5 -44t-82 -16t-81 16t-65.5 44t-44 64.5t-16.5 79.5zM102 844q0 43 16.5 80t44 64.5t65.5 44t81 16.5t81 -16.5t65.5 -44t44 -64.5t16.5 -80t-16.5 -80 t-44 -64.5t-65.5 -44t-81 -16.5t-81 16.5t-65.5 44t-44 64.5t-16.5 80z" />
            <glyph unicode=";" horiz-adv-x="632" d="M102 184q0 43 15.5 81t43 65.5t64.5 44t80 16.5q104 0 169 -72.5t65 -189.5t-29 -198t-84 -132t-134 -73.5t-179 -22.5v127q66 0 110.5 15.5t75.5 37.5q29 25 43 54.5t18 60.5q-4 -4 -20 -10t-35 -6q-94 0 -148.5 59t-54.5 143zM102 844q0 43 16.5 80t44 64.5t65.5 44 t81 16.5t81 -16.5t65.5 -44t44 -64.5t16.5 -80t-16.5 -80t-44 -64.5t-65.5 -44t-81 -16.5t-81 16.5t-65.5 44t-44 64.5t-16.5 80z" />
            <glyph unicode="&#x3c;" horiz-adv-x="1255" d="M84 459v246l1075 362v-283l-663 -202l663 -203v-285z" />
            <glyph unicode="=" horiz-adv-x="1255" d="M190 270v250h875v-250h-875zM190 641v250h875v-250h-875z" />
            <glyph unicode="&#x3e;" horiz-adv-x="1255" d="M98 94v285l662 203l-662 202v283l1073 -362v-246z" />
            <glyph unicode="?" horiz-adv-x="1110" d="M39 1006q0 98 32.5 182t97 145.5t159 96t215.5 34.5q98 0 188 -25.5t157.5 -76.5t108.5 -127t41 -176q0 -78 -23.5 -136.5t-58 -101.5t-72.5 -72.5t-65 -52.5q-39 -31 -63.5 -55.5t-40 -51t-21.5 -60t-6 -83.5h-328q0 66 8.5 119t28 98.5t54 84t90.5 75.5q29 20 59.5 43 t56 51.5t42 63.5t16.5 78q0 80 -49.5 117.5t-122.5 37.5q-72 0 -124 -48t-52 -160h-328zM311 178q0 43 16.5 81t45 66.5t67.5 45t84 16.5t84 -16.5t68 -45t45 -66.5t16 -81t-16 -81t-45 -67.5t-68 -46t-84 -16.5t-84 16.5t-67.5 46t-45 67.5t-16.5 81z" />
            <glyph unicode="@" horiz-adv-x="1783" d="M41 459q0 199 71.5 357.5t193.5 270t283 171t339 59.5q184 0 340.5 -51.5t269.5 -147.5t176.5 -234.5t63.5 -312.5q0 -164 -30 -278.5t-83 -186t-128 -104.5t-165 -33q-119 0 -195.5 60.5t-107.5 150.5q-14 -27 -39.5 -51.5t-58.5 -42.5t-71 -29.5t-77 -11.5 q-88 0 -160.5 32t-126 88t-83 132t-29.5 162q0 88 30.5 163.5t84 132t126 88t158.5 31.5q39 0 77 -10t71 -28.5t58.5 -43t39.5 -51.5v115h238v-483q0 -104 25.5 -149.5t80.5 -45.5q27 0 50.5 18.5t41 63.5t27.5 122t10 196q0 123 -45 220t-126 164.5t-194.5 104.5t-248.5 37 t-253 -43t-207 -126t-140.5 -203t-51.5 -273q0 -123 42 -239t127 -207t214 -145t304 -54q80 0 191.5 19.5t219.5 76.5l88 -182q-66 -37 -133 -61.5t-133 -38t-125 -19.5t-108 -6q-227 0 -399.5 71.5t-288 190.5t-175 273.5t-59.5 320.5zM674 459q0 -86 53 -148.5t141 -62.5 q45 0 83 16.5t64.5 46t41 67.5t14.5 81q0 88 -55 150.5t-148 62.5q-88 0 -141 -62.5t-53 -150.5z" />
            <glyph unicode="A" horiz-adv-x="1351" d="M8 0l512 1434h305l518 -1434h-360l-55 174h-510l-56 -174h-354zM498 434h348l-172 590z" />
            <glyph unicode="B" horiz-adv-x="1296" d="M129 0v1434h594q147 0 238.5 -40t141.5 -98.5t67.5 -126t17.5 -122.5q0 -68 -22.5 -122.5t-59.5 -95.5t-81 -66.5t-87 -35.5q35 0 80 -21.5t86 -61.5t68.5 -101.5t27.5 -141.5q0 -55 -18.5 -124.5t-69.5 -131t-143 -103.5t-240 -42h-600zM459 254h207q61 0 99 16.5 t60.5 42t30.5 56t8 61.5q0 25 -8 55.5t-29.5 57t-60.5 45t-98 18.5h-209v-352zM459 850h198q61 0 99.5 16.5t61 42t30.5 56t8 57.5q0 25 -7 53.5t-28.5 54t-60.5 43t-103 17.5h-198v-340z" />
            <glyph unicode="C" horiz-adv-x="1613" d="M66 719q0 147 51 282.5t148 240t236.5 166.5t315.5 62q166 0 296 -47t221 -126.5t144.5 -188.5t69.5 -231h-346q-12 63 -42 116.5t-76 93t-108.5 62t-137.5 22.5q-104 0 -185.5 -37.5t-136.5 -100t-84 -144.5t-29 -170q0 -94 30 -177t88.5 -145.5t141 -98.5t191.5 -36 q61 0 116.5 19.5t101.5 53.5t79 80t47 99h352q-20 -115 -78.5 -215t-150.5 -175t-215 -118t-270 -43q-182 0 -324.5 61.5t-242 165t-151.5 240.5t-52 289z" />
            <glyph unicode="D" horiz-adv-x="1474" d="M137 0v1434h527q178 0 316 -60.5t233.5 -161t145.5 -229.5t50 -266t-49 -266t-144.5 -229.5t-234.5 -161t-317 -60.5h-527zM469 287h178q100 0 179 35.5t133.5 96t83 137.5t28.5 161q0 82 -28.5 159.5t-83 138t-133 96.5t-179.5 36h-178v-860z" />
            <glyph unicode="E" horiz-adv-x="1136" d="M137 0v1434h875v-267h-543v-325h543v-260h-543v-316h543v-266h-875z" />
            <glyph unicode="F" horiz-adv-x="1126" d="M137 0v1434h875v-279h-543v-387h543v-272h-543v-496h-332z" />
            <glyph unicode="G" horiz-adv-x="1710" d="M66 717q0 147 51 283.5t148 241t236.5 166.5t315.5 62q141 0 259 -39.5t204 -108.5t137 -160t62 -193h-355q-8 43 -32.5 82t-64.5 68.5t-93 47t-119 17.5q-102 0 -178 -39t-128 -104.5t-77.5 -150.5t-25.5 -175q0 -96 26.5 -181t80.5 -150t137 -102.5t194 -37.5 q76 0 135 21.5t102 58t70 85t35 101.5h-254v248h743v-248h-147q-23 -123 -78 -223.5t-145.5 -172t-212 -111.5t-275.5 -40q-180 0 -320.5 61.5t-235.5 165t-145 239.5t-50 288z" />
            <glyph unicode="H" horiz-adv-x="1431" d="M137 0v1434h332v-580h496v580h329v-1434h-329v569h-496v-569h-332z" />
            <glyph unicode="I" horiz-adv-x="610" d="M137 0v1434h336v-1434h-336z" />
            <glyph unicode="J" horiz-adv-x="1193" d="M25 496h331q0 -106 47.5 -176t143.5 -70t145 64.5t49 179.5v940h330v-940q0 -256 -138 -392.5t-386 -136.5q-129 0 -227.5 41t-164 112.5t-98 168t-32.5 209.5z" />
            <glyph unicode="K" horiz-adv-x="1349" d="M137 0v1434h332v-609l463 609h399l-567 -717l567 -717h-399l-463 606v-606h-332z" />
            <glyph unicode="L" horiz-adv-x="927" d="M137 0v1434h332v-1147h408v-287h-740z" />
            <glyph unicode="M" horiz-adv-x="1796" d="M137 0v1434h383l383 -998l379 998h377v-1434h-324v889l-309 -889h-246l-319 889v-889h-324z" />
            <glyph unicode="N" horiz-adv-x="1468" d="M137 0v1434h346l518 -934v934h330v-1434h-346l-516 922v-922h-332z" />
            <glyph unicode="O" horiz-adv-x="1648" d="M66 717q0 147 51 283.5t149.5 241t239.5 166.5t319 62t318.5 -62t239 -166.5t149.5 -241t51 -283.5t-51 -283.5t-149.5 -241t-239 -167t-318.5 -62.5t-319 62.5t-239.5 167t-149.5 240.5t-51 284zM406 717q0 -88 28.5 -170t82.5 -145.5t132 -101.5t176 -38t176 38 t132.5 101.5t83 145.5t28.5 170t-28.5 170t-83 145.5t-132 101t-176.5 37.5q-98 0 -176 -37.5t-132 -101t-82.5 -145.5t-28.5 -170z" />
            <glyph unicode="P" d="M137 0v1434h600q119 0 215.5 -42t165 -113t105.5 -165t37 -199q0 -104 -37 -198t-105.5 -165t-165 -113t-215.5 -42h-268v-397h-332zM469 668h227q51 0 94.5 20.5t73 54t46 78.5t16.5 94t-16.5 94.5t-46 79t-72.5 54t-95 20.5h-227v-495z" />
            <glyph unicode="Q" horiz-adv-x="1648" d="M66 717q0 147 51 283.5t149.5 241t239.5 166.5t319 62t318.5 -62t239 -166.5t149.5 -241t51 -283.5q0 -109 -28.5 -210t-82 -190.5t-131 -160t-178.5 -113.5l123 -166l-291 -147l-172 233q-178 0 -319.5 62.5t-238.5 167t-148 240.5t-51 284zM406 717q0 -88 28.5 -170 t82.5 -145.5t132 -101.5t176 -38t176 38t132.5 101.5t83 145.5t28.5 170t-28.5 170t-83 145.5t-132 101t-176.5 37.5q-98 0 -176 -37.5t-132 -101t-82.5 -145.5t-28.5 -170z" />
            <glyph unicode="R" horiz-adv-x="1339" d="M137 0v1434h602q119 0 215.5 -42t165 -113t105.5 -165t37 -199q0 -152 -75 -275.5t-210 -186.5l287 -453h-385l-254 397h-156v-397h-332zM469 668h227q51 0 94.5 20.5t73 54t46 78.5t16.5 94t-16.5 94.5t-46 79t-72.5 54t-95 20.5h-227v-495z" />
            <glyph unicode="S" horiz-adv-x="1241" d="M78 475h332q0 -117 63.5 -182.5t165.5 -65.5q80 0 134 46t54 122q0 43 -17 73t-47 52.5t-71 40t-88 35.5q-98 37 -187 74t-154.5 89t-104.5 125.5t-39 182.5q0 98 42 174t111.5 127t160.5 76.5t190 25.5q127 0 223 -36.5t159.5 -100t95.5 -145.5t32 -174h-332 q0 96 -46 151.5t-132 55.5q-72 0 -123 -37t-51 -111q0 -72 56 -113.5t148 -74.5q88 -31 178.5 -67t162 -88t117.5 -127t46 -181q0 -111 -40 -197t-111.5 -144t-170 -88t-217.5 -30q-115 0 -214 34t-171.5 99.5t-113.5 160.5t-41 218z" />
            <glyph unicode="T" horiz-adv-x="1042" d="M31 1147v287h981v-287h-326v-1147h-332v1147h-323z" />
            <glyph unicode="U" horiz-adv-x="1345" d="M115 489v945h331v-942q0 -49 16.5 -93.5t46.5 -77t71 -52t92 -19.5t93 19.5t71.5 52t46 76.5t16.5 94v942h332v-945q0 -111 -39 -207t-111.5 -166.5t-176 -111.5t-232.5 -41t-231.5 41t-175 111.5t-111.5 167t-39 206.5z" />
            <glyph unicode="V" horiz-adv-x="1318" d="M-8 1434h354l311 -1012l310 1012h360l-518 -1434h-305z" />
            <glyph unicode="W" horiz-adv-x="2119" d="M-2 1434h350l293 -940l291 940h256l293 -940l291 940h350l-506 -1434h-270l-285 901l-285 -901h-272z" />
            <glyph unicode="X" horiz-adv-x="1247" d="M8 0l426 717l-426 717h365l250 -463l249 463h367l-426 -717l426 -717h-367l-249 461l-250 -461h-365z" />
            <glyph unicode="Y" horiz-adv-x="1325" d="M8 1434h387l305 -564l263 564h366l-711 -1434h-366l264 539z" />
            <glyph unicode="Z" horiz-adv-x="1294" d="M35 0l700 1155h-643v279h1172l-703 -1155h680v-279h-1206z" />
            <glyph unicode="[" horiz-adv-x="788" d="M137 -457v2044h529v-272h-215v-1501h215v-271h-529z" />
            <glyph unicode="\" horiz-adv-x="1005" d="M16 1524l254 108l719 -1671l-254 -108z" />
            <glyph unicode="]" horiz-adv-x="788" d="M123 -186h215v1499h-215v274h528v-2044h-528v271z" />
            <glyph unicode="^" horiz-adv-x="1302" d="M86 614l475 922h178l478 -922h-306l-260 555l-266 -555h-299z" />
            <glyph unicode="_" horiz-adv-x="1193" d="M45 -82h1106v-188h-1106v188z" />
            <glyph unicode="`" horiz-adv-x="1050" d="M170 1292l98 217l566 -262l-99 -217z" />
            <glyph unicode="a" d="M72 494q0 111 34.5 206t98 163.5t152.5 108.5t196 40q47 0 94 -13.5t87 -36t71 -53t49 -63.5v141h313v-987h-313v139q-18 -35 -49 -64.5t-71 -51t-87 -35t-94 -13.5q-106 0 -195.5 40t-153 109t-98 164t-34.5 206zM383 494q0 -51 17.5 -97.5t48 -80t73.5 -54t96 -20.5 t96.5 20.5t74 54t48 79.5t17.5 98q0 51 -17.5 96t-48 80t-73.5 55t-97 20q-53 0 -96 -20t-73.5 -55t-48 -80t-17.5 -96z" />
            <glyph unicode="b" horiz-adv-x="1304" d="M133 0v1434h313v-588q18 33 49 63.5t72 53t87 36t96 13.5q106 0 195 -40t152.5 -108.5t98.5 -164t35 -205.5q0 -111 -35 -206t-98.5 -164t-152.5 -109t-195 -40q-49 0 -95.5 13.5t-87.5 35t-71.5 51t-49.5 64.5v-139h-313zM446 494q0 -51 17.5 -97.5t48.5 -80t75 -54 t97 -20.5q51 0 94 20.5t74 54t48.5 79.5t17.5 98q0 51 -17.5 96t-48.5 80t-74 55t-94 20q-53 0 -97 -20t-75 -55t-48.5 -80t-17.5 -96z" />
            <glyph unicode="c" horiz-adv-x="1177" d="M68 494q0 102 33.5 196t101 166t167 115t228.5 43q125 0 217 -35t154.5 -92.5t96.5 -132t42 -154.5h-313q-10 66 -54.5 107t-140.5 41q-55 0 -97 -20.5t-68.5 -55.5t-40 -81t-13.5 -97t13.5 -97.5t41 -81t71.5 -55t105 -20.5q82 0 123 33.5t62 97.5h313q-12 -84 -49 -157 t-100.5 -126t-154.5 -84t-208 -31q-129 0 -228.5 43t-167 115t-101 166t-33.5 197z" />
            <glyph unicode="d" d="M72 494q0 111 34.5 206t98 163.5t152.5 108.5t196 40q47 0 94 -13.5t87 -36t71 -53t49 -63.5v588h313v-1434h-313v139q-18 -35 -49 -64.5t-71 -51t-87 -35t-94 -13.5q-106 0 -195.5 40t-153 109t-98 164t-34.5 206zM383 494q0 -51 17.5 -97.5t48 -80t73.5 -54t96 -20.5 t96.5 20.5t74 54t48 79.5t17.5 98q0 51 -17.5 96t-48 80t-73.5 55t-97 20q-53 0 -96 -20t-73.5 -55t-48 -80t-17.5 -96z" />
            <glyph unicode="e" horiz-adv-x="1181" d="M70 494q0 109 33.5 203t100 164.5t164 111.5t226.5 41q117 0 210 -37t159.5 -98.5t102.5 -143.5t36 -172q0 -31 -1 -65.5t-9 -79.5h-711q2 -45 13.5 -85t37 -70t66.5 -47t102 -17q82 0 124 32.5t58 79.5h308q-10 -70 -48 -131t-100.5 -107t-147.5 -73t-192 -27 q-129 0 -228.5 38t-167 107.5t-102 165t-34.5 210.5zM381 598h414q0 96 -56.5 151.5t-146.5 55.5q-92 0 -151.5 -53.5t-59.5 -153.5z" />
            <glyph unicode="f" horiz-adv-x="778" d="M33 754v233h178v86q0 135 36 211t91 115t120.5 48t125.5 9q55 0 98 -8t72 -18v-226q-25 6 -46.5 9.5t-50.5 3.5q-27 0 -51 -3.5t-42.5 -16.5t-30 -37.5t-11.5 -67.5v-105h232v-233h-230v-754h-313v754h-178z" />
            <glyph unicode="g" horiz-adv-x="1296" d="M72 494q0 111 33.5 206t97 163.5t151.5 108.5t197 40q94 0 179 -44t126 -122v141h313v-981q0 -135 -38.5 -224t-116.5 -149q-70 -53 -166 -79.5t-234 -26.5q-139 0 -232 30.5t-155 84.5q-66 55 -102.5 127.5t-40.5 154.5h313q6 -63 60.5 -114.5t156.5 -51.5 q111 0 176.5 53.5t65.5 170.5v165q-41 -68 -123 -110.5t-178 -42.5q-106 0 -195.5 37t-153 103.5t-99 157.5t-35.5 202zM385 494q0 -51 16.5 -97.5t47 -80t73.5 -54t96 -20.5t97.5 20.5t75 54t48 79.5t17.5 98q0 51 -17.5 96t-48 80t-75 55t-97.5 20t-96 -20t-73.5 -55 t-47 -80t-16.5 -96z" />
            <glyph unicode="h" horiz-adv-x="1222" d="M133 0v1434h303v-590q41 78 123 123t197 45q96 0 161.5 -30t106.5 -83q47 -57 63.5 -133t16.5 -182v-584h-303v506q0 106 -38 172.5t-136 66.5q-96 0 -143.5 -67.5t-47.5 -181.5v-496h-303z" />
            <glyph unicode="i" horiz-adv-x="579" d="M88 1315q0 84 57.5 141t143.5 57q43 0 80 -15t64.5 -41.5t43 -63.5t15.5 -78t-15.5 -77t-43 -63.5t-64.5 -43t-80 -15.5t-79 15.5t-63.5 43t-43 63.5t-15.5 77zM133 0v987h313v-987h-313z" />
            <glyph unicode="j" horiz-adv-x="579" d="M-29 -207q29 -4 45.5 -5t34.5 -1q82 0 82 100v1100h313v-1141q0 -96 -22.5 -158.5t-60 -97t-88 -48t-107.5 -13.5q-55 0 -111.5 7t-85.5 18v239zM88 1315q0 84 57.5 141t143.5 57q43 0 80 -15t64.5 -41.5t43 -63.5t15.5 -78t-15.5 -77t-43 -63.5t-64.5 -43t-80 -15.5 t-79 15.5t-63.5 43t-43 63.5t-15.5 77z" />
            <glyph unicode="k" horiz-adv-x="1134" d="M133 0v1434h313v-865l306 418h372l-385 -493l383 -494h-372l-304 414v-414h-313z" />
            <glyph unicode="l" horiz-adv-x="579" d="M133 0v1434h313v-1434h-313z" />
            <glyph unicode="m" horiz-adv-x="1798" d="M133 0v987h303v-143q33 70 106.5 119t178.5 49q129 0 198.5 -51.5t100.5 -126.5q39 78 119 128t190 50q106 0 174 -34t107 -90.5t52 -129t13 -150.5v-608h-301v532q0 100 -35.5 156.5t-115.5 56.5q-35 0 -66 -12t-53.5 -40.5t-34.5 -77t-12 -119.5v-496h-303v535 q0 100 -35 155t-113 55q-37 0 -67.5 -12t-53 -41.5t-36 -79t-13.5 -123.5v-489h-303z" />
            <glyph unicode="n" horiz-adv-x="1243" d="M133 0v987h313v-143q41 80 124 124t200 44q96 0 166 -30t111 -83q47 -57 62 -132t15 -181v-586h-313v506q0 106 -38 172.5t-136 66.5q-96 0 -143.5 -67.5t-47.5 -181.5v-496h-313z" />
            <glyph unicode="o" horiz-adv-x="1226" d="M66 494q0 106 37.5 200t108.5 165t172 113t228 42q129 0 230.5 -42t172 -113t108.5 -165t38 -200t-38 -200.5t-108.5 -165.5t-172 -113t-230.5 -42q-127 0 -228 42t-172 113t-108.5 165t-37.5 201zM379 494q0 -53 16.5 -98.5t47 -80t73.5 -54t96 -19.5t97.5 19.5t75 54 t48 79.5t17.5 99q0 51 -17.5 97t-48 80t-74.5 54t-98 20q-53 0 -96 -20t-73.5 -54t-47 -80t-16.5 -97z" />
            <glyph unicode="p" horiz-adv-x="1304" d="M133 -446v1433h313v-141q18 33 49 63.5t72 53t87 36t96 13.5q106 0 195 -40t152.5 -108.5t98.5 -164t35 -205.5q0 -111 -35 -206t-98.5 -164t-152.5 -109t-195 -40q-49 0 -95.5 13.5t-87.5 36t-71.5 52t-49.5 64.5v-587h-313zM446 494q0 -51 17.5 -97.5t48.5 -80t75 -54 t97 -20.5q51 0 94 20.5t74 54t48.5 79.5t17.5 98q0 51 -17.5 97t-48.5 80t-74 54t-94 20q-53 0 -97 -20t-75 -54t-48.5 -80t-17.5 -97z" />
            <glyph unicode="q" horiz-adv-x="1304" d="M74 494q0 111 34.5 206t98 163.5t153 108.5t195.5 40q47 0 94 -13.5t87 -36t72 -53t50 -63.5v141h311v-1433h-311v587q-18 -35 -50 -64.5t-72 -52t-87 -36t-94 -13.5q-106 0 -195.5 40t-153 109t-98 164t-34.5 206zM387 494q0 -51 16.5 -97.5t47 -80t73.5 -54t97 -20.5 q53 0 97 20.5t74.5 54t48 79.5t17.5 98q0 51 -17.5 97t-48 80t-74.5 54t-97 20t-96.5 -20t-74 -54t-47 -80t-16.5 -97z" />
            <glyph unicode="r" horiz-adv-x="854" d="M133 0v987h313v-160q35 70 116 123.5t186 53.5q55 0 94 -17v-285q-33 8 -55.5 11.5t-55.5 3.5q-129 0 -207 -76t-78 -256v-385h-313z" />
            <glyph unicode="s" horiz-adv-x="1044" d="M68 330h307q0 -78 44 -112t113 -34q57 0 93.5 21.5t36.5 70.5q0 29 -15.5 46.5t-47.5 33t-82 30.5t-120 38q-61 18 -116.5 39.5t-97.5 52.5t-66.5 78t-24.5 119q0 154 118 227.5t318 73.5q106 0 187.5 -25.5t133.5 -71t78.5 -106.5t26.5 -131h-309q0 61 -31.5 95 t-97.5 34q-47 0 -82 -21.5t-35 -66.5q0 -27 16.5 -44.5t48.5 -31.5t79 -28.5t108 -34.5q66 -18 123 -40t100.5 -53.5t69 -79t25.5 -118.5q0 -88 -35 -148.5t-96.5 -98.5t-142.5 -54.5t-173 -16.5q-211 0 -332.5 92.5t-121.5 264.5z" />
            <glyph unicode="t" horiz-adv-x="784" d="M35 754v233h155v293h312v-293h225v-233h-225v-353q0 -55 10 -87.5t28.5 -50t43 -24t53.5 -6.5t59.5 1.5t53.5 5.5v-240q-35 -6 -87.5 -11t-121.5 -5q-55 0 -117 8t-114 42t-86 104.5t-34 193.5v422h-155z" />
            <glyph unicode="u" horiz-adv-x="1243" d="M121 401v586h311v-506q0 -106 38 -172.5t136 -66.5t144.5 67.5t46.5 182.5v495h313v-987h-313v141q-41 -78 -124 -122t-200 -44q-96 0 -165.5 30t-110.5 83q-47 57 -61.5 132t-14.5 181z" />
            <glyph unicode="v" horiz-adv-x="1128" d="M-4 987h328l239 -620l242 620h328l-447 -987h-250z" />
            <glyph unicode="w" horiz-adv-x="1644" d="M-2 987h324l182 -588l174 588h289l174 -588l182 588h324l-369 -987h-254l-201 629l-202 -629h-254z" />
            <glyph unicode="x" horiz-adv-x="1052" d="M2 0l340 498l-334 489h363l155 -278l156 278h362l-331 -489l338 -498h-363l-162 287l-161 -287h-363z" />
            <glyph unicode="y" horiz-adv-x="1259" d="M121 -76h313q4 -84 58.5 -128t132.5 -44q90 0 141 44t51 159v203q-41 -80 -122 -123t-193 -43q-98 0 -171 32.5t-114 86.5q-47 57 -61.5 127.5t-14.5 177.5v571h312v-506q0 -106 37.5 -172.5t136.5 -66.5q98 0 144 67.5t46 182.5v495h313v-1012q0 -117 -36.5 -202.5 t-100.5 -139.5q-66 -55 -154.5 -80.5t-217.5 -25.5q-121 0 -210 24.5t-155 77.5q-59 49 -97 122t-38 173z" />
            <glyph unicode="z" horiz-adv-x="983" d="M37 0l436 721h-410v266h893l-434 -721h420v-266h-905z" />
            <glyph unicode="{" horiz-adv-x="976" d="M123 410v276q29 0 60.5 8t57 27.5t43 51.5t17.5 77v410q0 80 25.5 141t70.5 102t105.5 62.5t130.5 21.5h207v-254h-86q-41 0 -68 -14t-43 -38t-22.5 -53.5t-6.5 -60.5v-385q0 -66 -23.5 -109.5t-55 -70.5t-66.5 -39t-57 -14q23 -4 57.5 -14.5t66 -38t55 -73.5t23.5 -120 v-342q0 -29 6.5 -58.5t22.5 -53t43 -39t68 -15.5h86v-252h-207q-70 0 -130.5 20.5t-105.5 62.5t-70.5 102.5t-25.5 140.5v367q0 49 -17.5 81.5t-43 53t-57 30t-60.5 9.5z" />
            <glyph unicode="|" horiz-adv-x="587" d="M166 -457v2044h260v-2044h-260z" />
            <glyph unicode="}" horiz-adv-x="976" d="M137 -205h84q41 0 68.5 15.5t43 39t21.5 53t6 58.5v342q0 74 23 120t55.5 73.5t67.5 38t57 14.5q-23 2 -57.5 14t-67 39t-55.5 71t-23 109v385q0 31 -6 60.5t-21.5 53.5t-43 38t-68.5 14h-84v254h207q70 0 130.5 -21.5t105.5 -62.5t70.5 -102.5t25.5 -140.5v-410 q0 -45 16.5 -77t43 -51.5t58 -27.5t60.5 -8v-276q-29 0 -60.5 -9.5t-58 -30t-43 -53t-16.5 -81.5v-367q0 -80 -25.5 -140.5t-70.5 -102.5t-105.5 -62.5t-130.5 -20.5h-207v252z" />
            <glyph unicode="~" horiz-adv-x="1150" d="M72 395v246q57 68 124.5 94.5t125.5 26.5q61 0 128.5 -19.5t137.5 -46.5q66 -25 131 -49t112 -24q76 0 138.5 35.5t107.5 76.5v-246q-55 -68 -122.5 -94t-127.5 -26q-66 0 -124 19.5t-117 47.5q-59 29 -127 50.5t-148 21.5q-70 0 -131 -36t-108 -77z" />
            <glyph unicode="&#xa1;" horiz-adv-x="692" d="M139 807q0 43 16.5 80t44 65.5t66.5 45t82 16.5t82 -16.5t66.5 -45t44 -65.5t16.5 -80t-16.5 -80t-44 -65.5t-66.5 -45t-82 -16.5t-82 16.5t-66.5 45t-44 65.5t-16.5 80zM180 -446v931h336v-931h-336z" />
            <glyph unicode="&#xa2;" horiz-adv-x="1241" d="M92 651q0 92 29 179.5t84 157t137 116.5t190 61v226h183v-226q100 -12 176 -50t127 -93t79.5 -124t35.5 -140h-314q-10 66 -54 106.5t-140 40.5q-55 0 -97.5 -20.5t-69 -55t-39.5 -81t-13 -97.5t13 -97t40.5 -81t71.5 -55.5t106 -20.5q82 0 123 35t61 96h314 q-10 -76 -42 -141t-84.5 -117.5t-126 -86t-167.5 -46.5v-223h-183v223q-109 14 -190.5 61.5t-136.5 117t-84 155.5t-29 180z" />
            <glyph unicode="&#xa3;" horiz-adv-x="1286" d="M72 625v180h143v53t-1 65.5t-1 60.5v40q0 94 39 175t107.5 140.5t161.5 92t204 32.5q113 0 207 -35.5t161.5 -99t105.5 -151.5t38 -191h-332q0 86 -44 141.5t-142 55.5q-78 0 -126 -41t-48 -119v-36.5t1 -59.5t1 -67v-56h297v-180h-297q-2 -51 -4 -105.5t-8 -95.5 q-4 -55 -13.5 -96t-25.5 -60h645v-268h-1016v225q61 61 74 189q8 43 11 100t5 111h-143z" />
            <glyph unicode="&#xa4;" horiz-adv-x="1550" d="M150 309l149 148q-45 66 -69.5 141.5t-24.5 159.5t24.5 159.5t67.5 141.5l-145 147l141 144l149 -152q61 41 135 62.5t158 21.5t157 -21.5t134 -62.5l152 152l143 -144l-150 -149q47 -63 72 -139t25 -160q0 -174 -94 -303l145 -146l-141 -143l-150 149q-125 -78 -293 -77 q-164 0 -291 79l-151 -151zM502 758q0 -51 16.5 -97.5t47 -80t73.5 -54t96 -20.5t97.5 20.5t75 54t48 80t17.5 97.5t-17.5 97t-48 81t-75 54.5t-97.5 19.5t-96 -19.5t-73.5 -54.5t-47 -81t-16.5 -97z" />
            <glyph unicode="&#xa5;" horiz-adv-x="1290" d="M-47 1434h385l309 -564l305 564h385l-485 -807h238v-181h-283v-116h283v-180h-283v-150h-315v150h-279v180h279v116h-279v181h225z" />
            <glyph unicode="&#xa6;" horiz-adv-x="587" d="M164 444h262v-901h-262v901zM164 698v889h262v-889h-262z" />
            <glyph unicode="&#xa7;" horiz-adv-x="1177" d="M78 537q0 119 55 197.5t172 119.5q-78 51 -119 123t-41 172q0 88 38 156.5t102.5 114.5t149.5 71t177 25q109 0 195 -32t146.5 -88.5t92 -132t31.5 -163.5h-280q0 92 -51.5 146t-135.5 54q-76 0 -130 -36.5t-54 -108.5t57.5 -110.5t141.5 -67.5t170 -61.5t156.5 -78.5 t114.5 -113t44 -163q0 -61 -18.5 -114.5t-51 -95.5t-74.5 -69.5t-87 -37.5q78 -51 120.5 -124t42.5 -171q0 -88 -36.5 -159t-100 -120t-150.5 -75.5t-188 -26.5q-102 0 -189 30.5t-151.5 87t-100.5 136.5t-36 178h285q0 -96 55 -152.5t143 -56.5q78 0 132.5 39t54.5 111 t-59.5 111.5t-149.5 70.5q-86 29 -170 62.5t-151.5 80.5t-109.5 112.5t-42 158.5zM342 573q0 -51 26.5 -85.5t71.5 -61.5q45 -25 98.5 -43t106.5 -35q39 2 75 16.5t63.5 38t44 55t16.5 70.5q0 49 -21.5 80t-62.5 56q-41 23 -97.5 42t-125.5 42q-37 -2 -73 -14.5t-62.5 -34 t-43 -53.5t-16.5 -73z" />
            <glyph unicode="&#xa8;" horiz-adv-x="1191" d="M166 1262q0 39 14.5 73.5t40 60t59 40t72.5 14.5t74 -14.5t61.5 -40t41 -60.5t14.5 -73q0 -37 -14.5 -71t-41 -59.5t-61.5 -40t-74 -14.5t-72.5 14.5t-59 40t-40 59.5t-14.5 71zM657 1262q0 39 14.5 73.5t40 60t59.5 40t75 14.5q39 0 73.5 -14.5t60.5 -40t40 -60.5 t14 -73q0 -76 -54 -130.5t-134 -54.5t-134.5 54.5t-54.5 130.5z" />
            <glyph unicode="&#xa9;" horiz-adv-x="1654" d="M68 717q0 147 51 283.5t149.5 241t239.5 166.5t319 62t319.5 -62t240 -166.5t149.5 -241t51 -283.5t-51 -283.5t-149.5 -241t-240 -167t-319.5 -62.5t-319 62.5t-239.5 167t-149.5 240.5t-51 284zM270 717q0 -115 38 -219.5t109.5 -186.5t175 -130t234.5 -48t234.5 48 t175.5 130t109.5 186.5t37.5 219.5q0 113 -37.5 218t-109.5 187t-175.5 130t-234.5 48t-234.5 -48t-175 -130t-109.5 -187.5t-38 -217.5zM424 719q0 80 27.5 152.5t80 128t127 89t170.5 33.5q90 0 159 -24.5t118 -67.5t77.5 -101.5t37.5 -125.5h-193q-16 66 -64.5 109.5 t-134.5 43.5q-51 0 -91 -19t-67.5 -53t-42 -77t-14.5 -88q0 -98 59.5 -169t166.5 -71q72 0 121 36t65 89h197q-12 -61 -44 -114.5t-81 -93.5t-114.5 -62.5t-143.5 -22.5q-98 0 -175 33t-131.5 89t-82 130t-27.5 156z" />
            <glyph unicode="&#xaa;" d="M72 494q0 111 34.5 206t98 163.5t152.5 108.5t196 40q47 0 94 -13.5t87 -36t71 -53t49 -63.5v141h313v-987h-313v139q-18 -35 -49 -64.5t-71 -51t-87 -35t-94 -13.5q-106 0 -195.5 40t-153 109t-98 164t-34.5 206zM383 494q0 -51 17.5 -97.5t48 -80t73.5 -54t96 -20.5 t96.5 20.5t74 54t48 79.5t17.5 98q0 51 -17.5 96t-48 80t-73.5 55t-97 20q-53 0 -96 -20t-73.5 -55t-48 -80t-17.5 -96z" />
            <glyph unicode="&#xab;" horiz-adv-x="1048" d="M76 514v164l436 354v-272l-211 -164l211 -164v-272zM526 514v164l437 354v-272l-211 -164l211 -164v-272z" />
            <glyph unicode="&#xac;" horiz-adv-x="1255" d="M190 641v250h875v-617h-266v367h-609z" />
            <glyph unicode="&#xad;" horiz-adv-x="602" d="M61 483v199h480v-199h-480z" />
            <glyph unicode="&#xae;" horiz-adv-x="1654" d="M68 717q0 147 51 283.5t149.5 241t239.5 166.5t319 62t319.5 -62t240 -166.5t149.5 -241t51 -283.5t-51 -283.5t-149.5 -241t-240 -167t-319.5 -62.5t-319 62.5t-239.5 167t-149.5 240.5t-51 284zM270 717q0 -115 38 -219.5t109.5 -186.5t175 -130t234.5 -48t234.5 48 t175.5 130t109.5 186.5t37.5 219.5q0 113 -37.5 218t-109.5 187t-175.5 130t-234.5 48t-234.5 -48t-175 -130t-109.5 -187.5t-38 -217.5zM532 336v803h363q66 0 120 -23.5t92 -63.5t58.5 -92.5t20.5 -111.5q0 -86 -42 -154.5t-118 -103.5l160 -254h-223l-144 223h-90v-223 h-197zM729 719h133q55 0 87 38t32 91t-31.5 93t-87.5 40h-133v-262z" />
            <glyph unicode="&#xaf;" horiz-adv-x="1062" d="M154 1444v235h753v-235h-753z" />
            <glyph unicode="&#xb0;" horiz-adv-x="704" d="M41 1176q0 66 24.5 122t66.5 98t98.5 66.5t121.5 24.5q66 0 122 -24.5t98 -66.5t67 -98t25 -122t-25 -122.5t-67 -98.5t-98 -66.5t-122 -24.5t-122 24.5t-98 66.5t-66.5 98.5t-24.5 122.5zM233 1176q0 -49 36 -84t83 -35t83 35t36 84q0 47 -36 83.5t-83 36.5t-83 -36.5 t-36 -83.5z" />
            <glyph unicode="&#xb1;" horiz-adv-x="1255" d="M139 0v250h877v-250h-877zM139 762v250h305v313h267v-313h305v-250h-305v-313h-267v313h-305z" />
            <glyph unicode="&#xb2;" horiz-adv-x="813" d="M111 645q0 98 15 165t42 113t64.5 77.5t84.5 60.5q84 47 128 80t44 84q0 41 -21.5 58t-51.5 17q-37 0 -59.5 -23.5t-22.5 -80.5h-219q0 49 17.5 95t53 82t93 57.5t137.5 21.5q55 0 107 -13.5t92 -42t65 -74.5t25 -110q0 -47 -17.5 -84.5t-46.5 -69.5t-64.5 -57.5 t-72.5 -46.5q-39 -23 -65.5 -40t-44 -32.5t-25 -30.5t-7.5 -36h336v-170h-587z" />
            <glyph unicode="&#xb3;" horiz-adv-x="827" d="M96 911h219q0 -119 97 -118q43 0 64.5 28.5t21.5 63.5q0 45 -22.5 68.5t-76.5 23.5h-84v162h84q53 0 73 21.5t20 60.5q0 41 -20.5 60t-55.5 19q-49 0 -65.5 -28.5t-16.5 -75.5h-219q0 47 14 93t49 82t92.5 58.5t145.5 22.5q57 0 110.5 -12.5t93 -39t64.5 -69.5t25 -102 q0 -66 -38 -114t-85 -62q53 -16 92 -66.5t39 -124.5q0 -59 -24.5 -103t-66.5 -74t-95.5 -44t-110.5 -14q-86 0 -147.5 21.5t-100.5 60.5t-57.5 91t-18.5 111z" />
            <glyph unicode="&#xb4;" horiz-adv-x="1050" d="M117 1247l565 262l98 -217l-565 -262z" />
            <glyph unicode="&#xb5;" horiz-adv-x="1255" d="M133 -446v1433h311v-510q2 -104 40 -169.5t134 -65.5q98 0 144.5 67.5t46.5 182.5v495h313v-987h-313v141q-80 -145 -281 -161q-47 0 -84 12v-438h-311z" />
            <glyph unicode="&#xb6;" horiz-adv-x="1390" d="M29 1034q0 125 49 208t123.5 133t164 71.5t166.5 21.5h744v-219h-115v-1589h-246v1589h-180v-1589h-248v950q-96 0 -180 29t-145.5 83t-97 133t-35.5 179z" />
            <glyph unicode="&#xb7;" horiz-adv-x="606" d="M96 639q0 43 15.5 80t43 64.5t65.5 44t81 16.5q90 0 149.5 -59.5t59.5 -145.5t-59.5 -145.5t-149.5 -59.5q-43 0 -81 16.5t-65.5 44t-43 64.5t-15.5 80z" />
            <glyph unicode="&#xb8;" horiz-adv-x="968" d="M264 -281h152q6 -29 24.5 -45t46.5 -16q31 0 50.5 21.5t19.5 56.5q0 31 -19.5 50t-48.5 19q-43 0 -61 -32h-133v252h160v-138q27 31 86 31q33 0 64.5 -13.5t54 -38t37 -58t14.5 -72.5t-14.5 -76t-42 -66.5t-69.5 -47t-98 -17.5q-29 0 -65.5 9t-69.5 30.5t-57.5 58.5 t-30.5 92z" />
            <glyph unicode="&#xb9;" horiz-adv-x="610" d="M94 1143v147q59 0 97 9.5t59.5 28t30 45t8.5 61.5h188v-789h-221v498h-162z" />
            <glyph unicode="&#xba;" horiz-adv-x="1226" d="M66 494q0 106 37.5 200t108.5 165t172 113t228 42q129 0 230.5 -42t172 -113t108.5 -165t38 -200t-38 -200.5t-108.5 -165.5t-172 -113t-230.5 -42q-127 0 -228 42t-172 113t-108.5 165t-37.5 201zM379 494q0 -53 16.5 -98.5t47 -80t73.5 -54t96 -19.5t97.5 19.5t75 54 t48 79.5t17.5 99q0 51 -17.5 97t-48 80t-74.5 54t-98 20q-53 0 -96 -20t-73.5 -54t-47 -80t-16.5 -97z" />
            <glyph unicode="&#xbb;" horiz-adv-x="1048" d="M86 160v272l209 164l-209 164v272l436 -354v-164zM537 160v272l208 164l-208 164v272l436 -354v-164z" />
            <glyph unicode="&#xbc;" horiz-adv-x="1955" d="M115 1143v147q59 0 98 9.5t60.5 28t29.5 45t8 61.5h189v-789h-224v498h-161zM330 0l817 1544l217 -108l-819 -1545zM1167 205v583h219v-403h115v205h219v-205h86v-180h-86v-205h-219v205h-334z" />
            <glyph unicode="&#xbd;" horiz-adv-x="1955" d="M127 1143v147q59 0 98 9.5t60.5 28t30 45t8.5 61.5h186v-789h-221v498h-162zM340 0l819 1544l215 -108l-817 -1545zM1174 0q0 98 15 164.5t41.5 113t64.5 78t85 60.5q84 47 128 79.5t44 84.5q0 41 -21.5 58t-51.5 17q-37 0 -60.5 -23.5t-23.5 -80.5h-219q0 49 17 95 t54 82t93.5 57.5t136.5 21.5q55 0 107 -13.5t92 -42t64.5 -74.5t24.5 -110q0 -47 -17 -85t-46 -69.5t-64.5 -57t-72.5 -46.5q-39 -23 -65.5 -40t-43 -32.5t-24 -31t-7.5 -35.5h336v-170h-587z" />
            <glyph unicode="&#xbe;" horiz-adv-x="1955" d="M68 911h219q0 -119 96 -118q43 0 63.5 28.5t20.5 63.5q0 45 -21.5 68.5t-74.5 23.5h-84v162h82q55 0 74.5 21.5t19.5 60.5q0 41 -20.5 60t-55.5 19q-49 0 -65.5 -28.5t-16.5 -75.5h-219q0 47 14.5 93t48 82t92 58.5t144.5 22.5q57 0 110.5 -12.5t93.5 -39t64.5 -69.5 t24.5 -102q0 -66 -38 -114t-85 -62q53 -16 92 -66.5t39 -124.5q0 -59 -24.5 -103t-65.5 -74t-94 -44t-111 -14q-86 0 -147.5 21.5t-100.5 60.5t-57 91t-18 111zM354 0l820 1544l215 -108l-818 -1545zM1178 205v583h219v-403h114v205h220v-205h86v-180h-86v-205h-220v205 h-333z" />
            <glyph unicode="&#xbf;" horiz-adv-x="1110" d="M72 -66q0 78 23.5 135.5t58 100.5t71.5 73.5t66 53.5q39 31 63.5 55.5t40 51t21.5 59.5t6 82h328q0 -66 -8.5 -119t-29 -98t-54 -83t-89.5 -75q-29 -20 -59.5 -44t-56 -52.5t-42 -63.5t-16.5 -78q0 -78 49.5 -115.5t122.5 -37.5q72 0 124 48t52 159h328 q0 -98 -32.5 -181.5t-97 -144.5t-159 -96t-215.5 -35q-98 0 -188 25.5t-157.5 77t-108.5 127t-41 175.5zM373 815q0 43 16.5 81t45 67.5t67.5 46t84 16.5t84 -16.5t67.5 -46t45 -67.5t16.5 -81t-16.5 -81t-45 -67.5t-67.5 -46t-84 -16.5t-84 16.5t-67.5 46t-45 67.5 t-16.5 81z" />
            <glyph unicode="&#xc0;" horiz-adv-x="1351" d="M8 0l512 1434h305l518 -1434h-360l-55 174h-510l-56 -174h-354zM371 1772l98 217l565 -263l-98 -217zM498 434h348l-172 590z" />
            <glyph unicode="&#xc1;" horiz-adv-x="1351" d="M8 0l512 1434h305l518 -1434h-360l-55 174h-510l-56 -174h-354zM344 1706l565 262l101 -217l-566 -262zM498 434h348l-172 590z" />
            <glyph unicode="&#xc2;" horiz-adv-x="1351" d="M8 0l512 1434h305l518 -1434h-360l-55 174h-510l-56 -174h-354zM274 1698l400 336l403 -336l-155 -172l-246 219l-246 -217zM498 434h348l-172 590z" />
            <glyph unicode="&#xc3;" horiz-adv-x="1351" d="M8 0l512 1434h305l518 -1434h-360l-55 174h-510l-56 -174h-354zM223 1751q57 84 132 120t155 36q57 0 100 -15.5t79 -33t66.5 -33t63.5 -15.5q51 0 83 28t61 67l163 -144q-57 -92 -135 -131t-157 -39q-57 0 -101.5 15.5t-80.5 33t-67.5 33t-62.5 15.5q-51 0 -80.5 -27 t-58.5 -68zM498 434h348l-172 590z" />
            <glyph unicode="&#xc4;" horiz-adv-x="1351" d="M8 0l512 1434h305l518 -1434h-360l-55 174h-510l-56 -174h-354zM233 1745q0 39 15.5 74.5t41 61.5t60.5 41t76 15t77 -15t62.5 -41t42 -61.5t15.5 -74.5t-15.5 -74t-42 -60.5t-62.5 -41t-77 -15.5t-76 15.5t-60.5 41t-41 60.5t-15.5 74zM498 434h348l-172 590zM727 1745 q0 80 55.5 136t137.5 56q41 0 76.5 -15t61 -41t41 -61.5t15.5 -74.5t-15.5 -74t-41 -60.5t-61 -41t-76.5 -15.5t-76 15.5t-61.5 41t-41 60.5t-14.5 74z" />
            <glyph unicode="&#xc5;" horiz-adv-x="1351" d="M8 0l512 1434h305l518 -1434h-360l-55 174h-510l-56 -174h-354zM401 1776q0 57 21.5 107t58.5 88t87.5 59.5t107.5 21.5t107.5 -22.5t87 -60.5t58 -88t21.5 -105t-21.5 -105.5t-58 -88.5t-87 -59.5t-107.5 -21.5t-107.5 21.5t-87.5 59.5t-58.5 88t-21.5 106zM498 434h348 l-172 590zM571 1776q0 -41 31 -72t74 -31t73.5 31t30.5 74t-29.5 74.5t-74.5 31.5t-75 -31.5t-30 -76.5z" />
            <glyph unicode="&#xc6;" horiz-adv-x="1882" d="M2 0l688 1434h1059v-267h-543v-325h543v-260h-543v-316h543v-266h-875v176h-434l-78 -176h-360zM555 436h319v701z" />
            <glyph unicode="&#xc7;" horiz-adv-x="1613" d="M66 719q0 147 51 282.5t148 240t236.5 166.5t315.5 62q166 0 296 -47t221 -126.5t144.5 -188.5t69.5 -231h-346q-12 63 -42 116.5t-76 93t-108.5 62t-137.5 22.5q-104 0 -185.5 -37.5t-136.5 -100t-84 -144.5t-29 -170q0 -94 30 -177t88.5 -145.5t141 -98.5t191.5 -36 q61 0 116.5 19.5t101.5 53.5t79 80t47 99h352q-20 -109 -74.5 -204t-138.5 -168.5t-194.5 -120t-245.5 -54.5v-82q27 31 92 31q70 0 117 -49t47 -125q0 -39 -14.5 -75t-42 -63.5t-69.5 -45t-97 -17.5q-29 0 -66 8.5t-69.5 29t-57 56t-30.5 89.5h151q12 -53 72 -54 q31 0 50 20.5t19 51.5q0 29 -19 49.5t-48 20.5q-41 0 -62 -35h-133v192q-160 16 -284.5 83t-210.5 168.5t-131 229.5t-45 269z" />
            <glyph unicode="&#xc8;" horiz-adv-x="1136" d="M137 0v1434h875v-267h-543v-325h543v-260h-543v-316h543v-266h-875zM268 1753l99 217l565 -262l-98 -217z" />
            <glyph unicode="&#xc9;" horiz-adv-x="1136" d="M137 0v1434h875v-267h-543v-325h543v-260h-543v-316h543v-266h-875zM242 1733l565 262l98 -217l-565 -262z" />
            <glyph unicode="&#xca;" horiz-adv-x="1136" d="M137 0v1434h875v-267h-543v-325h543v-260h-543v-316h543v-266h-875zM180 1698l400 336l403 -336l-156 -172l-245 219l-244 -217z" />
            <glyph unicode="&#xcb;" horiz-adv-x="1136" d="M137 0v1434h875v-267h-543v-325h543v-260h-543v-316h543v-266h-875zM156 1745q0 39 15 74.5t41 61.5t60.5 41t75.5 15t77 -15t62.5 -41t42 -61.5t15.5 -74.5t-15.5 -74t-42 -60.5t-62.5 -41t-77 -15.5t-75.5 15.5t-60.5 41t-41 60.5t-15 74zM649 1745q0 80 55.5 136 t137.5 56q41 0 76.5 -15t61.5 -41t41 -61.5t15 -74.5t-15 -74t-41 -60.5t-61.5 -41t-76.5 -15.5t-76 15.5t-61.5 41t-41 60.5t-14.5 74z" />
            <glyph unicode="&#xcc;" horiz-adv-x="610" d="M-27 1751l99 217l565 -262l-98 -217zM137 0v1434h336v-1434h-336z" />
            <glyph unicode="&#xcd;" horiz-adv-x="610" d="M-27 1706l566 262l98 -217l-565 -262zM137 0v1434h336v-1434h-336z" />
            <glyph unicode="&#xce;" horiz-adv-x="610" d="M-94 1698l399 336l404 -336l-156 -172l-246 219l-244 -217zM137 0v1434h336v-1434h-336z" />
            <glyph unicode="&#xcf;" horiz-adv-x="610" d="M-123 1745q0 39 15.5 74.5t41 61.5t60.5 41t76 15t76.5 -15t62.5 -41t42 -61.5t15 -74.5t-15 -74t-42 -60.5t-62.5 -41t-76.5 -15.5t-76 15.5t-60.5 41t-41 60.5t-15.5 74zM137 0v1434h336v-1434h-336zM371 1745q0 80 55 136t137 56q41 0 77 -15t61.5 -41t41 -61.5 t15.5 -74.5t-15.5 -74t-41 -60.5t-61.5 -41t-77 -15.5t-75.5 15.5t-61.5 41t-41 60.5t-14 74z" />
            <glyph unicode="&#xd0;" horiz-adv-x="1474" d="M-72 627v182h209v625h527q176 0 315 -60.5t234.5 -161t145.5 -229.5t50 -266t-50 -266t-145.5 -229.5t-233.5 -161t-316 -60.5h-527v627h-209zM469 287h178q100 0 179 35.5t133.5 96t83 137.5t28.5 161q0 82 -28.5 159.5t-83 138t-133 96.5t-179.5 36h-178v-338h213v-182 h-213v-340z" />
            <glyph unicode="&#xd1;" horiz-adv-x="1468" d="M137 0v1434h346l518 -934v934h330v-1434h-346l-516 922v-922h-332zM264 1751q57 84 132 120t155 36q57 0 100 -15.5t79 -33t66.5 -33t63.5 -15.5q51 0 83 28t61 67l163 -144q-57 -92 -135 -131t-158 -39q-57 0 -101 15.5t-80 33t-67.5 33t-62.5 15.5q-51 0 -80.5 -27 t-58.5 -68z" />
            <glyph unicode="&#xd2;" horiz-adv-x="1648" d="M66 717q0 147 51 283.5t149.5 241t239.5 166.5t319 62t318.5 -62t239 -166.5t149.5 -241t51 -283.5t-51 -283.5t-149.5 -241t-239 -167t-318.5 -62.5t-319 62.5t-239.5 167t-149.5 240.5t-51 284zM406 717q0 -88 28.5 -170t82.5 -145.5t132 -101.5t176 -38t176 38 t132.5 101.5t83 145.5t28.5 170t-28.5 170t-83 145.5t-132 101t-176.5 37.5q-98 0 -176 -37.5t-132 -101t-82.5 -145.5t-28.5 -170zM467 1778l98 217l565 -262l-98 -217z" />
            <glyph unicode="&#xd3;" horiz-adv-x="1648" d="M66 717q0 147 51 283.5t149.5 241t239.5 166.5t319 62t318.5 -62t239 -166.5t149.5 -241t51 -283.5t-51 -283.5t-149.5 -241t-239 -167t-318.5 -62.5t-319 62.5t-239.5 167t-149.5 240.5t-51 284zM406 717q0 -88 28.5 -170t82.5 -145.5t132 -101.5t176 -38t176 38 t132.5 101.5t83 145.5t28.5 170t-28.5 170t-83 145.5t-132 101t-176.5 37.5q-98 0 -176 -37.5t-132 -101t-82.5 -145.5t-28.5 -170zM512 1733l565 262l99 -217l-566 -262z" />
            <glyph unicode="&#xd4;" horiz-adv-x="1648" d="M66 717q0 147 51 283.5t149.5 241t239.5 166.5t319 62t318.5 -62t239 -166.5t149.5 -241t51 -283.5t-51 -283.5t-149.5 -241t-239 -167t-318.5 -62.5t-319 62.5t-239.5 167t-149.5 240.5t-51 284zM406 717q0 -88 28.5 -170t82.5 -145.5t132 -101.5t176 -38t176 38 t132.5 101.5t83 145.5t28.5 170t-28.5 170t-83 145.5t-132 101t-176.5 37.5q-98 0 -176 -37.5t-132 -101t-82.5 -145.5t-28.5 -170zM426 1698l399 336l404 -336l-156 -172l-246 219l-245 -217z" />
            <glyph unicode="&#xd5;" horiz-adv-x="1648" d="M66 717q0 147 51 283.5t149.5 241t239.5 166.5t319 62t318.5 -62t239 -166.5t149.5 -241t51 -283.5t-51 -283.5t-149.5 -241t-239 -167t-318.5 -62.5t-319 62.5t-239.5 167t-149.5 240.5t-51 284zM379 1751q57 84 132 120t155 36q57 0 100 -15.5t79 -33t66.5 -33 t63.5 -15.5q51 0 83 28t60 67l164 -144q-57 -92 -135 -131t-158 -39q-57 0 -101 15.5t-80 33t-67.5 33t-62.5 15.5q-51 0 -81 -27t-58 -68zM406 717q0 -88 28.5 -170t82.5 -145.5t132 -101.5t176 -38t176 38t132.5 101.5t83 145.5t28.5 170t-28.5 170t-83 145.5t-132 101 t-176.5 37.5q-98 0 -176 -37.5t-132 -101t-82.5 -145.5t-28.5 -170z" />
            <glyph unicode="&#xd6;" horiz-adv-x="1648" d="M66 717q0 147 51 283.5t149.5 241t239.5 166.5t319 62t318.5 -62t239 -166.5t149.5 -241t51 -283.5t-51 -283.5t-149.5 -241t-239 -167t-318.5 -62.5t-319 62.5t-239.5 167t-149.5 240.5t-51 284zM381 1749q0 39 15.5 75t41 61.5t60 41t75.5 15.5t77 -15.5t61.5 -41 t41 -61.5t15.5 -75t-15.5 -74t-41 -60.5t-61.5 -40.5t-77 -15t-75.5 15t-60 40.5t-41 60.5t-15.5 74zM406 717q0 -88 28.5 -170t82.5 -145.5t132 -101.5t176 -38t176 38t132.5 101.5t83 145.5t28.5 170t-28.5 170t-83 145.5t-132 101t-176.5 37.5q-98 0 -176 -37.5 t-132 -101t-82.5 -145.5t-28.5 -170zM874 1749q0 80 55.5 136.5t137.5 56.5q41 0 77 -15.5t61.5 -41t41 -61.5t15.5 -75t-15.5 -74t-41 -60.5t-61.5 -40.5t-77 -15t-76 15t-61.5 40.5t-41 60.5t-14.5 74z" />
            <glyph unicode="&#xd7;" horiz-adv-x="1255" d="M223 369l221 219l-215 215l177 178l215 -215l221 221l188 -188l-221 -221l217 -216l-178 -176l-215 213l-221 -219z" />
            <glyph unicode="&#xd8;" horiz-adv-x="1648" d="M66 717q0 147 51 283.5t149.5 241t239.5 166.5t319 62q55 0 107.5 -7t99.5 -19l76 172l166 -76l-70 -162q90 -49 161 -120.5t119 -157.5t73.5 -183.5t25.5 -199.5q0 -147 -51 -283.5t-149.5 -241t-239 -167t-318.5 -62.5q-123 0 -227 31l-80 -184l-166 73l78 180 q-88 49 -155.5 120t-113.5 156t-70.5 181t-24.5 197zM406 717q0 -104 39.5 -198.5t115.5 -160.5l346 801q-37 12 -82 12q-98 0 -176 -37.5t-132 -101t-82.5 -145.5t-28.5 -170zM723 274q23 -6 50.5 -9t51.5 -3q98 0 176 38t132.5 101.5t83 145.5t28.5 170q0 111 -45 208 t-127 160z" />
            <glyph unicode="&#xd9;" horiz-adv-x="1345" d="M115 489v945h331v-942q0 -49 16.5 -93.5t46.5 -77t71 -52t92 -19.5t93 19.5t71.5 52t46 76.5t16.5 94v942h332v-945q0 -111 -39 -207t-111.5 -166.5t-176 -111.5t-232.5 -41t-231.5 41t-175 111.5t-111.5 167t-39 206.5zM360 1778l99 217l565 -262l-98 -217z" />
            <glyph unicode="&#xda;" horiz-adv-x="1345" d="M115 489v945h331v-942q0 -49 16.5 -93.5t46.5 -77t71 -52t92 -19.5t93 19.5t71.5 52t46 76.5t16.5 94v942h332v-945q0 -111 -39 -207t-111.5 -166.5t-176 -111.5t-232.5 -41t-231.5 41t-175 111.5t-111.5 167t-39 206.5zM307 1733l565 262l99 -217l-565 -262z" />
            <glyph unicode="&#xdb;" horiz-adv-x="1345" d="M115 489v945h331v-942q0 -49 16.5 -93.5t46.5 -77t71 -52t92 -19.5t93 19.5t71.5 52t46 76.5t16.5 94v942h332v-945q0 -111 -39 -207t-111.5 -166.5t-176 -111.5t-232.5 -41t-231.5 41t-175 111.5t-111.5 167t-39 206.5zM264 1698l402 336l401 -336l-156 -172l-245 219 l-244 -217z" />
            <glyph unicode="&#xdc;" horiz-adv-x="1345" d="M115 489v945h331v-942q0 -49 16.5 -93.5t46.5 -77t71 -52t92 -19.5t93 19.5t71.5 52t46 76.5t16.5 94v942h332v-945q0 -111 -39 -207t-111.5 -166.5t-176 -111.5t-232.5 -41t-231.5 41t-175 111.5t-111.5 167t-39 206.5zM227 1745q0 39 15.5 74.5t41 61.5t60.5 41t76 15 t76.5 -15t61.5 -41t41 -61.5t15 -74.5t-15 -74t-41 -60.5t-61.5 -41t-76.5 -15.5t-76 15.5t-60.5 41t-41 60.5t-15.5 74zM721 1745q0 80 55 136t137 56q41 0 77 -15t61.5 -41t41 -61.5t15.5 -74.5t-15.5 -74t-41 -60.5t-61.5 -41t-77 -15.5t-75.5 15.5t-61 41t-41 60.5 t-14.5 74z" />
            <glyph unicode="&#xdd;" horiz-adv-x="1312" d="M8 1434h387l305 -564l263 564h366l-711 -1434h-366l264 539zM406 1726l565 263l98 -215l-565 -263z" />
            <glyph unicode="&#xde;" horiz-adv-x="1103" d="M131 0v1434h303v-236h90q129 0 228.5 -41t167 -108.5t102.5 -156.5t35 -185t-35 -185.5t-102.5 -157t-167 -108.5t-228.5 -41h-90v-215h-303zM434 475h90q55 0 97.5 19.5t71 51.5t44 74t15.5 87t-15.5 87t-44 73.5t-70.5 51t-98 19.5h-90v-463z" />
            <glyph unicode="&#xdf;" horiz-adv-x="1214" d="M111 0v1006q0 92 29.5 175t91 145.5t156.5 100t228 37.5q98 0 188.5 -24.5t159 -74.5t110.5 -126t42 -176q0 -127 -65.5 -206t-157.5 -112q49 -18 93 -49.5t78 -76t54.5 -99.5t20.5 -119q0 -106 -37 -186t-98.5 -134t-144.5 -81t-175 -27q-68 0 -114 8.5t-76 18.5v244 q31 -8 68.5 -12.5t55.5 -4.5q39 0 75 13.5t63.5 38t44 62.5t16.5 87q0 33 -12 67.5t-37 63.5t-63.5 47.5t-92.5 18.5h-59v249h55q102 0 145.5 53.5t43.5 127.5q0 80 -54.5 124t-128.5 44q-86 0 -133 -59.5t-47 -157.5v-1006h-323z" />
            <glyph unicode="&#xe0;" d="M72 494q0 111 34.5 206t98 163.5t152.5 108.5t196 40q47 0 94 -13.5t87 -36t71 -53t49 -63.5v141h313v-987h-313v139q-18 -35 -49 -64.5t-71 -51t-87 -35t-94 -13.5q-106 0 -195.5 40t-153 109t-98 164t-34.5 206zM246 1305l98 217l565 -262l-98 -218zM383 494 q0 -51 17.5 -97.5t48 -80t73.5 -54t96 -20.5t96.5 20.5t74 54t48 79.5t17.5 98q0 51 -17.5 96t-48 80t-73.5 55t-97 20q-53 0 -96 -20t-73.5 -55t-48 -80t-17.5 -96z" />
            <glyph unicode="&#xe1;" d="M72 494q0 111 34.5 206t98 163.5t152.5 108.5t196 40q47 0 94 -13.5t87 -36t71 -53t49 -63.5v141h313v-987h-313v139q-18 -35 -49 -64.5t-71 -51t-87 -35t-94 -13.5q-106 0 -195.5 40t-153 109t-98 164t-34.5 206zM252 1260l565 262l101 -217l-566 -263zM383 494 q0 -51 17.5 -97.5t48 -80t73.5 -54t96 -20.5t96.5 20.5t74 54t48 79.5t17.5 98q0 51 -17.5 96t-48 80t-73.5 55t-97 20q-53 0 -96 -20t-73.5 -55t-48 -80t-17.5 -96z" />
            <glyph unicode="&#xe2;" d="M72 494q0 111 34.5 206t98 163.5t152.5 108.5t196 40q47 0 94 -13.5t87 -36t71 -53t49 -63.5v141h313v-987h-313v139q-18 -35 -49 -64.5t-71 -51t-87 -35t-94 -13.5q-106 0 -195.5 40t-153 109t-98 164t-34.5 206zM242 1264l399 335l403 -335l-155 -172l-246 219 l-244 -217zM383 494q0 -51 17.5 -97.5t48 -80t73.5 -54t96 -20.5t96.5 20.5t74 54t48 79.5t17.5 98q0 51 -17.5 96t-48 80t-73.5 55t-97 20q-53 0 -96 -20t-73.5 -55t-48 -80t-17.5 -96z" />
            <glyph unicode="&#xe3;" d="M72 494q0 111 34.5 206t98 163.5t152.5 108.5t196 40q47 0 94 -13.5t87 -36t71 -53t49 -63.5v141h313v-987h-313v139q-18 -35 -49 -64.5t-71 -51t-87 -35t-94 -13.5q-106 0 -195.5 40t-153 109t-98 164t-34.5 206zM215 1331q59 84 133 120t156 36q57 0 100 -14.5t79 -33 t66.5 -32.5t63.5 -14q51 0 83 26.5t58 67.5l166 -146q-57 -90 -135 -130t-158 -40q-57 0 -101 15.5t-80 33t-67.5 33t-62.5 15.5q-51 0 -82 -27t-59 -67zM383 494q0 -51 17.5 -97.5t48 -80t73.5 -54t96 -20.5t96.5 20.5t74 54t48 79.5t17.5 98q0 51 -17.5 96t-48 80 t-73.5 55t-97 20q-53 0 -96 -20t-73.5 -55t-48 -80t-17.5 -96z" />
            <glyph unicode="&#xe4;" d="M72 494q0 111 34.5 206t98 163.5t152.5 108.5t196 40q47 0 94 -13.5t87 -36t71 -53t49 -63.5v141h313v-987h-313v139q-18 -35 -49 -64.5t-71 -51t-87 -35t-94 -13.5q-106 0 -195.5 40t-153 109t-98 164t-34.5 206zM174 1290q0 39 15.5 75t41 61.5t60.5 41t76 15.5 t76.5 -15.5t61 -41t41 -61.5t15.5 -75t-15.5 -73.5t-41 -60.5t-61 -41t-76.5 -15t-76 15t-60.5 41t-41 60.5t-15.5 73.5zM383 494q0 -51 17.5 -97.5t48 -80t73.5 -54t96 -20.5t96.5 20.5t74 54t48 79.5t17.5 98q0 51 -17.5 96t-48 80t-73.5 55t-97 20q-53 0 -96 -20 t-73.5 -55t-48 -80t-17.5 -96zM668 1290q0 80 55 136.5t137 56.5q41 0 77 -15.5t61.5 -41t41 -61.5t15.5 -75t-15.5 -73.5t-41 -60.5t-61.5 -41t-77 -15t-75.5 15t-61.5 41t-41 60.5t-14 73.5z" />
            <glyph unicode="&#xe5;" d="M72 494q0 111 34.5 206t98 163.5t152.5 108.5t196 40q47 0 94 -13.5t87 -36t71 -53t49 -63.5v141h313v-987h-313v139q-18 -35 -49 -64.5t-71 -51t-87 -35t-94 -13.5q-106 0 -195.5 40t-153 109t-98 164t-34.5 206zM346 1364q0 59 22.5 110.5t60.5 90.5t89 60.5t111 21.5 q59 0 110.5 -22.5t90 -61.5t60 -90.5t21.5 -108.5t-21.5 -108.5t-60 -90.5t-90 -61.5t-110.5 -22.5t-110.5 22.5t-89.5 61.5t-60.5 90.5t-22.5 108.5zM383 494q0 -51 17.5 -97.5t48 -80t73.5 -54t96 -20.5t96.5 20.5t74 54t48 79.5t17.5 98q0 51 -17.5 96t-48 80t-73.5 55 t-97 20q-53 0 -96 -20t-73.5 -55t-48 -80t-17.5 -96zM510 1364q0 -47 35 -82t84 -35t84 35t35 86q0 47 -33 83t-86 36q-51 0 -85 -36t-34 -87z" />
            <glyph unicode="&#xe6;" horiz-adv-x="1968" d="M72 494q0 111 34.5 206t98 163.5t152.5 108.5t196 40q47 0 94 -13.5t87 -36t71 -53t49 -63.5v141h283v-24q51 23 111.5 37t131.5 14q117 0 210 -37t160 -98.5t102.5 -143.5t35.5 -172q0 -31 -1 -65.5t-9 -79.5h-709q0 -45 12.5 -85t38 -70t66.5 -47t100 -17 q82 0 124 32.5t59 79.5h307q-12 -70 -50 -131t-100.5 -107t-147.5 -73t-189 -27q-74 0 -136.5 14.5t-115.5 39.5v-27h-283v139q-18 -35 -49 -64.5t-71 -51t-87 -35t-94 -13.5q-106 0 -195.5 40t-153 109t-98 164t-34.5 206zM383 494q0 -51 17.5 -97.5t48 -80t73.5 -54 t96 -20.5t96.5 20.5t74 54t48 79.5t17.5 98q0 51 -17.5 97t-48 81t-74.5 54t-96 19q-53 0 -96 -20t-73.5 -55t-48 -80t-17.5 -96zM1171 598h408q0 88 -55.5 141.5t-147.5 53.5q-86 0 -144 -50.5t-61 -144.5z" />
            <glyph unicode="&#xe7;" horiz-adv-x="1177" d="M68 494q0 102 33.5 196t101 166t167 115t228.5 43q125 0 217 -35t154.5 -92.5t96.5 -132t42 -154.5h-313q-10 66 -54.5 107t-140.5 41q-55 0 -97 -20.5t-68.5 -55.5t-40 -81t-13.5 -97t13.5 -97.5t41 -81t71.5 -55t105 -20.5q82 0 123 33.5t62 97.5h313 q-12 -80 -46 -149.5t-92.5 -122t-139 -85t-187.5 -39.5v-86q14 14 37 22.5t57 8.5q68 0 115 -49t47 -125q0 -39 -14.5 -75t-42 -63.5t-69.5 -45t-97 -17.5q-29 0 -64.5 8.5t-68.5 29t-57.5 56t-30.5 89.5h151q12 -53 70 -54q31 0 51.5 20.5t20.5 51.5q0 29 -19.5 49.5 t-48.5 20.5q-43 0 -64 -35h-133v203q-102 18 -181 65t-131 115.5t-78.5 152.5t-26.5 177z" />
            <glyph unicode="&#xe8;" horiz-adv-x="1181" d="M70 494q0 109 33.5 203t100 164.5t164 111.5t226.5 41q117 0 210 -37t159.5 -98.5t102.5 -143.5t36 -172q0 -31 -1 -65.5t-9 -79.5h-711q2 -45 13.5 -85t37 -70t66.5 -47t102 -17q82 0 124 32.5t58 79.5h308q-10 -70 -48 -131t-100.5 -107t-147.5 -73t-192 -27 q-129 0 -228.5 38t-167 107.5t-102 165t-34.5 210.5zM305 1305l98 217l566 -262l-99 -218zM381 598h414q0 96 -56.5 151.5t-146.5 55.5q-92 0 -151.5 -53.5t-59.5 -153.5z" />
            <glyph unicode="&#xe9;" horiz-adv-x="1181" d="M70 494q0 109 33.5 203t100 164.5t164 111.5t226.5 41q117 0 210 -37t159.5 -98.5t102.5 -143.5t36 -172q0 -31 -1 -65.5t-9 -79.5h-711q2 -45 13.5 -85t37 -70t66.5 -47t102 -17q82 0 124 32.5t58 79.5h308q-10 -70 -48 -131t-100.5 -107t-147.5 -73t-192 -27 q-129 0 -228.5 38t-167 107.5t-102 165t-34.5 210.5zM246 1260l565 262l98 -217l-565 -263zM381 598h414q0 96 -56.5 151.5t-146.5 55.5q-92 0 -151.5 -53.5t-59.5 -153.5z" />
            <glyph unicode="&#xea;" horiz-adv-x="1181" d="M70 494q0 109 33.5 203t100 164.5t164 111.5t226.5 41q117 0 210 -37t159.5 -98.5t102.5 -143.5t36 -172q0 -31 -1 -65.5t-9 -79.5h-711q2 -45 13.5 -85t37 -70t66.5 -47t102 -17q82 0 124 32.5t58 79.5h308q-10 -70 -48 -131t-100.5 -107t-147.5 -73t-192 -27 q-129 0 -228.5 38t-167 107.5t-102 165t-34.5 210.5zM199 1264l399 335l403 -335l-155 -172l-246 219l-246 -217zM381 598h414q0 96 -56.5 151.5t-146.5 55.5q-92 0 -151.5 -53.5t-59.5 -153.5z" />
            <glyph unicode="&#xeb;" horiz-adv-x="1181" d="M70 494q0 109 33.5 203t100 164.5t164 111.5t226.5 41q117 0 210 -37t159.5 -98.5t102.5 -143.5t36 -172q0 -31 -1 -65.5t-9 -79.5h-711q2 -45 13.5 -85t37 -70t66.5 -47t102 -17q82 0 124 32.5t58 79.5h308q-10 -70 -48 -131t-100.5 -107t-147.5 -73t-192 -27 q-129 0 -228.5 38t-167 107.5t-102 165t-34.5 210.5zM150 1290q0 80 55 136.5t137 56.5q41 0 77 -15.5t61.5 -41t41 -61.5t15.5 -75t-15.5 -73.5t-41 -60.5t-61.5 -41t-77 -15t-76 15t-61.5 41t-40.5 60.5t-14 73.5zM381 598h414q0 96 -56.5 151.5t-146.5 55.5 q-92 0 -151.5 -53.5t-59.5 -153.5zM641 1290q0 39 15.5 75t41 61.5t60.5 41t76 15.5t76.5 -15.5t61 -41t41 -61.5t15.5 -75t-15.5 -73.5t-41 -60.5t-61.5 -41t-76 -15q-41 0 -76 15t-60.5 41t-41 60.5t-15.5 73.5z" />
            <glyph unicode="&#xec;" horiz-adv-x="579" d="M-41 1331l98 217l566 -262l-99 -217zM133 0v987h313v-987h-313z" />
            <glyph unicode="&#xed;" horiz-adv-x="579" d="M-41 1286l565 262l99 -217l-566 -262zM133 0v987h313v-987h-313z" />
            <glyph unicode="&#xee;" horiz-adv-x="579" d="M-111 1264l402 335l401 -335l-155 -172l-246 219l-244 -217zM133 0v987h313v-987h-313z" />
            <glyph unicode="&#xef;" horiz-adv-x="579" d="M-111 1290q0 39 15.5 75t41 61.5t60.5 41t76 15.5t77 -15.5t62.5 -41t42 -61.5t15.5 -75t-15.5 -73.5t-42 -60.5t-62.5 -41t-77 -15t-76 15t-60.5 41t-41 60.5t-15.5 73.5zM133 0v987h313v-987h-313zM328 1290q0 39 15 75t41 61.5t60.5 41t75.5 15.5t77 -15.5t61.5 -41 t41 -61.5t15.5 -75t-15.5 -73.5t-41 -60.5t-61.5 -41t-77 -15t-75.5 15t-60.5 41t-41 60.5t-15 73.5z" />
            <glyph unicode="&#xf0;" horiz-adv-x="1220" d="M61 489q0 100 34 190.5t96.5 159t152.5 112.5t203 53h12l-67 104l-199 -96l-72 155l174 84l-137 217h373l55 -92l170 82l72 -151l-148 -74l289 -447q41 -66 64.5 -140.5t23.5 -156.5q0 -106 -38 -200t-108.5 -165t-172 -113t-230.5 -42q-127 0 -228 42t-172 113t-109 165 t-38 200zM375 489q0 -51 16.5 -97t47 -79.5t73.5 -54t96 -20.5t97.5 20.5t75 54t48 79.5t17.5 97t-17.5 97.5t-48 81t-74.5 54t-98 19.5q-53 0 -96 -19.5t-73.5 -54t-47 -80.5t-16.5 -98z" />
            <glyph unicode="&#xf1;" horiz-adv-x="1243" d="M133 0v987h313v-143q41 80 124 124t200 44q96 0 166 -30t111 -83q47 -57 62 -132t15 -181v-586h-313v506q0 106 -38 172.5t-136 66.5q-96 0 -143.5 -67.5t-47.5 -181.5v-496h-313zM182 1331q59 84 133 120t156 36q57 0 100 -14.5t79 -33t66.5 -32.5t63.5 -14 q51 0 83 26.5t59 67.5l165 -146q-57 -90 -135 -130t-157 -40q-57 0 -101.5 15.5t-80 33t-67.5 33t-63 15.5q-51 0 -81.5 -27t-59.5 -67z" />
            <glyph unicode="&#xf2;" horiz-adv-x="1226" d="M66 494q0 106 37.5 200t108.5 165t172 113t228 42q129 0 230.5 -42t172 -113t108.5 -165t38 -200t-38 -200.5t-108.5 -165.5t-172 -113t-230.5 -42q-127 0 -228 42t-172 113t-108.5 165t-37.5 201zM301 1305l98 217l566 -262l-99 -218zM379 494q0 -53 16.5 -98.5t47 -80 t73.5 -54t96 -19.5t97.5 19.5t75 54t48 79.5t17.5 99q0 51 -17.5 97t-48 80t-74.5 54t-98 20q-53 0 -96 -20t-73.5 -54t-47 -80t-16.5 -97z" />
            <glyph unicode="&#xf3;" horiz-adv-x="1226" d="M66 494q0 106 37.5 200t108.5 165t172 113t228 42q129 0 230.5 -42t172 -113t108.5 -165t38 -200t-38 -200.5t-108.5 -165.5t-172 -113t-230.5 -42q-127 0 -228 42t-172 113t-108.5 165t-37.5 201zM233 1260l566 262l100 -217l-565 -263zM379 494q0 -53 16.5 -98.5 t47 -80t73.5 -54t96 -19.5t97.5 19.5t75 54t48 79.5t17.5 99q0 51 -17.5 97t-48 80t-74.5 54t-98 20q-53 0 -96 -20t-73.5 -54t-47 -80t-16.5 -97z" />
            <glyph unicode="&#xf4;" horiz-adv-x="1226" d="M66 494q0 106 37.5 200t108.5 165t172 113t228 42q129 0 230.5 -42t172 -113t108.5 -165t38 -200t-38 -200.5t-108.5 -165.5t-172 -113t-230.5 -42q-127 0 -228 42t-172 113t-108.5 165t-37.5 201zM211 1264l399 335l404 -335l-156 -172l-246 219l-243 -217zM379 494 q0 -53 16.5 -98.5t47 -80t73.5 -54t96 -19.5t97.5 19.5t75 54t48 79.5t17.5 99q0 51 -17.5 97t-48 80t-74.5 54t-98 20q-53 0 -96 -20t-73.5 -54t-47 -80t-16.5 -97z" />
            <glyph unicode="&#xf5;" horiz-adv-x="1226" d="M66 494q0 106 37.5 200t108.5 165t172 113t228 42q129 0 230.5 -42t172 -113t108.5 -165t38 -200t-38 -200.5t-108.5 -165.5t-172 -113t-230.5 -42q-127 0 -228 42t-172 113t-108.5 165t-37.5 201zM162 1331q57 84 132 120t157 36q57 0 100 -14.5t79 -33t66.5 -32.5 t61.5 -14q51 0 82.5 26.5t60.5 67.5l166 -146q-59 -90 -137 -130t-158 -40q-57 0 -101 15.5t-80 33t-67.5 33t-62.5 15.5q-51 0 -81 -27t-58 -67zM379 494q0 -53 16.5 -98.5t47 -80t73.5 -54t96 -19.5t97.5 19.5t75 54t48 79.5t17.5 99q0 51 -17.5 97t-48 80t-74.5 54 t-98 20q-53 0 -96 -20t-73.5 -54t-47 -80t-16.5 -97z" />
            <glyph unicode="&#xf6;" horiz-adv-x="1226" d="M66 494q0 106 37.5 200t108.5 165t172 113t228 42q129 0 230.5 -42t172 -113t108.5 -165t38 -200t-38 -200.5t-108.5 -165.5t-172 -113t-230.5 -42q-127 0 -228 42t-172 113t-108.5 165t-37.5 201zM170 1290q0 39 15.5 75t41 61.5t60.5 41t75 15.5q41 0 77 -15.5 t61.5 -41t41 -61.5t15.5 -75t-15.5 -73.5t-41 -60.5t-61.5 -41t-77 -15t-75.5 15t-60 41t-41 60.5t-15.5 73.5zM379 494q0 -53 16.5 -98.5t47 -80t73.5 -54t96 -19.5t97.5 19.5t75 54t48 79.5t17.5 99q0 51 -17.5 97t-48 80t-74.5 54t-98 20q-53 0 -96 -20t-73.5 -54 t-47 -80t-16.5 -97zM664 1290q0 80 55 136.5t137 56.5q41 0 77 -15.5t61.5 -41t41 -61.5t15.5 -75t-15.5 -73.5t-41 -60.5t-61.5 -41t-77 -15t-76 15t-61.5 41t-40.5 60.5t-14 73.5z" />
            <glyph unicode="&#xf7;" horiz-adv-x="1255" d="M190 389v250h875v-250h-875zM434 145q0 80 56.5 135.5t136.5 55.5q82 0 138 -55.5t56 -135.5q0 -39 -15 -73.5t-41 -60t-61.5 -41t-76.5 -15.5t-76 15.5t-60.5 41t-41 60t-15.5 73.5zM434 895q0 39 15.5 75t41 61.5t60.5 40.5t76 15t76.5 -15t61.5 -40.5t41 -61.5t15 -75 t-15 -74t-41 -60.5t-61.5 -40.5t-76.5 -15t-76 15t-60.5 40.5t-41 60.5t-15.5 74z" />
            <glyph unicode="&#xf8;" horiz-adv-x="1226" d="M66 494q0 106 37.5 200t108.5 165t172 113t228 42q39 0 74 -5t70 -12l65 152l123 -53l-61 -144q135 -66 206.5 -188.5t71.5 -269.5q0 -106 -38 -200.5t-108.5 -165.5t-172 -113t-230.5 -42q-82 0 -155 19l-64 -152l-125 54l64 147q-129 66 -197.5 186.5t-68.5 266.5z M379 494q0 -55 18.5 -104.5t53.5 -84.5l190 436q-8 2 -14 3t-15 1q-53 0 -96 -20t-73.5 -54t-47 -80t-16.5 -97zM571 244q10 -2 20.5 -2h20.5q53 0 97.5 19.5t75 54t48 79.5t17.5 99q0 59 -21.5 110t-62.5 86z" />
            <glyph unicode="&#xf9;" horiz-adv-x="1243" d="M121 401v586h311v-506q0 -106 38 -172.5t136 -66.5t144.5 67.5t46.5 182.5v495h313v-987h-313v141q-41 -78 -124 -122t-200 -44q-96 0 -165.5 30t-110.5 83q-47 57 -61.5 132t-14.5 181zM299 1305l98 217l566 -262l-99 -218z" />
            <glyph unicode="&#xfa;" horiz-adv-x="1243" d="M121 401v586h311v-506q0 -106 38 -172.5t136 -66.5t144.5 67.5t46.5 182.5v495h313v-987h-313v141q-41 -78 -124 -122t-200 -44q-96 0 -165.5 30t-110.5 83q-47 57 -61.5 132t-14.5 181zM291 1260l565 262l98 -217l-565 -263z" />
            <glyph unicode="&#xfb;" horiz-adv-x="1243" d="M121 401v586h311v-506q0 -106 38 -172.5t136 -66.5t144.5 67.5t46.5 182.5v495h313v-987h-313v141q-41 -78 -124 -122t-200 -44q-96 0 -165.5 30t-110.5 83q-47 57 -61.5 132t-14.5 181zM225 1264l400 335l403 -335l-156 -172l-245 219l-244 -217z" />
            <glyph unicode="&#xfc;" horiz-adv-x="1243" d="M121 401v586h311v-506q0 -106 38 -172.5t136 -66.5t144.5 67.5t46.5 182.5v495h313v-987h-313v141q-41 -78 -124 -122t-200 -44q-96 0 -165.5 30t-110.5 83q-47 57 -61.5 132t-14.5 181zM170 1290q0 39 15.5 75t41 61.5t60.5 41t75 15.5q41 0 77 -15.5t62.5 -41t42 -61.5 t15.5 -75t-15.5 -73.5t-42 -60.5t-62.5 -41t-77 -15t-75.5 15t-60 41t-41 60.5t-15.5 73.5zM664 1290q0 80 55 136.5t137 56.5q41 0 77 -15.5t61.5 -41t41 -61.5t15.5 -75t-15.5 -73.5t-41 -60.5t-61.5 -41t-77 -15t-76 15t-61.5 41t-40.5 60.5t-14 73.5z" />
            <glyph unicode="&#xfd;" horiz-adv-x="1259" d="M121 -76h313q4 -84 58.5 -128t132.5 -44q90 0 141 44t51 159v203q-41 -80 -122 -123t-193 -43q-98 0 -171 32.5t-114 86.5q-47 57 -61.5 127.5t-14.5 177.5v571h312v-506q0 -106 37.5 -172.5t136.5 -66.5q98 0 144 67.5t46 182.5v495h313v-1012q0 -117 -36.5 -202.5 t-98.5 -139.5q-68 -55 -156.5 -80.5t-217.5 -25.5q-121 0 -210 24.5t-155 77.5q-59 47 -97 121t-38 174zM297 1260l565 262l101 -217l-566 -263z" />
            <glyph unicode="&#xfe;" horiz-adv-x="1294" d="M137 -446v1880h314v-588q18 33 48.5 63.5t70.5 53t87.5 36t94.5 13.5q106 0 195 -40t152.5 -108.5t98.5 -164t35 -205.5q0 -111 -35 -206t-98.5 -164t-152.5 -109t-195 -40q-47 0 -94.5 13.5t-87.5 35t-70.5 51t-48.5 64.5v-585h-314zM451 494q0 -51 17 -97.5t48 -80 t74 -54t96 -20.5t96 20.5t74 54t48.5 79.5t17.5 98q0 51 -17.5 96t-48.5 80t-74 55t-96 20t-96 -20t-74 -55t-48 -80t-17 -96z" />
            <glyph unicode="&#xff;" horiz-adv-x="1259" d="M121 -76h313q4 -84 58.5 -128t132.5 -44q90 0 141 44t51 159v203q-41 -80 -122 -123t-193 -43q-98 0 -171 32.5t-114 86.5q-47 57 -61.5 127.5t-14.5 177.5v571h312v-506q0 -106 37.5 -172.5t136.5 -66.5q98 0 144 67.5t46 182.5v495h313v-1012q0 -117 -36.5 -202.5 t-98.5 -139.5q-68 -55 -156.5 -80.5t-217.5 -25.5q-121 0 -210 24.5t-155 77.5q-59 47 -97 121t-38 174zM207 1290q0 39 14.5 73t40 59.5t59 40t72.5 14.5q82 0 136.5 -54.5t54.5 -132.5t-54.5 -132t-136.5 -54q-39 0 -72.5 14.5t-59 40t-40 59t-14.5 72.5zM700 1290 q0 39 14.5 73t40 59.5t59.5 40t73 14.5t73.5 -14.5t60.5 -40t40 -59.5t14 -73t-14 -72.5t-40 -59t-60.5 -40t-73.5 -14.5t-73 14.5t-59.5 40t-40 59t-14.5 72.5z" />
            <glyph unicode="&#x152;" horiz-adv-x="2246" d="M66 715q0 147 51 283.5t149.5 240.5t239.5 166.5t319 62.5q129 0 234.5 -36.5t187.5 -100.5v103h875v-267h-545v-325h545v-260h-545v-316h545v-266h-875v96q-82 -63 -187.5 -99t-234.5 -36q-178 0 -319 62.5t-239.5 167t-149.5 240.5t-51 284zM406 715q0 -88 28.5 -170 t82.5 -145.5t132 -101.5t176 -38t176 38t132.5 101.5t83 145.5t28.5 170t-28.5 169t-83 144.5t-132 101t-176.5 37.5q-98 0 -176 -37.5t-132 -101t-82.5 -144.5t-28.5 -169z" />
            <glyph unicode="&#x153;" horiz-adv-x="1961" d="M66 494q0 106 37.5 200t108.5 165t172 113t228 42q123 0 219.5 -40t165.5 -106q66 68 161 107t218 39q117 0 210 -37t159.5 -98.5t102.5 -143.5t36 -172q0 -31 -2 -65.5t-10 -79.5h-707q0 -45 11.5 -85t37 -70t66.5 -47t102 -17q82 0 124 32.5t59 79.5h307 q-12 -70 -50 -131t-100.5 -107t-147.5 -73t-192 -27q-125 0 -221 39t-162 107q-70 -66 -167 -106t-220 -40q-127 0 -228 42t-172 113t-108.5 165t-37.5 201zM379 494q0 -53 16.5 -98.5t47 -80t73.5 -54t96 -19.5q106 0 172 71.5t66 180.5q0 106 -65.5 178.5t-172.5 72.5 q-53 0 -96 -20t-73.5 -54t-47 -80t-16.5 -97zM1167 598h408q0 90 -55.5 142.5t-147.5 52.5q-88 0 -146.5 -50.5t-58.5 -144.5z" />
            <glyph unicode="&#x178;" horiz-adv-x="1312" d="M8 1434h387l305 -564l263 564h366l-711 -1434h-366l264 539zM264 1745q0 39 14.5 73.5t40 60.5t60.5 40t74 14t73.5 -14t60 -40t40 -60.5t14.5 -73.5q0 -76 -54.5 -130t-133.5 -54q-39 0 -74 14t-60.5 39.5t-40 59.5t-14.5 71zM758 1745q0 39 14 73.5t40 60.5t59.5 40 t72.5 14t74 -14t61.5 -40t41 -60.5t14.5 -73.5q0 -37 -14.5 -71t-41 -59.5t-61.5 -39.5t-74 -14t-72.5 14t-59.5 39.5t-40 59.5t-14 71z" />
            <glyph unicode="&#x2c6;" horiz-adv-x="999" d="M94 1403l402 321l401 -321l-162 -180l-239 192l-238 -190z" />
            <glyph unicode="&#x2dc;" horiz-adv-x="1050" d="M125 1356q49 29 84 45t61.5 23.5t45 8.5t34.5 1q23 0 66 -8.5t89 -19.5t88 -19.5t64 -8.5q18 0 34 2t34 8.5t43 16.5t63 29l95 -185q-86 -66 -147.5 -79t-90.5 -13q-25 0 -67.5 8.5t-89 18.5t-88.5 18t-62 8q-45 0 -80 -13t-74 -30z" />
            <glyph unicode="&#x2000;" horiz-adv-x="1026" />
            <glyph unicode="&#x2001;" horiz-adv-x="2052" />
            <glyph unicode="&#x2002;" horiz-adv-x="1026" />
            <glyph unicode="&#x2003;" horiz-adv-x="2052" />
            <glyph unicode="&#x2004;" horiz-adv-x="684" />
            <glyph unicode="&#x2005;" horiz-adv-x="513" />
            <glyph unicode="&#x2006;" horiz-adv-x="342" />
            <glyph unicode="&#x2007;" horiz-adv-x="342" />
            <glyph unicode="&#x2008;" horiz-adv-x="256" />
            <glyph unicode="&#x2009;" horiz-adv-x="410" />
            <glyph unicode="&#x200a;" horiz-adv-x="114" />
            <glyph unicode="&#x2010;" horiz-adv-x="649" d="M66 483v250h518v-250h-518z" />
            <glyph unicode="&#x2011;" horiz-adv-x="649" d="M66 483v250h518v-250h-518z" />
            <glyph unicode="&#x2012;" horiz-adv-x="649" d="M66 483v250h518v-250h-518z" />
            <glyph unicode="&#x2013;" horiz-adv-x="1030" d="M82 483v250h866v-250h-866z" />
            <glyph unicode="&#x2014;" horiz-adv-x="2060" d="M92 483v250h1876v-250h-1876z" />
            <glyph unicode="&#x2018;" horiz-adv-x="610" d="M102 1110q0 111 28 188.5t79 124.5t126 70t171 23v-123q-61 0 -104.5 -14.5t-69.5 -37.5q-29 -23 -43.5 -50t-18.5 -56q4 4 19.5 9t32.5 5q90 0 142 -56t52 -136q0 -82 -56.5 -139.5t-137.5 -57.5q-98 0 -159 68.5t-61 181.5z" />
            <glyph unicode="&#x2019;" horiz-adv-x="610" d="M94 1317q0 84 56.5 141.5t138.5 57.5q98 0 158.5 -70t60.5 -180q0 -111 -26.5 -189t-79 -125t-127 -69.5t-171.5 -22.5v121q63 0 105.5 14.5t71.5 36.5q29 23 42 51.5t17 57.5q-4 -4 -19.5 -9.5t-31.5 -5.5q-90 0 -142.5 56.5t-52.5 134.5z" />
            <glyph unicode="&#x201a;" horiz-adv-x="610" d="M94 154q0 84 56.5 141t138.5 57q98 0 158.5 -69.5t60.5 -180.5t-26.5 -188.5t-79 -124.5t-127 -69.5t-171.5 -22.5v121q63 0 105.5 14t71.5 37t42 51.5t17 56.5q-4 -4 -19.5 -9t-31.5 -5q-90 0 -142.5 56.5t-52.5 134.5z" />
            <glyph unicode="&#x201c;" horiz-adv-x="1071" d="M102 1110q0 111 28 188.5t79 124.5t126 70t171 23v-123q-61 0 -104.5 -14.5t-69.5 -37.5q-29 -23 -43.5 -50t-18.5 -56q4 4 19.5 9t32.5 5q90 0 142 -56t52 -136q0 -82 -56.5 -139.5t-137.5 -57.5q-98 0 -159 68.5t-61 181.5zM563 1110q0 111 26.5 188.5t79 124.5t127 70 t171.5 23v-123q-61 0 -104.5 -14.5t-71.5 -37.5q-29 -23 -42.5 -50t-17.5 -56q4 4 19.5 9t31.5 5q90 0 142.5 -56t52.5 -136q0 -82 -56.5 -139.5t-138.5 -57.5q-98 0 -158.5 68.5t-60.5 181.5z" />
            <glyph unicode="&#x201d;" horiz-adv-x="1071" d="M94 1317q0 84 56.5 141.5t138.5 57.5q98 0 158.5 -70t60.5 -180q0 -111 -26.5 -189t-79 -125t-127 -69.5t-171.5 -22.5v121q63 0 105.5 14.5t71.5 36.5q29 23 42 51.5t17 57.5q-4 -4 -19.5 -9.5t-31.5 -5.5q-90 0 -142.5 56.5t-52.5 134.5zM555 1317q0 84 56.5 141.5 t138.5 57.5q98 0 158.5 -70t60.5 -180q0 -111 -28 -189t-79 -125t-127 -69.5t-170 -22.5v121q61 0 104.5 14.5t69.5 36.5q29 23 43.5 51.5t18.5 57.5q-4 -4 -19.5 -9.5t-31.5 -5.5q-90 0 -142.5 56.5t-52.5 134.5z" />
            <glyph unicode="&#x201e;" horiz-adv-x="1071" d="M94 154q0 84 56.5 141t138.5 57q98 0 158.5 -69.5t60.5 -180.5t-26.5 -188.5t-79 -124.5t-127 -69.5t-171.5 -22.5v121q63 0 105.5 14t71.5 37t42 51.5t17 56.5q-4 -4 -19.5 -9t-31.5 -5q-90 0 -142.5 56.5t-52.5 134.5zM555 154q0 84 56.5 141t138.5 57 q98 0 158.5 -69.5t60.5 -180.5t-28 -188.5t-79 -124.5t-127 -69.5t-170 -22.5v121q61 0 104.5 14t69.5 37q29 23 43.5 51.5t18.5 56.5q-4 -4 -19.5 -9t-31.5 -5q-90 0 -142.5 56.5t-52.5 134.5z" />
            <glyph unicode="&#x2022;" horiz-adv-x="743" d="M96 639q0 57 21.5 107.5t58.5 87t87 58t108 21.5q57 0 108 -21.5t88 -58t58.5 -87t21.5 -107.5q0 -55 -21.5 -105.5t-58.5 -87t-88 -58t-108 -21.5t-107.5 21.5t-87.5 58t-58.5 87t-21.5 105.5z" />
            <glyph unicode="&#x2026;" horiz-adv-x="2019" d="M102 186q0 43 16.5 81t44 65.5t65.5 44t81 16.5t81 -16.5t65.5 -44t44 -65.5t16.5 -81t-16.5 -79.5t-44 -64.5t-65.5 -44t-81 -16t-81 16t-65.5 44t-44 64.5t-16.5 79.5zM803 184q0 43 16.5 81t44 65.5t65.5 44t81 16.5t80.5 -16.5t65.5 -44t44.5 -65.5t16.5 -81 t-16.5 -79.5t-44.5 -64.5t-65.5 -44t-80.5 -16t-81 16t-65.5 44t-44 64.5t-16.5 79.5zM1503 184q0 43 16.5 80t44 64.5t65.5 44t81 16.5t81 -16.5t65.5 -44t44 -64.5t16.5 -80t-16.5 -79.5t-44 -64.5t-65.5 -44t-81 -16t-81 16t-65.5 44t-44 64.5t-16.5 79.5z" />
            <glyph unicode="&#x202f;" horiz-adv-x="410" />
            <glyph unicode="&#x2039;" horiz-adv-x="598" d="M76 514v164l436 354v-272l-211 -164l211 -164v-272z" />
            <glyph unicode="&#x203a;" horiz-adv-x="598" d="M86 160v272l209 164l-209 164v272l436 -354v-164z" />
            <glyph unicode="&#x205f;" horiz-adv-x="513" />
            <glyph unicode="&#x20ac;" horiz-adv-x="1290" d="M16 483l41 181h86v106h-127l41 180h86q0 104 38 197.5t108.5 164t172 111.5t226.5 41q121 0 219.5 -37.5t169 -102t111.5 -152t47 -185.5h-332q-10 84 -66.5 140.5t-148.5 56.5q-49 0 -89 -18.5t-67.5 -50.5t-42 -75t-14.5 -90h350l-41 -180h-309v-106h350l-41 -181h-309 q0 -47 14.5 -90t42 -74.5t67.5 -50t89 -18.5t90 18.5t68.5 50t43 74.5t15.5 90h332q0 -104 -39 -197t-110.5 -164t-173 -112t-226.5 -41t-226.5 41t-172 112t-108.5 164t-38 197h-127z" />
            <glyph unicode="&#x2122;" horiz-adv-x="1714" d="M66 1249v185h561v-185h-176v-649h-211v649h-174zM717 600v834h321l156 -531l156 531h317v-834h-207v619l-180 -619h-170l-186 619v-619h-207z" />
            <glyph unicode="&#x25fc;" horiz-adv-x="983" d="M0 0v983h983v-983h-983z" />
            </font>
</defs>
</svg>
