<?xml version="1.0" standalone="no"?>
<!DOCTYPE svg PUBLIC "-//W3C//DTD SVG 1.1//EN" "http://www.w3.org/Graphics/SVG/1.1/DTD/svg11.dtd" >
<svg xmlns="http://www.w3.org/2000/svg">
    <metadata></metadata>
    <defs>
        <font id="gt_walsheimlight" horiz-adv-x="1167" >
            <font-face units-per-em="2048" ascent="1536" descent="-512" />
            <missing-glyph horiz-adv-x="522" />
            <glyph unicode="&#xfb01;" horiz-adv-x="1204" d="M45 793v114h207v203q0 117 29.5 183.5t73.5 100t94.5 43t91.5 9.5q45 0 74.5 -7t52.5 -18v-114q-25 10 -49.5 14t-61.5 4q-31 0 -61.5 -5t-55 -25.5t-40 -61.5t-15.5 -111v-215h283v-114h-283v-793h-133v793h-207zM827 1262q0 51 34 84.5t83 33.5q51 0 86 -33.5t35 -84.5 q0 -49 -35 -83t-86 -34q-49 0 -83 34t-34 83zM879 0v907h133v-907h-133z" />
            <glyph unicode="&#xfb02;" horiz-adv-x="1159" d="M45 793v114h207v203q0 117 29.5 183.5t73.5 100t94.5 43t91.5 9.5q45 0 74.5 -7t52.5 -18v-114q-25 10 -49.5 14t-61.5 4q-31 0 -61.5 -5t-55 -25.5t-40 -61.5t-15.5 -111v-215h283v-114h-283v-793h-133v793h-207zM856 0v1434h133v-1434h-133z" />
            <glyph unicode="&#xfb03;" horiz-adv-x="1890" d="M45 793v114h207v203q0 117 29.5 183.5t73.5 100t94.5 43t91.5 9.5q45 0 74.5 -7t52.5 -18v-114q-25 10 -49.5 14t-61.5 4q-31 0 -61.5 -5t-55 -25.5t-40 -61.5t-15.5 -111v-215h283v-114h-283v-793h-133v793h-207zM731 793v114h207v203q0 117 29.5 183.5t73.5 100 t94.5 43t91.5 9.5q45 0 74.5 -7t52.5 -18v-114q-25 10 -49.5 14t-61.5 4q-31 0 -61.5 -5t-55 -25.5t-40 -61.5t-15.5 -111v-215h283v-114h-283v-793h-133v793h-207zM1509 1262q0 53 35 88.5t86 35.5q53 0 89 -35.5t36 -88.5q0 -51 -36 -86t-89 -35q-51 0 -86 35t-35 86z M1565 0v907h133v-907h-133z" />
            <glyph unicode="&#xfb04;" horiz-adv-x="1841" d="M45 793v114h207v203q0 117 29.5 183.5t73.5 100t94.5 43t91.5 9.5q45 0 74.5 -7t52.5 -18v-114q-25 10 -49.5 14t-61.5 4q-31 0 -61.5 -5t-55 -25.5t-40 -61.5t-15.5 -111v-215h283v-114h-283v-793h-133v793h-207zM731 793v114h207v203q0 117 29.5 183.5t73.5 100 t94.5 43t91.5 9.5q45 0 74.5 -7t52.5 -18v-114q-25 10 -49.5 14t-61.5 4q-31 0 -61.5 -5t-55 -25.5t-40 -61.5t-15.5 -111v-215h283v-114h-283v-793h-133v793h-207zM1542 0v1434h133v-1434h-133z" />
            <glyph horiz-adv-x="0" />
            <glyph horiz-adv-x="0" />
            <glyph unicode="&#xd;" horiz-adv-x="512" />
            <glyph unicode=" "  horiz-adv-x="522" />
            <glyph unicode="&#x09;" horiz-adv-x="522" />
            <glyph unicode="&#xa0;" horiz-adv-x="522" />
            <glyph unicode="!" horiz-adv-x="579" d="M164 104q0 53 36 90t89 37t91 -36.5t38 -90.5q0 -53 -38 -90t-91 -37t-89 37t-36 90zM217 416v1034h145v-1034h-145z" />
            <glyph unicode="&#x22;" horiz-adv-x="655" d="M123 1364v104h127v-104l-27 -410h-73zM406 1364v104h126v-104l-26 -410h-74z" />
            <glyph unicode="#" horiz-adv-x="1126" d="M59 438v107h224l47 344h-209v106h225l60 439h112l-59 -439h307l59 439h113l-59 -439h188v-106h-205l-47 -344h191v-107h-205l-62 -438h-112l61 438h-307l-62 -438h-112l61 438h-209zM395 545h307l48 344h-308z" />
            <glyph unicode="$" horiz-adv-x="1171" d="M137 444h139q0 -158 98.5 -253t270.5 -95q150 0 241 73t91 200q0 76 -28.5 125t-74 80.5t-102.5 51t-113 33.5q-94 27 -179 56.5t-149.5 76t-102.5 118t-38 182.5q0 74 27 137t78 112.5t122.5 81t164.5 39.5v207h106v-209q180 -16 286.5 -127.5t110.5 -298.5h-141 q-2 141 -81 222t-220 81q-150 0 -231.5 -67.5t-81.5 -177.5q0 -72 26.5 -120t71.5 -80t103.5 -51.5t119.5 -35.5q82 -23 166 -52.5t149.5 -75.5t107.5 -117t42 -177q0 -92 -30.5 -166t-88 -126t-136.5 -81.5t-173 -38.5v-207h-106v207q-98 8 -180.5 45t-140.5 98.5 t-91 145.5t-33 184z" />
            <glyph unicode="%" horiz-adv-x="1808" d="M135 895v293q0 53 19.5 100t55.5 83t87 56.5t113 20.5q63 0 114 -21.5t88 -58.5t56.5 -85t19.5 -103v-293q0 -53 -19.5 -100.5t-56.5 -82t-88 -55t-114 -20.5t-113.5 21.5t-86.5 57t-55.5 84t-19.5 103.5zM248 895q0 -70 44 -121t118 -51q78 0 121.5 51t43.5 121v285 q0 70 -44 121t-121 51q-74 0 -118 -51.5t-44 -120.5v-285zM408 -2l895 1542l106 -63l-895 -1543zM1118 250v295q0 51 19.5 98t56.5 83t88 56.5t113 20.5q63 0 114.5 -21.5t87 -58.5t55 -85t19.5 -101v-295q0 -53 -19.5 -99.5t-56 -82t-88 -56t-112.5 -20.5 q-63 0 -114.5 21.5t-87.5 58t-55.5 85t-19.5 101.5zM1231 250q0 -70 44 -120t120 -50t120 50t44 120v287q0 70 -44.5 120t-119.5 50q-76 0 -120 -50.5t-44 -119.5v-287z" />
            <glyph unicode="&#x26;" horiz-adv-x="1226" d="M102 401q0 131 75 217.5t202 124.5q-119 35 -184.5 117t-65.5 211q0 86 34 157.5t93 122t140 78t175 27.5q98 0 179 -29.5t139.5 -84t90.5 -130t32 -168.5h-142q0 127 -76.5 205t-228.5 78q-135 0 -215 -67.5t-80 -188.5q0 -115 74 -189.5t231 -74.5h60v-125h-60 q-166 0 -249.5 -82t-83.5 -211q0 -59 23.5 -110.5t66.5 -90t105.5 -60.5t142.5 -22q82 0 143 28t102 78t61.5 118.5t20.5 148.5h-188v127h465v-127h-135q0 -111 -33 -203t-93.5 -158.5t-146.5 -103.5t-196 -37q-100 0 -187.5 30t-152 85t-101.5 133t-37 176z" />
            <glyph unicode="'" horiz-adv-x="372" d="M123 1364v104h127v-104l-27 -410h-73z" />
            <glyph unicode="(" horiz-adv-x="708" d="M203 -16v1167q0 96 33.5 183t96 151.5t149.5 102.5t196 38v-127q-76 0 -138.5 -27.5t-106.5 -74.5t-67.5 -110.5t-23.5 -135.5v-1167q0 -72 23.5 -134.5t67.5 -109.5t106.5 -74.5t138.5 -27.5v-130q-109 0 -196 38t-149.5 103.5t-96 151.5t-33.5 183z" />
            <glyph unicode=")" horiz-adv-x="708" d="M31 -362q76 0 138 27.5t106 74.5t68 109.5t24 134.5v1167q0 72 -24 135.5t-68 110.5t-106.5 74.5t-137.5 27.5v127q109 0 196.5 -38t149 -102.5t95.5 -151.5t34 -183v-1167q0 -96 -34 -182.5t-95.5 -152t-149.5 -103.5t-196 -38v130z" />
            <glyph unicode="*" horiz-adv-x="929" d="M98 1165l29 90l307 -118l-16 331h96l-16 -331l305 118l31 -90l-318 -88l217 -272l-82 -60l-184 289l-188 -289l-82 60l217 272z" />
            <glyph unicode="+" d="M180 522v121h336v344h133v-344h338v-121h-338v-342h-133v342h-336z" />
            <glyph unicode="," horiz-adv-x="512" d="M113 111q0 53 35.5 89t91.5 36q74 0 116.5 -57.5t42.5 -145.5q0 -147 -73.5 -208t-198.5 -63v74q119 0 145 84q12 29 13.5 49.5t-0.5 36.5q-8 -8 -22.5 -12t-29.5 -4q-53 0 -86.5 35t-33.5 86z" />
            <glyph unicode="-" horiz-adv-x="602" d="M61 522v121h480v-121h-480z" />
            <glyph unicode="." horiz-adv-x="471" d="M113 113q0 53 34.5 88t85.5 35q53 0 89 -35t36 -88q0 -51 -35.5 -87t-89.5 -36q-51 0 -85.5 36t-34.5 87z" />
            <glyph unicode="/" horiz-adv-x="860" d="M20 -96l746 1732l123 -53l-746 -1730z" />
            <glyph unicode="0" horiz-adv-x="1183" d="M115 449v534q0 96 33.5 183t95 151.5t149.5 102.5t197 38t198 -38t151 -102.5t96 -151.5t34 -183v-534q0 -96 -34 -182.5t-96 -151t-151.5 -102.5t-197.5 -38q-109 0 -197 38t-149.5 102.5t-95 150.5t-33.5 183zM254 449q0 -72 23.5 -134.5t67.5 -109.5t105.5 -75 t139.5 -28t140.5 28t106.5 75t67.5 109.5t23.5 134.5v534q0 72 -23.5 135.5t-67.5 110.5t-106.5 74.5t-140.5 27.5t-139.5 -27.5t-105.5 -74.5t-67.5 -110.5t-23.5 -135.5v-534z" />
            <glyph unicode="1" horiz-adv-x="665" d="M66 1081v115q94 0 152 13.5t90 41t43 72.5t11 111h134v-1434h-144v1081h-286z" />
            <glyph unicode="2" horiz-adv-x="1077" d="M96 0q0 168 27 282.5t80 193.5t133 131t184 100q63 27 122.5 56.5t105 69t72 95t26.5 133.5q0 123 -78 194.5t-217 71.5q-72 0 -129 -22.5t-99 -64.5t-64.5 -100.5t-22.5 -131.5h-140q0 100 35 183t95.5 142.5t143.5 91t181 31.5t179 -27.5t137.5 -80t87 -128 t30.5 -169.5q0 -100 -39 -174t-97 -127.5t-127 -89t-128 -60.5q-100 -47 -166 -92t-104.5 -98.5t-54 -122t-15.5 -160.5h737v-127h-895z" />
            <glyph unicode="3" horiz-adv-x="1124" d="M68 426h139q0 -74 25.5 -132t70.5 -100t107.5 -65t136.5 -23t134 22t102 60.5t64.5 91t22.5 111.5q0 127 -80.5 209t-242.5 82h-109v125h109q150 0 223.5 73.5t73.5 190.5q0 121 -81 188.5t-216 67.5q-152 0 -228.5 -78t-76.5 -205h-140q0 92 32 168t89.5 130.5t137 84 t178.5 29.5q96 0 177 -27.5t140 -78t93 -122t34 -157.5q0 -127 -66.5 -213t-183.5 -115q127 -31 202 -122t75 -228q0 -92 -35 -169t-98.5 -131t-149.5 -85t-186 -31q-98 0 -185.5 31t-151 89.5t-100 141.5t-36.5 187z" />
            <glyph unicode="4" horiz-adv-x="1118" d="M143 492v942h140v-816h405v453h139v-453h234v-126h-234v-492h-139v492h-545z" />
            <glyph unicode="5" horiz-adv-x="1208" d="M141 453h142q0 -72 23.5 -134.5t67.5 -109.5t105.5 -75t136.5 -28q78 0 141.5 28t107.5 75t67.5 109.5t23.5 134.5q0 70 -23.5 133t-67.5 109t-107.5 74t-141.5 28q-104 0 -179 -47.5t-115 -139.5h-148v824h819v-127h-690v-559q23 43 59.5 75.5t81.5 54t95.5 33 t97.5 11.5q111 0 196 -37t143 -100.5t89 -149.5t31 -182t-34 -182.5t-96.5 -152t-150.5 -103.5t-199 -38q-109 0 -195.5 38t-149 103.5t-96.5 151.5t-34 183z" />
            <glyph unicode="6" horiz-adv-x="1112" d="M76 453q0 76 21.5 144.5t58.5 127.5l440 709h162l-352 -551q23 23 63.5 34t81.5 11q109 0 198 -38t151.5 -102.5t96 -151.5t33.5 -183t-33.5 -182.5t-96 -152t-151.5 -103.5t-198 -38t-196 38t-149.5 103.5t-96 151.5t-33.5 183zM215 453q0 -72 23.5 -134.5t67.5 -109.5 t106.5 -75t138.5 -28q78 0 140.5 28t107.5 75t68.5 109.5t23.5 134.5q0 70 -23.5 133t-68.5 111t-107.5 76t-140.5 28q-76 0 -138.5 -28t-106.5 -76t-67.5 -111.5t-23.5 -132.5z" />
            <glyph unicode="7" horiz-adv-x="929" d="M78 1307v127h862l-661 -1434h-150l610 1307h-661z" />
            <glyph unicode="8" horiz-adv-x="1169" d="M113 393q0 59 16 116.5t50 105t83 81t117 49.5q-123 35 -180.5 123t-57.5 197q0 82 31 153.5t88 125t139 83t187 29.5q102 0 184 -30.5t139.5 -83t88 -124t30.5 -153.5q0 -109 -57.5 -197t-179.5 -123q68 -16 116.5 -49.5t82.5 -82t50.5 -104.5t16.5 -116 q0 -86 -33 -161.5t-94.5 -132t-148 -89.5t-195.5 -33q-111 0 -198 32t-148.5 88.5t-94 132t-32.5 163.5zM252 393q0 -61 23.5 -113.5t66.5 -91t104.5 -60.5t139.5 -22q76 0 137 23t104 60.5t67 90t24 113.5q0 59 -23 111.5t-66 91.5t-104 61.5t-139 22.5q-80 0 -141.5 -22.5 t-104.5 -60.5t-65.5 -90t-22.5 -114zM283 1059q0 -113 80 -188.5t223 -75.5t223 75.5t80 188.5q0 115 -81 191.5t-222 76.5t-222 -75.5t-81 -192.5z" />
            <glyph unicode="9" horiz-adv-x="1112" d="M82 981q0 96 34 182t96 151.5t151 103.5t198 38q106 0 194.5 -38t151 -103.5t96 -151.5t33.5 -182q0 -76 -21.5 -144.5t-58.5 -127.5l-440 -709h-162l353 551q-20 -23 -57.5 -34t-71.5 -11q-113 0 -205 37t-156.5 100.5t-99.5 150.5t-35 187zM221 981q0 -72 23.5 -134.5 t68.5 -110.5t107.5 -75.5t140.5 -27.5q76 0 138.5 27.5t106.5 75.5t67.5 110.5t23.5 134.5q0 70 -23.5 133.5t-67.5 110.5t-106.5 74.5t-138.5 27.5q-78 0 -140.5 -27.5t-107.5 -74.5t-68.5 -110.5t-23.5 -133.5z" />
            <glyph unicode=":" horiz-adv-x="471" d="M113 111q0 53 34.5 89t85.5 36q53 0 89 -36t36 -89q0 -51 -35.5 -86t-89.5 -35q-51 0 -85.5 35t-34.5 86zM113 807q0 51 34.5 87t85.5 36q53 0 89 -36t36 -87q0 -53 -35.5 -88t-89.5 -35q-51 0 -85.5 35t-34.5 88z" />
            <glyph unicode=";" horiz-adv-x="481" d="M113 111q0 53 35.5 89t91.5 36q74 0 116.5 -57.5t42.5 -145.5q0 -147 -73.5 -208t-198.5 -63v74q119 0 145 84q12 29 13.5 49.5t-0.5 36.5q-8 -8 -22.5 -12t-29.5 -4q-53 0 -86.5 35t-33.5 86zM113 807q0 53 34.5 89t85.5 36q53 0 89 -36t36 -89q0 -51 -35.5 -86 t-89.5 -35q-51 0 -85.5 35t-34.5 86z" />
            <glyph unicode="&#x3c;" d="M63 530v101l1039 379v-129l-842 -299l842 -301v-129z" />
            <glyph unicode="=" d="M170 348v121h827v-121h-827zM170 692v121h827v-121h-827z" />
            <glyph unicode="&#x3e;" d="M66 152v129l841 301l-841 299v129l1038 -379v-101z" />
            <glyph unicode="?" horiz-adv-x="1017" d="M45 1010q0 102 34 185t94 141.5t143 90t182 31.5q98 0 179 -26.5t137 -76.5t88 -122t32 -162q0 -80 -23.5 -138.5t-59.5 -101.5t-75 -72.5t-69 -49.5q-49 -33 -83 -60.5t-56.5 -62.5t-33 -82t-10.5 -119h-135q0 78 12.5 136.5t36 102.5t60.5 79.5t88 68.5q31 18 66.5 44 t67.5 60.5t52.5 83t20.5 111.5q0 127 -77 193.5t-218 66.5q-70 0 -127.5 -22.5t-99.5 -64.5t-64.5 -101.5t-22.5 -132.5h-139zM332 104q0 53 35.5 90t89.5 37q53 0 90 -36.5t37 -90.5q0 -53 -37 -90t-90 -37t-89 37t-36 90z" />
            <glyph unicode="@" horiz-adv-x="1796" d="M66 422q0 193 68.5 348.5t185 263t269 165.5t322.5 58q193 0 345.5 -49t258 -143t162 -231.5t56.5 -313.5q0 -164 -19.5 -281.5t-58.5 -193.5t-99.5 -110.5t-142.5 -34.5q-100 0 -160.5 62.5t-74.5 162.5v70q-41 -86 -125 -139.5t-193 -53.5q-92 0 -169 34t-132 91 t-85 134t-30 161q0 86 30 161.5t85 134t132 92.5t169 34q109 0 193 -53.5t125 -139.5v174h112v-620q0 -100 40 -149.5t102 -49.5q43 0 77.5 26.5t59 86t37 158t12.5 243.5q0 152 -48 269.5t-139.5 197.5t-222.5 122t-297 42q-145 0 -277 -50t-233.5 -144.5t-161 -229.5 t-59.5 -305q0 -137 49.5 -267t145.5 -230.5t241.5 -162t339.5 -61.5q102 0 228.5 22.5t251.5 92.5l45 -92q-137 -78 -275.5 -104t-249.5 -26q-223 0 -390 71t-278.5 186.5t-166.5 264t-55 306.5zM559 422q0 -63 22.5 -120.5t62.5 -100.5t96 -69t124 -26q72 0 129.5 26 t98.5 69t63.5 100t22.5 121q0 63 -22.5 121.5t-63.5 101.5t-98.5 68.5t-129.5 25.5q-68 0 -124 -25.5t-96 -68.5t-62.5 -101.5t-22.5 -121.5z" />
            <glyph unicode="A" horiz-adv-x="1118" d="M12 0l494 1434h106l494 -1434h-148l-88 256h-622l-88 -256h-148zM291 383h536l-268 827z" />
            <glyph unicode="B" horiz-adv-x="1193" d="M170 0v1434h489q113 0 191 -35t127 -89.5t71.5 -122t22.5 -132.5q0 -63 -20.5 -119.5t-55 -99.5t-82 -73t-100.5 -40q47 -6 95 -32.5t86 -71t62.5 -103.5t24.5 -129q0 -66 -23.5 -134.5t-74.5 -124.5t-131 -92t-193 -36h-489zM309 127h357q70 0 122 22.5t85.5 60.5t50 85 t16.5 96q0 45 -16.5 93t-50 86t-84 62.5t-117.5 24.5h-363v-530zM309 784h357q68 0 118 23.5t82.5 61.5t49 84t16.5 91q0 47 -16.5 94.5t-50.5 84.5t-85 60.5t-121 23.5h-350v-523z" />
            <glyph unicode="C" horiz-adv-x="1587" d="M88 719q0 145 50 279.5t143.5 237.5t227.5 165.5t302 62.5q152 0 270.5 -40t204.5 -108.5t139.5 -162.5t75.5 -203h-145q-20 82 -63.5 153t-110 123t-155.5 81.5t-200 29.5q-141 0 -251.5 -51t-187.5 -137t-117 -197.5t-40 -232.5q0 -127 42 -239.5t122 -197.5 t196 -135.5t263 -50.5q84 0 163 24.5t143.5 67.5t113.5 102.5t74 131.5h153q-29 -96 -89 -179t-146 -143.5t-194.5 -95.5t-233.5 -35q-176 0 -314.5 60.5t-236 164t-148.5 238.5t-51 287z" />
            <glyph unicode="D" horiz-adv-x="1421" d="M170 0v1434h420q178 0 316 -61.5t233.5 -162t144.5 -229.5t49 -264t-49 -264t-144.5 -229.5t-233.5 -162t-316 -61.5h-420zM309 127h281q143 0 254.5 50t188.5 133t117 188.5t40 218.5t-40 218t-117 188t-188.5 133.5t-254.5 50.5h-281v-1180z" />
            <glyph unicode="E" horiz-adv-x="1112" d="M170 0v1434h782v-127h-643v-531h643v-127h-643v-522h643v-127h-782z" />
            <glyph unicode="F" horiz-adv-x="1101" d="M170 0v1434h782v-127h-643v-568h643v-127h-643v-612h-139z" />
            <glyph unicode="G" horiz-adv-x="1705" d="M88 717q0 145 50 280.5t145.5 238.5t231.5 165.5t306 62.5q117 0 217.5 -31.5t177 -86t128 -127t69.5 -156.5h-143q-16 57 -57.5 107.5t-99.5 87t-132 58t-160 21.5q-139 0 -247.5 -52t-185.5 -138t-117 -197.5t-40 -232.5t38 -232.5t115 -197.5t189.5 -138.5 t264.5 -52.5q117 0 207 34t154.5 92.5t101 139t49.5 175.5h-402v127h701v-127h-152q-18 -127 -69.5 -231.5t-135.5 -179.5t-202.5 -116t-268.5 -41q-176 0 -313 62.5t-230.5 166t-141.5 238.5t-48 281z" />
            <glyph unicode="H" horiz-adv-x="1357" d="M170 0v1434h139v-658h738v658h141v-1434h-141v649h-738v-649h-139z" />
            <glyph unicode="I" horiz-adv-x="483" d="M170 0v1434h143v-1434h-143z" />
            <glyph unicode="J" horiz-adv-x="1097" d="M33 444h139q0 -80 24.5 -144t67.5 -109.5t102.5 -70t129.5 -24.5q143 0 227 93.5t84 252.5v992h141v-992q0 -104 -31.5 -191t-91 -149.5t-142.5 -97.5t-187 -35q-102 0 -187.5 35t-147 97.5t-95 150.5t-33.5 192z" />
            <glyph unicode="K" horiz-adv-x="1175" d="M170 0v1434h139v-674l668 674h180l-704 -717l704 -717h-180l-668 672v-672h-139z" />
            <glyph unicode="L" horiz-adv-x="864" d="M170 0v1434h139v-1307h494v-127h-633z" />
            <glyph unicode="M" horiz-adv-x="1658" d="M170 0v1434h135l524 -1223l525 1223h135v-1434h-139v1108l-465 -1108h-111l-465 1108v-1108h-139z" />
            <glyph unicode="N" horiz-adv-x="1355" d="M170 0v1434h156l718 -1192v1192h142v-1434h-156l-721 1192v-1192h-139z" />
            <glyph unicode="O" horiz-adv-x="1650" d="M88 717q0 145 50 280.5t145.5 238.5t232.5 165.5t309 62.5t308.5 -62.5t231.5 -165.5t146.5 -238.5t51.5 -280.5t-51.5 -280.5t-146.5 -239t-231.5 -166t-308.5 -62.5t-309 62.5t-232.5 166t-145.5 238.5t-50 281zM233 717q0 -121 41 -232.5t117 -197.5t185.5 -138.5 t248.5 -52.5q137 0 247 52.5t186.5 138.5t117.5 197.5t41 232.5t-41 232.5t-117.5 197.5t-186 138t-247.5 52q-139 0 -248.5 -52t-185.5 -138t-117 -197.5t-41 -232.5z" />
            <glyph unicode="P" horiz-adv-x="1220" d="M170 0v1434h494q109 0 197.5 -38t151 -103.5t96.5 -151.5t34 -183q0 -96 -34 -182t-96.5 -151.5t-151.5 -103.5t-197 -38h-355v-483h-139zM309 610h355q78 0 140 28t106 76t67.5 110.5t23.5 133.5q0 70 -23.5 133.5t-67.5 111.5t-106.5 76t-139.5 28h-355v-697z" />
            <glyph unicode="Q" horiz-adv-x="1650" d="M88 717q0 145 50 280.5t145.5 238.5t232.5 165.5t309 62.5t308.5 -62.5t231.5 -165.5t146.5 -238.5t51.5 -280.5q0 -139 -43 -262t-122 -218.5t-186.5 -159t-236.5 -85.5l131 -185l-123 -61l-160 223q-172 0 -308 62.5t-231.5 167t-145.5 238.5t-50 280zM233 717 q0 -121 41 -232.5t117 -197.5t185.5 -138.5t248.5 -52.5q137 0 247 52.5t186.5 138.5t117.5 197.5t41 232.5t-41 232.5t-117.5 197.5t-186 138t-247.5 52q-139 0 -248.5 -52t-185.5 -138t-117 -197.5t-41 -232.5z" />
            <glyph unicode="R" horiz-adv-x="1232" d="M170 0v1434h494q109 0 197.5 -38t151 -103.5t96.5 -151.5t34 -183q0 -80 -23.5 -151.5t-66.5 -132t-105.5 -104.5t-140.5 -64l321 -506h-161l-305 483h-353v-483h-139zM309 610h355q78 0 140 28t106 76t67.5 110.5t23.5 133.5q0 70 -23.5 133.5t-67.5 111.5t-106.5 76 t-139.5 28h-355v-697z" />
            <glyph unicode="S" horiz-adv-x="1171" d="M96 444h140q0 -158 99 -253t269 -95q150 0 241 73t91 200q0 76 -28.5 125t-74 80.5t-102.5 51t-113 33.5q-94 27 -179 56.5t-149.5 76t-102 118t-37.5 182.5q0 80 31.5 148.5t90 118.5t141.5 77.5t185 27.5q98 0 180 -30.5t140.5 -86t91 -135t34.5 -178.5h-139 q-4 141 -83 222t-220 81q-147 0 -229 -67.5t-82 -177.5q0 -72 26.5 -120t70.5 -80t102.5 -51.5t119.5 -35.5q82 -23 166 -52.5t149.5 -75.5t107.5 -117t42 -177q0 -100 -35.5 -177t-99 -129t-153 -80t-193.5 -28q-109 0 -200 34t-157.5 95.5t-103.5 149.5t-37 196z" />
            <glyph unicode="T" horiz-adv-x="970" d="M29 1307v127h913v-127h-389v-1307h-139v1307h-385z" />
            <glyph unicode="U" horiz-adv-x="1265" d="M150 451v983h139v-983q0 -72 24.5 -136.5t68.5 -112.5t107.5 -77t141.5 -29q80 0 143.5 29t108.5 77t69.5 112.5t24.5 136.5v983h139v-983q0 -98 -34.5 -185.5t-97 -153t-153 -104.5t-200.5 -39q-109 0 -198 39t-152.5 104.5t-97 152.5t-33.5 186z" />
            <glyph unicode="V" horiz-adv-x="1140" d="M10 1434h148l413 -1209l412 1209h147l-507 -1434h-105z" />
            <glyph unicode="W" horiz-adv-x="1937" d="M12 1434h148l389 -1198l364 1198h111l362 -1198l392 1198h147l-485 -1434h-109l-362 1196l-363 -1196h-108z" />
            <glyph unicode="X" horiz-adv-x="1093" d="M23 0l444 717l-444 717h157l367 -596l366 596h160l-446 -717l446 -717h-160l-366 594l-367 -594h-157z" />
            <glyph unicode="Y" d="M18 1434h162l455 -723l371 723h153l-731 -1434h-154l289 567z" />
            <glyph unicode="Z" horiz-adv-x="1130" d="M31 0l848 1307h-805v127h1042l-848 -1307h867v-127h-1104z" />
            <glyph unicode="[" horiz-adv-x="647" d="M170 -479v2107h393v-123h-260v-1863h260v-121h-393z" />
            <glyph unicode="\" horiz-adv-x="860" d="M-18 1583l120 53l746 -1732l-121 -51z" />
            <glyph unicode="]" horiz-adv-x="647" d="M84 -358h260v1863h-260v121h393v-2105h-393v121z" />
            <glyph unicode="^" horiz-adv-x="1286" d="M123 662l467 874h100l473 -874h-149l-373 708l-371 -708h-147z" />
            <glyph unicode="_" horiz-adv-x="1146" d="M61 -102h1024v-99h-1024v99z" />
            <glyph unicode="`" horiz-adv-x="858" d="M123 1384l65 107l510 -281l-65 -106z" />
            <glyph unicode="a" horiz-adv-x="1212" d="M88 453q0 96 34 183t95.5 151.5t148.5 102.5t191 38q119 0 213 -57.5t139 -155.5v192h133v-907h-133v190q-45 -96 -139 -154.5t-213 -58.5q-104 0 -191 38t-148.5 103.5t-95.5 151.5t-34 183zM221 453q0 -72 24.5 -135.5t68.5 -111.5t107.5 -77t141.5 -29q80 0 143.5 29 t108.5 77t69.5 111.5t24.5 135.5t-24.5 136t-69.5 112.5t-108.5 77t-143.5 28.5q-78 0 -141.5 -28.5t-107.5 -77t-68.5 -113t-24.5 -135.5z" />
            <glyph unicode="b" horiz-adv-x="1214" d="M170 0v1434h133v-719q45 98 139.5 155.5t212.5 57.5q104 0 191.5 -38t149 -102.5t95 -151.5t33.5 -183t-33.5 -182.5t-95 -152t-148.5 -103.5t-192 -38q-119 0 -213 58.5t-139 154.5v-190h-133zM303 453q0 -72 24.5 -135.5t69.5 -111.5t108.5 -77t143.5 -29 q78 0 141.5 29t107.5 77t68.5 111.5t24.5 135.5t-24.5 136t-68.5 112.5t-107.5 77t-141.5 28.5q-80 0 -143.5 -28.5t-108.5 -77t-69.5 -113t-24.5 -135.5z" />
            <glyph unicode="c" horiz-adv-x="1073" d="M94 455q0 92 30 178t86 151.5t141 105.5t196 40q109 0 186.5 -31t128.5 -81t77 -113.5t32 -129.5h-133q-6 47 -24.5 90.5t-52.5 75t-86 50t-126 18.5q-80 0 -139.5 -29.5t-99.5 -79t-60.5 -113t-20.5 -132.5q0 -72 19.5 -135.5t60.5 -112.5t101.5 -78t144.5 -29 q133 0 198.5 59.5t88.5 151.5h133q-10 -70 -42 -131t-84 -106t-128 -71t-174 -26q-111 0 -196 40t-141 105.5t-86 152.5t-30 180z" />
            <glyph unicode="d" horiz-adv-x="1212" d="M88 453q0 96 34 183t95.5 151.5t148.5 102.5t191 38q119 0 213 -57.5t139 -155.5v719h133v-1434h-133v190q-45 -96 -139 -154.5t-213 -58.5q-104 0 -191 38t-148.5 103.5t-95.5 151.5t-34 183zM221 453q0 -72 24.5 -135.5t68.5 -111.5t107.5 -77t141.5 -29q80 0 143.5 29 t108.5 77t69.5 111.5t24.5 135.5t-24.5 136t-69.5 112.5t-108.5 77t-143.5 28.5q-78 0 -141.5 -28.5t-107.5 -77t-68.5 -113t-24.5 -135.5z" />
            <glyph unicode="e" horiz-adv-x="1062" d="M94 455q0 100 30 187t87 150.5t140 99.5t190 36q88 0 164.5 -31t133 -86t89.5 -129t33 -160q0 -18 -1.5 -41.5t-5.5 -56.5h-727q2 -66 20.5 -126t57.5 -105.5t98.5 -72t143.5 -26.5q113 0 178.5 49.5t87.5 116.5h135q-12 -55 -45 -106.5t-84 -90t-119.5 -62.5t-152.5 -24 q-115 0 -200 38t-141 103.5t-84 152.5t-28 184zM229 528h600q0 68 -22.5 122.5t-62 92t-93 59t-114.5 21.5q-135 0 -218 -78.5t-90 -216.5z" />
            <glyph unicode="f" horiz-adv-x="686" d="M45 793v114h207v203q0 117 29.5 183.5t73.5 100t94.5 43t91.5 9.5q45 0 74.5 -7t52.5 -18v-114q-25 10 -49.5 14t-61.5 4q-31 0 -61.5 -5t-55 -25.5t-40 -61.5t-15.5 -111v-215h283v-114h-283v-793h-133v793h-207z" />
            <glyph unicode="g" horiz-adv-x="1208" d="M88 455q0 96 34 182t95.5 150.5t148.5 102.5t191 38q119 0 213 -57.5t139 -155.5v192h133v-977q0 -129 -32.5 -220t-96 -148.5t-153.5 -83t-203 -25.5q-119 0 -204 35t-140 92.5t-83 133t-32 157.5h135q4 -59 23.5 -112.5t58.5 -94.5t98.5 -65.5t143.5 -24.5 q82 0 147.5 19.5t110.5 61.5t69.5 109.5t24.5 165.5v263q-45 -98 -139 -157t-213 -59q-104 0 -191 38t-148.5 103.5t-95.5 152.5t-34 184zM221 455q0 -72 24.5 -136.5t68.5 -112.5t107.5 -77t141.5 -29q80 0 143.5 29t108.5 77t69.5 112.5t24.5 136.5t-24.5 135t-69.5 111.5 t-108.5 77t-143.5 28.5q-78 0 -141.5 -28.5t-107.5 -77t-68.5 -112t-24.5 -134.5z" />
            <glyph unicode="h" horiz-adv-x="1150" d="M170 0v1434h133v-723q39 92 127 154.5t217 62.5q92 0 161 -30t112 -83q41 -51 60 -118.5t19 -164.5v-532h-133v494q0 68 -14 125t-47 99t-83 66.5t-120 24.5q-76 0 -132 -29.5t-93 -79t-55.5 -111t-18.5 -124.5v-465h-133z" />
            <glyph unicode="i" horiz-adv-x="473" d="M115 1262q0 53 34.5 88.5t86.5 35.5q53 0 88.5 -35.5t35.5 -88.5q0 -51 -35.5 -86t-88.5 -35q-51 0 -86 35t-35 86zM170 0v907h133v-907h-133z" />
            <glyph unicode="j" horiz-adv-x="473" d="M-49 -395q31 -10 52.5 -14.5t51.5 -4.5q53 0 84 41t31 115v1165h133v-1183q0 -139 -62.5 -203t-148.5 -64q-90 0 -141 25v123zM115 1262q0 53 35.5 88.5t87.5 35.5q51 0 86.5 -35.5t35.5 -88.5q0 -51 -35.5 -86t-86.5 -35t-87 35t-36 86z" />
            <glyph unicode="k" horiz-adv-x="931" d="M170 0v1434h133v-953l426 426h174l-448 -454l448 -453h-174l-426 424v-424h-133z" />
            <glyph unicode="l" horiz-adv-x="473" d="M170 0v1434h133v-1434h-133z" />
            <glyph unicode="m" horiz-adv-x="1662" d="M170 0v907h133v-198q12 43 37 82.5t61.5 69.5t83.5 48.5t103 18.5q127 0 199.5 -58.5t95.5 -167.5q12 45 39.5 86t67.5 72t89 49.5t109 18.5q160 0 240.5 -91.5t80.5 -265.5v-571h-135v535q0 143 -59.5 208.5t-155.5 65.5q-121 0 -186.5 -96.5t-65.5 -251.5v-461h-135 v510q0 84 -16.5 141.5t-45 92t-67.5 50t-86 15.5q-119 0 -186.5 -96.5t-67.5 -251.5v-461h-133z" />
            <glyph unicode="n" horiz-adv-x="1150" d="M170 0v907h133v-196q39 92 127 154.5t217 62.5q92 0 161 -30t112 -83q41 -51 60 -118.5t19 -164.5v-532h-133v494q0 68 -14 125t-47 99t-83 66.5t-120 24.5q-76 0 -132 -29.5t-93 -79t-55.5 -111t-18.5 -124.5v-465h-133z" />
            <glyph unicode="o" horiz-adv-x="1130" d="M88 453q0 96 34 183t96.5 151.5t149.5 102.5t195 38q109 0 198 -38t151.5 -102.5t96 -151.5t33.5 -183t-33.5 -182.5t-96 -152t-151.5 -103.5t-198 -38t-195.5 38t-149 103.5t-96.5 151.5t-34 183zM221 453q0 -72 24.5 -135.5t68.5 -111.5t107.5 -77t141.5 -29 q80 0 143.5 29t108.5 77t69.5 111.5t24.5 135.5t-24.5 136t-69.5 112.5t-108.5 77t-143.5 28.5q-78 0 -141.5 -28.5t-107.5 -77t-68.5 -113t-24.5 -135.5z" />
            <glyph unicode="p" horiz-adv-x="1214" d="M170 -526v1433h133v-192q45 98 139.5 155.5t212.5 57.5q104 0 191.5 -38t149 -102.5t95 -150.5t33.5 -182t-33.5 -183.5t-95 -153t-148.5 -103.5t-192 -38q-119 0 -213 58.5t-139 157.5v-719h-133zM303 455q0 -72 24.5 -136.5t69.5 -112.5t108.5 -77t143.5 -29 q78 0 141.5 29t107.5 77t68.5 112.5t24.5 136.5t-24.5 135t-68.5 111.5t-107.5 77t-141.5 28.5q-80 0 -143.5 -28.5t-108.5 -77t-69.5 -112t-24.5 -134.5z" />
            <glyph unicode="q" horiz-adv-x="1214" d="M90 455q0 96 34 182t95.5 150.5t148.5 102.5t191 38q119 0 213 -57.5t139 -155.5v192h133v-1433h-133v719q-45 -98 -139 -157t-213 -59q-104 0 -191 38t-148.5 103.5t-95.5 152.5t-34 184zM223 455q0 -72 24.5 -136.5t68.5 -112.5t107.5 -77t141.5 -29q80 0 143.5 29 t108.5 77t69.5 112.5t24.5 136.5t-24.5 135t-69.5 111.5t-108.5 77t-143.5 28.5q-78 0 -141.5 -28.5t-107.5 -77t-68.5 -112t-24.5 -134.5z" />
            <glyph unicode="r" horiz-adv-x="722" d="M170 0v907h133v-213q41 111 130 168.5t194 57.5q25 0 47 -3.5t39 -11.5v-123q-27 8 -44.5 10.5t-41.5 2.5q-84 0 -144.5 -32t-100.5 -85t-59.5 -124t-19.5 -151v-403h-133z" />
            <glyph unicode="s" horiz-adv-x="921" d="M90 307h131q0 -61 19.5 -102t53.5 -67.5t81 -38t100 -11.5q102 0 159.5 39t57.5 115q0 45 -22.5 71.5t-62.5 45t-94 33t-120 32.5q-55 14 -105 30.5t-88 43t-59.5 67.5t-21.5 105q0 63 25.5 111t70.5 81t106.5 49.5t133.5 16.5q74 0 138 -20.5t111.5 -59.5t74 -95.5 t26.5 -125.5h-131q0 94 -58.5 143t-162.5 49q-90 0 -146.5 -40t-56.5 -111q0 -41 18.5 -67t53 -43t85.5 -30.5t117 -31.5q55 -14 108.5 -29.5t95.5 -43.5t66.5 -70t24.5 -109q0 -131 -95 -199t-255 -68q-78 0 -146.5 19.5t-119.5 60.5t-82 102.5t-31 147.5z" />
            <glyph unicode="t" horiz-adv-x="673" d="M41 793v114h182v336h135v-336h263v-114h-263v-463q0 -74 12.5 -117t35 -65.5t53 -29.5t67.5 -7q29 0 66 3t61 7v-121q-27 -4 -69.5 -8t-83.5 -4q-45 0 -93.5 8t-89.5 40t-67.5 95.5t-26.5 171.5v490h-182z" />
            <glyph unicode="u" horiz-adv-x="1146" d="M147 375v532h136v-493q0 -68 14 -125.5t46 -99.5t81 -66.5t121 -24.5q76 0 132 30t93 79t55.5 110.5t18.5 124.5v465h133v-907h-133v197q-39 -92 -127 -156t-217 -64q-92 0 -161 31t-112 84q-41 51 -60.5 119t-19.5 164z" />
            <glyph unicode="v" horiz-adv-x="962" d="M14 907h146l319 -719l324 719h145l-422 -907h-96z" />
            <glyph unicode="w" horiz-adv-x="1464" d="M16 907h144l254 -704l252 704h133l250 -704l256 704h143l-350 -907h-97l-270 758l-268 -758h-96z" />
            <glyph unicode="x" horiz-adv-x="888" d="M47 0l320 455l-318 452h156l239 -348l240 348h154l-316 -452l320 -455h-156l-242 352l-241 -352h-156z" />
            <glyph unicode="y" horiz-adv-x="1163" d="M154 -133h135q8 -147 77.5 -223t211.5 -76q70 0 123 16.5t89.5 55t56 100t19.5 154.5v303q-39 -92 -125 -156t-215 -64q-102 0 -166.5 29t-111.5 82q-43 51 -60.5 119.5t-17.5 177.5v522h135v-483q0 -74 12.5 -134.5t43 -102.5t81 -65.5t127.5 -23.5q76 0 131.5 30t92 79 t55 110.5t18.5 124.5v465h133v-1013q0 -233 -107.5 -337t-316.5 -104q-412 0 -421 414z" />
            <glyph unicode="z" horiz-adv-x="882" d="M53 0l543 786h-522v121h753l-542 -786h544v-121h-776z" />
            <glyph unicode="{" horiz-adv-x="780" d="M113 494v112q25 0 57.5 10.5t61 33t49 57t20.5 84.5v550q0 72 25.5 125.5t65.5 89t90 53t100 17.5h127v-106h-99q-80 0 -127 -55.5t-47 -141.5v-549q0 -55 -18.5 -95t-46 -65.5t-59 -41t-58.5 -21.5q27 -6 58.5 -21.5t59 -43t46 -70.5t18.5 -107v-485q0 -86 47 -141.5 t127 -55.5h99v-106h-127q-49 0 -99.5 17.5t-90.5 52t-65.5 89t-25.5 125.5v490q0 53 -20.5 91t-49 61.5t-61.5 35t-57 11.5z" />
            <glyph unicode="|" horiz-adv-x="473" d="M178 -479v2105h119v-2105h-119z" />
            <glyph unicode="}" horiz-adv-x="780" d="M74 -373h96q80 0 127 55.5t47 141.5v485q0 63 18.5 106.5t46 71t59.5 43t58 21.5q-27 6 -58.5 21.5t-59 41t-46 65.5t-18.5 95v549q0 86 -47 141.5t-127 55.5h-96v106h125q49 0 99 -17.5t90 -53t65.5 -89t25.5 -125.5v-550q0 -49 20.5 -84t49.5 -57.5t61.5 -33 t57.5 -10.5v-112q-25 0 -57.5 -11.5t-61.5 -35t-49.5 -61.5t-20.5 -91v-490q0 -72 -25.5 -126t-65.5 -88.5t-90 -52t-99 -17.5h-125v106z" />
            <glyph unicode="~" horiz-adv-x="1044" d="M70 479v125q47 57 104 80t107 23q55 0 116.5 -19.5t124.5 -46.5q59 -25 118.5 -49.5t102.5 -24.5q70 0 127.5 36t98.5 75v-123q-47 -53 -107.5 -81t-120.5 -28q-49 0 -104 20.5t-125 51.5q-53 27 -114.5 47.5t-123.5 20.5q-53 0 -108 -30t-96 -77z" />
            <glyph unicode="&#xa1;" horiz-adv-x="579" d="M168 815q0 53 36 89t87 36q53 0 89 -36t36 -89q0 -51 -36 -87t-89 -36q-51 0 -87 36t-36 87zM219 502h146v-1030h-146v1030z" />
            <glyph unicode="&#xa2;" horiz-adv-x="1122" d="M115 575q0 86 25.5 167t76.5 145.5t125 107.5t172 52v223h107v-223q94 -8 160.5 -41t111.5 -81t67.5 -107.5t28.5 -121.5h-133q-6 47 -24.5 90t-52.5 75t-86 50.5t-126 18.5q-80 0 -139 -30t-99 -79t-60.5 -112.5t-20.5 -133.5q0 -72 19.5 -135t60.5 -112t101 -78 t144 -29q133 0 199 59.5t88 151.5h133q-20 -131 -110 -223t-262 -109v-221h-107v223q-98 8 -173 51.5t-125 108t-75.5 145t-25.5 168.5z" />
            <glyph unicode="&#xa3;" horiz-adv-x="1220" d="M74 729v107h139v44.5t-1 59.5t-1 56.5v35.5q0 90 35 167t94 133.5t141 88t178 31.5q100 0 183.5 -34t144 -94t93 -142t32.5 -178h-141q0 68 -20.5 126t-60.5 102t-98.5 68.5t-136.5 24.5q-123 0 -203 -65.5t-96 -176.5q-4 -14 -5 -41.5t-1 -62.5t1 -72t1 -69h389v-107 h-389q0 -18 -1 -67.5t-2 -103.5t-2 -101t-3 -62q-4 -104 -19.5 -166.5t-45.5 -103.5h716v-127h-876v109q37 45 56.5 107.5t25.5 172.5q2 16 4 63.5t3 102.5t3 104.5t2 69.5h-139z" />
            <glyph unicode="&#xa4;" horiz-adv-x="1587" d="M211 322l145 145q-47 61 -71.5 135t-24.5 156t24.5 155.5t71.5 135.5l-145 145l86 86l143 -145q59 47 133 72.5t162 25.5q90 0 164 -25.5t133 -70.5l142 141l86 -84l-144 -143q98 -127 98 -293q0 -82 -25.5 -158t-72.5 -135l144 -141l-86 -86l-142 141 q-59 -45 -133 -70.5t-164 -25.5q-88 0 -161.5 25.5t-131.5 72.5l-145 -143zM395 758q0 -72 23.5 -136.5t68.5 -112.5t107.5 -77t140.5 -29q80 0 143.5 29t108.5 77t69.5 112.5t24.5 136.5t-24.5 136t-69.5 112.5t-108.5 77t-143.5 28.5q-78 0 -140.5 -28.5t-107.5 -77 t-68.5 -113t-23.5 -135.5z" />
            <glyph unicode="&#xa5;" horiz-adv-x="1239" d="M-29 1434h162l490 -736l481 736h162l-557 -850h329v-103h-352v-188h352v-107h-352v-186h-127v186h-348v107h348v188h-348v103h326z" />
            <glyph unicode="&#xa6;" horiz-adv-x="473" d="M178 -479v964h119v-964h-119zM178 659v967h119v-967h-119z" />
            <glyph unicode="&#xa7;" horiz-adv-x="1185" d="M102 569q0 109 63.5 189t170.5 102q-74 47 -118 119t-44 172q0 84 35 150.5t96.5 112.5t144 70.5t179.5 24.5q98 0 181 -30.5t142.5 -86t93 -131t33.5 -165.5h-141q0 63 -22.5 116.5t-62.5 93.5t-97.5 62.5t-126.5 22.5q-135 0 -224.5 -59.5t-89.5 -180.5q0 -66 29 -111 t75 -75.5t105.5 -50t118.5 -35.5q102 -29 186 -60t143.5 -72.5t92.5 -100t33 -140.5q0 -53 -19.5 -102.5t-50.5 -88.5t-72 -65.5t-84 -34.5q178 -96 179 -291q0 -88 -35 -153.5t-95.5 -109.5t-144.5 -66.5t-182 -22.5q-104 0 -193.5 33t-153 90t-99 136t-35.5 173h141 q0 -68 24.5 -125t68.5 -98t106.5 -64.5t140.5 -23.5q141 0 228 52t87 179q0 57 -23.5 99.5t-67.5 74t-110.5 55t-152.5 46.5q-102 29 -186 59.5t-143.5 72.5t-91.5 99t-32 139zM246 582q0 -86 51 -133.5t176 -86.5q12 -6 51 -18t82 -25.5t82 -24.5t53 -15q43 2 82 20t69 48 t47 68t17 79q0 47 -14 79.5t-43 56t-72 42t-102 39.5q-10 6 -43 17t-73 23.5t-77.5 23.5t-58.5 18q-55 -2 -97 -20.5t-72 -48.5t-44 -68t-14 -74z" />
            <glyph unicode="&#xa8;" horiz-adv-x="1060" d="M168 1329q0 49 34 84t85 35q49 0 84 -35t35 -84t-35 -84t-84 -35q-51 0 -85 35t-34 84zM639 1329q0 49 34 84t85 35q49 0 84 -35t35 -84t-35 -84t-84 -35q-51 0 -85 35t-34 84z" />
            <glyph unicode="&#xa9;" horiz-adv-x="1652" d="M90 717q0 145 50 281.5t145.5 240.5t231.5 166.5t308 62.5t308.5 -62.5t231.5 -166.5t146.5 -240.5t51.5 -281.5t-51.5 -281.5t-146.5 -241t-231.5 -167t-308.5 -62.5t-308 62.5t-231.5 167t-145.5 240.5t-50 282zM203 717q0 -129 43 -248t123 -210t195.5 -146.5 t260.5 -55.5t261 55.5t197 146.5t124 210t43 248t-43 247.5t-124 210t-196.5 146.5t-261.5 55q-145 0 -260.5 -55t-195.5 -146.5t-123 -210t-43 -247.5zM403 719q0 84 29 161.5t83 137t131 95.5t175 36q88 0 157 -22.5t118 -62.5t79.5 -94.5t43.5 -117.5h-97 q-25 90 -99.5 150.5t-201.5 60.5q-76 0 -135 -28.5t-101 -77t-63.5 -110t-21.5 -128.5q0 -70 22.5 -132.5t66.5 -110.5t106.5 -75.5t142.5 -27.5q100 0 173.5 48t106.5 124h101q-16 -55 -51 -102.5t-84.5 -83t-112 -55t-133.5 -19.5q-102 0 -183.5 34.5t-136.5 94t-85 138.5 t-30 167z" />
            <glyph unicode="&#xaa;" horiz-adv-x="1212" d="M88 453q0 96 34 183t95.5 151.5t148.5 102.5t191 38q119 0 213 -57.5t139 -155.5v192h133v-907h-133v190q-45 -96 -139 -154.5t-213 -58.5q-104 0 -191 38t-148.5 103.5t-95.5 151.5t-34 183zM221 453q0 -72 24.5 -135.5t68.5 -111.5t107.5 -77t141.5 -29q80 0 143.5 29 t108.5 77t69.5 111.5t24.5 135.5t-24.5 136t-69.5 112.5t-108.5 77t-143.5 28.5q-78 0 -141.5 -28.5t-107.5 -77t-68.5 -113t-24.5 -135.5z" />
            <glyph unicode="&#xab;" horiz-adv-x="966" d="M82 553v86l401 348v-137l-290 -254l290 -254v-137zM483 553v86l402 348v-137l-291 -254l291 -254v-137z" />
            <glyph unicode="&#xac;" d="M170 606v119h827v-418h-133v299h-694z" />
            <glyph unicode="&#xad;" horiz-adv-x="602" d="M61 563v41h480v-41h-480z" />
            <glyph unicode="&#xae;" horiz-adv-x="1662" d="M90 717q0 145 51.5 281.5t146.5 240.5t233 166.5t310 62.5t310.5 -62.5t233.5 -166.5t146.5 -240.5t51.5 -281.5t-51.5 -281.5t-146.5 -241t-233.5 -167t-310.5 -62.5t-310 62.5t-233 167t-146.5 240.5t-51.5 282zM203 717q0 -129 43 -248t125 -210t197.5 -146.5 t262.5 -55.5t263 55.5t198 146.5t125 210t43 248t-43 247.5t-125 210t-197.5 146.5t-263.5 55q-147 0 -262.5 -55t-197.5 -146.5t-125 -210t-43 -247.5zM575 326v833h310q61 0 112.5 -22.5t87 -60.5t55 -89t19.5 -106q0 -92 -51 -164t-141 -96l186 -295h-113l-180 282h-184 v-282h-101zM676 698h198q84 0 132.5 53.5t48.5 129.5q0 78 -48.5 133t-132.5 55h-198v-371z" />
            <glyph unicode="&#xaf;" horiz-adv-x="1083" d="M176 1481v121h733v-121h-733z" />
            <glyph unicode="&#xb0;" horiz-adv-x="677" d="M45 1176q0 61 22.5 114t62.5 93t93 62.5t115 22.5q61 0 114.5 -22.5t93.5 -62.5t62.5 -93t22.5 -114t-22.5 -114.5t-62.5 -93.5t-93.5 -62.5t-114.5 -22.5t-114.5 22.5t-93.5 62.5t-62.5 93t-22.5 115zM145 1176q0 -41 15.5 -77t41 -61.5t60.5 -41t76 -15.5 q82 0 137 56.5t55 138.5q0 39 -14 74.5t-40.5 62t-61.5 42t-76 15.5t-76 -15.5t-60.5 -42t-41 -62.5t-15.5 -74z" />
            <glyph unicode="&#xb1;" d="M180 98v119h807v-119h-807zM180 795v120h336v347h133v-347h338v-120h-338v-342h-133v342h-336z" />
            <glyph unicode="&#xb2;" horiz-adv-x="743" d="M113 645q0 94 14 158.5t44 108.5t73 74t98 54q37 16 69.5 34t57.5 39.5t38 49t13 66.5q0 59 -38 94t-103 35q-70 0 -111 -42t-41 -118h-112q0 109 70.5 179.5t193.5 70.5q111 0 182.5 -58.5t71.5 -168.5q0 -53 -20.5 -93.5t-51.5 -69t-67.5 -50t-71.5 -37.5 q-102 -47 -141 -95.5t-39 -136.5h393v-94h-522z" />
            <glyph unicode="&#xb3;" horiz-adv-x="763" d="M98 885h113q0 -74 45 -117t119 -43t114.5 41t40.5 100q0 63 -39.5 103.5t-117.5 40.5h-68v90h68q74 0 109.5 35.5t35.5 95.5q0 59 -38 93t-103 34q-76 0 -112 -39t-36 -105h-112q0 98 63.5 166t192.5 68q111 0 184.5 -56.5t73.5 -158.5q0 -70 -38 -117t-97 -61 q66 -16 106.5 -67.5t40.5 -127.5q0 -106 -77 -167.5t-189 -61.5q-129 0 -204 70.5t-75 183.5z" />
            <glyph unicode="&#xb4;" horiz-adv-x="858" d="M84 1210l510 281l65 -107l-509 -280z" />
            <glyph unicode="&#xb5;" d="M168 -526v1433h135v-493q0 -68 14.5 -125.5t46 -99.5t81 -66.5t120.5 -24.5q76 0 132.5 30t93 79t55 110.5t18.5 124.5v465h133v-907h-133v197q-39 -92 -127 -156t-217 -64q-143 0 -217 97v-600h-135z" />
            <glyph unicode="&#xb6;" horiz-adv-x="1308" d="M31 1065q0 90 25.5 154.5t67.5 109.5t95 73t109.5 42t112 19t100.5 5h626v-114h-108v-1657h-127v1655h-332v-1655h-127v977q-94 0 -175 23.5t-140.5 71.5t-93 122t-33.5 174z" />
            <glyph unicode="&#xb7;" horiz-adv-x="471" d="M113 639q0 53 34.5 88t85.5 35q53 0 89 -35t36 -88q0 -51 -35.5 -86t-89.5 -35q-51 0 -85.5 35t-34.5 86z" />
            <glyph unicode="&#xb8;" horiz-adv-x="827" d="M236 -297h86q4 -45 32.5 -74.5t75.5 -29.5q53 0 83 33.5t30 82.5q0 47 -31 78t-80 31q-27 0 -51.5 -11.5t-44.5 -54.5h-76v242h92v-158q16 27 44 40.5t59 13.5q72 0 124 -49.5t52 -131.5q0 -37 -13.5 -71.5t-38 -62t-62.5 -44t-87 -16.5q-27 0 -58.5 9t-60 30.5t-50 56.5 t-25.5 86z" />
            <glyph unicode="&#xb9;" horiz-adv-x="518" d="M96 1217v81q53 0 87 8.5t52.5 25t25.5 42t7 60.5h103v-789h-115v572h-160z" />
            <glyph unicode="&#xba;" horiz-adv-x="1130" d="M88 453q0 96 34 183t96.5 151.5t149.5 102.5t195 38q109 0 198 -38t151.5 -102.5t96 -151.5t33.5 -183t-33.5 -182.5t-96 -152t-151.5 -103.5t-198 -38t-195.5 38t-149 103.5t-96.5 151.5t-34 183zM221 453q0 -72 24.5 -135.5t68.5 -111.5t107.5 -77t141.5 -29 q80 0 143.5 29t108.5 77t69.5 111.5t24.5 135.5t-24.5 136t-69.5 112.5t-108.5 77t-143.5 28.5q-78 0 -141.5 -28.5t-107.5 -77t-68.5 -113t-24.5 -135.5z" />
            <glyph unicode="&#xbb;" horiz-adv-x="966" d="M82 205v137l291 254l-291 254v137l401 -348v-86zM483 205v137l291 254l-291 254v137l402 -348v-86z" />
            <glyph unicode="&#xbc;" horiz-adv-x="1808" d="M125 1217v81q53 0 87 8.5t52.5 25t25.5 42t7 60.5h100v-789h-114v572h-158zM326 -70l821 1635l108 -60l-821 -1634zM1114 254v534h113v-436h198v238h113v-238h119v-98h-119v-254h-113v254h-311z" />
            <glyph unicode="&#xbd;" horiz-adv-x="1808" d="M125 1217v81q53 0 87 8.5t52.5 25t25.5 42t7 60.5h100v-789h-114v572h-158zM326 -70l821 1635l108 -60l-821 -1634zM1112 0q0 94 14.5 158.5t43 108.5t71.5 74t98 54q37 16 70 33.5t57.5 39t39 49.5t14.5 67q0 59 -38 94t-106 35t-109.5 -42t-41.5 -118h-113 q0 109 70.5 179.5t193.5 70.5q111 0 182.5 -58.5t71.5 -169.5q0 -53 -19.5 -93t-50 -68.5t-68.5 -50t-73 -37.5q-102 -47 -141 -95.5t-39 -136.5h393v-94h-520z" />
            <glyph unicode="&#xbe;" horiz-adv-x="1808" d="M96 885h115q0 -74 45 -117t119 -43q72 0 113.5 41t41.5 100q0 63 -39.5 103.5t-119.5 40.5h-66v90h66q76 0 111.5 35.5t35.5 95.5q0 59 -39 93t-104 34q-76 0 -112 -39t-36 -105h-112q0 98 64.5 166t193.5 68q109 0 182.5 -56.5t73.5 -158.5q0 -70 -37 -117t-98 -61 q66 -16 107.5 -67.5t41.5 -127.5q0 -53 -20.5 -95t-57.5 -71.5t-86 -46t-104 -16.5q-129 0 -204 70.5t-75 183.5zM360 -70l822 1635l108 -60l-821 -1634zM1114 254v534h113v-436h198v238h113v-238h119v-98h-119v-254h-113v254h-311z" />
            <glyph unicode="&#xbf;" horiz-adv-x="1017" d="M84 -164q0 80 23.5 138.5t59.5 101.5t75 72.5t69 50.5q49 33 83 60.5t56.5 62t33 82t10.5 118.5h135q0 -78 -12.5 -136t-37 -102t-61.5 -79t-88 -68q-31 -20 -66.5 -45.5t-66.5 -60.5t-52.5 -83t-21.5 -112q0 -127 78 -193.5t219 -66.5q70 0 127.5 22.5t98 64.5t63 101.5 t22.5 133.5h142q0 -102 -34 -184.5t-94.5 -141.5t-143.5 -91t-181 -32t-179 26.5t-138.5 78t-88 122t-30.5 160.5zM432 803q0 53 38 90t91 37t89 -37t36 -90t-36 -90t-89 -37t-91 37t-38 90z" />
            <glyph unicode="&#xc0;" horiz-adv-x="1118" d="M12 0l494 1434h106l494 -1434h-148l-88 256h-622l-88 -256h-148zM291 383h536l-268 827zM297 1815l63 108l510 -281l-63 -108z" />
            <glyph unicode="&#xc1;" horiz-adv-x="1118" d="M12 0l494 1434h106l494 -1434h-148l-88 256h-622l-88 -256h-148zM274 1620l510 281l64 -107l-510 -281zM291 383h536l-268 827z" />
            <glyph unicode="&#xc2;" horiz-adv-x="1118" d="M12 0l494 1434h106l494 -1434h-148l-88 256h-622l-88 -256h-148zM201 1622l358 309l359 -309l-78 -88l-281 248l-278 -248zM291 383h536l-268 827z" />
            <glyph unicode="&#xc3;" horiz-adv-x="1118" d="M12 0l494 1434h106l494 -1434h-148l-88 256h-622l-88 -256h-148zM190 1683q43 82 105.5 119t128.5 37q51 0 89 -17.5t69.5 -37t60.5 -36.5t64 -17q47 0 81.5 31.5t55.5 76.5l100 -49q-41 -86 -105.5 -126t-129.5 -40q-51 0 -90 17.5t-71 37t-61.5 37t-62.5 17.5 q-47 0 -81 -31t-54 -78zM291 383h536l-268 827z" />
            <glyph unicode="&#xc4;" horiz-adv-x="1118" d="M12 0l494 1434h106l494 -1434h-148l-88 256h-622l-88 -256h-148zM203 1702q0 53 34.5 89t86.5 36q53 0 89 -36t36 -89q0 -51 -36 -86t-89 -35q-51 0 -86 35t-35 86zM291 383h536l-268 827zM674 1702q0 53 34.5 89t86.5 36q53 0 89 -36t36 -89q0 -51 -36 -86t-89 -35 q-51 0 -86 35t-35 86z" />
            <glyph unicode="&#xc5;" horiz-adv-x="1118" d="M12 0l494 1434h106l494 -1434h-148l-88 256h-622l-88 -256h-148zM291 383h536l-268 827zM309 1747q0 51 19.5 97t54.5 81t80 54.5t98 19.5q51 0 97.5 -20.5t81 -54.5t54 -80t19.5 -97t-19.5 -97t-54 -80t-81 -54.5t-97.5 -20.5q-53 0 -98 20.5t-80 54.5t-54.5 80 t-19.5 97zM401 1747q0 -66 46.5 -113t113.5 -47q66 0 113 48t47 114q0 33 -12.5 61.5t-34 50t-51 35t-62.5 13.5q-68 0 -114 -48.5t-46 -113.5z" />
            <glyph unicode="&#xc6;" horiz-adv-x="1734" d="M4 0l717 1434h850v-127h-643v-531h643v-127h-643v-522h643v-127h-783v256h-503l-127 -256h-154zM346 385h442v893z" />
            <glyph unicode="&#xc7;" horiz-adv-x="1587" d="M88 719q0 145 50 279.5t143.5 237.5t227.5 165.5t302 62.5q152 0 270.5 -40t204.5 -108.5t139.5 -162.5t75.5 -203h-145q-20 82 -63.5 153t-110 123t-155.5 81.5t-200 29.5q-141 0 -251.5 -51t-187.5 -137t-117 -197.5t-40 -232.5q0 -127 42 -239.5t122 -197.5 t196 -135.5t263 -50.5q84 0 163 24.5t143.5 67.5t113.5 102.5t74 131.5h153q-29 -94 -87 -176t-142 -142.5t-188.5 -96.5t-225.5 -38q-10 0 -17 1t-16 1v-118q33 47 111 47q70 0 117 -46.5t47 -121.5q0 -70 -50.5 -125.5t-148.5 -55.5q-25 0 -54.5 8.5t-58 27t-50 48 t-27.5 74.5h88q8 -35 34.5 -57.5t67.5 -22.5q51 0 81 30t30 73t-28 72.5t-75 29.5q-29 0 -55.5 -12t-44.5 -47h-76v200q-152 18 -271.5 84t-202.5 166.5t-127 227.5t-44 266z" />
            <glyph unicode="&#xc8;" horiz-adv-x="1112" d="M170 0v1434h782v-127h-643v-531h643v-127h-643v-522h643v-127h-782zM299 1796l66 107l509 -281l-65 -106z" />
            <glyph unicode="&#xc9;" horiz-adv-x="1112" d="M170 0v1434h782v-127h-643v-531h643v-127h-643v-522h643v-127h-782zM289 1642l510 281l65 -108l-510 -281z" />
            <glyph unicode="&#xca;" horiz-adv-x="1112" d="M170 0v1434h782v-127h-643v-531h643v-127h-643v-522h643v-127h-782zM213 1622l358 309l361 -309l-78 -88l-281 248l-280 -248z" />
            <glyph unicode="&#xcb;" horiz-adv-x="1112" d="M170 0v1434h782v-127h-643v-531h643v-127h-643v-522h643v-127h-782zM217 1702q0 53 35 89t86 36q53 0 89 -36t36 -89q0 -51 -36 -86t-89 -35q-51 0 -86 35t-35 86zM688 1702q0 53 35 89t86 36q53 0 89 -36t36 -89q0 -51 -36 -86t-89 -35q-51 0 -86 35t-35 86z" />
            <glyph unicode="&#xcc;" horiz-adv-x="483" d="M-45 1794l63 107l510 -281l-63 -107zM170 0v1434h143v-1434h-143z" />
            <glyph unicode="&#xcd;" horiz-adv-x="483" d="M-45 1622l510 281l63 -107l-510 -280zM170 0v1434h143v-1434h-143z" />
            <glyph unicode="&#xce;" horiz-adv-x="483" d="M-117 1622l359 309l358 -309l-78 -88l-280 248l-279 -248zM170 0v1434h143v-1434h-143z" />
            <glyph unicode="&#xcf;" horiz-adv-x="483" d="M-113 1702q0 53 36 89t87 36t87 -36t36 -89q0 -51 -36 -86t-87 -35t-87 35t-36 86zM170 0v1434h143v-1434h-143zM358 1702q0 53 36 89t87 36t87 -36t36 -89q0 -51 -36 -86t-87 -35t-87 35t-36 86z" />
            <glyph unicode="&#xd0;" horiz-adv-x="1421" d="M-59 666v104h229v664h420q176 0 314 -61.5t233.5 -162t145.5 -229.5t50 -264t-50 -264t-145.5 -229.5t-233.5 -162t-314 -61.5h-420v666h-229zM309 127h281q143 0 254.5 50t188.5 133t117 188.5t40 218.5t-40 218t-117 188t-188.5 133.5t-254.5 50.5h-281v-537h240v-104 h-240v-539z" />
            <glyph unicode="&#xd1;" horiz-adv-x="1355" d="M170 0v1434h156l718 -1192v1192h142v-1434h-156l-721 1192v-1192h-139zM301 1683q41 82 104.5 119t129.5 37q51 0 89 -17.5t69.5 -37t60 -36.5t61.5 -17q49 0 84 31.5t55 76.5l101 -49q-41 -86 -106.5 -126t-131.5 -40q-51 0 -89 17.5t-69.5 37t-61.5 37t-62 17.5 q-49 0 -82 -31t-54 -78z" />
            <glyph unicode="&#xd2;" horiz-adv-x="1650" d="M88 717q0 145 50 280.5t145.5 238.5t232.5 165.5t309 62.5t308.5 -62.5t231.5 -165.5t146.5 -238.5t51.5 -280.5t-51.5 -280.5t-146.5 -239t-231.5 -166t-308.5 -62.5t-309 62.5t-232.5 166t-145.5 238.5t-50 281zM233 717q0 -121 41 -232.5t117 -197.5t185.5 -138.5 t248.5 -52.5q137 0 247 52.5t186.5 138.5t117.5 197.5t41 232.5t-41 232.5t-117.5 197.5t-186 138t-247.5 52q-139 0 -248.5 -52t-185.5 -138t-117 -197.5t-41 -232.5zM518 1815l64 108l510 -281l-64 -108z" />
            <glyph unicode="&#xd3;" horiz-adv-x="1650" d="M88 717q0 145 50 280.5t145.5 238.5t232.5 165.5t309 62.5t308.5 -62.5t231.5 -165.5t146.5 -238.5t51.5 -280.5t-51.5 -280.5t-146.5 -239t-231.5 -166t-308.5 -62.5t-309 62.5t-232.5 166t-145.5 238.5t-50 281zM233 717q0 -121 41 -232.5t117 -197.5t185.5 -138.5 t248.5 -52.5q137 0 247 52.5t186.5 138.5t117.5 197.5t41 232.5t-41 232.5t-117.5 197.5t-186 138t-247.5 52q-139 0 -248.5 -52t-185.5 -138t-117 -197.5t-41 -232.5zM553 1642l510 281l63 -108l-510 -281z" />
            <glyph unicode="&#xd4;" horiz-adv-x="1650" d="M88 717q0 145 50 280.5t145.5 238.5t232.5 165.5t309 62.5t308.5 -62.5t231.5 -165.5t146.5 -238.5t51.5 -280.5t-51.5 -280.5t-146.5 -239t-231.5 -166t-308.5 -62.5t-309 62.5t-232.5 166t-145.5 238.5t-50 281zM233 717q0 -121 41 -232.5t117 -197.5t185.5 -138.5 t248.5 -52.5q137 0 247 52.5t186.5 138.5t117.5 197.5t41 232.5t-41 232.5t-117.5 197.5t-186 138t-247.5 52q-139 0 -248.5 -52t-185.5 -138t-117 -197.5t-41 -232.5zM467 1622l358 309l361 -309l-78 -88l-283 248l-278 -248z" />
            <glyph unicode="&#xd5;" horiz-adv-x="1650" d="M88 717q0 145 50 280.5t145.5 238.5t232.5 165.5t309 62.5t308.5 -62.5t231.5 -165.5t146.5 -238.5t51.5 -280.5t-51.5 -280.5t-146.5 -239t-231.5 -166t-308.5 -62.5t-309 62.5t-232.5 166t-145.5 238.5t-50 281zM233 717q0 -121 41 -232.5t117 -197.5t185.5 -138.5 t248.5 -52.5q137 0 247 52.5t186.5 138.5t117.5 197.5t41 232.5t-41 232.5t-117.5 197.5t-186 138t-247.5 52q-139 0 -248.5 -52t-185.5 -138t-117 -197.5t-41 -232.5zM457 1683q41 82 103.5 119t129.5 37q51 0 89 -17.5t70 -37t60.5 -36.5t61.5 -17q47 0 83 31.5t54 76.5 l102 -49q-41 -86 -106.5 -126t-130.5 -40q-51 0 -90 17.5t-71 37t-60.5 37t-61.5 17.5q-49 0 -83 -31t-54 -78z" />
            <glyph unicode="&#xd6;" horiz-adv-x="1650" d="M88 717q0 145 50 280.5t145.5 238.5t232.5 165.5t309 62.5t308.5 -62.5t231.5 -165.5t146.5 -238.5t51.5 -280.5t-51.5 -280.5t-146.5 -239t-231.5 -166t-308.5 -62.5t-309 62.5t-232.5 166t-145.5 238.5t-50 281zM233 717q0 -121 41 -232.5t117 -197.5t185.5 -138.5 t248.5 -52.5q137 0 247 52.5t186.5 138.5t117.5 197.5t41 232.5t-41 232.5t-117.5 197.5t-186 138t-247.5 52q-139 0 -248.5 -52t-185.5 -138t-117 -197.5t-41 -232.5zM467 1702q0 53 35 89t86 36q53 0 89 -36t36 -89q0 -51 -36 -86t-89 -35q-51 0 -86 35t-35 86zM938 1702 q0 53 35 89t86 36q53 0 89 -36t36 -89q0 -51 -36 -86t-89 -35q-51 0 -86 35t-35 86z" />
            <glyph unicode="&#xd7;" d="M244 338l248 250l-244 246l86 86l244 -246l249 250l95 -95l-250 -249l246 -246l-87 -86l-243 246l-250 -250z" />
            <glyph unicode="&#xd8;" horiz-adv-x="1650" d="M88 717q0 145 50 280.5t145.5 238.5t232.5 165.5t309 62.5q123 0 232 -34l67 153l97 -43l-64 -151q96 -47 172 -118t128 -159t79 -189.5t27 -205.5q0 -145 -51.5 -280.5t-146.5 -239t-231.5 -166t-308.5 -62.5q-141 0 -258 43l-71 -166l-99 41l72 168q-92 49 -162.5 120 t-119 157t-74 184t-25.5 201zM233 717q0 -166 76 -309.5t213 -227.5l484 1129q-82 29 -181 28q-139 0 -248.5 -52t-185.5 -138t-117 -197.5t-41 -232.5zM618 133q92 -37 207 -37q137 0 247 52.5t186.5 138.5t117.5 197.5t41 232.5q0 86 -21.5 167t-61.5 153.5t-99 131 t-133 97.5z" />
            <glyph unicode="&#xd9;" horiz-adv-x="1265" d="M150 451v983h139v-983q0 -72 24.5 -136.5t68.5 -112.5t107.5 -77t141.5 -29q80 0 143.5 29t108.5 77t69.5 112.5t24.5 136.5v983h139v-983q0 -98 -34.5 -185.5t-97 -153t-153 -104.5t-200.5 -39q-109 0 -198 39t-152.5 104.5t-97 152.5t-33.5 186zM360 1815l64 108 l510 -281l-64 -108z" />
            <glyph unicode="&#xda;" horiz-adv-x="1265" d="M150 451v983h139v-983q0 -72 24.5 -136.5t68.5 -112.5t107.5 -77t141.5 -29q80 0 143.5 29t108.5 77t69.5 112.5t24.5 136.5v983h139v-983q0 -98 -34.5 -185.5t-97 -153t-153 -104.5t-200.5 -39q-109 0 -198 39t-152.5 104.5t-97 152.5t-33.5 186zM319 1642l510 281 l66 -108l-510 -281z" />
            <glyph unicode="&#xdb;" horiz-adv-x="1265" d="M150 451v983h139v-983q0 -72 24.5 -136.5t68.5 -112.5t107.5 -77t141.5 -29q80 0 143.5 29t108.5 77t69.5 112.5t24.5 136.5v983h139v-983q0 -98 -34.5 -185.5t-97 -153t-153 -104.5t-200.5 -39q-109 0 -198 39t-152.5 104.5t-97 152.5t-33.5 186zM272 1624l359 307 l358 -307l-78 -90l-280 250l-279 -248z" />
            <glyph unicode="&#xdc;" horiz-adv-x="1265" d="M150 451v983h139v-983q0 -72 24.5 -136.5t68.5 -112.5t107.5 -77t141.5 -29q80 0 143.5 29t108.5 77t69.5 112.5t24.5 136.5v983h139v-983q0 -98 -34.5 -185.5t-97 -153t-153 -104.5t-200.5 -39q-109 0 -198 39t-152.5 104.5t-97 152.5t-33.5 186zM272 1702q0 53 36 89 t87 36t87 -36t36 -89q0 -51 -36 -86t-87 -35t-87 35t-36 86zM743 1702q0 53 35 89t88 36q51 0 87 -36t36 -89q0 -51 -35.5 -86t-87.5 -35q-53 0 -88 35t-35 86z" />
            <glyph unicode="&#xdd;" d="M18 1434h162l455 -723l371 723h153l-731 -1434h-154l289 567zM365 1649l509 280l66 -106l-510 -281z" />
            <glyph unicode="&#xde;" horiz-adv-x="1021" d="M170 0v1434h127v-273h192q111 0 198 -38t147.5 -100t92 -145t31.5 -171t-31.5 -170t-92 -144.5t-147.5 -100.5t-198 -38h-192v-254h-127zM297 369h192q80 0 143.5 27.5t106.5 74.5t66.5 107.5t23.5 128.5t-23.5 128t-66.5 107t-106.5 74.5t-143.5 27.5h-192v-675z" />
            <glyph unicode="&#xdf;" horiz-adv-x="1142" d="M150 0v1049q0 92 30.5 166.5t86 129t134 84t177.5 29.5q94 0 172.5 -27.5t136 -77.5t90.5 -121t33 -157q0 -129 -70 -216t-195 -116q66 -14 121.5 -46.5t95 -79t61 -103.5t21.5 -123q0 -102 -36.5 -179t-100 -130t-147.5 -80t-178 -27q-51 0 -95.5 7.5t-74.5 17.5v121 q41 -12 86 -18.5t84 -6.5q70 0 129 19.5t104 57.5t70.5 92t25.5 126q0 53 -21.5 105.5t-63.5 94.5t-104.5 67.5t-141.5 25.5h-99v121h94q74 0 130.5 21.5t94.5 58.5t57.5 86t19.5 104q0 119 -82 190.5t-217 71.5q-137 0 -216 -79.5t-79 -208.5v-1049h-133z" />
            <glyph unicode="&#xe0;" horiz-adv-x="1212" d="M88 453q0 96 34 183t95.5 151.5t148.5 102.5t191 38q119 0 213 -57.5t139 -155.5v192h133v-907h-133v190q-45 -96 -139 -154.5t-213 -58.5q-104 0 -191 38t-148.5 103.5t-95.5 151.5t-34 183zM221 453q0 -72 24.5 -135.5t68.5 -111.5t107.5 -77t141.5 -29q80 0 143.5 29 t108.5 77t69.5 111.5t24.5 135.5t-24.5 136t-69.5 112.5t-108.5 77t-143.5 28.5q-78 0 -141.5 -28.5t-107.5 -77t-68.5 -113t-24.5 -135.5zM274 1325l64 107l510 -281l-64 -107z" />
            <glyph unicode="&#xe1;" horiz-adv-x="1212" d="M88 453q0 96 34 183t95.5 151.5t148.5 102.5t191 38q119 0 213 -57.5t139 -155.5v192h133v-907h-133v190q-45 -96 -139 -154.5t-213 -58.5q-104 0 -191 38t-148.5 103.5t-95.5 151.5t-34 183zM221 453q0 -72 24.5 -135.5t68.5 -111.5t107.5 -77t141.5 -29q80 0 143.5 29 t108.5 77t69.5 111.5t24.5 135.5t-24.5 136t-69.5 112.5t-108.5 77t-143.5 28.5q-78 0 -141.5 -28.5t-107.5 -77t-68.5 -113t-24.5 -135.5zM281 1151l510 281l63 -107l-510 -281z" />
            <glyph unicode="&#xe2;" horiz-adv-x="1212" d="M88 453q0 96 34 183t95.5 151.5t148.5 102.5t191 38q119 0 213 -57.5t139 -155.5v192h133v-907h-133v190q-45 -96 -139 -154.5t-213 -58.5q-104 0 -191 38t-148.5 103.5t-95.5 151.5t-34 183zM217 1184l358 307l359 -307l-78 -90l-281 249l-278 -247zM221 453 q0 -72 24.5 -135.5t68.5 -111.5t107.5 -77t141.5 -29q80 0 143.5 29t108.5 77t69.5 111.5t24.5 135.5t-24.5 136t-69.5 112.5t-108.5 77t-143.5 28.5q-78 0 -141.5 -28.5t-107.5 -77t-68.5 -113t-24.5 -135.5z" />
            <glyph unicode="&#xe3;" horiz-adv-x="1212" d="M88 453q0 96 34 183t95.5 151.5t148.5 102.5t191 38q119 0 213 -57.5t139 -155.5v192h133v-907h-133v190q-45 -96 -139 -154.5t-213 -58.5q-104 0 -191 38t-148.5 103.5t-95.5 151.5t-34 183zM221 453q0 -72 24.5 -135.5t68.5 -111.5t107.5 -77t141.5 -29q80 0 143.5 29 t108.5 77t69.5 111.5t24.5 135.5t-24.5 136t-69.5 112.5t-108.5 77t-143.5 28.5q-78 0 -141.5 -28.5t-107.5 -77t-68.5 -113t-24.5 -135.5zM223 1227q43 82 105.5 119.5t128.5 37.5q51 0 89 -17t69.5 -37.5t60 -38t63.5 -17.5q47 0 82 32.5t56 77.5l100 -49 q-41 -88 -105.5 -128t-130.5 -40q-51 0 -90 17.5t-70.5 38t-61.5 38t-62 17.5q-47 0 -81 -32t-54 -79z" />
            <glyph unicode="&#xe4;" horiz-adv-x="1212" d="M88 453q0 96 34 183t95.5 151.5t148.5 102.5t191 38q119 0 213 -57.5t139 -155.5v192h133v-907h-133v190q-45 -96 -139 -154.5t-213 -58.5q-104 0 -191 38t-148.5 103.5t-95.5 151.5t-34 183zM203 1239q0 53 34.5 89t88.5 36q51 0 87 -36t36 -89q0 -51 -36 -86t-87 -35 q-53 0 -88 35t-35 86zM221 453q0 -72 24.5 -135.5t68.5 -111.5t107.5 -77t141.5 -29q80 0 143.5 29t108.5 77t69.5 111.5t24.5 135.5t-24.5 136t-69.5 112.5t-108.5 77t-143.5 28.5q-78 0 -141.5 -28.5t-107.5 -77t-68.5 -113t-24.5 -135.5zM674 1239q0 53 34.5 89t88.5 36 q51 0 87 -36t36 -89q0 -51 -36 -86t-87 -35q-53 0 -88 35t-35 86z" />
            <glyph unicode="&#xe5;" horiz-adv-x="1212" d="M88 453q0 96 34 183t95.5 151.5t148.5 102.5t191 38q119 0 213 -57.5t139 -155.5v192h133v-907h-133v190q-45 -96 -139 -154.5t-213 -58.5q-104 0 -191 38t-148.5 103.5t-95.5 151.5t-34 183zM221 453q0 -72 24.5 -135.5t68.5 -111.5t107.5 -77t141.5 -29q80 0 143.5 29 t108.5 77t69.5 111.5t24.5 135.5t-24.5 136t-69.5 112.5t-108.5 77t-143.5 28.5q-78 0 -141.5 -28.5t-107.5 -77t-68.5 -113t-24.5 -135.5zM309 1280q0 53 20.5 100t55.5 82t81 55.5t99 20.5t100.5 -20.5t82 -56.5t55 -83t20.5 -98q0 -53 -20.5 -99t-55 -82t-82 -56.5 t-100.5 -20.5t-99 20.5t-81 56.5t-55.5 82t-20.5 99zM397 1280q0 -70 49.5 -119t118.5 -49q72 0 120 49t48 121q0 70 -48 119t-120 49t-120 -49t-48 -121z" />
            <glyph unicode="&#xe6;" horiz-adv-x="1875" d="M88 453q0 96 34 183t95.5 151.5t148.5 102.5t191 38q119 0 213 -57.5t139 -155.5v192h133v-125q47 66 126 106t186 40q88 0 164.5 -31t133 -86t89.5 -129t33 -160q0 -18 -1 -41.5t-6 -56.5h-723q0 -70 19.5 -130.5t58.5 -104.5t98.5 -69.5t139.5 -25.5q115 0 178.5 49.5 t87.5 116.5h137q-12 -55 -46 -106.5t-85 -90t-119.5 -62.5t-152.5 -24q-111 0 -190.5 43t-127.5 109v-129h-133v190q-45 -96 -139 -154.5t-213 -58.5q-104 0 -191 38t-148.5 103.5t-95.5 151.5t-34 183zM221 453q0 -72 24.5 -135.5t68.5 -111.5t107.5 -77t141.5 -29 q80 0 143.5 29t108.5 77t69.5 111.5t24.5 135.5q0 74 -24.5 138t-69.5 112.5t-109.5 76t-142.5 27.5t-141.5 -28.5t-107.5 -77t-68.5 -113t-24.5 -135.5zM1047 528h595q0 63 -22.5 116.5t-61 90.5t-92 57.5t-114.5 20.5q-133 0 -216 -77t-89 -208z" />
            <glyph unicode="&#xe7;" horiz-adv-x="1073" d="M94 455q0 92 30 178t86 151.5t141 105.5t196 40q109 0 186.5 -31t128.5 -81t77 -113.5t32 -129.5h-133q-6 47 -24.5 90.5t-52.5 75t-86 50t-126 18.5q-80 0 -139.5 -29.5t-99.5 -79t-60.5 -113t-20.5 -132.5q0 -72 19.5 -135.5t60.5 -112.5t101.5 -78t144.5 -29 q133 0 198.5 59.5t88.5 151.5h133q-10 -68 -40 -127t-80 -104t-121.5 -71.5t-166.5 -28.5h-26v-127q33 47 110 47q70 0 117 -46.5t47 -121.5q0 -70 -50 -125.5t-147 -55.5q-25 0 -55.5 8.5t-58 27t-50 48t-28.5 74.5h88q8 -35 34.5 -57.5t69.5 -22.5q49 0 79 30t30 73 t-27.5 72.5t-74.5 29.5q-29 0 -55.5 -12t-45.5 -47h-75v213q-86 16 -153 60t-112 107.5t-67.5 140.5t-22.5 159z" />
            <glyph unicode="&#xe8;" horiz-adv-x="1062" d="M94 455q0 100 30 187t87 150.5t140 99.5t190 36q88 0 164.5 -31t133 -86t89.5 -129t33 -160q0 -18 -1.5 -41.5t-5.5 -56.5h-727q2 -66 20.5 -126t57.5 -105.5t98.5 -72t143.5 -26.5q113 0 178.5 49.5t87.5 116.5h135q-12 -55 -45 -106.5t-84 -90t-119.5 -62.5t-152.5 -24 q-115 0 -200 38t-141 103.5t-84 152.5t-28 184zM229 528h600q0 68 -22.5 122.5t-61 92t-92 59t-114.5 21.5q-135 0 -219 -78.5t-91 -216.5zM276 1325l64 107l510 -281l-64 -107z" />
            <glyph unicode="&#xe9;" horiz-adv-x="1062" d="M94 455q0 100 30 187t87 150.5t140 99.5t190 36q88 0 164.5 -31t133 -86t89.5 -129t33 -160q0 -18 -1.5 -41.5t-5.5 -56.5h-727q2 -66 20.5 -126t57.5 -105.5t98.5 -72t143.5 -26.5q113 0 178.5 49.5t87.5 116.5h135q-12 -55 -45 -106.5t-84 -90t-119.5 -62.5t-152.5 -24 q-115 0 -200 38t-141 103.5t-84 152.5t-28 184zM229 528h600q0 68 -22.5 122.5t-61 92t-92 59t-114.5 21.5q-135 0 -219 -78.5t-91 -216.5zM231 1151l510 281l64 -107l-510 -281z" />
            <glyph unicode="&#xea;" horiz-adv-x="1062" d="M94 455q0 100 30 187t87 150.5t140 99.5t190 36q88 0 164.5 -31t133 -86t89.5 -129t33 -160q0 -18 -1.5 -41.5t-5.5 -56.5h-727q2 -66 20.5 -126t57.5 -105.5t98.5 -72t143.5 -26.5q113 0 178.5 49.5t87.5 116.5h135q-12 -55 -45 -106.5t-84 -90t-119.5 -62.5t-152.5 -24 q-115 0 -200 38t-141 103.5t-84 152.5t-28 184zM180 1184l359 307l358 -307l-78 -90l-280 249l-279 -247zM229 528h600q0 68 -22.5 122.5t-61 92t-92 59t-114.5 21.5q-135 0 -219 -78.5t-91 -216.5z" />
            <glyph unicode="&#xeb;" horiz-adv-x="1062" d="M94 455q0 100 30 187t87 150.5t140 99.5t190 36q88 0 164.5 -31t133 -86t89.5 -129t33 -160q0 -18 -1.5 -41.5t-5.5 -56.5h-727q2 -66 20.5 -126t57.5 -105.5t98.5 -72t143.5 -26.5q113 0 178.5 49.5t87.5 116.5h135q-12 -55 -45 -106.5t-84 -90t-119.5 -62.5t-152.5 -24 q-115 0 -200 38t-141 103.5t-84 152.5t-28 184zM180 1239q0 51 35 87t86 36q53 0 88 -36t35 -87q0 -53 -35 -88t-88 -35q-51 0 -86 35t-35 88zM229 528h600q0 68 -22.5 122.5t-61 92t-92 59t-114.5 21.5q-135 0 -219 -78.5t-91 -216.5zM651 1239q0 51 35 87t86 36 q53 0 88 -36t35 -87q0 -53 -35 -88t-88 -35q-51 0 -86 35t-35 88z" />
            <glyph unicode="&#xec;" horiz-adv-x="473" d="M-49 1346l63 106l510 -281l-63 -106zM170 0v907h133v-907h-133z" />
            <glyph unicode="&#xed;" horiz-adv-x="473" d="M-49 1171l510 281l63 -106l-510 -281zM170 0v907h133v-907h-133z" />
            <glyph unicode="&#xee;" horiz-adv-x="473" d="M-121 1184l357 307l360 -307l-78 -90l-280 249l-279 -247zM170 0v907h133v-907h-133z" />
            <glyph unicode="&#xef;" horiz-adv-x="473" d="M-88 1239q0 53 35 89t86 36q53 0 88 -36t35 -89q0 -51 -35 -86t-88 -35q-51 0 -86 35t-35 86zM170 0v907h133v-907h-133zM340 1239q0 53 35 89t88 36q51 0 87 -36t36 -89q0 -51 -36 -86t-87 -35q-53 0 -88 35t-35 86z" />
            <glyph unicode="&#xf0;" horiz-adv-x="1153" d="M100 453q0 96 34 183t96.5 151.5t150.5 102.5t197 38q37 0 77.5 -11.5t61.5 -33.5l-142 229l-249 -137l-47 86l241 131l-147 242h159l107 -174l176 96l47 -84l-170 -96l258 -412q47 -78 76 -148.5t29 -162.5q0 -96 -34 -182.5t-96.5 -152t-150 -103.5t-196.5 -38t-197 38 t-150.5 103.5t-96.5 151.5t-34 183zM233 453q0 -72 25 -135.5t70 -111.5t108.5 -77t141.5 -29t141 29t108 77t70 111.5t25 135.5t-25 136t-70 112.5t-108.5 77t-140.5 28.5q-78 0 -141.5 -28.5t-108.5 -77t-70 -113t-25 -135.5z" />
            <glyph unicode="&#xf1;" horiz-adv-x="1150" d="M170 0v907h133v-196q39 92 127 154.5t217 62.5q92 0 161 -30t112 -83q41 -51 60 -118.5t19 -164.5v-532h-133v494q0 68 -14 125t-47 99t-83 66.5t-120 24.5q-76 0 -132 -29.5t-93 -79t-55.5 -111t-18.5 -124.5v-465h-133zM211 1227q43 82 105.5 119.5t127.5 37.5 q51 0 89 -17t70 -37.5t60.5 -38t63.5 -17.5q47 0 82 32.5t55 77.5l101 -49q-41 -88 -105.5 -128t-130.5 -40q-51 0 -90 17.5t-70.5 38t-61.5 38t-63 17.5q-47 0 -80.5 -32t-54.5 -79z" />
            <glyph unicode="&#xf2;" horiz-adv-x="1130" d="M88 453q0 96 34 183t96.5 151.5t149.5 102.5t195 38q109 0 198 -38t151.5 -102.5t96 -151.5t33.5 -183t-33.5 -182.5t-96 -152t-151.5 -103.5t-198 -38t-195.5 38t-149 103.5t-96.5 151.5t-34 183zM221 453q0 -72 24.5 -135.5t68.5 -111.5t107.5 -77t141.5 -29 q80 0 143.5 29t108.5 77t69.5 111.5t24.5 135.5t-24.5 136t-69.5 112.5t-108.5 77t-143.5 28.5q-78 0 -141.5 -28.5t-107.5 -77t-68.5 -113t-24.5 -135.5zM289 1325l63 107l510 -281l-63 -107z" />
            <glyph unicode="&#xf3;" horiz-adv-x="1130" d="M88 453q0 96 34 183t96.5 151.5t149.5 102.5t195 38q109 0 198 -38t151.5 -102.5t96 -151.5t33.5 -183t-33.5 -182.5t-96 -152t-151.5 -103.5t-198 -38t-195.5 38t-149 103.5t-96.5 151.5t-34 183zM221 453q0 -72 24.5 -135.5t68.5 -111.5t107.5 -77t141.5 -29 q80 0 143.5 29t108.5 77t69.5 111.5t24.5 135.5t-24.5 136t-69.5 112.5t-108.5 77t-143.5 28.5q-78 0 -141.5 -28.5t-107.5 -77t-68.5 -113t-24.5 -135.5zM248 1151l510 281l63 -107l-510 -281z" />
            <glyph unicode="&#xf4;" horiz-adv-x="1130" d="M88 453q0 96 34 183t96.5 151.5t149.5 102.5t195 38q109 0 198 -38t151.5 -102.5t96 -151.5t33.5 -183t-33.5 -182.5t-96 -152t-151.5 -103.5t-198 -38t-195.5 38t-149 103.5t-96.5 151.5t-34 183zM205 1184l358 309l359 -309l-78 -88l-281 247l-278 -247zM221 453 q0 -72 24.5 -135.5t68.5 -111.5t107.5 -77t141.5 -29q80 0 143.5 29t108.5 77t69.5 111.5t24.5 135.5t-24.5 136t-69.5 112.5t-108.5 77t-143.5 28.5q-78 0 -141.5 -28.5t-107.5 -77t-68.5 -113t-24.5 -135.5z" />
            <glyph unicode="&#xf5;" horiz-adv-x="1130" d="M88 453q0 96 34 183t96.5 151.5t149.5 102.5t195 38q109 0 198 -38t151.5 -102.5t96 -151.5t33.5 -183t-33.5 -182.5t-96 -152t-151.5 -103.5t-198 -38t-195.5 38t-149 103.5t-96.5 151.5t-34 183zM186 1227q43 82 105.5 119.5t128.5 37.5q51 0 89 -17t69.5 -37.5t60 -38 t63.5 -17.5q47 0 82 32.5t56 77.5l100 -49q-41 -88 -105.5 -128t-129.5 -40q-51 0 -90.5 17.5t-71 38t-61 38t-62.5 17.5q-47 0 -81 -32t-54 -79zM221 453q0 -72 24.5 -135.5t68.5 -111.5t107.5 -77t141.5 -29q80 0 143.5 29t108.5 77t69.5 111.5t24.5 135.5t-24.5 136 t-69.5 112.5t-108.5 77t-143.5 28.5q-78 0 -141.5 -28.5t-107.5 -77t-68.5 -113t-24.5 -135.5z" />
            <glyph unicode="&#xf6;" horiz-adv-x="1130" d="M88 453q0 96 34 183t96.5 151.5t149.5 102.5t195 38q109 0 198 -38t151.5 -102.5t96 -151.5t33.5 -183t-33.5 -182.5t-96 -152t-151.5 -103.5t-198 -38t-195.5 38t-149 103.5t-96.5 151.5t-34 183zM207 1239q0 53 34.5 89t86.5 36q53 0 89 -36t36 -89q0 -51 -36 -86 t-89 -35q-51 0 -86 35t-35 86zM221 453q0 -72 24.5 -135.5t68.5 -111.5t107.5 -77t141.5 -29q80 0 143.5 29t108.5 77t69.5 111.5t24.5 135.5t-24.5 136t-69.5 112.5t-108.5 77t-143.5 28.5q-78 0 -141.5 -28.5t-107.5 -77t-68.5 -113t-24.5 -135.5zM678 1239q0 53 35 89 t86 36q53 0 88 -36t35 -89q0 -51 -35 -86t-88 -35q-51 0 -86 35t-35 86z" />
            <glyph unicode="&#xf7;" d="M170 420v121h827v-121h-827zM463 195q0 18 9 39.5t25.5 40t39 30.5t47.5 12q27 0 49 -12t38.5 -30.5t26 -40t9.5 -39.5q0 -53 -35 -88t-88 -35q-51 0 -86 35t-35 88zM463 782q0 53 34.5 89t86.5 36q53 0 88 -35.5t35 -89.5q0 -51 -35 -85.5t-88 -34.5q-51 0 -86 34.5 t-35 85.5z" />
            <glyph unicode="&#xf8;" horiz-adv-x="1130" d="M88 453q0 96 34 183t96.5 151.5t149.5 102.5t195 38q66 0 131 -17l56 131l88 -34l-58 -129q123 -57 192.5 -172t69.5 -254q0 -96 -33.5 -182.5t-96 -152t-151.5 -103.5t-198 -38q-84 0 -160 27l-61 -143l-88 37l61 145q-109 61 -168 171t-59 239zM221 453q0 -92 38 -169 t110 -124l274 637q-20 4 -38.5 7t-41.5 3q-78 0 -141.5 -28.5t-107.5 -77t-68.5 -112.5t-24.5 -136zM453 117q25 -10 52 -13.5t58 -3.5q80 0 143.5 29t108.5 77t69.5 111.5t24.5 135.5q0 100 -47 182t-131 127z" />
            <glyph unicode="&#xf9;" horiz-adv-x="1146" d="M147 375v532h136v-493q0 -68 14 -125.5t46 -99.5t81 -66.5t121 -24.5q76 0 132 30t93 79t55.5 110.5t18.5 124.5v465h133v-907h-133v197q-39 -92 -127 -156t-217 -64q-92 0 -161 31t-112 84q-41 51 -60.5 119t-19.5 164zM291 1325l63 107l510 -281l-63 -107z" />
            <glyph unicode="&#xfa;" horiz-adv-x="1146" d="M147 375v532h136v-493q0 -68 14 -125.5t46 -99.5t81 -66.5t121 -24.5q76 0 132 30t93 79t55.5 110.5t18.5 124.5v465h133v-907h-133v197q-39 -92 -127 -156t-217 -64q-92 0 -161 31t-112 84q-41 51 -60.5 119t-19.5 164zM285 1151l510 281l63 -107l-510 -281z" />
            <glyph unicode="&#xfb;" horiz-adv-x="1148" d="M147 375v532h136v-493q0 -68 14 -125.5t46 -99.5t81 -66.5t121 -24.5q76 0 132 30t93 79t55.5 110.5t18.5 124.5v465h133v-907h-133v197q-39 -92 -127 -156t-217 -64q-92 0 -161 31t-112 84q-41 51 -60.5 119t-19.5 164zM221 1184l359 307l358 -307l-78 -90l-280 249 l-279 -247z" />
            <glyph unicode="&#xfc;" horiz-adv-x="1146" d="M147 375v532h136v-493q0 -68 14 -125.5t46 -99.5t81 -66.5t121 -24.5q76 0 132 30t93 79t55.5 110.5t18.5 124.5v465h133v-907h-133v197q-39 -92 -127 -156t-217 -64q-92 0 -161 31t-112 84q-41 51 -60.5 119t-19.5 164zM207 1239q0 53 34.5 89t86.5 36q53 0 88 -36 t35 -89q0 -51 -35 -86t-88 -35q-51 0 -86 35t-35 86zM678 1239q0 53 35 89t86 36q53 0 88 -36t35 -89q0 -51 -35 -86t-88 -35q-51 0 -86 35t-35 86z" />
            <glyph unicode="&#xfd;" horiz-adv-x="1163" d="M154 -133h135q8 -147 77.5 -223t211.5 -76q70 0 123 16.5t89.5 55t56 100t19.5 154.5v303q-39 -92 -125 -156t-215 -64q-102 0 -166.5 29t-111.5 82q-43 51 -60.5 119.5t-17.5 177.5v522h135v-483q0 -74 12.5 -134.5t43 -102.5t81 -65.5t127.5 -23.5q76 0 131.5 30t92 79 t55 110.5t18.5 124.5v465h133v-1013q0 -233 -107.5 -337t-316.5 -104q-412 0 -421 414zM303 1151l510 281l66 -107l-510 -281z" />
            <glyph unicode="&#xfe;" horiz-adv-x="1208" d="M170 -526v1960h133v-719q45 98 139.5 155.5t212.5 57.5q104 0 191.5 -38t149 -102.5t95 -151.5t33.5 -183t-33.5 -182.5t-95 -152t-148.5 -103.5t-192 -38q-119 0 -213 58.5t-139 154.5v-716h-133zM303 453q0 -72 24.5 -135.5t69.5 -111.5t108.5 -77t143.5 -29 q78 0 141.5 29t107.5 77t68.5 111.5t24.5 135.5t-24.5 136t-68.5 112.5t-107.5 77t-141.5 28.5q-80 0 -143.5 -28.5t-108.5 -77t-69.5 -113t-24.5 -135.5z" />
            <glyph unicode="&#xff;" horiz-adv-x="1163" d="M154 -133h135q8 -147 77.5 -223t211.5 -76q70 0 123 16.5t89.5 55t56 100t19.5 154.5v303q-39 -92 -125 -156t-215 -64q-102 0 -166.5 29t-111.5 82q-43 51 -60.5 119.5t-17.5 177.5v522h135v-483q0 -74 12.5 -134.5t43 -102.5t81 -65.5t127.5 -23.5q76 0 131.5 30t92 79 t55 110.5t18.5 124.5v465h133v-1013q0 -233 -107.5 -337t-316.5 -104q-412 0 -421 414zM246 1239q0 49 33.5 84t82.5 35q51 0 85 -35t34 -84q0 -51 -33.5 -85t-85.5 -34q-49 0 -82.5 34t-33.5 85zM717 1239q0 49 33.5 84t83.5 35q51 0 84.5 -35t33.5 -84q0 -51 -33.5 -85 t-84.5 -34q-49 0 -83 34t-34 85z" />
            <glyph unicode="&#x152;" horiz-adv-x="2359" d="M88 715q0 145 50 280t145.5 238.5t232.5 166t309 62.5q104 0 194.5 -25.5t166.5 -69.5t133 -105.5t98 -135.5v308h783v-127h-644v-531h644v-127h-644v-522h644v-127h-783v303q-41 -74 -98 -135.5t-133 -105.5t-166 -69.5t-195 -25.5q-172 0 -309 62.5t-232.5 166 t-145.5 238.5t-50 281zM233 715q0 -121 41 -232.5t117 -197.5t185.5 -138.5t248.5 -52.5q137 0 247 52.5t186.5 138.5t117.5 197.5t41 232.5t-41 232.5t-117.5 197.5t-186 138t-247.5 52q-139 0 -248.5 -52t-185.5 -138t-117 -197.5t-41 -232.5z" />
            <glyph unicode="&#x153;" horiz-adv-x="1875" d="M88 453q0 96 34 183t96.5 151.5t149.5 102.5t195 38q141 0 245.5 -64.5t160.5 -169.5q47 106 145 170t240 64q88 0 164.5 -31t133 -86t89.5 -129t33 -160q0 -18 -1 -41.5t-6 -56.5h-723q0 -70 19.5 -130.5t58.5 -104.5t98.5 -69.5t139.5 -25.5q115 0 178.5 49.5 t87.5 116.5h137q-12 -55 -46 -106.5t-85 -90t-119.5 -62.5t-152.5 -24q-147 0 -244.5 67t-144.5 169q-53 -104 -158.5 -170t-249.5 -66q-109 0 -195.5 38t-149 103.5t-96.5 151.5t-34 183zM221 453q0 -72 24.5 -135.5t68.5 -111.5t107.5 -77t141.5 -29t142.5 28t109.5 76 t69.5 111.5t24.5 137.5t-24.5 138t-69.5 112.5t-109.5 76t-142.5 27.5t-141.5 -28.5t-107.5 -77t-68.5 -113t-24.5 -135.5zM1047 528h595q0 63 -22.5 116.5t-61 90.5t-92 57.5t-114.5 20.5q-133 0 -216 -77t-89 -208z" />
            <glyph unicode="&#x178;" d="M18 1434h162l455 -723l371 723h153l-731 -1434h-154l289 567zM266 1702q0 51 34 86t83 35q51 0 85 -35t34 -86q0 -49 -34 -83t-85 -34q-49 0 -83 34t-34 83zM737 1702q0 51 34 86t83 35q51 0 85 -35t34 -86q0 -49 -34 -83t-85 -34q-49 0 -83 34t-34 83z" />
            <glyph unicode="&#x2c6;" horiz-adv-x="913" d="M86 1427l369 297l368 -297l-84 -94l-284 230l-285 -230z" />
            <glyph unicode="&#x2dc;" horiz-adv-x="960" d="M137 1356q45 29 79 45t58.5 23.5t42 8.5t31.5 1q20 0 61.5 -8.5t85.5 -19.5t82.5 -19.5t59.5 -8.5q16 0 30.5 2t32 8.5t41 16.5t60.5 29l55 -91q-80 -53 -125 -64t-80 -11q-29 0 -66.5 8t-77.5 18.5t-78 18.5t-67 8q-33 0 -68.5 -10.5t-94.5 -44.5z" />
            <glyph unicode="&#x2000;" horiz-adv-x="999" />
            <glyph unicode="&#x2001;" horiz-adv-x="1999" />
            <glyph unicode="&#x2002;" horiz-adv-x="999" />
            <glyph unicode="&#x2003;" horiz-adv-x="1999" />
            <glyph unicode="&#x2004;" horiz-adv-x="666" />
            <glyph unicode="&#x2005;" horiz-adv-x="499" />
            <glyph unicode="&#x2006;" horiz-adv-x="333" />
            <glyph unicode="&#x2007;" horiz-adv-x="333" />
            <glyph unicode="&#x2008;" horiz-adv-x="249" />
            <glyph unicode="&#x2009;" horiz-adv-x="399" />
            <glyph unicode="&#x200a;" horiz-adv-x="111" />
            <glyph unicode="&#x2010;" horiz-adv-x="602" d="M61 522v121h480v-121h-480z" />
            <glyph unicode="&#x2011;" horiz-adv-x="602" d="M61 522v121h480v-121h-480z" />
            <glyph unicode="&#x2012;" horiz-adv-x="602" d="M61 522v121h480v-121h-480z" />
            <glyph unicode="&#x2013;" horiz-adv-x="1030" d="M102 522v121h826v-121h-826z" />
            <glyph unicode="&#x2014;" horiz-adv-x="2060" d="M102 522v121h1856v-121h-1856z" />
            <glyph unicode="&#x2018;" horiz-adv-x="524" d="M123 1253q0 143 70.5 201.5t193.5 61.5v-72q-119 0 -141 -84q-12 -29 -13.5 -48.5t0.5 -35.5q8 8 22.5 12t27.5 4q53 0 85.5 -33.5t32.5 -82.5t-34.5 -85t-90.5 -36q-72 0 -112.5 56t-40.5 142z" />
            <glyph unicode="&#x2019;" horiz-adv-x="524" d="M123 1395q0 49 35 85t90 36q72 0 112.5 -56.5t40.5 -142.5q0 -143 -70.5 -201.5t-193.5 -60.5v71q57 0 94 22.5t48 61.5q12 29 13 49.5t-1 34.5q-8 -8 -22.5 -12t-26.5 -4q-53 0 -86 34t-33 83z" />
            <glyph unicode="&#x201a;" horiz-adv-x="524" d="M123 98q0 49 35 85t90 36q72 0 112.5 -56.5t40.5 -142.5q0 -143 -70.5 -201.5t-193.5 -60.5v72q119 0 142 84q12 29 13 48.5t-1 35.5q-8 -8 -22.5 -12t-26.5 -4q-53 0 -86 33.5t-33 82.5z" />
            <glyph unicode="&#x201c;" horiz-adv-x="856" d="M123 1253q0 143 70.5 201.5t193.5 61.5v-72q-119 0 -141 -84q-12 -29 -13.5 -48.5t0.5 -35.5q8 8 22.5 12t27.5 4q53 0 85.5 -33.5t32.5 -82.5t-34.5 -85t-90.5 -36q-72 0 -112.5 56t-40.5 142zM455 1253q0 143 71.5 201.5t192.5 61.5v-72q-115 0 -141 -84 q-10 -29 -12.5 -48.5t1.5 -35.5q16 16 49 16q53 0 85 -33.5t32 -82.5t-33.5 -85t-89.5 -36q-72 0 -113.5 56t-41.5 142z" />
            <glyph unicode="&#x201d;" horiz-adv-x="856" d="M123 1395q0 49 35 85t90 36q72 0 112.5 -56.5t40.5 -142.5q0 -143 -70.5 -201.5t-193.5 -60.5v71q57 0 94 22.5t48 61.5q12 29 13 49.5t-1 34.5q-8 -8 -22.5 -12t-26.5 -4q-53 0 -86 34t-33 83zM455 1395q0 49 34.5 85t90.5 36q72 0 112.5 -56.5t40.5 -142.5 q0 -143 -70.5 -201.5t-193.5 -60.5v71q59 0 95 22.5t46 61.5q12 29 14.5 49.5t-1.5 34.5q-16 -16 -50 -16q-53 0 -85.5 34t-32.5 83z" />
            <glyph unicode="&#x201e;" horiz-adv-x="856" d="M123 98q0 49 35 85t90 36q72 0 112.5 -56.5t40.5 -142.5q0 -143 -70.5 -201.5t-193.5 -60.5v72q119 0 142 84q12 29 13 48.5t-1 35.5q-8 -8 -22.5 -12t-26.5 -4q-53 0 -86 33.5t-33 82.5zM455 98q0 49 34.5 85t90.5 36q72 0 112.5 -56.5t40.5 -142.5q0 -143 -70.5 -201.5 t-193.5 -60.5v72q119 0 141 84q12 29 14.5 48.5t-1.5 35.5q-16 -16 -50 -16q-53 0 -85.5 33.5t-32.5 82.5z" />
            <glyph unicode="&#x2022;" horiz-adv-x="702" d="M113 639q0 49 18.5 93t51 77t75.5 51.5t92 18.5t93 -18.5t77 -51.5t51.5 -77t18.5 -93t-18.5 -92t-51.5 -76t-77 -51.5t-93 -18.5t-92 18.5t-75.5 51.5t-51 76t-18.5 92z" />
            <glyph unicode="&#x2026;" horiz-adv-x="1871" d="M113 113q0 53 34.5 88t85.5 35q53 0 89 -35t36 -88q0 -51 -35.5 -87t-89.5 -36q-51 0 -85.5 36t-34.5 87zM813 111q0 53 35 89t86 36q53 0 89 -36t36 -89q0 -51 -36 -86t-89 -35q-51 0 -86 35t-35 86zM1513 111q0 53 35 87.5t86 34.5q53 0 89 -34.5t36 -87.5 q0 -51 -35.5 -87t-89.5 -36q-51 0 -86 36t-35 87z" />
            <glyph unicode="&#x202f;" horiz-adv-x="399" />
            <glyph unicode="&#x2039;" horiz-adv-x="565" d="M82 553v86l401 348v-137l-290 -254l290 -254v-137z" />
            <glyph unicode="&#x203a;" horiz-adv-x="565" d="M82 205v137l291 254l-291 254v137l401 -348v-86z" />
            <glyph unicode="&#x205f;" horiz-adv-x="499" />
            <glyph unicode="&#x20ac;" horiz-adv-x="1239" d="M49 496l25 106h106v223h-127l27 105h100v45q0 96 34 183t95.5 152.5t148.5 103.5t195 38q106 0 192.5 -36t149 -96t98 -142t40.5 -174h-142q-4 66 -29.5 124t-68.5 102t-104.5 69.5t-135.5 25.5q-76 0 -137 -27.5t-105 -75.5t-68 -111.5t-24 -135.5v-45h508l-26 -105 h-482v-223h502l-24 -106h-478v-41q0 -72 24 -134.5t68 -110.5t105.5 -76t136.5 -28q78 0 140.5 28t107.5 75t68.5 110.5t23.5 135.5h142q0 -96 -34 -183.5t-97.5 -153t-151.5 -103.5t-199 -38q-109 0 -195.5 39t-148 104.5t-95.5 151.5t-34 183v41h-131z" />
            <glyph unicode="&#x2122;" horiz-adv-x="1648" d="M82 1339v95h530v-95h-213v-739h-104v739h-213zM772 600v834h162l246 -660l245 660h162v-834h-102v698l-258 -698h-94l-259 698v-698h-102z" />
            <glyph unicode="&#x25fc;" horiz-adv-x="911" d="M0 0v911h911v-911h-911z" />
            </font>
</defs>
</svg>
