<?xml version="1.0" standalone="no"?>
<!DOCTYPE svg PUBLIC "-//W3C//DTD SVG 1.1//EN" "http://www.w3.org/Graphics/SVG/1.1/DTD/svg11.dtd" >
<svg xmlns="http://www.w3.org/2000/svg">
    <metadata></metadata>
    <defs>
        <font id="gt_walsheimmedium_oblique" horiz-adv-x="1187" >
            <font-face units-per-em="2048" ascent="1536" descent="-512" />
            <missing-glyph horiz-adv-x="512" />
            <glyph unicode="&#xfb01;" horiz-adv-x="1347" d="M121 768l20 186h195l12 119q14 137 60.5 212t102.5 111t111.5 43t86.5 7q68 0 96.5 -7t52.5 -18l-20 -188q-23 6 -50.5 10t-80.5 4q-14 0 -35 -3t-41.5 -16.5t-35.5 -44t-22 -85.5l-14 -144h250l-21 -186h-249l-80 -768h-223l79 768h-194zM930 0l100 954h223l-100 -954 h-223zM1020 1286q0 72 51 122t121 50q61 0 102 -42t41 -101q0 -35 -14 -66.5t-39 -54.5t-56.5 -36t-64.5 -13q-63 0 -102 41t-39 100z" />
            <glyph unicode="&#xfb02;" horiz-adv-x="1257" d="M121 768l20 186h195l12 119q14 137 60.5 212t102.5 111t111.5 43t86.5 7q68 0 96.5 -7t52.5 -18l-20 -188q-23 6 -50.5 10t-80.5 4q-14 0 -35 -3t-41.5 -16.5t-35.5 -44t-22 -85.5l-14 -144h250l-21 -186h-249l-80 -768h-223l79 768h-194zM885 0l149 1434h223l-149 -1434 h-223z" />
            <glyph unicode="&#xfb03;" horiz-adv-x="2082" d="M121 768l20 186h195l12 119q14 137 60.5 212t102.5 111t111.5 43t86.5 7q68 0 96.5 -7t52.5 -18l-20 -188q-23 6 -50.5 10t-80.5 4q-14 0 -35 -3t-41.5 -16.5t-35.5 -44t-22 -85.5l-14 -144h250l-21 -186h-249l-80 -768h-223l79 768h-194zM856 768l21 186h194l12 119 q14 137 60.5 212t103 111t111.5 43t86 7q68 0 96.5 -7t52.5 -18l-20 -188q-23 6 -50.5 10t-80.5 4q-14 0 -35 -3t-41 -16.5t-35.5 -44t-21.5 -85.5l-15 -144h250l-20 -186h-250l-80 -768h-223l80 768h-195zM1665 0l100 954h224l-101 -954h-223zM1747 1288q0 37 15.5 70 t40 57.5t57 38.5t69.5 14q66 0 108 -44t42 -107q0 -37 -15.5 -68.5t-40 -56.5t-57.5 -39t-70 -14q-66 0 -107.5 44t-41.5 105z" />
            <glyph unicode="&#xfb04;" horiz-adv-x="1984" d="M121 768l20 186h195l12 119q14 137 60.5 212t102.5 111t111.5 43t86.5 7q68 0 96.5 -7t52.5 -18l-20 -188q-23 6 -50.5 10t-80.5 4q-14 0 -35 -3t-41.5 -16.5t-35.5 -44t-22 -85.5l-14 -144h250l-21 -186h-249l-80 -768h-223l79 768h-194zM856 768l21 186h194l12 119 q14 137 60.5 212t103 111t111.5 43t86 7q68 0 96.5 -7t52.5 -18l-20 -188q-23 6 -50.5 10t-80.5 4q-14 0 -35 -3t-41 -16.5t-35.5 -44t-21.5 -85.5l-15 -144h250l-20 -186h-250l-80 -768h-223l80 768h-195zM1620 0l149 1434h224l-150 -1434h-223z" />
            <glyph horiz-adv-x="0" />
            <glyph unicode="&#xd;" horiz-adv-x="512" />
            <glyph unicode=" "  horiz-adv-x="512" />
            <glyph unicode="&#x09;" horiz-adv-x="512" />
            <glyph unicode="&#xa0;" horiz-adv-x="512" />
            <glyph unicode="!" horiz-adv-x="632" d="M158 123q0 39 15 72.5t41 59.5t60.5 41t71.5 15q70 0 115 -45t45 -110q0 -39 -16.5 -74t-43 -60.5t-61.5 -41t-72 -15.5q-70 0 -112.5 46t-42.5 112zM242 457l104 977h244l-105 -977h-243z" />
            <glyph unicode="&#x22;" horiz-adv-x="796" d="M256 1264l23 204h210l-22 -204l-86 -310h-105zM596 1264l22 204h211l-22 -204l-86 -310h-105z" />
            <glyph unicode="#" horiz-adv-x="1124" d="M102 418l19 172h207l61 254h-180l18 172h205l100 418h183l-101 -418h209l101 418h182l-100 -418h168l-19 -172h-192l-62 -254h166l-18 -172h-191l-102 -418h-181l101 418h-209l-102 -418h-181l101 418h-183zM510 590h209l61 254h-209z" />
            <glyph unicode="$" horiz-adv-x="1165" d="M215 469h236q-8 -70 7 -124t48 -92t81 -57.5t107 -19.5q53 0 101.5 16.5t84 47t56 72.5t20.5 96q0 49 -17 81.5t-47 56t-67 40t-73 30.5q-92 33 -170 68t-135.5 81t-90 108.5t-32.5 152.5q0 92 32.5 167t88 130t129 91t157.5 48l23 217h168l-23 -219q80 -12 143.5 -50 t106.5 -95.5t62.5 -132t11.5 -162.5h-236q10 106 -40 171.5t-154 65.5q-45 0 -87 -13t-74 -37.5t-51.5 -61.5t-19.5 -82q0 -41 16.5 -73t42 -54.5t59.5 -39.5t71 -32q86 -33 166.5 -66.5t142 -81.5t99.5 -114.5t38 -165.5q0 -98 -37 -179t-99.5 -140.5t-145.5 -97 t-173 -48.5l-22 -217h-168l22 217q-84 12 -154.5 51t-119.5 101.5t-72.5 149.5t-11.5 196z" />
            <glyph unicode="%" horiz-adv-x="1945" d="M262 909l27 260q6 57 31.5 107.5t68.5 89.5t100.5 61.5t126.5 22.5q70 0 123.5 -22.5t88 -61.5t51 -89t10.5 -108l-27 -260q-6 -57 -32.5 -108t-69.5 -89t-101.5 -60.5t-128.5 -22.5t-122 22.5t-86.5 60.5t-50 89t-9.5 108zM420 -2l1057 1542l168 -102l-1057 -1542z M442 909q-6 -53 23 -91t82 -38q55 0 92 38t43 91l27 260q6 53 -23 91t-84 38q-57 0 -93 -40.5t-40 -88.5zM1206 264l27 260q6 57 31.5 107.5t68.5 89.5t100.5 61.5t127.5 22.5t123 -22.5t87.5 -61.5t51 -89t10.5 -108l-27 -260q-6 -57 -32.5 -108.5t-69.5 -89t-101.5 -60 t-127.5 -22.5q-70 0 -122.5 22.5t-87 60t-50 89t-9.5 108.5zM1386 264q-6 -53 23 -91t82 -38q55 0 92 38t43 91l27 260q6 53 -22.5 91t-84.5 38q-57 0 -93 -41t-40 -88z" />
            <glyph unicode="&#x26;" horiz-adv-x="1226" d="M133 389q0 72 20.5 126t56.5 97t85 76t104 62q-74 45 -118.5 105t-44.5 167q0 100 40.5 180t109.5 137.5t158 88t183 30.5q98 0 178 -32.5t134.5 -92t79 -141.5t14.5 -182h-236q6 51 -2 94t-30.5 74.5t-62.5 50t-102 18.5q-100 0 -164.5 -52t-64.5 -161q0 -37 10.5 -69.5 t35 -57t66.5 -38t107 -13.5l-22 -209q-84 0 -142.5 -21.5t-93.5 -57.5t-50 -80t-15 -89q0 -57 20.5 -97t54 -65.5t73.5 -38t81 -12.5q53 0 103.5 20.5t90 57.5t66.5 91.5t35 121.5h-148l21 209h491l-20 -209h-109q-14 -121 -66 -214t-128 -156.5t-168 -97.5t-186 -34 q-86 0 -166 28t-142.5 81t-99.5 130t-37 175z" />
            <glyph unicode="'" horiz-adv-x="456" d="M256 1264l23 204h210l-22 -204l-86 -310h-105z" />
            <glyph unicode="(" horiz-adv-x="798" d="M215 0l119 1124q10 100 55 191.5t118 161t169 109.5t211 40l-21 -211q-61 0 -112.5 -23.5t-90 -63.5t-63.5 -92t-31 -112l-118 -1124q-6 -59 7 -111.5t43.5 -92.5t77 -63.5t107.5 -23.5l-22 -211q-115 0 -203 40t-146.5 109.5t-84 160t-15.5 192.5z" />
            <glyph unicode=")" horiz-adv-x="798" d="M29 -502l22 211q61 0 112.5 23.5t90.5 63.5t63.5 92.5t30.5 111.5l117 1124q6 59 -7.5 111.5t-44 92.5t-76.5 63.5t-108 23.5l23 211q113 0 202 -40t147 -109.5t85 -160.5t16 -192l-118 -1124q-10 -102 -56.5 -192.5t-119 -160t-170 -109.5t-209.5 -40z" />
            <glyph unicode="*" horiz-adv-x="946" d="M233 1153l60 135l256 -114l2 294h151l-59 -294l281 114l30 -135l-297 -70l193 -254l-135 -90l-135 279l-193 -279l-119 90l246 254z" />
            <glyph unicode="+" d="M231 483l21 199h301l33 315h223l-33 -315h303l-20 -199h-303l-33 -313h-223l32 313h-301z" />
            <glyph unicode="," horiz-adv-x="595" d="M106 -238l11 105q53 0 90 11t63 30q27 20 41.5 43.5t18.5 48.5q-4 -4 -15.5 -8t-33.5 -4q-66 0 -105 44t-39 105q0 74 55.5 127t135.5 53q72 0 114.5 -51t42.5 -162q0 -160 -96 -251t-283 -91z" />
            <glyph unicode="-" horiz-adv-x="602" d="M113 483l20 199h479l-20 -199h-479z" />
            <glyph unicode="." horiz-adv-x="575" d="M137 137q0 37 15.5 70t40 57.5t57.5 38.5t69 14q66 0 108 -44t42 -107q0 -37 -15.5 -68.5t-40 -56.5t-57 -39t-69.5 -14q-66 0 -108 44t-42 105z" />
            <glyph unicode="/" horiz-adv-x="927" d="M-8 -53l928 1732l194 -88l-928 -1732z" />
            <glyph unicode="0" d="M141 477l52 479q10 100 55 191.5t117.5 161t170 109.5t212.5 40t203.5 -40t147 -109.5t84 -160.5t15.5 -192l-49 -479q-10 -102 -56 -192t-119 -160t-170 -110t-212 -40q-113 0 -201 39t-147.5 107.5t-86 160t-16.5 195.5zM377 477q-6 -59 7 -111.5t44 -92.5t77 -63.5 t107 -23.5t113.5 23.5t92.5 63.5t64.5 92.5t30.5 111.5l50 479q6 59 -7.5 111.5t-45 92.5t-79 63.5t-108.5 23.5t-112.5 -23.5t-90.5 -63.5t-63.5 -92t-30.5 -112z" />
            <glyph unicode="1" horiz-adv-x="749" d="M168 1010l20 186q98 0 161 13.5t100.5 41t55 72.5t23.5 111h224l-152 -1434h-244l107 1010h-295z" />
            <glyph unicode="2" horiz-adv-x="1079" d="M96 0q16 170 58.5 285.5t103.5 196.5t137 136.5t160 104.5q53 31 110.5 63.5t103.5 72.5t75.5 91t29.5 121q0 94 -53 135t-133 41q-98 0 -167.5 -57t-82.5 -180h-235q12 109 58 192.5t117 140t158 86t179 29.5q84 0 156.5 -24.5t125 -71.5t82 -115.5t29.5 -156.5 q0 -113 -45 -196t-111.5 -146.5t-143.5 -110.5t-138 -86q-86 -53 -139.5 -98t-84 -85t-43 -78t-14.5 -79h623l-23 -211h-893z" />
            <glyph unicode="3" horiz-adv-x="1165" d="M119 479h235q-8 -70 7.5 -124t49 -92t81 -57.5t104.5 -19.5q59 0 108.5 20.5t84 56.5t54 83t19.5 103q0 82 -52 140t-183 58h-97l23 209h98q74 0 121 19.5t74.5 50t38 69.5t10.5 78q0 96 -51 135t-137 39q-119 0 -178.5 -63.5t-69.5 -173.5h-236q10 104 53 187t110 141.5 t153 89t182 30.5q86 0 160.5 -25.5t131 -72.5t88.5 -114.5t32 -153.5q0 -129 -67 -216.5t-165 -125.5q84 -35 140.5 -107t56.5 -194q0 -104 -44 -191.5t-118 -150t-169 -97.5t-198 -35q-100 0 -187 34t-150.5 98.5t-94.5 157.5t-18 214z" />
            <glyph unicode="4" horiz-adv-x="1144" d="M178 430l107 1004h235l-84 -793h287l45 430h236l-46 -430h197l-22 -211h-197l-45 -430h-236l45 430h-522z" />
            <glyph unicode="5" horiz-adv-x="1241" d="M182 477h236q-6 -57 6 -110.5t43 -93.5t78 -63.5t110 -23.5q66 0 121 26t95 70t62.5 102t22.5 122q0 53 -16 101t-47 84t-77 56.5t-103 20.5q-72 0 -139.5 -36t-116.5 -122h-236l86 824h871l-23 -211h-659l-41 -398q25 39 61.5 68t81.5 47t93 27.5t97 9.5q98 0 173 -35 t127.5 -95.5t79 -140t26.5 -169.5q0 -115 -42 -216.5t-115.5 -178t-176 -122t-225.5 -45.5q-117 0 -206 40t-147.5 110t-84 160t-15.5 192z" />
            <glyph unicode="6" horiz-adv-x="1165" d="M123 426q0 104 36 189t89 159l481 660h270l-350 -457q10 2 31 2q106 0 191 -36t144.5 -98.5t90.5 -145.5t31 -175q0 -109 -42 -208t-116 -174.5t-176 -121t-223 -45.5q-109 0 -193 36t-143.5 97.5t-90 143.5t-30.5 174zM360 446q0 -53 15.5 -100t46.5 -83t76 -56.5 t102 -20.5q63 0 118.5 26t95.5 70t62.5 102t22.5 122q0 53 -16.5 101t-47 84t-75.5 56.5t-103 20.5q-66 0 -120 -25.5t-92.5 -70.5t-61.5 -103.5t-23 -122.5z" />
            <glyph unicode="7" horiz-adv-x="980" d="M131 0l657 1223h-581l22 211h914l-762 -1434h-250z" />
            <glyph unicode="8" horiz-adv-x="1206" d="M154 373q0 53 14 110.5t44 109.5t77 95t112 66q-82 37 -113.5 110.5t-31.5 151.5q0 88 36 168t100.5 141t155.5 97t204 36q102 0 181 -29.5t132 -81t79.5 -119t26.5 -143.5q0 -47 -10 -95t-34.5 -92t-64.5 -82t-97 -62q45 -16 78.5 -49t54 -74t31 -88t10.5 -92 q0 -92 -38 -177.5t-107.5 -152t-168 -106.5t-221.5 -40q-109 0 -192.5 32t-141 86t-87 126t-29.5 154zM391 395q0 -86 60.5 -147.5t173.5 -61.5q63 0 114.5 20.5t88 55.5t56 80t19.5 92q0 39 -14.5 77t-44 67.5t-73.5 47t-103 17.5q-66 0 -117 -20.5t-86 -55.5t-54.5 -80 t-19.5 -92zM492 1020q0 -78 51 -133.5t149 -55.5q55 0 99.5 18.5t76 50.5t49 73t17.5 86q0 76 -51.5 132t-149.5 56q-55 0 -99 -18.5t-76 -50t-49 -72.5t-17 -86z" />
            <glyph unicode="9" horiz-adv-x="1165" d="M180 905q0 111 42 211.5t116 176t176 120.5t223 45q106 0 191.5 -36t145 -97t90 -143t30.5 -174q0 -106 -37 -190.5t-90 -158.5l-479 -659h-271l351 455q-113 0 -203 33.5t-153.5 93t-97.5 142.5t-34 181zM418 928q0 -53 16.5 -101.5t48 -84t76.5 -56t103 -20.5 q63 0 118.5 26.5t94 70.5t61 102.5t22.5 121.5q0 53 -16 100.5t-47 83t-76 56t-102 20.5q-66 0 -120 -25.5t-94 -69.5t-62.5 -102.5t-22.5 -121.5z" />
            <glyph unicode=":" horiz-adv-x="575" d="M137 137q0 37 15.5 70t40 57.5t57.5 38.5t69 14q66 0 108 -44t42 -107q0 -37 -15.5 -68.5t-40 -56.5t-57 -39t-69.5 -14q-66 0 -108 44t-42 105zM209 811q0 37 15.5 69.5t40 57.5t57 39t69.5 14q66 0 108 -44t42 -107q0 -37 -15.5 -69t-40 -56.5t-57.5 -38.5t-70 -14 q-66 0 -107.5 44t-41.5 105z" />
            <glyph unicode=";" horiz-adv-x="595" d="M106 -238l11 105q53 0 90 11t63 30q27 20 41.5 43.5t18.5 48.5q-4 -4 -15.5 -8t-33.5 -4q-66 0 -105 44t-39 105q0 74 55.5 127t135.5 53q72 0 114.5 -51t42.5 -162q0 -160 -96 -251t-283 -91zM209 811q0 37 15.5 69.5t40 57.5t57 39t69.5 14q66 0 108 -44t42 -107 q0 -37 -15.5 -69t-40 -56.5t-57.5 -38.5t-70 -14q-66 0 -107.5 44t-41.5 105z" />
            <glyph unicode="&#x3c;" d="M129 502l16 157l1078 361l-23 -211l-733 -227l684 -230l-21 -211z" />
            <glyph unicode="=" d="M215 322l21 198h827l-21 -198h-827zM248 641l22 199h828l-23 -199h-827z" />
            <glyph unicode="&#x3e;" d="M88 141l23 211l733 230l-686 227l22 211l1002 -361l-19 -157z" />
            <glyph unicode="?" horiz-adv-x="1046" d="M156 1010q12 109 57 192.5t113.5 140t153.5 86t175 29.5q86 0 161 -25.5t129 -73.5t86 -115.5t32 -151.5q0 -80 -27.5 -143.5t-66.5 -112t-84 -84t-78 -60.5q-55 -41 -89 -70.5t-52.5 -61.5t-27.5 -73t-15 -102h-226q8 72 20.5 127t34 101t56.5 86t90 79q27 20 67 47 t75.5 64t61 83t25.5 105q0 86 -54 128t-136 42q-88 0 -158.5 -53t-87.5 -184h-235zM311 123q0 39 15.5 72.5t41 59.5t60.5 41t72 15q70 0 114.5 -45t44.5 -110q0 -39 -16 -74t-43 -60.5t-61.5 -41t-71.5 -15.5q-70 0 -113 46t-43 112z" />
            <glyph unicode="@" horiz-adv-x="1697" d="M80 362q0 203 80 368t216 282.5t314 181t375 63.5q158 0 288 -43t222 -130t143 -219t51 -310q0 -131 -28.5 -244.5t-82.5 -196.5t-134 -130t-183 -47q-115 0 -170.5 55t-80.5 139q-43 -59 -115 -94t-158 -35q-78 0 -144.5 30.5t-113.5 83t-73.5 121t-26.5 146.5 q0 92 35.5 175t97 146.5t142.5 101.5t171 38t153.5 -35t92.5 -94l12 108h187l-56 -534q-18 -184 86 -185q45 0 82 36t63.5 95.5t40 137.5t13.5 164q0 143 -39 247.5t-109.5 172t-170 100.5t-218.5 33q-154 0 -295 -51.5t-247.5 -145.5t-170 -225t-63.5 -293 q0 -121 39 -232.5t118 -195.5t196.5 -134.5t277.5 -50.5q80 0 169 17.5t194 68.5l51 -145q-127 -66 -232.5 -87.5t-201.5 -21.5q-203 0 -352.5 63.5t-248 169t-147.5 245t-49 290.5zM649 395q0 -94 54.5 -159.5t154.5 -65.5q57 0 105.5 22.5t83 60.5t55 89t20.5 107 q0 94 -56 160.5t-159 66.5q-55 0 -103 -22.5t-82 -61.5t-53.5 -89t-19.5 -108z" />
            <glyph unicode="A" horiz-adv-x="1169" d="M6 0l647 1434h166l344 -1434h-248l-43 182h-538l-80 -182h-248zM428 393h395l-129 649z" />
            <glyph unicode="B" horiz-adv-x="1224" d="M150 0l151 1434h490q131 0 213.5 -34t129 -85t62.5 -111.5t16 -113.5q0 -80 -26.5 -141.5t-68.5 -106.5t-93 -74t-100 -39q33 0 72.5 -18.5t75.5 -54t60.5 -90t24.5 -126.5q0 -53 -19.5 -128.5t-75.5 -145.5t-157.5 -118t-263.5 -48h-491zM408 211h266q84 0 133 24.5 t74.5 59.5t33 70.5t7.5 60.5q0 31 -8.5 64.5t-32 62.5t-62.5 48.5t-100 19.5h-268zM473 831h254q80 0 129 25t74.5 58.5t34 70.5t8.5 62q0 27 -8.5 57.5t-30 57t-62.5 44t-104 17.5h-254z" />
            <glyph unicode="C" horiz-adv-x="1587" d="M150 647q0 158 58 305.5t165.5 262t260 184t343.5 69.5q147 0 262 -42t196 -116.5t125 -177t48 -221.5h-248q-6 76 -35 139.5t-78 109.5t-119.5 71.5t-162.5 25.5q-129 0 -234.5 -50t-180.5 -133t-116 -190.5t-41 -219.5q0 -102 34 -191.5t94.5 -155t145.5 -103.5 t189 -38q80 0 150.5 21.5t128 60.5t100.5 91t68 112h258q-35 -104 -103.5 -194.5t-164 -158t-214 -105.5t-254.5 -38q-162 0 -287.5 54.5t-211.5 148.5t-131 217t-45 262z" />
            <glyph unicode="D" horiz-adv-x="1435" d="M150 0l151 1434h465q166 0 291 -55.5t210 -145.5t128 -208t43 -243q0 -145 -57.5 -285.5t-164 -251t-259 -178t-343.5 -67.5h-464zM408 211h229q129 0 231.5 48t175 126t111.5 177.5t39 201.5q0 88 -28.5 171t-86 146.5t-141.5 102.5t-195 39h-229z" />
            <glyph unicode="E" horiz-adv-x="1116" d="M150 0l151 1434h827l-22 -211h-592l-43 -406h592l-23 -211h-591l-41 -395h591l-22 -211h-827z" />
            <glyph unicode="F" horiz-adv-x="1101" d="M150 0l151 1434h827l-22 -211h-592l-49 -455h592l-21 -211h-592l-59 -557h-235z" />
            <glyph unicode="G" horiz-adv-x="1716" d="M150 637q0 160 60 310.5t167.5 266t257 185t330.5 69.5q129 0 234.5 -36.5t180 -100t114.5 -148.5q38 -81 38 -170v-9h-238q-4 53 -30.5 99t-71.5 81t-108.5 54t-139.5 19q-123 0 -224.5 -50t-175 -134t-113.5 -192.5t-40 -223.5q0 -96 29 -183t87 -152.5t146 -105.5 t205 -40q98 0 176 27.5t135.5 74t94 105.5t55.5 125h-275l21 211h682l-21 -211h-157q-37 -121 -104.5 -220.5t-163 -171t-215 -111.5t-261.5 -40q-170 0 -296 55.5t-211 148.5t-126.5 215t-41.5 253z" />
            <glyph unicode="H" horiz-adv-x="1361" d="M150 0l151 1434h236l-66 -617h592l65 617h236l-152 -1434h-235l63 606h-591l-64 -606h-235z" />
            <glyph unicode="I" horiz-adv-x="542" d="M150 0l151 1434h244l-152 -1434h-243z" />
            <glyph unicode="J" horiz-adv-x="1097" d="M74 467h235q-2 -26 -2 -50q0 -95 38 -160q48 -81 165 -81t182.5 80t79.5 209l102 969h236l-102 -969q-12 -109 -53.5 -200t-108 -157.5t-156.5 -104.5t-201 -38t-193.5 39t-136 106.5t-75.5 158.5q-14 60 -14 127q0 35 4 71z" />
            <glyph unicode="K" horiz-adv-x="1243" d="M150 0l151 1434h236l-68 -631l600 631h295l-682 -717l530 -717h-294l-467 629l-66 -629h-235z" />
            <glyph unicode="L" horiz-adv-x="878" d="M150 0l151 1434h236l-129 -1223h442l-23 -211h-677z" />
            <glyph unicode="M" horiz-adv-x="1665" d="M150 0l151 1434h225l346 -1067l570 1067h225l-151 -1434h-236l94 887l-452 -887h-179l-264 887l-94 -887h-235z" />
            <glyph unicode="N" horiz-adv-x="1359" d="M150 0l151 1434h258l459 -1020l108 1020h236l-152 -1434h-258l-460 1020l-107 -1020h-235z" />
            <glyph unicode="O" horiz-adv-x="1638" d="M150 643q0 158 59 306.5t167.5 264t259 185t333.5 69.5q164 0 288.5 -56t209.5 -149.5t129 -216t44 -255.5q0 -158 -59 -307.5t-166.5 -264.5t-258.5 -184.5t-333 -69.5q-164 0 -289.5 56.5t-210.5 149.5t-129 216t-44 256zM399 659q0 -94 29 -181t86 -154.5t139 -107.5 t191 -40q121 0 221 51.5t173 134t114 190t41 222.5q0 94 -30 182t-86 155t-139 106.5t-190 39.5q-121 0 -222 -51t-174 -134t-113 -191.5t-40 -221.5z" />
            <glyph unicode="P" horiz-adv-x="1220" d="M150 0l151 1434h514q106 0 191.5 -36t143.5 -98.5t89 -145.5t31 -175q0 -109 -41 -208t-116 -175t-178.5 -121t-225.5 -45h-279l-45 -430h-235zM453 641h278q66 0 122 25.5t96 69.5t62.5 102.5t22.5 122.5q0 53 -16.5 101t-47 84t-75.5 56.5t-102 20.5h-279z" />
            <glyph unicode="Q" horiz-adv-x="1638" d="M150 645q0 158 59 306.5t167.5 263t259 184t333.5 69.5q164 0 288.5 -56t209.5 -150.5t129 -217.5t44 -256q0 -127 -38.5 -247.5t-111.5 -225t-177.5 -184.5t-237.5 -125l105 -172l-217 -104l-148 235q-164 0 -288 57.5t-207.5 152.5t-126.5 217t-43 253zM399 659 q0 -94 29 -181t86 -154.5t139 -107.5t191 -40q121 0 221 51.5t173 134t114 190t41 222.5q0 94 -30 182t-86 155t-139 106.5t-190 39.5q-121 0 -222 -51t-174 -134t-113 -191.5t-40 -221.5z" />
            <glyph unicode="R" horiz-adv-x="1247" d="M150 0l151 1434h514q106 0 191.5 -36t143.5 -98.5t89 -145.5t31 -175q0 -84 -25.5 -163t-72 -145.5t-112 -118.5t-145.5 -85l236 -467h-268l-217 430h-236l-45 -430h-235zM453 641h278q66 0 122 25.5t96 69.5t62.5 102.5t22.5 122.5q0 53 -16.5 101t-47 84t-75.5 56.5 t-102 20.5h-279z" />
            <glyph unicode="S" horiz-adv-x="1165" d="M137 469h236q-3 -24 -3 -47q0 -42 10 -77q15 -54 48 -92t80 -57.5t106 -19.5q55 0 103.5 16.5t84.5 47t56.5 72.5t20.5 96q0 49 -17.5 81.5t-47.5 56t-66.5 40t-73.5 30.5q-92 33 -170 68t-135.5 81t-90 108.5t-32.5 152.5q0 102 41 184t108.5 139.5t155.5 88t182 30.5 q100 0 180 -33.5t135.5 -93t81.5 -141.5q18 -59 18 -126q0 -26 -3 -54h-236q2 18 2 34q0 84 -42 138q-50 66 -154 65q-45 0 -87 -13t-74 -37.5t-51.5 -61.5t-19.5 -82q0 -41 16.5 -73t42 -54.5t59.5 -39.5t71 -32q86 -33 167 -66.5t142 -81.5t99 -114.5t38 -165.5 q0 -109 -44 -195.5t-118.5 -148t-171 -94.5t-200.5 -33q-106 0 -193.5 35t-148 100.5t-88.5 158.5q-20 65 -21 143q0 32 4 67z" />
            <glyph unicode="T" horiz-adv-x="987" d="M150 1223l22 211h946l-22 -211h-357l-129 -1223h-235l129 1223h-354z" />
            <glyph unicode="U" horiz-adv-x="1310" d="M188 479l101 955h235l-100 -955q-2 -19 -2 -37q0 -44 10 -82q14 -56 47 -96.5t82 -64t113 -23.5q61 0 115.5 23.5t95.5 64.5t67.5 96.5t32.5 118.5l100 955h236l-100 -955q-10 -104 -57.5 -197.5t-122 -164t-174 -111.5t-216.5 -41t-207 41t-150 110q-60 70 -88 164 q-20 69 -21 143q0 28 3 56z" />
            <glyph unicode="V" horiz-adv-x="1165" d="M156 1434h247l224 -1043l438 1043h248l-647 -1434h-166z" />
            <glyph unicode="W" horiz-adv-x="2013" d="M162 1434h248l223 -1022l438 1022h174l225 -1022l437 1022h247l-647 -1434h-170l-221 1022l-440 -1022h-170z" />
            <glyph unicode="X" horiz-adv-x="1150" d="M16 0l502 717l-350 717h266l238 -514l348 514h266l-502 -717l351 -717h-267l-239 512l-346 -512h-267z" />
            <glyph unicode="Y" horiz-adv-x="1253" d="M174 1434h272l318 -617l373 617h258l-863 -1434h-258l347 573z" />
            <glyph unicode="Z" horiz-adv-x="1181" d="M27 0l872 1223h-700l22 211h1092l-873 -1223h740l-23 -211h-1130z" />
            <glyph unicode="[" horiz-adv-x="727" d="M98 -479l221 2107h414l-20 -198h-191l-180 -1713h190l-20 -196h-414z" />
            <glyph unicode="\" horiz-adv-x="927" d="M166 1591l215 88l563 -1732l-215 -88z" />
            <glyph unicode="]" horiz-adv-x="727" d="M113 -479l20 196h191l180 1710h-191l21 199h414l-222 -2105h-413z" />
            <glyph unicode="^" horiz-adv-x="1327" d="M193 662l550 874h156l375 -874h-252l-229 591l-357 -591h-243z" />
            <glyph unicode="_" horiz-adv-x="1146" d="M35 -256l16 154h1024l-16 -154h-1024z" />
            <glyph unicode="`" horiz-adv-x="1173" d="M385 1335l125 174l481 -280l-125 -174z" />
            <glyph unicode="a" horiz-adv-x="1234" d="M125 430q0 109 42 208t114.5 175t169 121t204.5 45q106 0 181 -42t112 -112l15 129h223l-101 -954h-223l15 129q-49 -66 -132 -110t-192 -44q-94 0 -173 36t-135.5 98.5t-88 145.5t-31.5 175zM350 446q0 -55 16.5 -105t49.5 -87t79 -58.5t107 -21.5q68 0 125 26.5 t98 72.5t64.5 106.5t23.5 128.5q0 55 -17 105.5t-49 87t-79 58t-106 21.5q-68 0 -125.5 -26.5t-98.5 -72.5t-64.5 -106.5t-23.5 -128.5z" />
            <glyph unicode="b" horiz-adv-x="1239" d="M150 0l151 1434h223l-65 -609q49 66 132 110t191 44q94 0 173 -36t135.5 -98.5t88 -145.5t31.5 -175q0 -109 -42 -208t-114.5 -174.5t-169 -121t-204.5 -45.5q-106 0 -181 42t-112 112l-14 -129h-223zM422 446q0 -55 16.5 -105t49 -87t80 -58.5t106.5 -21.5 q68 0 125 26.5t98 72.5t64.5 106.5t23.5 128.5q0 55 -16.5 105.5t-49 87t-78.5 58t-108 21.5q-68 0 -125 -26.5t-98 -72.5t-64.5 -106.5t-23.5 -128.5z" />
            <glyph unicode="c" horiz-adv-x="1093" d="M129 424q0 104 35 204.5t103.5 178.5t170 125t232.5 47q106 0 184 -32t128 -84q50 -53 72 -119q20 -61 19 -126v-12h-223q0 78 -47 126t-150 48q-78 0 -134 -28.5t-93 -75.5t-55.5 -108.5t-18.5 -129.5q0 -55 13.5 -103t42 -84t75.5 -56.5t115 -20.5q94 0 145.5 41 t79.5 113h224q-18 -78 -60.5 -142.5t-104 -110.5t-141 -73t-174.5 -27q-115 0 -196.5 37t-136 99.5t-80 143.5t-25.5 169z" />
            <glyph unicode="d" horiz-adv-x="1234" d="M125 430q0 109 42 208t114.5 175t169 121t204.5 45q106 0 181 -42t112 -112l66 609h223l-152 -1434h-223l15 129q-49 -66 -132 -110t-192 -44q-94 0 -173 36t-135.5 98.5t-88 145.5t-31.5 175zM350 446q0 -55 16.5 -105t49.5 -87t79 -58.5t107 -21.5q68 0 125 26.5 t98 72.5t64.5 106.5t23.5 128.5q0 55 -17 105.5t-49 87t-79 58t-106 21.5q-68 0 -125.5 -26.5t-98.5 -72.5t-64.5 -106.5t-23.5 -128.5z" />
            <glyph unicode="e" horiz-adv-x="1087" d="M129 420q0 117 37 219t104.5 178t162.5 119t212 43q94 0 171 -29.5t130 -83t82 -127t29 -159.5q0 -45 -7.5 -84t-21.5 -86h-682v-17q0 -37 7 -75q9 -46 35 -80.5t71 -55t116 -20.5q98 0 145.5 37t72.5 88h225q-16 -61 -56 -117.5t-99.5 -99.5t-138.5 -69t-173 -26 q-109 0 -187.5 34t-131 94.5t-78 141.5t-25.5 175zM365 575h475q1 16 1 32q-1 87 -49 141q-58 62 -161 63q-98 0 -176 -58.5t-90 -177.5z" />
            <glyph unicode="f" horiz-adv-x="735" d="M121 768l20 186h195l12 119q14 137 60.5 212t102.5 111t111.5 43t86.5 7q68 0 96.5 -7t52.5 -18l-20 -188q-23 6 -50.5 10t-80.5 4q-14 0 -35 -3t-41.5 -16.5t-35.5 -44t-22 -85.5l-14 -144h250l-21 -186h-249l-80 -768h-223l79 768h-194z" />
            <glyph unicode="g" horiz-adv-x="1228" d="M82 -109h225q2 -39 15.5 -74.5t42 -62t74.5 -42t114 -15.5q125 0 207 60.5t96 195.5l18 176q-57 -78 -144 -116t-179 -38q-94 0 -172 36t-134.5 98.5t-88 145.5t-31.5 175q0 109 42 208t114.5 175t169 121t204.5 45q106 0 181 -42t112 -112l15 129h223l-103 -1001 q-12 -121 -57 -207t-117 -141t-168 -82t-206 -27q-131 0 -216.5 34t-138.5 89t-78 126q-21 61 -21 125q0 10 1 21zM348 446q0 -55 17.5 -105t49 -87t79 -58.5t108.5 -21.5q68 0 125 26.5t98 72.5t64.5 106.5t23.5 128.5q0 57 -17 106.5t-50 86t-80.5 58t-106.5 21.5 q-68 0 -125 -26.5t-98 -72.5t-64.5 -106.5t-23.5 -128.5z" />
            <glyph unicode="h" horiz-adv-x="1165" d="M150 0l151 1434h223l-65 -613q53 78 137 118t192 40q104 0 171 -35t102 -94q33 -55 37 -126q1 -20 2 -42q0 -54 -8 -115l-60 -567h-223l51 494q4 36 4 70q0 22 -2 44q-4 54 -23.5 91.5t-56.5 60t-96 22.5q-119 0 -184.5 -83t-77.5 -205l-51 -494h-223z" />
            <glyph unicode="i" horiz-adv-x="522" d="M150 0l100 954h223l-100 -954h-223zM231 1288q0 37 15.5 70t40 57.5t57.5 38.5t70 14q66 0 107.5 -44t41.5 -107q0 -37 -15.5 -68.5t-40 -56.5t-57 -39t-69.5 -14q-66 0 -108 44t-42 105z" />
            <glyph unicode="j" horiz-adv-x="522" d="M-49 -477l20 194q33 -4 48.5 -5t29.5 -1q72 0 82 101l121 1142h221l-123 -1177q-8 -80 -32.5 -133.5t-59.5 -85t-79 -45t-89 -13.5q-37 0 -79 6.5t-60 16.5zM233 1288q0 37 15.5 70t40 57.5t57.5 38.5t70 14q66 0 107.5 -44t41.5 -107q0 -37 -15 -68.5t-40 -56.5 t-57.5 -39t-69.5 -14q-66 0 -108 44t-42 105z" />
            <glyph unicode="k" horiz-adv-x="1021" d="M150 0l151 1434h223l-96 -902l395 422h279l-449 -477l348 -477h-278l-305 420l-45 -420h-223z" />
            <glyph unicode="l" horiz-adv-x="522" d="M150 0l151 1434h223l-151 -1434h-223z" />
            <glyph unicode="m" horiz-adv-x="1712" d="M150 0l100 954h223l-14 -133q39 63 109.5 110.5t185.5 47.5q111 0 179 -47t93 -123q45 78 126 124t198 46q98 0 158.5 -34t91.5 -87q32 -54 40 -120q4 -34 3 -69q0 -32 -3 -65l-63 -604h-223l55 535q3 30 3 57q0 77 -26 125q-34 65 -131 65q-41 0 -78.5 -14t-68.5 -49 t-52.5 -91.5t-29.5 -142.5l-51 -485h-223l57 537q3 31 3 58q0 76 -24 123q-34 64 -131 64q-41 0 -79.5 -14t-69.5 -49t-53.5 -91.5t-30.5 -142.5l-51 -485h-223z" />
            <glyph unicode="n" horiz-adv-x="1165" d="M150 0l100 954h223l-14 -133q53 78 137 118t192 40q104 0 171 -35t102 -94q33 -55 37 -126q1 -20 2 -42q0 -54 -8 -115l-60 -567h-223l51 494q4 36 4 70q0 22 -2 44q-4 54 -23.5 91.5t-56.5 60t-96 22.5q-119 0 -184.5 -83t-77.5 -205l-51 -494h-223z" />
            <glyph unicode="o" horiz-adv-x="1163" d="M125 430q0 109 42 208t115.5 175t175 121t222.5 45q109 0 193.5 -36t144 -98.5t90.5 -145.5t31 -175q0 -109 -42 -208t-116 -174.5t-176 -121t-223 -45.5q-109 0 -194 36t-143.5 98.5t-89 145.5t-30.5 175zM350 446q0 -55 16.5 -105t49.5 -87t79 -58.5t107 -21.5 q68 0 125 26.5t98 72.5t64.5 106.5t23.5 128.5q0 55 -17 105.5t-49 87t-79 58t-106 21.5q-68 0 -125.5 -26.5t-98.5 -72.5t-64.5 -106.5t-23.5 -128.5z" />
            <glyph unicode="p" horiz-adv-x="1239" d="M98 -479l152 1433h223l-14 -129q49 66 132 110t191 44q94 0 173 -36t135.5 -98.5t88 -145.5t31.5 -175q0 -109 -43 -208t-115.5 -174.5t-169 -121t-204.5 -45.5q-106 0 -181 42t-112 112l-63 -608h-224zM420 446q0 -55 17.5 -105t50 -87t79.5 -58.5t107 -21.5 q68 0 125 26.5t98 72.5t64.5 106.5t23.5 128.5q0 55 -16.5 105.5t-49 87t-79 58t-107.5 21.5q-68 0 -125 -26.5t-99 -72.5t-65.5 -106.5t-23.5 -128.5z" />
            <glyph unicode="q" horiz-adv-x="1239" d="M129 430q0 109 42 208t114.5 175t169 121t204.5 45q106 0 181 -42t112 -112l15 129h223l-152 -1433h-223l66 608q-49 -66 -132 -110t-192 -44q-94 0 -173 36t-135 98.5t-88 145.5t-32 175zM354 446q0 -55 16.5 -105t49.5 -87t79 -58.5t107 -21.5q68 0 125 26.5t98 72.5 t65 106.5t24 128.5q0 55 -17.5 105.5t-49.5 87t-79 58t-106 21.5q-68 0 -125.5 -26.5t-98.5 -72.5t-64.5 -106.5t-23.5 -128.5z" />
            <glyph unicode="r" horiz-adv-x="774" d="M150 0l100 954h223l-16 -153q20 33 54 63.5t76 53t89 36t96 13.5t84 -15l-22 -204q-25 6 -42.5 8t-37.5 2q-150 0 -235 -83t-103 -263l-43 -412h-223z" />
            <glyph unicode="s" horiz-adv-x="929" d="M109 322h217q-2 -16 -1 -31q0 -70 39 -101q48 -38 128 -38q72 0 119.5 27.5t47.5 86.5q0 35 -18 55.5t-53 36t-87 33t-122 45.5q-43 18 -80 37t-63.5 45.5t-42 62t-15.5 87.5q0 78 33 136t86 97t120.5 58.5t139.5 19.5q82 0 147.5 -23.5t110.5 -66.5t67 -103 q18 -47 18 -101q0 -15 -1 -30h-217q1 11 1 21q-1 53 -27 87q-32 40 -109 40q-66 0 -109 -30t-43 -83q0 -25 12.5 -41t40 -31.5t74.5 -33.5t119 -45q49 -18 91 -39t74 -48.5t50 -66.5t18 -96q0 -80 -34.5 -139.5t-92 -97.5t-130 -57.5t-148.5 -19.5q-84 0 -153.5 22.5 t-119.5 66.5q-48 46 -72 110q-17 47 -17 103q0 22 2 45z" />
            <glyph unicode="t" horiz-adv-x="718" d="M121 768l20 186h162l29 289h223l-29 -289h219l-20 -186h-219l-41 -393q-3 -34 -3 -61q0 -22 2 -39q5 -37 21.5 -56.5t40 -25t54.5 -5.5t65.5 2.5t52.5 6.5l-20 -197q-29 -4 -74 -8t-100 -4q-37 0 -88 7t-95.5 39t-70.5 100q-18 45 -18 115q0 34 4 75l47 444h-162z" />
            <glyph unicode="u" horiz-adv-x="1165" d="M168 230q-1 20 -1 42q0 54 7 115l59 567h224l-51 -493q-4 -37 -4 -71q0 -24 2 -44q4 -54 23 -91.5t56 -60t97 -22.5q119 0 184 83t78 206l51 493h223l-100 -954h-223l14 133q-111 -158 -330 -158q-104 0 -170.5 35t-101.5 94q-33 55 -37 126z" />
            <glyph unicode="v" horiz-adv-x="1011" d="M102 954h240l195 -635l333 635h240l-532 -954h-150z" />
            <glyph unicode="w" horiz-adv-x="1542" d="M100 954h240l143 -604l279 604h219l152 -604l270 604h239l-471 -954h-149l-174 713l-328 -713h-149z" />
            <glyph unicode="x" horiz-adv-x="913" d="M16 0l363 481l-256 473h258l145 -299l207 299h258l-354 -473l260 -481h-258l-150 307l-215 -307h-258z" />
            <glyph unicode="y" horiz-adv-x="1183" d="M123 -109h225v-7q0 -104 58 -150q61 -47 157 -47q45 0 86 10t75 36.5t56.5 69.5t28.5 111l22 219q-53 -78 -137 -118t-192 -40q-104 0 -170 35t-101 94q-33 55 -38 126q-2 22 -2 46q0 52 8 111l59 567h223l-51 -493q-4 -37 -4 -71q0 -22 2 -44q4 -53 23.5 -91t56.5 -60.5 t96 -22.5q119 0 184.5 83t77.5 206l52 493h223l-109 -1040q-20 -207 -151 -313q-66 -53 -154 -78t-192 -25q-207 0 -314 99q-53 49 -81 123q-20 53 -20 120q0 25 3 51z" />
            <glyph unicode="z" horiz-adv-x="897" d="M45 0l533 756h-441l21 198h811l-531 -755h451l-21 -199h-823z" />
            <glyph unicode="{" horiz-adv-x="942" d="M211 457l18 182q25 0 59 9t65.5 30.5t55 54.5t27.5 82l56 526q8 72 38.5 125.5t74.5 89t96.5 53t101.5 17.5h145l-18 -168h-90q-37 0 -60.5 -14t-37 -37t-20.5 -49.5t-9 -52.5l-54 -521q-6 -66 -33.5 -109.5t-63.5 -70t-71.5 -39t-58.5 -14.5q23 -4 56.5 -15.5t62.5 -38 t47 -74.5t10 -126l-49 -455q-2 -25 -1 -52.5t10.5 -50t29.5 -36.5t57 -14h90l-18 -168h-145q-49 0 -97.5 17.5t-85.5 52t-56 89t-11 125.5l47 461q6 53 -10.5 89t-43 58.5t-58 33t-56.5 10.5z" />
            <glyph unicode="|" horiz-adv-x="522" d="M117 -479l221 2105h192l-221 -2105h-192z" />
            <glyph unicode="}" horiz-adv-x="942" d="M113 -479l18 168h90q37 0 60.5 14t37 36.5t19.5 50.5t8 52l49 455q8 78 36 126t63.5 74.5t70.5 38t60 15.5q-23 2 -56.5 14.5t-62.5 39t-47.5 70.5t-12.5 109l56 521q2 27 1 53t-10.5 49t-30 37t-56.5 14h-91l19 168h145q49 0 97.5 -17.5t85 -53t56 -89t11.5 -125.5 l-55 -526q-6 -49 11 -82t44 -54.5t58.5 -30.5t56.5 -9l-19 -182q-25 0 -58.5 -10.5t-65 -33t-55 -58.5t-30.5 -89l-47 -461q-8 -72 -38.5 -126t-74.5 -88.5t-96.5 -52t-101.5 -17.5h-145z" />
            <glyph unicode="~" horiz-adv-x="1079" d="M123 395l20 191q57 68 123 94.5t119 26.5t113.5 -19.5t119.5 -46.5q61 -27 114.5 -50.5t105.5 -23.5q59 0 120.5 35t110.5 78l-20 -191q-59 -68 -123 -94t-121 -26q-59 0 -110.5 20.5t-100.5 46.5q-47 25 -104.5 48.5t-124.5 23.5q-74 0 -128.5 -32t-113.5 -81z" />
            <glyph unicode="&#xa1;" horiz-adv-x="632" d="M145 -512l103 967h244l-103 -967h-244zM236 764q0 37 15 69.5t40.5 58.5t58.5 40t70 14q66 0 108.5 -45t42.5 -108q0 -37 -15 -70t-41 -57.5t-58.5 -39t-69.5 -14.5q-66 0 -108.5 45.5t-42.5 106.5z" />
            <glyph unicode="&#xa2;" d="M190 662q0 96 31 187t88.5 167t140 127t189.5 67l23 220h167l-22 -220q92 -12 154.5 -47t101.5 -85t56.5 -111.5t15.5 -122.5h-224q0 78 -47 126t-147 48q-78 0 -135.5 -28.5t-94 -76t-55 -109t-18.5 -126.5q0 -55 13 -103.5t42 -84t76 -57t114 -21.5q94 0 145.5 41 t80.5 112h223q-35 -135 -135.5 -230t-270.5 -118l-22 -217h-168l23 219q-86 12 -151 53t-108 101.5t-64.5 134.5t-21.5 154z" />
            <glyph unicode="&#xa3;" d="M133 0l19 174q27 23 49 69t39 109q16 63 30.5 139t24.5 154h-139l18 168h139q2 33 6.5 69t7.5 70.5t6 64.5t5 48q12 92 57 165t110.5 124t148.5 77.5t173 26.5q100 0 180 -33.5t133.5 -93t78 -141.5t14.5 -180h-236q6 51 -2 94t-30.5 74.5t-62.5 50t-101 18.5 q-94 0 -155.5 -45t-72.5 -137l-24 -248h293l-19 -168h-293q-10 -76 -20 -148.5t-25 -131.5q-16 -74 -31.5 -110t-31.5 -48h610l-22 -211h-877z" />
            <glyph unicode="&#xa4;" horiz-adv-x="1472" d="M217 344l148 133q-27 51 -40.5 111.5t-13.5 122.5q0 92 30 173t83 152l-119 133l156 142l117 -133q61 39 134.5 60.5t155.5 21.5q84 0 153 -21.5t124 -60.5l145 131l125 -140l-145 -133q27 -49 41 -109.5t14 -123.5q0 -90 -29.5 -172t-85.5 -154l117 -131l-153 -141 l-117 131q-63 -39 -137 -59.5t-158 -20.5q-82 0 -149.5 20.5t-120.5 59.5l-148 -131zM535 727q0 -55 17 -105.5t49 -87t79 -58t108 -21.5q68 0 125.5 26.5t98.5 72.5t64.5 106.5t23.5 127.5q0 57 -17.5 106.5t-50.5 86.5t-80 58.5t-106 21.5q-68 0 -125 -26.5t-98 -73 t-64.5 -106.5t-23.5 -128z" />
            <glyph unicode="&#xa5;" d="M90 1434h272l320 -617l446 617h273l-590 -813h266l-16 -168h-311l-15 -129h312l-19 -168h-311l-17 -156h-211l17 156h-305l18 168h305l15 129h-306l17 168h260z" />
            <glyph unicode="&#xa6;" horiz-adv-x="522" d="M115 -479l98 940h195l-99 -940h-194zM238 684l98 942h194l-98 -942h-194z" />
            <glyph unicode="&#xa7;" d="M111 -16h237q-10 -98 42 -160t157 -62q43 0 85 11.5t73.5 35t52 57.5t20.5 77q0 76 -55 115.5t-137 68.5q-88 31 -170 62.5t-145.5 74.5t-101.5 104.5t-38 149.5q0 119 70.5 213t201.5 133q-63 43 -92.5 107.5t-29.5 140.5q0 92 42 167t110.5 127t156.5 81t182 29 q96 0 177 -30t137.5 -85t84 -132t17.5 -169h-238q10 98 -43 159.5t-157 61.5q-43 0 -84 -11.5t-74 -35t-52.5 -57t-19.5 -76.5q0 -39 16.5 -69t43 -51.5t61.5 -36.5t72 -28q78 -27 157.5 -57.5t145 -73.5t107.5 -104.5t42 -147.5q0 -68 -24.5 -127t-64.5 -107t-88 -80 t-93 -40q61 -45 91 -108.5t30 -139.5q0 -92 -42 -166.5t-110.5 -127t-157 -81t-182.5 -28.5q-96 0 -177 29.5t-136 85t-83 132t-17 169.5zM373 553q0 -53 26.5 -88t71.5 -62q47 -29 106.5 -49t114.5 -37q49 4 91 21.5t74 46.5t50.5 67t18.5 83q0 84 -78 133 q-41 27 -103.5 49t-140.5 47q-98 -8 -164.5 -66.5t-66.5 -144.5z" />
            <glyph unicode="&#xa8;" horiz-adv-x="1218" d="M336 1288q0 70 52 120t122 50q61 0 101 -42t40 -101q0 -35 -14 -66.5t-38 -54.5t-55.5 -36t-64.5 -13q-63 0 -103 42t-40 101zM805 1288q0 70 52 120t122 50q61 0 101 -42t40 -101q0 -72 -51 -121t-121 -49q-66 0 -104.5 42t-38.5 101z" />
            <glyph unicode="&#xa9;" horiz-adv-x="1646" d="M154 643q0 158 59 306.5t167.5 264t259.5 185t333 69.5q164 0 288.5 -56t209.5 -149.5t129.5 -216t44.5 -255.5q0 -158 -59.5 -307.5t-167 -264.5t-258.5 -184.5t-333 -69.5q-164 0 -289.5 56.5t-210.5 149.5t-129 216t-44 256zM334 653q0 -106 32.5 -205.5t97 -175 t159 -121t217.5 -45.5q137 0 252.5 57.5t197.5 152t128 215t46 249.5q0 106 -32.5 205.5t-97 175.5t-159 121t-217.5 45q-139 0 -253.5 -57.5t-196.5 -151.5t-128 -215t-46 -250zM496 678q0 88 31.5 170t91 145.5t144.5 102.5t193 39q86 0 150.5 -25t107.5 -68t66 -99 t25 -120h-152q-10 76 -63.5 128.5t-151.5 52.5q-68 0 -121 -27t-92 -71t-59.5 -100t-20.5 -116q0 -53 16.5 -100t47 -82t75.5 -55.5t103 -20.5q78 0 140.5 38t94.5 103h156q-18 -59 -57 -109t-91.5 -87t-119 -57.5t-140.5 -20.5q-90 0 -159.5 30.5t-117.5 82t-72.5 120 t-24.5 146.5z" />
            <glyph unicode="&#xaa;" horiz-adv-x="1234" d="M125 430q0 109 42 208t114.5 175t169 121t204.5 45q106 0 181 -42t112 -112l15 129h223l-101 -954h-223l15 129q-49 -66 -132 -110t-192 -44q-94 0 -173 36t-135.5 98.5t-88 145.5t-31.5 175zM350 446q0 -55 16.5 -105t49.5 -87t79 -58.5t107 -21.5q68 0 125 26.5 t98 72.5t64.5 106.5t23.5 128.5q0 55 -17 105.5t-49 87t-79 58t-106 21.5q-68 0 -125.5 -26.5t-98.5 -72.5t-64.5 -106.5t-23.5 -128.5z" />
            <glyph unicode="&#xab;" horiz-adv-x="966" d="M137 530l15 132l436 335l-23 -215l-243 -186l204 -186l-22 -215zM539 530l14 132l436 335l-22 -215l-244 -186l205 -186l-23 -215z" />
            <glyph unicode="&#xac;" d="M248 641l20 199h828l-54 -512h-223l33 313h-604z" />
            <glyph unicode="&#xad;" horiz-adv-x="602" d="M113 483l20 199h479l-20 -199h-479z" />
            <glyph unicode="&#xae;" horiz-adv-x="1646" d="M154 643q0 158 59 306.5t167.5 264t259.5 185t333 69.5q164 0 288.5 -56t209.5 -149.5t129.5 -216t44.5 -255.5q0 -158 -59.5 -307.5t-167 -264.5t-258.5 -184.5t-333 -69.5q-164 0 -289.5 56.5t-210.5 149.5t-129 216t-44 256zM334 653q0 -106 32.5 -205.5t97 -175 t159 -121t217.5 -45.5q137 0 252.5 57.5t197.5 152t128 215t46 249.5q0 106 -32.5 205.5t-97 175.5t-159 121t-217.5 45q-139 0 -253.5 -57.5t-196.5 -151.5t-128 -215t-46 -250zM580 322l88 833h340q61 0 110 -21.5t83 -57.5t52.5 -84t18.5 -103q0 -98 -55.5 -178 t-151.5 -117l137 -272h-176l-125 249h-137l-27 -249h-157zM778 709h166q72 0 115 51t43 119q0 57 -33 98t-92 41h-166z" />
            <glyph unicode="&#xaf;" horiz-adv-x="1136" d="M356 1481l21 198h733l-20 -198h-734z" />
            <glyph unicode="&#xb0;" horiz-adv-x="667" d="M162 1149q0 66 26.5 124t70.5 101t102.5 68.5t123.5 25.5q57 0 106.5 -20.5t85.5 -56t55.5 -85t19.5 -104.5q0 -66 -27 -124t-71 -101t-103 -68.5t-123 -25.5q-59 0 -107.5 20.5t-84 56t-55 85t-19.5 104.5zM319 1163q0 -53 35 -89t88 -36q59 0 104.5 44.5t45.5 105.5 q0 51 -34 89t-87 38q-29 0 -56.5 -12.5t-49 -34t-34 -48t-12.5 -57.5z" />
            <glyph unicode="&#xb1;" d="M180 0l21 199h827l-20 -199h-828zM260 756l21 198h301l32 316h224l-33 -316h303l-21 -198h-303l-32 -314h-224l33 314h-301z" />
            <glyph unicode="&#xb2;" horiz-adv-x="772" d="M180 645q10 96 31.5 160.5t54.5 111t75 77t91 59.5q37 20 70 38.5t57.5 40t39.5 46t15 57.5q0 41 -22.5 59.5t-59.5 18.5q-43 0 -73.5 -26.5t-38.5 -88.5h-180q6 51 28.5 96t61.5 80t93 55.5t122 20.5q104 0 176 -51t72 -156q0 -57 -21.5 -101t-55.5 -79t-76 -61.5 t-81 -49.5q-43 -27 -72.5 -46t-47 -36.5t-25.5 -35t-11 -41.5h340l-16 -148h-547z" />
            <glyph unicode="&#xb3;" horiz-adv-x="800" d="M195 909h180q-8 -66 21.5 -100.5t82.5 -34.5q57 0 87 36t30 87q0 41 -22.5 65.5t-81.5 24.5h-70l14 141h70q70 0 92.5 31t22.5 70q0 47 -20.5 65.5t-61.5 18.5q-59 0 -83 -31t-30 -84h-180q4 47 24.5 92t57.5 81t90 57.5t127 21.5q53 0 100 -12.5t82 -38t55.5 -63.5 t20.5 -87q0 -76 -42 -126t-95 -68q43 -16 76.5 -57.5t33.5 -112.5q0 -61 -25.5 -108.5t-68.5 -80t-100.5 -50t-120.5 -17.5q-72 0 -125 21.5t-87 59.5t-47.5 89t-6.5 110z" />
            <glyph unicode="&#xb4;" horiz-adv-x="1173" d="M293 1229l538 280l89 -174l-539 -280z" />
            <glyph unicode="&#xb5;" d="M100 -479l152 1433h221l-51 -493q-6 -61 -2 -114.5t23.5 -91.5t56.5 -60.5t96 -22.5q119 0 184.5 83t77.5 206l51 493h226l-101 -954h-223l12 133q-53 -78 -137 -118t-190 -40q-35 0 -65 4.5t-58 12.5l-49 -471h-224z" />
            <glyph unicode="&#xb6;" horiz-adv-x="1368" d="M139 1036q0 94 28 163t74 117t105.5 77.5t120.5 46t120.5 22.5t106.5 6h678l-18 -184h-109l-168 -1587h-211l168 1585h-215l-168 -1585h-211l103 977q-88 0 -162 20.5t-128 64.5t-84 112.5t-30 164.5z" />
            <glyph unicode="&#xb7;" horiz-adv-x="575" d="M188 625q0 37 15.5 69.5t40 57t57.5 39t70 14.5q66 0 107.5 -44t41.5 -108q0 -37 -15.5 -68.5t-40 -56t-57 -39t-69.5 -14.5q-66 0 -108 44.5t-42 105.5z" />
            <glyph unicode="&#xb8;" horiz-adv-x="1136" d="M328 -303h131q12 -61 69 -62q37 0 61.5 26t24.5 65q0 35 -19.5 52t-49.5 17q-41 0 -66 -37h-110l26 242h144l-15 -131q31 27 76 27q27 0 52.5 -10.5t47 -30t35 -49t13.5 -66.5q0 -39 -15.5 -78t-44.5 -70.5t-69.5 -51t-94.5 -19.5q-16 0 -48 4t-64.5 21.5t-57 53 t-26.5 97.5z" />
            <glyph unicode="&#xb9;" horiz-adv-x="577" d="M217 1167l14 129q57 0 94 8.5t60 25t33 43t14 61.5h160l-84 -789h-184l55 522h-162z" />
            <glyph unicode="&#xba;" horiz-adv-x="1163" d="M125 430q0 109 42 208t115.5 175t175 121t222.5 45q109 0 193.5 -36t144 -98.5t90.5 -145.5t31 -175q0 -109 -42 -208t-116 -174.5t-176 -121t-223 -45.5q-109 0 -194 36t-143.5 98.5t-89 145.5t-30.5 175zM350 446q0 -55 16.5 -105t49.5 -87t79 -58.5t107 -21.5 q68 0 125 26.5t98 72.5t64.5 106.5t23.5 128.5q0 55 -17 105.5t-49 87t-79 58t-106 21.5q-68 0 -125.5 -26.5t-98.5 -72.5t-64.5 -106.5t-23.5 -128.5z" />
            <glyph unicode="&#xbb;" horiz-adv-x="966" d="M102 195l23 215l244 186l-205 186l22 215l367 -335l-14 -132zM504 195l22 215l244 186l-205 186l23 215l366 -335l-14 -132z" />
            <glyph unicode="&#xbc;" horiz-adv-x="1945" d="M270 1167l15 129q57 0 94 8.5t59.5 25t32.5 43t14 61.5h160l-84 -789h-184l55 522h-162zM303 -2l1057 1542l168 -102l-1057 -1542zM1180 219l61 569h180l-45 -417h133l23 219h180l-22 -219h96l-17 -152h-96l-22 -219h-181l23 219h-313z" />
            <glyph unicode="&#xbd;" horiz-adv-x="1945" d="M270 1167l15 129q57 0 94 8.5t59.5 25t32.5 43t14 61.5h160l-84 -789h-184l55 522h-162zM303 -2l1057 1542l168 -102l-1057 -1542zM1153 0q10 96 31.5 160.5t54.5 110.5t75 77t91 60q37 20 69.5 38.5t57 40t40 46t15.5 57.5q0 41 -22.5 59.5t-59.5 18.5q-43 0 -73.5 -27 t-38.5 -88h-181q6 51 29 96t61.5 80t93 55.5t122.5 20.5q104 0 175.5 -51.5t71.5 -155.5q0 -57 -21.5 -101t-55 -79t-75.5 -61.5t-81 -49.5q-43 -27 -72.5 -46t-47 -36.5t-26 -35t-10.5 -42.5h340l-16 -147h-547z" />
            <glyph unicode="&#xbe;" horiz-adv-x="1945" d="M188 909h181q-8 -66 21.5 -100.5t82.5 -34.5q57 0 87 36t30 87q0 41 -22.5 65.5t-82.5 24.5h-69l14 141h70q70 0 92 31t22 70q0 47 -20.5 65.5t-61.5 18.5q-59 0 -82.5 -31t-29.5 -84h-180q4 47 24.5 92t57 81t90 57.5t127.5 21.5q53 0 100 -12.5t82 -38t55.5 -63.5 t20.5 -87q0 -76 -42 -126t-96 -68q43 -16 77 -57.5t34 -112.5q0 -61 -25.5 -108.5t-68.5 -80t-100.5 -50t-120.5 -17.5q-72 0 -125.5 21.5t-87 59.5t-47 89t-7.5 110zM303 -2l1057 1542l168 -102l-1059 -1542zM1180 219l59 569h180l-43 -417h133l23 219h180l-22 -219h96 l-17 -152h-96l-22 -219h-181l23 219h-313z" />
            <glyph unicode="&#xbf;" horiz-adv-x="1046" d="M78 -190q0 80 27.5 143t67.5 111.5t84 84t79 60.5q55 41 88 70.5t52.5 61.5t28.5 73t15 102h225q-10 -72 -22 -127t-33.5 -101t-56.5 -86t-90 -79q-27 -18 -66 -46t-75.5 -64t-62.5 -83t-26 -106q0 -86 55.5 -128t135.5 -42q92 0 162.5 56.5t83.5 180.5h235 q-10 -109 -56 -192.5t-113.5 -141t-154 -86t-176.5 -28.5q-86 0 -159.5 25.5t-129 72.5t-87 116t-31.5 153zM483 745q0 39 15.5 73t42 60.5t61.5 42t72 15.5q70 0 113.5 -46t43.5 -112q0 -39 -15 -72.5t-41.5 -59t-61.5 -41t-72 -15.5q-70 0 -114 45t-44 110z" />
            <glyph unicode="&#xc0;" horiz-adv-x="1169" d="M6 0l647 1434h166l344 -1434h-248l-43 182h-538l-80 -182h-248zM428 393h395l-129 649zM514 1815l125 174l481 -281l-125 -174z" />
            <glyph unicode="&#xc1;" horiz-adv-x="1169" d="M6 0l647 1434h166l344 -1434h-248l-43 182h-538l-80 -182h-248zM428 393h395l-129 649zM455 1669l538 281l88 -174l-538 -281z" />
            <glyph unicode="&#xc2;" horiz-adv-x="1169" d="M6 0l647 1434h166l344 -1434h-248l-43 182h-538l-80 -182h-248zM393 1671l400 320l337 -320l-145 -143l-215 221l-260 -219zM428 393h395l-129 649z" />
            <glyph unicode="&#xc3;" horiz-adv-x="1169" d="M6 0l647 1434h166l344 -1434h-248l-43 182h-538l-80 -182h-248zM362 1731q66 88 138.5 123.5t144.5 35.5q53 0 90 -14t65.5 -30.5t54 -31t54.5 -14.5q43 0 73 30t52 60l152 -84q-66 -98 -144.5 -139t-152.5 -41q-51 0 -88 14.5t-68 31t-57.5 30.5t-54.5 14 q-39 0 -65 -25.5t-54 -64.5zM428 393h395l-129 649z" />
            <glyph unicode="&#xc4;" horiz-adv-x="1169" d="M6 0l647 1434h166l344 -1434h-248l-43 182h-538l-80 -182h-248zM371 1737q0 37 15 69.5t40 57t57.5 39t69.5 14.5q66 0 107.5 -44t41.5 -108q0 -37 -15 -68.5t-39.5 -56t-57.5 -39t-70 -14.5q-66 0 -107.5 44.5t-41.5 105.5zM428 393h395l-129 649zM840 1737 q0 37 15 69.5t40 57t57.5 39t69.5 14.5q66 0 107.5 -44t41.5 -108q0 -37 -15 -68.5t-39.5 -56t-57.5 -39t-70 -14.5q-66 0 -107.5 44.5t-41.5 105.5z" />
            <glyph unicode="&#xc5;" horiz-adv-x="1169" d="M6 0l647 1434h166l344 -1434h-248l-43 182h-538l-80 -182h-248zM428 393h395l-129 649zM516 1726q0 55 23.5 104.5t61.5 87.5t88.5 59.5t105.5 21.5q49 0 91 -18.5t72.5 -49t47 -72.5t16.5 -90q0 -55 -22.5 -105t-61.5 -87t-88 -59.5t-105 -22.5q-49 0 -91 18.5t-72.5 50 t-48 73.5t-17.5 89zM657 1739q0 -41 29 -71t72 -30q49 0 86 35t37 86q0 41 -28 71t-73 30q-51 0 -87 -37t-36 -84z" />
            <glyph unicode="&#xc6;" horiz-adv-x="1808" d="M4 0l848 1434h958l-22 -211h-592l-43 -406h592l-23 -211h-592l-40 -395h591l-22 -211h-828l19 184h-485l-105 -184h-256zM487 395h385l86 817z" />
            <glyph unicode="&#xc7;" horiz-adv-x="1587" d="M150 645q0 160 58 308.5t165.5 263t260 183t343.5 68.5q145 0 261 -42t197 -116.5t125 -177t48 -221.5h-248q-6 76 -35 139.5t-78 109.5t-119.5 71.5t-162.5 25.5q-129 0 -234.5 -50t-180.5 -133t-116 -190.5t-41 -219.5q0 -102 34 -191.5t94.5 -155t145.5 -103.5 t189 -38q80 0 150.5 21.5t128 60.5t100.5 91t68 112h258q-35 -100 -100.5 -188.5t-156 -154t-201 -105.5t-235.5 -46l-10 -88q33 27 86 27q55 0 97 -38t42 -108q0 -39 -15 -75.5t-44 -66.5t-71 -48.5t-93 -18.5q-16 0 -48 4.5t-63.5 20.5t-57 49t-27.5 92h131q12 -51 69 -51 q37 0 61.5 23.5t24.5 58.5q0 31 -18.5 49.5t-46.5 18.5q-45 0 -70 -37h-110l20 192q-137 14 -243.5 73.5t-180.5 151t-112.5 206t-38.5 243.5z" />
            <glyph unicode="&#xc8;" horiz-adv-x="1116" d="M150 0l151 1434h827l-22 -211h-592l-43 -406h592l-23 -211h-591l-41 -395h591l-22 -211h-827zM479 1778l125 174l481 -281l-124 -174z" />
            <glyph unicode="&#xc9;" horiz-adv-x="1116" d="M150 0l151 1434h827l-22 -211h-592l-43 -406h592l-23 -211h-591l-41 -395h591l-22 -211h-827zM432 1708l539 281l88 -174l-539 -281z" />
            <glyph unicode="&#xca;" horiz-adv-x="1116" d="M150 0l151 1434h827l-22 -211h-592l-43 -406h592l-23 -211h-591l-41 -395h591l-22 -211h-827zM381 1671l399 320l338 -320l-145 -143l-215 221l-260 -219z" />
            <glyph unicode="&#xcb;" horiz-adv-x="1116" d="M150 0l151 1434h827l-22 -211h-592l-43 -406h592l-23 -211h-591l-41 -395h591l-22 -211h-827zM379 1737q0 37 15.5 69.5t40 57t57 39t69.5 14.5q66 0 108 -44t42 -108q0 -37 -15.5 -68.5t-40 -56t-57.5 -39t-70 -14.5q-66 0 -107.5 44.5t-41.5 105.5zM848 1737 q0 37 15.5 69.5t40 57t57 39t69.5 14.5q66 0 108 -44t42 -108q0 -37 -15.5 -68.5t-40 -56t-57.5 -39t-70 -14.5q-66 0 -107.5 44.5t-41.5 105.5z" />
            <glyph unicode="&#xcc;" horiz-adv-x="542" d="M150 0l151 1434h244l-152 -1434h-243zM150 1776l124 174l482 -281l-125 -174z" />
            <glyph unicode="&#xcd;" horiz-adv-x="542" d="M139 1669l539 281l88 -174l-539 -281zM150 0l151 1434h244l-152 -1434h-243z" />
            <glyph unicode="&#xce;" horiz-adv-x="542" d="M80 1671l399 320l338 -320l-143 -143l-217 221l-260 -219zM150 0l151 1434h244l-152 -1434h-243z" />
            <glyph unicode="&#xcf;" horiz-adv-x="542" d="M63 1737q0 37 15.5 69.5t40 57t57.5 39t70 14.5q66 0 107.5 -44t41.5 -108q0 -37 -15 -68.5t-40 -56t-57.5 -39t-69.5 -14.5q-66 0 -108 44.5t-42 105.5zM150 0l151 1434h244l-152 -1434h-243zM532 1737q0 37 15.5 69.5t40 57t57.5 39t70 14.5q66 0 107.5 -44t41.5 -108 q0 -37 -15 -68.5t-40 -56t-57.5 -39t-69.5 -14.5q-66 0 -108 44.5t-42 105.5z" />
            <glyph unicode="&#xd0;" horiz-adv-x="1435" d="M-29 635l19 168h246l65 631h465q164 0 289 -55.5t210 -146.5t129 -209t44 -243q0 -145 -58.5 -285.5t-166 -250t-259 -177t-340.5 -67.5h-464l67 635h-246zM408 211h229q129 0 232.5 48t176 126t111.5 177.5t39 203.5q0 88 -28.5 170t-86 145.5t-142.5 102.5t-196 39 h-229l-43 -420h252l-18 -168h-252z" />
            <glyph unicode="&#xd1;" horiz-adv-x="1359" d="M150 0l151 1434h258l459 -1020l108 1020h236l-152 -1434h-258l-460 1020l-107 -1020h-235zM436 1731q66 88 138.5 123.5t144.5 35.5q53 0 90 -14t65.5 -30.5t54 -31t54.5 -14.5q43 0 72.5 30t52.5 60l152 -84q-66 -98 -145 -139t-152 -41q-51 0 -88 14.5t-68 31 t-57.5 30.5t-55.5 14q-39 0 -64.5 -25.5t-54.5 -64.5z" />
            <glyph unicode="&#xd2;" horiz-adv-x="1638" d="M150 643q0 158 59 306.5t167.5 264t259 185t333.5 69.5q164 0 288.5 -56t209.5 -149.5t129 -216t44 -255.5q0 -158 -59 -307.5t-166.5 -264.5t-258.5 -184.5t-333 -69.5q-164 0 -289.5 56.5t-210.5 149.5t-129 216t-44 256zM399 659q0 -94 29 -181t86 -154.5t139 -107.5 t191 -40q121 0 221 51.5t173 134t114 190t41 222.5q0 94 -30 182t-86 155t-139 106.5t-190 39.5q-121 0 -222 -51t-174 -134t-113 -191.5t-40 -221.5zM666 1815l122 174l482 -281l-125 -174z" />
            <glyph unicode="&#xd3;" horiz-adv-x="1638" d="M150 643q0 158 59 306.5t167.5 264t259 185t333.5 69.5q164 0 288.5 -56t209.5 -149.5t129 -216t44 -255.5q0 -158 -59 -307.5t-166.5 -264.5t-258.5 -184.5t-333 -69.5q-164 0 -289.5 56.5t-210.5 149.5t-129 216t-44 256zM399 659q0 -94 29 -181t86 -154.5t139 -107.5 t191 -40q121 0 221 51.5t173 134t114 190t41 222.5q0 94 -30 182t-86 155t-139 106.5t-190 39.5q-121 0 -222 -51t-174 -134t-113 -191.5t-40 -221.5zM721 1708l539 281l90 -174l-541 -281z" />
            <glyph unicode="&#xd4;" horiz-adv-x="1638" d="M150 643q0 158 59 306.5t167.5 264t259 185t333.5 69.5q164 0 288.5 -56t209.5 -149.5t129 -216t44 -255.5q0 -158 -59 -307.5t-166.5 -264.5t-258.5 -184.5t-333 -69.5q-164 0 -289.5 56.5t-210.5 149.5t-129 216t-44 256zM399 659q0 -94 29 -181t86 -154.5t139 -107.5 t191 -40q121 0 221 51.5t173 134t114 190t41 222.5q0 94 -30 182t-86 155t-139 106.5t-190 39.5q-121 0 -222 -51t-174 -134t-113 -191.5t-40 -221.5zM629 1671l401 320l336 -320l-143 -143l-217 221l-261 -219z" />
            <glyph unicode="&#xd5;" horiz-adv-x="1638" d="M150 643q0 158 59 306.5t167.5 264t259 185t333.5 69.5q164 0 288.5 -56t209.5 -149.5t129 -216t44 -255.5q0 -158 -59 -307.5t-166.5 -264.5t-258.5 -184.5t-333 -69.5q-164 0 -289.5 56.5t-210.5 149.5t-129 216t-44 256zM399 659q0 -94 29 -181t86 -154.5t139 -107.5 t191 -40q121 0 221 51.5t173 134t114 190t41 222.5q0 94 -30 182t-86 155t-139 106.5t-190 39.5q-121 0 -222 -51t-174 -134t-113 -191.5t-40 -221.5zM608 1731q66 88 138.5 123.5t144.5 35.5q53 0 90 -14t66.5 -30.5t55 -31t54.5 -14.5q43 0 71.5 30t51.5 60l152 -84 q-66 -98 -144 -139t-151 -41q-51 0 -89 14.5t-69 31t-57.5 30.5t-55.5 14q-39 0 -64.5 -25.5t-51.5 -64.5z" />
            <glyph unicode="&#xd6;" horiz-adv-x="1638" d="M150 643q0 158 59 306.5t167.5 264t259 185t333.5 69.5q164 0 288.5 -56t209.5 -149.5t129 -216t44 -255.5q0 -158 -59 -307.5t-166.5 -264.5t-258.5 -184.5t-333 -69.5q-164 0 -289.5 56.5t-210.5 149.5t-129 216t-44 256zM399 659q0 -94 29 -181t86 -154.5t139 -107.5 t191 -40q121 0 221 51.5t173 134t114 190t41 222.5q0 94 -30 182t-86 155t-139 106.5t-190 39.5q-121 0 -222 -51t-174 -134t-113 -191.5t-40 -221.5zM604 1737q0 37 15.5 69.5t40 57t57.5 39t69 14.5q66 0 108 -44t42 -108q0 -37 -15.5 -68.5t-40 -56t-57 -39t-69.5 -14.5 q-66 0 -108 44.5t-42 105.5zM1073 1737q0 37 15.5 69.5t40 57t57.5 39t69 14.5q66 0 108 -44t42 -108q0 -37 -15.5 -68.5t-40 -56t-57 -39t-69.5 -14.5q-66 0 -108 44.5t-42 105.5z" />
            <glyph unicode="&#xd7;" d="M260 371l244 221l-189 213l156 141l191 -213l245 223l142 -157l-246 -224l190 -215l-155 -139l-191 213l-246 -221z" />
            <glyph unicode="&#xd8;" horiz-adv-x="1638" d="M150 645q0 158 59 306.5t167.5 263t260 184t336.5 69.5q59 0 109.5 -7t97.5 -21l94 174l147 -70l-90 -168q76 -43 133.5 -107.5t96 -141t59 -163.5t20.5 -178q0 -158 -59 -305t-166.5 -262t-260.5 -184.5t-337 -69.5q-123 0 -221 31l-98 -186l-150 69l98 184 q-145 90 -220.5 247t-75.5 335zM399 662q0 -113 40 -217.5t118 -172.5l518 969q-59 16 -125 16q-123 0 -224 -51t-174 -134t-113 -190t-40 -220zM700 195q63 -18 138 -19q123 0 225 51.5t176 134t114 189t40 219.5q0 117 -44 225.5t-130 173.5z" />
            <glyph unicode="&#xd9;" horiz-adv-x="1310" d="M188 479l101 955h235l-100 -955q-6 -63 8 -118.5t47 -96.5t82 -64.5t113 -23.5q61 0 115.5 23.5t95.5 64.5t67.5 96.5t32.5 118.5l100 955h236l-100 -955q-10 -104 -57.5 -197.5t-122 -164t-174 -111.5t-216.5 -41t-207 41t-150.5 110.5t-88 163t-17.5 199.5zM567 1815 l125 174l479 -281l-124 -174z" />
            <glyph unicode="&#xda;" horiz-adv-x="1310" d="M188 479l101 955h235l-100 -955q-6 -63 8 -118.5t47 -96.5t82 -64.5t113 -23.5q61 0 115.5 23.5t95.5 64.5t67.5 96.5t32.5 118.5l100 955h236l-100 -955q-10 -104 -57.5 -197.5t-122 -164t-174 -111.5t-216.5 -41t-207 41t-150.5 110.5t-88 163t-17.5 199.5zM475 1708 l541 281l88 -174l-541 -281z" />
            <glyph unicode="&#xdb;" horiz-adv-x="1310" d="M188 479l101 955h235l-100 -955q-6 -63 8 -118.5t47 -96.5t82 -64.5t113 -23.5q61 0 115.5 23.5t95.5 64.5t67.5 96.5t32.5 118.5l100 955h236l-100 -955q-10 -104 -57.5 -197.5t-122 -164t-174 -111.5t-216.5 -41t-207 41t-150.5 110.5t-88 163t-17.5 199.5zM451 1671 l401 320l336 -320l-144 -143l-217 221l-260 -219z" />
            <glyph unicode="&#xdc;" horiz-adv-x="1310" d="M188 479l101 955h235l-100 -955q-6 -63 8 -118.5t47 -96.5t82 -64.5t113 -23.5q61 0 115.5 23.5t95.5 64.5t67.5 96.5t32.5 118.5l100 955h236l-100 -955q-10 -104 -57.5 -197.5t-122 -164t-174 -111.5t-216.5 -41t-207 41t-150.5 110.5t-88 163t-17.5 199.5zM436 1737 q0 37 15.5 69.5t40 57t57.5 39t69 14.5q66 0 108 -44t42 -108q0 -37 -15.5 -68.5t-40 -56t-57 -39t-69.5 -14.5q-66 0 -108 44.5t-42 105.5zM905 1737q0 37 15.5 69.5t40 57t57.5 39t69 14.5q66 0 108 -44t42 -108q0 -37 -15.5 -68.5t-40 -56t-57 -39t-69.5 -14.5 q-66 0 -108 44.5t-42 105.5z" />
            <glyph unicode="&#xdd;" horiz-adv-x="1232" d="M174 1434h272l318 -617l373 617h258l-863 -1434h-258l347 573zM571 1708l539 281l90 -174l-541 -281z" />
            <glyph unicode="&#xde;" horiz-adv-x="1026" d="M150 0l151 1434h211l-29 -269h123q106 0 188.5 -34.5t137.5 -93t82.5 -134.5t27.5 -155q0 -92 -36.5 -182.5t-105.5 -161t-168 -113.5t-222 -43h-123l-27 -248h-210zM406 434h122q70 0 126.5 25.5t95 68.5t59 96.5t20.5 108.5q0 47 -15 91t-46 79t-76 55.5t-106 20.5 h-123z" />
            <glyph unicode="&#xdf;" horiz-adv-x="1157" d="M139 0l107 1010q10 100 52 182t107.5 141.5t150.5 92t183 32.5q84 0 160 -25.5t132 -72.5t90 -115.5t34 -157.5q0 -129 -68.5 -211.5t-179.5 -125.5q90 -39 151.5 -115t61.5 -205q0 -113 -48 -198t-124 -142t-168 -86t-180 -29q-53 0 -96 8.5t-62 16.5l21 193 q37 -8 83 -13.5t75 -5.5q47 0 96 16.5t89 48t65.5 77.5t25.5 108q0 37 -12.5 78t-40 73.5t-72.5 54t-113 21.5h-79l22 199h74q70 0 119 20.5t78.5 53t43 72.5t13.5 77q0 47 -18.5 82t-48 58.5t-66.5 35t-76 11.5q-100 0 -170 -70t-82 -180l-107 -1010h-223z" />
            <glyph unicode="&#xe0;" horiz-adv-x="1234" d="M125 430q0 109 42 208t114.5 175t169 121t204.5 45q106 0 181 -42t112 -112l15 129h223l-101 -954h-223l15 129q-49 -66 -132 -110t-192 -44q-94 0 -173 36t-135.5 98.5t-88 145.5t-31.5 175zM350 446q0 -55 16.5 -105t49.5 -87t79 -58.5t107 -21.5q68 0 125 26.5 t98 72.5t64.5 106.5t23.5 128.5q0 55 -17 105.5t-49 87t-79 58t-106 21.5q-68 0 -125.5 -26.5t-98.5 -72.5t-64.5 -106.5t-23.5 -128.5zM401 1294l125 174l482 -280l-125 -174z" />
            <glyph unicode="&#xe1;" horiz-adv-x="1234" d="M125 430q0 109 42 208t114.5 175t169 121t204.5 45q106 0 181 -42t112 -112l15 129h223l-101 -954h-223l15 129q-49 -66 -132 -110t-192 -44q-94 0 -173 36t-135.5 98.5t-88 145.5t-31.5 175zM350 446q0 -55 16.5 -105t49.5 -87t79 -58.5t107 -21.5q68 0 125 26.5 t98 72.5t64.5 106.5t23.5 128.5q0 55 -17 105.5t-49 87t-79 58t-106 21.5q-68 0 -125.5 -26.5t-98.5 -72.5t-64.5 -106.5t-23.5 -128.5zM406 1188l538 280l88 -174l-538 -280z" />
            <glyph unicode="&#xe2;" horiz-adv-x="1234" d="M125 430q0 109 42 208t114.5 175t169 121t204.5 45q106 0 181 -42t112 -112l15 129h223l-101 -954h-223l15 129q-49 -66 -132 -110t-192 -44q-94 0 -173 36t-135.5 98.5t-88 145.5t-31.5 175zM340 1214l401 320l336 -320l-143 -143l-217 221l-260 -219zM350 446 q0 -55 16.5 -105t49.5 -87t79 -58.5t107 -21.5q68 0 125 26.5t98 72.5t64.5 106.5t23.5 128.5q0 55 -17 105.5t-49 87t-79 58t-106 21.5q-68 0 -125.5 -26.5t-98.5 -72.5t-64.5 -106.5t-23.5 -128.5z" />
            <glyph unicode="&#xe3;" horiz-adv-x="1234" d="M125 430q0 109 42 208t114.5 175t169 121t204.5 45q106 0 181 -42t112 -112l15 129h223l-101 -954h-223l15 129q-49 -66 -132 -110t-192 -44q-94 0 -173 36t-135.5 98.5t-88 145.5t-31.5 175zM350 446q0 -55 16.5 -105t49.5 -87t79 -58.5t107 -21.5q68 0 125 26.5 t98 72.5t64.5 106.5t23.5 128.5q0 55 -17 105.5t-49 87t-79 58t-106 21.5q-68 0 -125.5 -26.5t-98.5 -72.5t-64.5 -106.5t-23.5 -128.5zM356 1278q66 88 138.5 124t144.5 36q53 0 90 -14.5t65.5 -31t54 -30.5t54.5 -14q43 0 73 29.5t52 60.5l150 -84q-66 -98 -144 -139 t-151 -41q-51 0 -88 14t-68 30.5t-57.5 31t-55.5 14.5q-39 0 -64.5 -26t-53.5 -64z" />
            <glyph unicode="&#xe4;" horiz-adv-x="1234" d="M125 430q0 109 42 208t114.5 175t169 121t204.5 45q106 0 181 -42t112 -112l15 129h223l-101 -954h-223l15 129q-49 -66 -132 -110t-192 -44q-94 0 -173 36t-135.5 98.5t-88 145.5t-31.5 175zM309 1243q0 37 15.5 70t40 57.5t57.5 38.5t70 14q66 0 107.5 -44t41.5 -107 q0 -37 -15.5 -69t-40 -56.5t-57 -38.5t-69.5 -14q-66 0 -108 44t-42 105zM350 446q0 -55 16.5 -105t49.5 -87t79 -58.5t107 -21.5q68 0 125 26.5t98 72.5t64.5 106.5t23.5 128.5q0 55 -17 105.5t-49 87t-79 58t-106 21.5q-68 0 -125.5 -26.5t-98.5 -72.5t-64.5 -106.5 t-23.5 -128.5zM778 1243q0 37 15.5 70t40 57.5t57.5 38.5t70 14q66 0 107.5 -44t41.5 -107q0 -37 -15.5 -69t-40 -56.5t-57 -38.5t-69.5 -14q-66 0 -108 44t-42 105z" />
            <glyph unicode="&#xe5;" horiz-adv-x="1234" d="M125 430q0 109 42 208t114.5 175t169 121t204.5 45q106 0 181 -42t112 -112l15 129h223l-101 -954h-223l15 129q-49 -66 -132 -110t-192 -44q-94 0 -173 36t-135.5 98.5t-88 145.5t-31.5 175zM350 446q0 -55 16.5 -105t49.5 -87t79 -58.5t107 -21.5q68 0 125 26.5 t98 72.5t64.5 106.5t23.5 128.5q0 55 -17 105.5t-49 87t-79 58t-106 21.5q-68 0 -125.5 -26.5t-98.5 -72.5t-64.5 -106.5t-23.5 -128.5zM446 1282q0 59 24 111.5t63.5 91.5t93 61.5t110.5 22.5q51 0 95.5 -19.5t77 -51.5t50 -76t17.5 -93q0 -57 -23.5 -109.5t-64.5 -91 t-94.5 -62.5t-110.5 -24q-53 0 -96 19.5t-75 51.5t-49.5 76t-17.5 93zM586 1294q0 -47 31.5 -80.5t80.5 -33.5q57 0 99.5 41t42.5 100q0 47 -31 81t-82 34q-59 0 -100 -42t-41 -100z" />
            <glyph unicode="&#xe6;" horiz-adv-x="1867" d="M125 430q0 109 42 208t114.5 175t169 121t204.5 45q106 0 181 -42t112 -112l15 129h223l-4 -36q53 29 117.5 45t130.5 16q88 0 162.5 -28.5t129 -82t84 -127t29.5 -161.5q0 -45 -7 -84t-20 -86h-675q-4 -51 4 -96.5t34.5 -79t71.5 -53t113 -19.5q96 0 142 37t75 88h225 q-18 -61 -58 -117.5t-99.5 -99.5t-136.5 -69t-169 -26q-76 0 -137 17.5t-108 46.5l-5 -39h-223l15 129q-49 -66 -132 -110t-192 -44q-94 0 -173 36t-135.5 98.5t-88 145.5t-31.5 175zM350 446q0 -55 16.5 -105t49.5 -87t79 -58.5t107 -21.5q68 0 125 26.5t98 72.5 t64.5 106.5t23.5 128.5q0 57 -17 107.5t-50 87t-80 57t-104 20.5q-68 0 -125.5 -26.5t-98.5 -72.5t-64.5 -106.5t-23.5 -128.5zM1153 575h467q10 92 -45 155t-166 63q-96 0 -171 -55.5t-85 -162.5z" />
            <glyph unicode="&#xe7;" horiz-adv-x="1093" d="M129 428q0 104 35 202.5t103.5 176.5t170 125t232.5 47q106 0 184 -30.5t127 -83t71.5 -120t20.5 -139.5h-223q0 78 -47 126t-150 48q-78 0 -134 -28.5t-93 -75.5t-55.5 -108.5t-18.5 -129.5q0 -55 13.5 -103t42 -84t75.5 -56.5t115 -20.5q94 0 145.5 41t79.5 113h224 q-18 -72 -56.5 -133.5t-93.5 -107.5t-130 -74.5t-169 -35.5l-10 -98q33 27 86 27t95 -37t42 -115q0 -35 -12.5 -71.5t-42 -65.5t-79.5 -47.5t-128 -18.5q-23 0 -42.5 4.5t-38.5 20.5t-37.5 49t-37.5 92h131q12 -51 70 -51q37 0 61.5 23.5t24.5 58.5q0 31 -19.5 49.5 t-48.5 18.5q-43 0 -67 -37h-111l21 207q-82 16 -142.5 58t-101.5 101.5t-61.5 132t-20.5 150.5z" />
            <glyph unicode="&#xe8;" horiz-adv-x="1087" d="M129 420q0 117 37 219t104.5 178t162.5 119t212 43q94 0 171 -29.5t130 -83t82 -127t29 -159.5q0 -45 -7.5 -84t-21.5 -86h-682q-2 -47 7 -92.5t35 -80t71 -55t116 -20.5q98 0 145.5 37t72.5 88h225q-16 -61 -56 -117.5t-99.5 -99.5t-138.5 -69t-173 -26 q-109 0 -187.5 34t-131 94.5t-78 141.5t-25.5 175zM365 575h475q10 111 -47.5 173.5t-161.5 62.5q-98 0 -176 -58.5t-90 -177.5zM434 1294l125 174l479 -280l-125 -174z" />
            <glyph unicode="&#xe9;" horiz-adv-x="1087" d="M129 420q0 117 37 219t104.5 178t162.5 119t212 43q94 0 171 -29.5t130 -83t82 -127t29 -159.5q0 -45 -7.5 -84t-21.5 -86h-682q-2 -47 7 -92.5t35 -80t71 -55t116 -20.5q98 0 145.5 37t72.5 88h225q-16 -61 -56 -117.5t-99.5 -99.5t-138.5 -69t-173 -26 q-109 0 -187.5 34t-131 94.5t-78 141.5t-25.5 175zM354 1188l541 280l88 -174l-541 -280zM365 575h475q10 111 -47.5 173.5t-161.5 62.5q-98 0 -176 -58.5t-90 -177.5z" />
            <glyph unicode="&#xea;" horiz-adv-x="1087" d="M129 420q0 117 37 219t104.5 178t162.5 119t212 43q94 0 171 -29.5t130 -83t82 -127t29 -159.5q0 -45 -7.5 -84t-21.5 -86h-682q-2 -47 7 -92.5t35 -80t71 -55t116 -20.5q98 0 145.5 37t72.5 88h225q-16 -61 -56 -117.5t-99.5 -99.5t-138.5 -69t-173 -26 q-109 0 -187.5 34t-131 94.5t-78 141.5t-25.5 175zM313 1214l400 320l338 -320l-146 -143l-215 221l-260 -219zM365 575h475q10 111 -47.5 173.5t-161.5 62.5q-98 0 -176 -58.5t-90 -177.5z" />
            <glyph unicode="&#xeb;" horiz-adv-x="1087" d="M129 420q0 117 37 219t104.5 178t162.5 119t212 43q94 0 171 -29.5t130 -83t82 -127t29 -159.5q0 -45 -7.5 -84t-21.5 -86h-682q-2 -47 7 -92.5t35 -80t71 -55t116 -20.5q98 0 145.5 37t72.5 88h225q-16 -61 -56 -117.5t-99.5 -99.5t-138.5 -69t-173 -26 q-109 0 -187.5 34t-131 94.5t-78 141.5t-25.5 175zM283 1243q0 37 15 70t39.5 57.5t57.5 38.5t70 14q66 0 106.5 -44t40.5 -105q0 -37 -15 -70t-40 -57.5t-57.5 -38.5t-69.5 -14q-66 0 -106.5 44t-40.5 105zM365 575h475q10 111 -47.5 173.5t-161.5 62.5q-98 0 -176 -58.5 t-90 -177.5zM752 1243q0 37 15 70t39.5 57.5t57.5 38.5t70 14q66 0 106.5 -44t40.5 -107q0 -37 -14 -69t-38.5 -56.5t-57.5 -38.5t-70 -14q-66 0 -107.5 44t-41.5 105z" />
            <glyph unicode="&#xec;" horiz-adv-x="522" d="M94 1335l125 174l481 -280l-125 -174zM150 0l100 954h223l-100 -954h-223z" />
            <glyph unicode="&#xed;" horiz-adv-x="522" d="M82 1229l539 280l88 -174l-539 -280zM150 0l100 954h223l-100 -954h-223z" />
            <glyph unicode="&#xee;" horiz-adv-x="522" d="M20 1214l400 320l338 -320l-144 -143l-217 221l-260 -219zM150 0l100 954h223l-100 -954h-223z" />
            <glyph unicode="&#xef;" horiz-adv-x="522" d="M57 1243q0 37 15.5 70t40 57.5t57.5 38.5t70 14q66 0 107.5 -44t41.5 -107q0 -37 -15.5 -69t-40 -56.5t-57 -38.5t-69.5 -14q-66 0 -108 44t-42 105zM150 0l100 954h223l-100 -954h-223zM444 1243q0 37 15.5 70t40 57.5t57.5 38.5t70 14q66 0 107.5 -44t41.5 -107 q0 -37 -15.5 -69t-40 -56.5t-57 -38.5t-69.5 -14q-66 0 -108 44t-42 105z" />
            <glyph unicode="&#xf0;" horiz-adv-x="1159" d="M125 430q0 109 41 208t114.5 175t176 121t225.5 45h18l-61 125l-213 -113l-61 133l202 105l-102 205h270l45 -95l181 95l59 -129l-174 -93l229 -438q29 -55 46.5 -120.5t17.5 -135.5q0 -106 -42 -204.5t-116 -173t-176 -120t-223 -45.5q-109 0 -194 36t-143.5 98.5 t-89 145.5t-30.5 175zM350 446q0 -55 16.5 -105t49.5 -87t79 -58.5t107 -21.5q68 0 125 26.5t98 72.5t64.5 106.5t23.5 128.5q0 55 -17 105.5t-49 87t-79 58t-106 21.5q-68 0 -125.5 -26.5t-98.5 -72.5t-64.5 -106.5t-23.5 -128.5z" />
            <glyph unicode="&#xf1;" horiz-adv-x="1165" d="M150 0l100 954h223l-14 -133q53 78 137 118t192 40q104 0 171 -35t102 -94q33 -55 37 -126t-6 -157l-60 -567h-223l51 494q6 61 2 114.5t-23.5 91t-56.5 60t-96 22.5q-119 0 -184.5 -83t-77.5 -205l-51 -494h-223zM332 1278q66 88 138.5 124t143.5 36q53 0 90 -14.5 t66 -31t54.5 -30.5t54.5 -14q43 0 72.5 29.5t52.5 60.5l149 -84q-66 -98 -143.5 -139t-151.5 -41q-51 0 -88 14t-67.5 30.5t-57.5 31t-55 14.5q-39 0 -64.5 -26t-54.5 -64z" />
            <glyph unicode="&#xf2;" horiz-adv-x="1163" d="M125 430q0 109 42 208t115.5 175t175 121t222.5 45q109 0 193.5 -36t144 -98.5t90.5 -145.5t31 -175q0 -109 -42 -208t-116 -174.5t-176 -121t-223 -45.5q-109 0 -194 36t-143.5 98.5t-89 145.5t-30.5 175zM350 446q0 -55 16.5 -105t49.5 -87t79 -58.5t107 -21.5 q68 0 125 26.5t98 72.5t64.5 106.5t23.5 128.5q0 55 -17 105.5t-49 87t-79 58t-106 21.5q-68 0 -125.5 -26.5t-98.5 -72.5t-64.5 -106.5t-23.5 -128.5zM428 1294l125 174l481 -280l-125 -174z" />
            <glyph unicode="&#xf3;" horiz-adv-x="1163" d="M125 430q0 109 42 208t115.5 175t175 121t222.5 45q109 0 193.5 -36t144 -98.5t90.5 -145.5t31 -175q0 -109 -42 -208t-116 -174.5t-176 -121t-223 -45.5q-109 0 -194 36t-143.5 98.5t-89 145.5t-30.5 175zM338 1188l539 280l88 -174l-539 -280zM350 446q0 -55 16.5 -105 t49.5 -87t79 -58.5t107 -21.5q68 0 125 26.5t98 72.5t64.5 106.5t23.5 128.5q0 55 -17 105.5t-49 87t-79 58t-106 21.5q-68 0 -125.5 -26.5t-98.5 -72.5t-64.5 -106.5t-23.5 -128.5z" />
            <glyph unicode="&#xf4;" horiz-adv-x="1163" d="M125 430q0 109 42 208t115.5 175t175 121t222.5 45q109 0 193.5 -36t144 -98.5t90.5 -145.5t31 -175q0 -109 -42 -208t-116 -174.5t-176 -121t-223 -45.5q-109 0 -194 36t-143.5 98.5t-89 145.5t-30.5 175zM338 1214l401 320l336 -320l-143 -143l-217 221l-260 -219z M350 446q0 -55 16.5 -105t49.5 -87t79 -58.5t107 -21.5q68 0 125 26.5t98 72.5t64.5 106.5t23.5 128.5q0 55 -17 105.5t-49 87t-79 58t-106 21.5q-68 0 -125.5 -26.5t-98.5 -72.5t-64.5 -106.5t-23.5 -128.5z" />
            <glyph unicode="&#xf5;" horiz-adv-x="1163" d="M125 430q0 109 42 208t115.5 175t175 121t222.5 45q109 0 193.5 -36t144 -98.5t90.5 -145.5t31 -175q0 -109 -42 -208t-116 -174.5t-176 -121t-223 -45.5q-109 0 -194 36t-143.5 98.5t-89 145.5t-30.5 175zM307 1278q66 88 138.5 124t144.5 36q53 0 90 -14.5t65.5 -31 t54 -30.5t54.5 -14q43 0 72.5 29.5t52.5 60.5l149 -84q-66 -98 -143.5 -139t-150.5 -41q-51 0 -88 14t-68 30.5t-57.5 31t-55.5 14.5q-39 0 -64.5 -26t-54.5 -64zM350 446q0 -55 16.5 -105t49.5 -87t79 -58.5t107 -21.5q68 0 125 26.5t98 72.5t64.5 106.5t23.5 128.5 q0 55 -17 105.5t-49 87t-79 58t-106 21.5q-68 0 -125.5 -26.5t-98.5 -72.5t-64.5 -106.5t-23.5 -128.5z" />
            <glyph unicode="&#xf6;" horiz-adv-x="1163" d="M125 430q0 109 42 208t115.5 175t175 121t222.5 45q109 0 193.5 -36t144 -98.5t90.5 -145.5t31 -175q0 -109 -42 -208t-116 -174.5t-176 -121t-223 -45.5q-109 0 -194 36t-143.5 98.5t-89 145.5t-30.5 175zM313 1243q0 37 15.5 70t40 57.5t57.5 38.5t70 14 q66 0 107.5 -44t41.5 -107q0 -37 -15.5 -69t-40 -56.5t-57 -38.5t-69.5 -14q-66 0 -108 44t-42 105zM350 446q0 -55 16.5 -105t49.5 -87t79 -58.5t107 -21.5q68 0 125 26.5t98 72.5t64.5 106.5t23.5 128.5q0 55 -17 105.5t-49 87t-79 58t-106 21.5q-68 0 -125.5 -26.5 t-98.5 -72.5t-64.5 -106.5t-23.5 -128.5zM782 1243q0 37 15.5 70t40 57.5t57.5 38.5t70 14q66 0 107.5 -44t41.5 -107q0 -37 -15.5 -69t-40 -56.5t-57 -38.5t-69.5 -14q-66 0 -108 44t-42 105z" />
            <glyph unicode="&#xf7;" d="M221 381l21 199h827l-20 -199h-828zM446 137q0 37 15.5 70t40 57.5t57.5 38.5t70 14q66 0 107.5 -44t41.5 -107q0 -37 -15 -68.5t-40 -56.5t-57.5 -39t-69.5 -14q-66 0 -108 44t-42 105zM516 811q0 37 15.5 69.5t40 57.5t57.5 39t69 14q66 0 108 -44t42 -107 q0 -37 -15.5 -69t-40 -56.5t-57.5 -38.5t-69 -14q-66 0 -108 44t-42 105z" />
            <glyph unicode="&#xf8;" horiz-adv-x="1163" d="M125 430q0 109 41 208t114.5 175t175 121t222.5 45q37 0 66.5 -4t58.5 -10l88 161l129 -57l-84 -156q98 -59 150.5 -163.5t52.5 -227.5q0 -109 -42 -208t-116 -173.5t-177.5 -120t-225.5 -45.5q-76 0 -138 19l-88 -164l-129 57l88 164q-92 59 -139 160.5t-47 218.5z M348 446q0 -57 17.5 -109t52.5 -89l284 528q-10 2 -20 3t-27 1q-66 0 -122 -27.5t-97 -73.5t-64.5 -106.5t-23.5 -126.5zM541 178q14 -4 27.5 -4h29.5q70 0 128 26.5t99 72.5t64.5 106.5t23.5 128.5q0 61 -20.5 117.5t-61.5 93.5z" />
            <glyph unicode="&#xf9;" horiz-adv-x="1165" d="M168 230q-4 71 6 157l59 567h224l-51 -493q-6 -61 -2 -114.5t23 -91.5t56 -60.5t97 -22.5q119 0 184 83t78 206l51 493h223l-100 -954h-223l14 133q-111 -158 -330 -158q-104 0 -170.5 35t-101.5 94q-33 55 -37 126zM410 1294l125 174l481 -280l-125 -174z" />
            <glyph unicode="&#xfa;" horiz-adv-x="1165" d="M168 230q-4 71 6 157l59 567h224l-51 -493q-6 -61 -2 -114.5t23 -91.5t56 -60.5t97 -22.5q119 0 184 83t78 206l51 493h223l-100 -954h-223l14 133q-111 -158 -330 -158q-104 0 -170.5 35t-101.5 94q-33 55 -37 126zM387 1188l539 280l88 -174l-539 -280z" />
            <glyph unicode="&#xfb;" horiz-adv-x="1165" d="M168 230q-4 71 6 157l59 567h224l-51 -493q-6 -61 -2 -114.5t23 -91.5t56 -60.5t97 -22.5q119 0 184 83t78 206l51 493h223l-100 -954h-223l14 133q-111 -158 -330 -158q-104 0 -170.5 35t-101.5 94q-33 55 -37 126zM344 1214l401 320l336 -320l-143 -143l-217 221 l-260 -219z" />
            <glyph unicode="&#xfc;" horiz-adv-x="1165" d="M168 230q-4 71 6 157l59 567h224l-51 -493q-6 -61 -2 -114.5t23 -91.5t56 -60.5t97 -22.5q119 0 184 83t78 206l51 493h223l-100 -954h-223l14 133q-111 -158 -330 -158q-104 0 -170.5 35t-101.5 94q-33 55 -37 126zM309 1243q0 37 15.5 70t40 57.5t57.5 38.5t70 14 q66 0 107.5 -44t41.5 -107q0 -37 -15.5 -69t-40 -56.5t-57 -38.5t-69.5 -14q-66 0 -108 44t-42 105zM778 1243q0 37 15.5 70t40 57.5t57.5 38.5t70 14q66 0 107.5 -44t41.5 -107q0 -37 -15.5 -69t-40 -56.5t-57 -38.5t-69.5 -14q-66 0 -108 44t-42 105z" />
            <glyph unicode="&#xfd;" horiz-adv-x="1183" d="M123 -109h225q-2 -109 58.5 -156.5t156.5 -47.5q45 0 86 10t75 36.5t56.5 69.5t28.5 111l22 219q-53 -78 -137 -118t-192 -40q-104 0 -170 35t-101 94q-33 55 -38 126t6 157l59 567h223l-51 -493q-6 -61 -2 -114.5t23.5 -91.5t56.5 -60.5t96 -22.5q119 0 184.5 83 t77.5 206l52 493h223l-109 -1040q-20 -207 -151 -313q-66 -53 -154 -78t-192 -25q-207 0 -314 99q-53 49 -80.5 122.5t-17.5 171.5zM412 1188l540 280l88 -174l-540 -280z" />
            <glyph unicode="&#xfe;" horiz-adv-x="1226" d="M98 -479l201 1913h223l-63 -609q49 66 132 110t191 44q94 0 173 -36t135.5 -98.5t88 -145.5t31.5 -175q0 -109 -43 -208t-115.5 -174.5t-169 -121t-204.5 -45.5q-106 0 -181 42t-112 112l-63 -608h-224zM420 446q0 -55 17.5 -105t50 -87t80 -58.5t106.5 -21.5 q68 0 125 26.5t98 72.5t64.5 106.5t23.5 128.5q0 55 -16.5 105.5t-49 87t-78.5 58t-108 21.5q-68 0 -125 -26.5t-99 -72.5t-65.5 -106.5t-23.5 -128.5z" />
            <glyph unicode="&#xff;" horiz-adv-x="1183" d="M123 -109h225q-2 -109 58.5 -156.5t156.5 -47.5q45 0 86 10t75 36.5t56.5 69.5t28.5 111l22 219q-53 -78 -137 -118t-192 -40q-104 0 -170 35t-101 94q-33 55 -38 126t6 157l59 567h223l-51 -493q-6 -61 -2 -114.5t23.5 -91.5t56.5 -60.5t96 -22.5q119 0 184.5 83 t77.5 206l52 493h223l-109 -1040q-20 -207 -151 -313q-66 -53 -154 -78t-192 -25q-207 0 -314 99q-53 49 -80.5 122.5t-17.5 171.5zM352 1245q0 70 52.5 120t121.5 50q61 0 101.5 -42t40.5 -101q0 -35 -14.5 -66.5t-38 -54.5t-55.5 -36t-64 -13q-63 0 -103.5 42t-40.5 101z M821 1245q0 70 52.5 120t121.5 50q61 0 101.5 -42t40.5 -101q0 -35 -14.5 -66.5t-38 -54.5t-55.5 -36t-64 -13q-63 0 -103.5 42t-40.5 101z" />
            <glyph unicode="&#x152;" horiz-adv-x="2281" d="M147 641q0 158 59.5 306.5t167 263t260 184t337.5 69.5q156 0 274.5 -49t202.5 -135l16 154h828l-23 -211h-592l-41 -406h592l-22 -211h-592l-43 -395h592l-21 -211h-827l14 145q-102 -86 -231 -135t-281 -49q-162 0 -286.5 56.5t-209.5 150.5t-129.5 217t-44.5 256z M397 655q0 -94 29 -181t85 -154.5t138 -107.5t191 -40q121 0 222 51t174 134t114 190.5t41 222.5q0 94 -29 181t-86 155t-140 107.5t-190 39.5q-121 0 -222 -50t-174 -134t-113 -191.5t-40 -222.5z" />
            <glyph unicode="&#x153;" horiz-adv-x="1867" d="M125 430q0 109 41 208t114.5 175t176 121t225.5 45t215 -45t152 -123q72 84 172 126t209 42q90 0 164.5 -29.5t128 -82t83 -126t29.5 -161.5q0 -45 -7 -84t-20 -86h-675q-4 -51 4 -96.5t34.5 -79t71.5 -53t113 -19.5q96 0 142 37t75 88h225q-18 -63 -59 -119.5 t-100.5 -99.5t-135.5 -68t-168 -25q-127 0 -215 46.5t-139 123.5q-74 -78 -177.5 -124t-225.5 -46q-106 0 -190.5 36t-143 98.5t-89 145.5t-30.5 175zM350 446q0 -55 16.5 -105t49.5 -87t79 -58.5t107 -21.5q66 0 123 25.5t99 70.5t65.5 105.5t23.5 130.5q0 117 -67.5 195.5 t-183.5 78.5q-68 0 -125.5 -26.5t-98.5 -72.5t-64.5 -106.5t-23.5 -128.5zM1153 575h467q10 100 -48.5 159t-160.5 59q-98 0 -173 -55.5t-85 -162.5z" />
            <glyph unicode="&#x178;" horiz-adv-x="1232" d="M174 1434h272l318 -617l373 617h258l-863 -1434h-258l347 573zM471 1737q0 72 52 122t122 50q61 0 101 -42t40 -102q0 -35 -14 -66.5t-38.5 -54t-56.5 -36t-65 -13.5q-63 0 -102 41.5t-39 100.5zM940 1737q0 72 51 122t121 50q61 0 102 -42t41 -102q0 -35 -14 -66.5 t-38.5 -54t-56.5 -36t-65 -13.5q-63 0 -102 41.5t-39 100.5z" />
            <glyph unicode="&#x2c6;" horiz-adv-x="1007" d="M279 1427l399 297l338 -297l-156 -155l-211 184l-246 -182z" />
            <glyph unicode="&#x2dc;" horiz-adv-x="1079" d="M307 1356q49 29 84 45t60.5 23.5t43 8.5t31.5 1q23 0 62 -8.5t81 -19.5t83 -19.5t69 -8.5q10 0 22.5 2t30 8.5t43 16.5t62.5 29l74 -142q-43 -33 -81 -51t-66.5 -27.5t-48 -11.5t-28.5 -2q-31 0 -70.5 8.5t-81.5 18.5t-81 18t-64 8q-39 0 -76.5 -16t-66.5 -27z" />
            <glyph unicode="&#x2000;" horiz-adv-x="999" />
            <glyph unicode="&#x2001;" horiz-adv-x="1999" />
            <glyph unicode="&#x2002;" horiz-adv-x="999" />
            <glyph unicode="&#x2003;" horiz-adv-x="1999" />
            <glyph unicode="&#x2004;" horiz-adv-x="666" />
            <glyph unicode="&#x2005;" horiz-adv-x="499" />
            <glyph unicode="&#x2006;" horiz-adv-x="333" />
            <glyph unicode="&#x2007;" horiz-adv-x="333" />
            <glyph unicode="&#x2008;" horiz-adv-x="249" />
            <glyph unicode="&#x2009;" horiz-adv-x="399" />
            <glyph unicode="&#x200a;" horiz-adv-x="111" />
            <glyph unicode="&#x2010;" horiz-adv-x="602" d="M113 483l20 199h479l-20 -199h-479z" />
            <glyph unicode="&#x2011;" horiz-adv-x="602" d="M113 483l20 199h479l-20 -199h-479z" />
            <glyph unicode="&#x2012;" horiz-adv-x="602" d="M113 483l20 199h479l-20 -199h-479z" />
            <glyph unicode="&#x2013;" horiz-adv-x="1030" d="M154 483l20 199h825l-20 -199h-825z" />
            <glyph unicode="&#x2014;" horiz-adv-x="2060" d="M154 483l20 199h1856l-21 -199h-1855z" />
            <glyph unicode="&#x2018;" horiz-adv-x="579" d="M246 1188q0 160 95 244t267 84l-12 -101q-49 0 -85 -11t-60 -30q-25 -16 -38.5 -39.5t-19.5 -46.5q10 10 47 10q61 0 99.5 -40t38.5 -99q0 -72 -52.5 -123t-130.5 -51q-68 0 -108.5 48t-40.5 155z" />
            <glyph unicode="&#x2019;" horiz-adv-x="579" d="M236 985l10 100q49 0 84 10.5t61 30.5q47 35 58 86q-4 -4 -15.5 -7t-32.5 -3q-61 0 -99 40t-38 99q0 72 52.5 123.5t129.5 51.5q68 0 109 -48.5t41 -154.5q0 -160 -95 -244t-265 -84z" />
            <glyph unicode="&#x201a;" horiz-adv-x="579" d="M106 -242l11 101q51 0 87 11t58 30q25 16 39 39.5t21 46.5q-4 -4 -17.5 -7.5t-32.5 -3.5q-59 0 -97 40.5t-38 99.5q0 72 51.5 123t128.5 51q70 0 111 -49.5t41 -153.5q0 -162 -97.5 -245t-265.5 -83z" />
            <glyph unicode="&#x201c;" horiz-adv-x="962" d="M246 1188q0 160 95 244t267 84l-12 -101q-49 0 -85 -11t-60 -30q-25 -16 -38.5 -39.5t-19.5 -46.5q10 10 47 10q61 0 99.5 -40t38.5 -99q0 -72 -52.5 -123t-130.5 -51q-68 0 -108.5 48t-40.5 155zM629 1188q0 160 95 244t267 84l-12 -101q-49 0 -85 -11t-60 -30 q-25 -16 -38.5 -39.5t-19.5 -46.5q10 10 47 10q61 0 99.5 -40t38.5 -99q0 -72 -52.5 -123t-130.5 -51q-68 0 -108.5 48t-40.5 155z" />
            <glyph unicode="&#x201d;" horiz-adv-x="962" d="M236 985l10 100q49 0 84 10.5t61 30.5q47 35 58 86q-4 -4 -15.5 -7t-32.5 -3q-61 0 -99 40t-38 99q0 72 52.5 123.5t129.5 51.5q68 0 109 -48.5t41 -154.5q0 -160 -95 -244t-265 -84zM618 985l11 100q49 0 84 10.5t61 30.5q47 35 57 86q-4 -4 -15 -7t-32 -3q-61 0 -99 40 t-38 99q0 72 52.5 123.5t129.5 51.5q68 0 109 -48.5t41 -154.5q0 -160 -95.5 -244t-265.5 -84z" />
            <glyph unicode="&#x201e;" horiz-adv-x="962" d="M106 -242l11 101q51 0 87 11t58 30q25 16 39 39.5t21 46.5q-4 -4 -17.5 -7.5t-32.5 -3.5q-59 0 -97 40.5t-38 99.5q0 72 51.5 123t128.5 51q70 0 111 -49.5t41 -153.5q0 -162 -97.5 -245t-265.5 -83zM489 -242l11 101q51 0 87 11t58 30q25 16 39 39.5t21 46.5 q-4 -4 -17.5 -7.5t-32.5 -3.5q-59 0 -97 40.5t-38 99.5q0 72 51.5 123t128.5 51q70 0 111 -49.5t41 -153.5q0 -162 -97.5 -245t-265.5 -83z" />
            <glyph unicode="&#x2022;" horiz-adv-x="722" d="M188 618q0 53 21.5 100.5t58.5 83.5t84 56.5t101 20.5q94 0 154.5 -63.5t60.5 -156.5q0 -53 -21.5 -100t-57.5 -82t-84 -55.5t-99 -20.5q-96 0 -157 62.5t-61 154.5z" />
            <glyph unicode="&#x2026;" horiz-adv-x="1976" d="M137 137q0 37 15.5 70t40 57.5t57.5 38.5t69 14q66 0 108 -44t42 -107q0 -37 -15.5 -68.5t-40 -56.5t-57 -39t-69.5 -14q-66 0 -108 44t-42 105zM838 135q0 37 15 70t40 57.5t57.5 38.5t69.5 14q66 0 107.5 -44t41.5 -107q0 -37 -15 -69t-39.5 -56.5t-57.5 -38.5t-70 -14 q-66 0 -107.5 44t-41.5 105zM1538 133q0 37 15.5 70t40 57.5t57 38.5t69.5 14q66 0 108 -44t42 -107q0 -37 -15.5 -69t-40 -56.5t-57.5 -38.5t-69 -14q-66 0 -108 44t-42 105z" />
            <glyph unicode="&#x202f;" horiz-adv-x="399" />
            <glyph unicode="&#x2039;" horiz-adv-x="565" d="M137 530l15 132l436 335l-23 -215l-243 -186l204 -186l-22 -215z" />
            <glyph unicode="&#x203a;" horiz-adv-x="565" d="M102 195l23 215l244 186l-205 186l22 215l367 -335l-14 -132z" />
            <glyph unicode="&#x205f;" horiz-adv-x="499" />
            <glyph unicode="&#x20ac;" d="M51 479l60 168h86l14 139h-127l57 168h86q10 100 56.5 192.5t119 161t170 109.5t211.5 41q106 0 191.5 -34.5t144 -96t89 -143.5t30.5 -174h-238q-4 100 -67.5 168.5t-171.5 68.5q-61 0 -113.5 -23.5t-91.5 -63.5t-63.5 -93t-30.5 -113h426l-58 -168h-385l-14 -139h426 l-59 -168h-385q-6 -59 7 -112.5t44 -93.5t78 -63.5t108 -23.5t112.5 23.5t91.5 63.5t64.5 93.5t30.5 112.5h236q-10 -102 -56.5 -193t-119 -161t-170 -110t-211.5 -40q-117 0 -205 41t-146.5 111t-84 161t-15.5 191h-127z" />
            <glyph unicode="&#x2122;" horiz-adv-x="1673" d="M217 1286l16 148h549l-16 -148h-193l-71 -686h-166l72 686h-191zM805 600l88 834h278l111 -545l223 545h279l-88 -834h-164l70 668l-279 -668h-145l-140 668l-69 -668h-164z" />
            <glyph unicode="&#x25fc;" horiz-adv-x="952" d="M0 0v952h952v-952h-952z" />
            </font>
</defs>
</svg>
