<?xml version="1.0" standalone="no"?>
<!DOCTYPE svg PUBLIC "-//W3C//DTD SVG 1.1//EN" "http://www.w3.org/Graphics/SVG/1.1/DTD/svg11.dtd" >
<svg xmlns="http://www.w3.org/2000/svg">
    <metadata></metadata>
    <defs>
        <font id="gt_walsheimregular" horiz-adv-x="1157" >
            <font-face units-per-em="2048" ascent="1536" descent="-512" />
            <missing-glyph horiz-adv-x="518" />
            <glyph unicode="&#xfb01;" horiz-adv-x="1275" d="M43 780v150h201v162q0 127 33.5 197.5t83 105.5t104.5 43t96 8q43 0 75 -7t52 -18v-151q-25 8 -49.5 12t-54.5 4q-29 0 -57.5 -4t-52 -21.5t-38 -52t-14.5 -98.5v-180h266v-150h-266v-780h-178v780h-201zM856 1280q0 59 39 99t96 40q59 0 99 -40t40 -99q0 -57 -39.5 -96 t-99.5 -39q-57 0 -96 39t-39 96zM903 0v930h178v-930h-178z" />
            <glyph unicode="&#xfb02;" horiz-adv-x="1208" d="M43 780v150h201v162q0 127 33.5 197.5t83 105.5t104.5 43t96 8q43 0 75 -7t52 -18v-151q-25 8 -49.5 12t-54.5 4q-29 0 -57.5 -4t-52 -21.5t-38 -52t-14.5 -98.5v-180h266v-150h-266v-780h-178v780h-201zM870 0v1434h179v-1434h-179z" />
            <glyph unicode="&#xfb03;" horiz-adv-x="1984" d="M43 780v150h201v162q0 127 33.5 197.5t83 105.5t104.5 43t96 8q43 0 75 -7t52 -18v-151q-25 8 -49.5 12t-54.5 4q-29 0 -57.5 -4t-52 -21.5t-38 -52t-14.5 -98.5v-180h266v-150h-266v-780h-178v780h-201zM754 780v150h200v162q0 127 34 197.5t83 105.5t103.5 43t95.5 8 q45 0 76.5 -7t52.5 -18v-151q-25 8 -49.5 12t-55.5 4q-29 0 -57.5 -4t-52 -21.5t-37.5 -52t-14 -98.5v-180h266v-150h-266v-780h-179v780h-200zM1561 1282q0 59 40.5 102t100.5 43q59 0 102 -43t43 -102t-43 -100t-102 -41t-100 41t-41 100zM1614 0v930h178v-930h-178z" />
            <glyph unicode="&#xfb04;" horiz-adv-x="1910" d="M43 780v150h201v162q0 127 33.5 197.5t83 105.5t104.5 43t96 8q43 0 75 -7t52 -18v-151q-25 8 -49.5 12t-54.5 4q-29 0 -57.5 -4t-52 -21.5t-38 -52t-14.5 -98.5v-180h266v-150h-266v-780h-178v780h-201zM754 780v150h200v162q0 127 34 197.5t83 105.5t103.5 43t95.5 8 q45 0 76.5 -7t52.5 -18v-151q-25 8 -49.5 12t-55.5 4q-29 0 -57.5 -4t-52 -21.5t-37.5 -52t-14 -98.5v-180h266v-150h-266v-780h-179v780h-200zM1581 0v1434h176v-1434h-176z" />
            <glyph horiz-adv-x="0" />
            <glyph horiz-adv-x="0" />
            <glyph unicode="&#xd;" horiz-adv-x="512" />
            <glyph unicode=" "  horiz-adv-x="518" />
            <glyph unicode="&#x09;" horiz-adv-x="518" />
            <glyph unicode="&#xa0;" horiz-adv-x="518" />
            <glyph unicode="!" horiz-adv-x="606" d="M154 123q0 61 43 104t106 43q61 0 105.5 -43t44.5 -104t-44 -106.5t-106 -45.5q-63 0 -106 45.5t-43 106.5zM207 436v1006h192v-1006h-192z" />
            <glyph unicode="&#x22;" horiz-adv-x="724" d="M123 1315v153h168v-153l-39 -361h-88zM434 1315v153h168v-153l-39 -361h-90z" />
            <glyph unicode="#" horiz-adv-x="1126" d="M59 428v139h215l41 299h-194v140h215l59 428h148l-60 -428h258l60 428h147l-59 -428h178v-140h-199l-41 -299h179v-139h-199l-59 -428h-146l60 428h-261l-59 -428h-145l59 428h-197zM422 567h258l41 299h-258z" />
            <glyph unicode="$" horiz-adv-x="1169" d="M152 457h186q0 -147 88 -234.5t236 -87.5q125 0 204.5 65.5t79.5 178.5q0 66 -24.5 108.5t-64.5 72.5t-88 47.5t-95 31.5q-96 31 -181 63.5t-149.5 80.5t-102.5 120t-38 180q0 76 27.5 141.5t76.5 115t119 81t154 41.5v213h137v-215q86 -10 155.5 -45t119.5 -91t79 -131 t29 -165h-187q-2 123 -69.5 196.5t-190.5 73.5q-119 0 -191.5 -57t-72.5 -158q0 -59 22.5 -99t59.5 -67.5t85 -47t99 -33.5q82 -27 167 -60t155 -82t113 -119.5t43 -175.5q0 -96 -31 -170.5t-86 -129t-132 -87t-167 -41.5v-213h-137v213q-92 10 -171 48t-135.5 100.5 t-89 147.5t-32.5 190z" />
            <glyph unicode="%" horiz-adv-x="1875" d="M150 901v279q0 55 20 103t58 85t91.5 58.5t118.5 21.5q66 0 119 -21.5t91 -59.5t58.5 -87t20.5 -104v-279q0 -55 -20.5 -103.5t-58.5 -85t-91 -58t-119 -21.5q-68 0 -121 21.5t-90 59.5t-57 87t-20 104zM297 901q0 -59 38 -104t103 -45q66 0 105 45t39 104v275 q0 59 -39 104t-105 45t-103.5 -45t-37.5 -104v-275zM414 -2l895 1542l141 -82l-895 -1542zM1147 258v277q0 55 20.5 104t58.5 86t91 58.5t119 21.5t119 -22.5t90.5 -59.5t58 -87t20.5 -106v-276q0 -55 -20.5 -104.5t-58 -86t-91 -58t-118.5 -21.5q-68 0 -121 21.5t-90 59 t-57.5 88t-20.5 105.5zM1294 258q0 -61 38 -106.5t104 -45.5t104.5 45.5t38.5 106.5v272q0 61 -39 105.5t-104 44.5q-66 0 -104 -44t-38 -106v-272z" />
            <glyph unicode="&#x26;" horiz-adv-x="1226" d="M96 416q0 129 71 206.5t183 125.5q-104 41 -163.5 116.5t-59.5 204.5q0 88 35 158.5t96 122t142 79t173 27.5q98 0 179.5 -30.5t140.5 -88t92 -136.5t33 -173h-187q0 117 -64.5 188.5t-201.5 71.5q-111 0 -180.5 -57t-69.5 -162q0 -51 14.5 -94t46.5 -75t84 -50.5 t128 -18.5h30v-165h-30q-160 0 -232.5 -76t-72.5 -195q0 -49 20.5 -95t58 -80t93 -54.5t125.5 -20.5q133 0 212.5 91.5t81.5 242.5h-167v166h477v-166h-123q0 -115 -38 -208t-102.5 -158.5t-151.5 -100.5t-189 -35q-96 0 -183.5 30t-154 86.5t-106.5 138t-40 184.5z" />
            <glyph unicode="'" horiz-adv-x="413" d="M123 1315v153h168v-153l-39 -361h-88z" />
            <glyph unicode="(" horiz-adv-x="753" d="M209 -8v1147q0 98 35 187t98.5 155.5t153.5 105.5t200 39v-168q-68 0 -124 -25.5t-95 -68.5t-60.5 -101.5t-21.5 -123.5v-1147q0 -66 21.5 -124t60.5 -101t95.5 -69t123.5 -26v-168q-111 0 -200.5 39t-153 105.5t-98.5 156t-35 187.5z" />
            <glyph unicode=")" horiz-adv-x="753" d="M57 -328q68 0 124.5 26t95 69t60 101t21.5 124v1147q0 66 -21.5 124t-60 101t-95 68.5t-124.5 25.5v168q111 0 201 -39t153.5 -105.5t98.5 -155.5t35 -187v-1147q0 -98 -35 -187.5t-98.5 -156t-153.5 -105.5t-201 -39v168z" />
            <glyph unicode="*" horiz-adv-x="937" d="M104 1159l37 113l289 -117l-22 313h124l-22 -313l287 117l37 -113l-304 -80l218 -262l-103 -74l-176 283l-176 -283l-103 74l218 262z" />
            <glyph unicode="+" horiz-adv-x="1177" d="M180 504v158h320v331h178v-331h319v-158h-319v-328h-178v328h-320z" />
            <glyph unicode="," horiz-adv-x="552" d="M119 131q0 59 41 102t104 43q78 0 125 -57t47 -149q0 -84 -21.5 -142.5t-61.5 -95.5t-96 -53.5t-128 -16.5v88q55 0 92 17.5t55 46.5q31 45 31 90q-6 -6 -19.5 -11t-27.5 -5q-66 0 -103.5 42t-37.5 101z" />
            <glyph unicode="-" horiz-adv-x="602" d="M61 504v160h480v-160h-480z" />
            <glyph unicode="." horiz-adv-x="522" d="M119 131q0 61 41 103t100 42t102.5 -41.5t43.5 -103.5q0 -59 -43.5 -100t-102.5 -41t-100 41t-41 100z" />
            <glyph unicode="/" horiz-adv-x="892" d="M10 -76l746 1733l162 -70l-746 -1732z" />
            <glyph unicode="0" horiz-adv-x="1185" d="M102 463v508q0 98 35 187t98.5 155.5t153.5 105.5t201 39q113 0 204 -39t155.5 -105.5t99 -155.5t34.5 -187v-508q0 -98 -34.5 -186.5t-99 -156t-156 -106.5t-203.5 -39q-111 0 -201 39t-153.5 106.5t-98.5 156t-35 186.5zM289 463q0 -66 21.5 -123t60.5 -101t95 -70 t124 -26q70 0 127 26t97 70t61.5 101t21.5 123v508q0 66 -21.5 124t-61.5 101t-97.5 68.5t-126.5 25.5q-68 0 -124 -25.5t-95 -68.5t-60.5 -101.5t-21.5 -123.5v-508z" />
            <glyph unicode="1" horiz-adv-x="706" d="M63 1047v149q96 0 156 13.5t93.5 41t45 72.5t11.5 111h178v-1434h-193v1047h-291z" />
            <glyph unicode="2" horiz-adv-x="1079" d="M96 0q0 170 28 284.5t80 193.5t127 133.5t169 103.5q55 27 109.5 57.5t98.5 69.5t70.5 91t26.5 124q0 113 -68.5 172t-183.5 59q-117 0 -193.5 -71.5t-76.5 -208.5h-187q0 104 37 188t99.5 141.5t145.5 88t177 30.5q96 0 176 -27.5t138.5 -80t90 -130t31.5 -178.5 q0 -100 -43 -176t-103.5 -132t-127 -94t-113.5 -63q-90 -51 -147.5 -93t-90 -88t-45 -99t-12.5 -127h682v-168h-895z" />
            <glyph unicode="3" horiz-adv-x="1144" d="M68 453h186q0 -72 23.5 -128.5t64.5 -96.5t97.5 -61.5t121.5 -21.5q66 0 118 20.5t89 55.5t56.5 81t19.5 99q0 115 -68.5 190t-222.5 75h-102v165h102q139 0 199.5 67t60.5 171t-68.5 161.5t-181.5 57.5q-139 0 -202.5 -72.5t-63.5 -187.5h-188q0 94 32.5 173t91 136.5 t139.5 88t179 30.5q94 0 176 -27.5t142.5 -79t95 -122t34.5 -158.5q0 -125 -59 -207t-162 -114q113 -35 183.5 -121t70.5 -226q0 -94 -37 -171.5t-101.5 -134t-151.5 -87.5t-187 -31q-98 0 -187 32t-156 93.5t-105.5 149.5t-38.5 201z" />
            <glyph unicode="4" horiz-adv-x="1130" d="M139 461v973h187v-805h346v442h186v-442h215v-168h-215v-461h-186v461h-533z" />
            <glyph unicode="5" horiz-adv-x="1224" d="M137 465h187q0 -66 21.5 -123t60 -101t95 -70t124.5 -26q70 0 127 26t96 70t60.5 101t21.5 123t-21.5 123t-60.5 100t-96.5 68.5t-126.5 25.5q-92 0 -160 -43t-109 -129h-190v824h844v-168h-676v-480q23 43 59.5 74t80.5 50.5t91 29.5t90 10q113 0 199 -39t144.5 -104.5 t89 -154.5t30.5 -187t-34.5 -186.5t-99 -156t-156 -106.5t-203.5 -39q-111 0 -201 39t-153.5 106.5t-98.5 156t-35 186.5z" />
            <glyph unicode="6" horiz-adv-x="1138" d="M76 465q0 78 22.5 150.5t61.5 134.5l428 684h215l-328 -504q16 12 41 18t47 6q113 0 204 -38.5t155.5 -106.5t99.5 -157t35 -187t-35 -186.5t-99.5 -156t-155.5 -106.5t-204 -39q-111 0 -201 39t-153.5 106.5t-98 156t-34.5 186.5zM262 465q0 -66 21.5 -123t60.5 -101 t95 -70t124 -26q70 0 127.5 26t97 70t61 101t21.5 123t-21.5 124t-61 101t-97 68.5t-127.5 25.5q-68 0 -124 -25.5t-95 -68.5t-60.5 -101.5t-21.5 -123.5z" />
            <glyph unicode="7" horiz-adv-x="956" d="M78 1266v168h889l-637 -1434h-199l569 1266h-622z" />
            <glyph unicode="8" horiz-adv-x="1187" d="M113 403q0 55 14 110.5t44 102t74 82t105 52.5q-55 18 -94 51t-63.5 73.5t-37 88t-12.5 96.5q0 82 31 154.5t89.5 127t142 85t188.5 30.5q104 0 188 -31.5t142.5 -86t89 -126t30.5 -153.5q0 -49 -12 -96.5t-36.5 -88t-63.5 -73.5t-94 -51q61 -16 105 -52t74 -83.5 t44 -101.5t14 -110q0 -86 -32.5 -163.5t-95 -136t-151.5 -92.5t-202 -34t-202 34t-151.5 91.5t-95 135t-32.5 165.5zM299 403q0 -53 20.5 -100t58.5 -82t93 -55.5t123 -20.5q70 0 124 20.5t92 55.5t58.5 82t20.5 100q0 51 -19.5 98.5t-57.5 83.5t-93 56.5t-125 20.5 q-72 0 -126 -20.5t-92 -55.5t-57.5 -82t-19.5 -101zM332 1051q0 -100 69.5 -169t192.5 -69q125 0 193.5 69.5t68.5 168.5q0 98 -69.5 167.5t-192.5 69.5q-61 0 -109.5 -18.5t-82 -51t-52 -75.5t-18.5 -92z" />
            <glyph unicode="9" horiz-adv-x="1138" d="M82 969q0 98 35 187t99.5 155.5t155 105.5t203.5 39q111 0 201 -39t153.5 -105.5t98.5 -155.5t35 -187q0 -78 -23.5 -149.5t-62.5 -135.5l-426 -684h-215l326 500q-10 -10 -29 -14.5t-35 -4.5q-117 0 -212 37t-162.5 102.5t-104.5 154.5t-37 194zM268 969 q0 -66 21.5 -124.5t61.5 -101.5t97.5 -68.5t126.5 -25.5q68 0 124.5 25.5t95.5 68.5t60.5 101.5t21.5 124.5t-21.5 124t-60.5 101t-95.5 68.5t-124.5 25.5q-70 0 -127 -25.5t-97 -68.5t-61.5 -101.5t-21.5 -123.5z" />
            <glyph unicode=":" horiz-adv-x="522" d="M119 131q0 59 41 102t100 43t102.5 -43t43.5 -102t-43.5 -101t-102.5 -42t-100 42t-41 101zM119 815q0 61 41 103.5t100 42.5t102.5 -42t43.5 -104q0 -59 -43.5 -100t-102.5 -41t-100 41t-41 100z" />
            <glyph unicode=";" horiz-adv-x="538" d="M119 131q0 59 41 102t104 43q78 0 125 -57t47 -149q0 -84 -21.5 -142.5t-61.5 -95.5t-96 -53.5t-128 -16.5v88q55 0 92 17.5t55 46.5q31 45 31 90q-6 -6 -19.5 -11t-27.5 -5q-66 0 -103.5 42t-37.5 101zM119 817q0 59 41 101.5t100 42.5t102.5 -42t43.5 -102 q0 -59 -43.5 -101t-102.5 -42t-100 42t-41 101z" />
            <glyph unicode="&#x3c;" horiz-adv-x="1177" d="M70 516v129l1038 371v-170l-776 -264l776 -267v-168z" />
            <glyph unicode="=" horiz-adv-x="1177" d="M176 336v160h828v-160h-828zM176 668v157h828v-157h-828z" />
            <glyph unicode="&#x3e;" horiz-adv-x="1177" d="M70 147v168l776 267l-776 264v170l1038 -371v-129z" />
            <glyph unicode="?" horiz-adv-x="1032" d="M47 1010q0 104 36 188t97.5 141.5t143.5 88t176 30.5t176 -27.5t140 -79t92 -124t34 -164.5q0 -76 -23.5 -133.5t-57.5 -101.5t-72.5 -74.5t-69.5 -53.5q-49 -37 -81 -65.5t-51.5 -61t-26.5 -76.5t-7 -112h-180q0 74 9 130t30.5 102.5t55.5 84t85 72.5q31 20 65.5 48 t65.5 63t51.5 79t20.5 99q0 113 -70 170t-186 57q-115 0 -191 -71.5t-76 -208.5h-186zM315 123q0 61 42 104t106 43q63 0 107 -43t44 -104t-44 -106.5t-107 -45.5t-105.5 45.5t-42.5 106.5z" />
            <glyph unicode="@" horiz-adv-x="1748" d="M53 422q0 193 70 348.5t187.5 263t274 165.5t328.5 58q184 0 334 -49t255.5 -143t161.5 -228.5t56 -306.5q0 -326 -87 -469t-255 -143q-104 0 -165.5 60.5t-84.5 148.5v37q-39 -74 -116.5 -118t-165.5 -44q-92 0 -168 34t-131 91t-85 134t-30 161q0 86 30 161.5t85 134 t131 92.5t168 34q88 0 166 -43t116 -119v143h150v-579q0 -190 127 -191q35 0 65.5 22.5t52 77t34 145.5t12.5 230q0 137 -46 248t-132 186.5t-207 116.5t-271 41q-143 0 -271 -48t-225.5 -139t-154.5 -221t-57 -292q0 -131 46 -256t138 -221.5t231.5 -155.5t323.5 -59 q86 0 194.5 21.5t219.5 80.5l55 -119q-127 -72 -249 -95.5t-220 -23.5q-223 0 -390 71t-278.5 186.5t-167 264t-55.5 306.5zM584 422q0 -57 19.5 -109.5t54 -91.5t84 -61.5t110.5 -22.5q63 0 114.5 22.5t87.5 61.5t55 91.5t19 109.5t-19 109.5t-55 92.5t-87.5 62.5 t-114.5 22.5q-61 0 -110.5 -22.5t-84 -62.5t-54 -92.5t-19.5 -109.5z" />
            <glyph unicode="A" horiz-adv-x="1144" d="M10 0l494 1434h135l496 -1434h-197l-76 219h-581l-74 -219h-197zM338 389h467l-232 739z" />
            <glyph unicode="B" horiz-adv-x="1210" d="M160 0v1434h489q129 0 214 -37t134.5 -93.5t68.5 -124t19 -128.5q0 -66 -21.5 -121.5t-57 -96t-81.5 -68.5t-96 -38q41 -4 88.5 -26.5t87 -64.5t65.5 -102.5t26 -136.5q0 -61 -20.5 -130.5t-72 -129t-137.5 -98.5t-215 -39h-491zM346 168h313q70 0 118 21.5t78 55.5 t42 75.5t12 82.5q0 37 -13 78t-43 76t-76 58.5t-113 23.5h-318v-471zM346 809h307q70 0 117 21.5t75.5 55.5t41 73.5t12.5 76.5t-12.5 77t-41 74t-76.5 56.5t-120 22.5h-303v-457z" />
            <glyph unicode="C" horiz-adv-x="1587" d="M84 719q0 145 50 280.5t144.5 238.5t228.5 165.5t302 62.5q156 0 276.5 -42t207.5 -113.5t140.5 -169t73.5 -209.5h-196q-16 78 -55 145.5t-100.5 116.5t-142.5 76.5t-182 27.5q-133 0 -236 -48t-174 -129t-109 -185.5t-38 -216.5q0 -119 39 -224.5t114 -185.5 t183.5 -127t247.5 -47q74 0 144.5 22.5t130 63.5t103.5 97.5t67 123.5h204q-27 -100 -87 -187t-147 -150.5t-197.5 -100.5t-239.5 -37q-176 0 -315.5 61.5t-237 164t-148.5 238.5t-51 288z" />
            <glyph unicode="D" horiz-adv-x="1427" d="M160 0v1434h442q178 0 316.5 -61.5t233.5 -162t144.5 -229.5t49.5 -264t-49.5 -264t-144.5 -229.5t-233.5 -162t-316.5 -61.5h-442zM346 168h256q131 0 234.5 47t173 124t106.5 175t37 203q0 104 -37 202.5t-106.5 175t-173 124t-234.5 47.5h-256v-1098z" />
            <glyph unicode="E" horiz-adv-x="1114" d="M160 0v1434h805v-168h-619v-469h619v-168h-619v-461h619v-168h-805z" />
            <glyph unicode="F" horiz-adv-x="1101" d="M160 0v1434h805v-168h-619v-512h619v-168h-619v-586h-186z" />
            <glyph unicode="G" horiz-adv-x="1712" d="M84 717q0 145 51 280.5t146.5 239.5t231.5 166.5t306 62.5q121 0 224.5 -33.5t183.5 -93t130 -138.5t62 -167h-188q-14 55 -50 103.5t-90.5 84t-123 56t-148.5 20.5q-127 0 -228.5 -48t-172 -129t-107.5 -186.5t-37 -217.5q0 -113 36 -218.5t106.5 -186.5t177 -129 t248.5 -48q104 0 186 31t140.5 83t93 122.5t45.5 150.5h-338v168h690v-168h-154q-20 -123 -74.5 -225t-140.5 -176t-203.5 -114t-267.5 -40q-176 0 -313 62.5t-231.5 167t-142.5 239.5t-48 281z" />
            <glyph unicode="H" horiz-adv-x="1359" d="M160 0v1434h186v-637h668v637h186v-1434h-186v629h-668v-629h-186z" />
            <glyph unicode="I" horiz-adv-x="512" d="M160 0v1434h192v-1434h-192z" />
            <glyph unicode="J" horiz-adv-x="1097" d="M29 455h186q0 -143 75 -231.5t204 -88.5t200.5 87t71.5 233v979h186v-979q0 -104 -31.5 -194.5t-90 -155t-144.5 -101.5t-192 -37t-192.5 37t-147 102.5t-93 154.5t-32.5 194z" />
            <glyph unicode="K" horiz-adv-x="1208" d="M160 0v1434h186v-652l602 652h236l-656 -717l656 -717h-236l-602 651v-651h-186z" />
            <glyph unicode="L" horiz-adv-x="870" d="M160 0v1434h186v-1266h469v-168h-655z" />
            <glyph unicode="M" horiz-adv-x="1662" d="M160 0v1434h180l491 -1147l492 1147h180v-1434h-188v999l-412 -999h-143l-414 999v-999h-186z" />
            <glyph unicode="N" horiz-adv-x="1357" d="M160 0v1434h207l645 -1108v1108h186v-1434h-207l-645 1108v-1108h-186z" />
            <glyph unicode="O" horiz-adv-x="1644" d="M84 717q0 145 51 280.5t146.5 239.5t232.5 166.5t309 62.5t309.5 -62.5t232.5 -166.5t146.5 -239.5t51.5 -280.5t-51.5 -280.5t-146.5 -240t-232.5 -167t-309.5 -62.5t-309 62.5t-232.5 167t-146.5 239.5t-51 281zM279 717q0 -113 37.5 -217.5t108.5 -185.5t171 -130 t227 -49q125 0 226.5 49t171 130t107.5 185.5t38 217.5t-38 218t-107.5 186t-171 129t-226.5 48q-127 0 -227 -48t-171 -129t-108.5 -186.5t-37.5 -217.5z" />
            <glyph unicode="P" horiz-adv-x="1220" d="M160 0v1434h504q113 0 202.5 -39t154 -106.5t99.5 -156t35 -186.5t-35 -187t-99.5 -156.5t-154.5 -106.5t-202 -39h-318v-457h-186zM346 627h318q70 0 126 25.5t96 68.5t61.5 101.5t21.5 123.5q0 63 -21.5 121.5t-61.5 102.5t-96.5 70t-125.5 26h-318v-639z" />
            <glyph unicode="Q" horiz-adv-x="1644" d="M84 717q0 145 51 280.5t146.5 239.5t232.5 166.5t309 62.5t309.5 -62.5t232.5 -166.5t146.5 -239.5t51.5 -280.5q0 -129 -38 -245t-108.5 -211t-170 -163.5t-222.5 -99.5l127 -178l-166 -82l-164 229q-172 0 -309 63.5t-232.5 167t-145.5 238.5t-50 281zM279 717 q0 -113 37.5 -217.5t108.5 -185.5t171 -130t227 -49q125 0 226.5 49t171 130t107.5 185.5t38 217.5t-38 218t-107.5 186t-171 129t-226.5 48q-127 0 -227 -48t-171 -129t-108.5 -186.5t-37.5 -217.5z" />
            <glyph unicode="R" horiz-adv-x="1241" d="M160 0v1434h504q113 0 202.5 -39t154 -106.5t99.5 -156t35 -186.5q0 -78 -21.5 -150.5t-63.5 -132t-100.5 -105.5t-131.5 -71l301 -487h-213l-285 457h-295v-457h-186zM346 627h318q70 0 126 25.5t96 68.5t61.5 101.5t21.5 123.5q0 63 -21.5 121.5t-61.5 102.5t-96.5 70 t-125.5 26h-318v-639z" />
            <glyph unicode="S" horiz-adv-x="1169" d="M92 457h187q0 -147 88 -234.5t235 -87.5q125 0 205 65.5t80 178.5q0 66 -24.5 108.5t-64.5 72.5t-88 47.5t-96 31.5q-96 31 -182 63.5t-150.5 80.5t-101.5 120t-37 180q0 86 34 156t93.5 121t141.5 78.5t178 27.5q98 0 180 -31.5t141.5 -89t94 -138.5t34.5 -179h-186 q-2 123 -70.5 196.5t-189.5 73.5q-119 0 -191.5 -57t-72.5 -158q0 -59 22.5 -99t59.5 -67.5t85 -47t99 -33.5q82 -27 167 -60t154.5 -82t112.5 -119.5t43 -175.5q0 -104 -38 -185t-103.5 -136t-153.5 -83t-190 -28q-104 0 -194.5 34t-157 96.5t-105.5 153.5t-39 206z" />
            <glyph unicode="T" horiz-adv-x="978" d="M25 1266v168h929v-168h-372v-1266h-187v1266h-370z" />
            <glyph unicode="U" horiz-adv-x="1288" d="M145 465v969h187v-969q0 -68 22.5 -127t62.5 -104.5t97 -72t127 -26.5q72 0 130 26.5t99 72t63.5 104.5t22.5 127v969h187v-969q0 -102 -35 -192.5t-100.5 -158t-158.5 -107.5t-208 -40q-113 0 -204 40t-155.5 107.5t-100.5 157.5t-36 193z" />
            <glyph unicode="V" horiz-adv-x="1153" d="M8 1434h197l373 -1127l370 1127h197l-500 -1434h-135z" />
            <glyph unicode="W" horiz-adv-x="1974" d="M12 1434h197l360 -1110l349 1110h141l348 -1110l360 1110h197l-491 -1434h-138l-348 1110l-346 -1110h-139z" />
            <glyph unicode="X" horiz-adv-x="1122" d="M20 0l435 717l-435 717h211l330 -555l330 555h213l-436 -717l436 -717h-213l-330 555l-330 -555h-211z" />
            <glyph unicode="Y" horiz-adv-x="1210" d="M20 1434h218l419 -670l338 670h205l-721 -1434h-205l287 569z" />
            <glyph unicode="Z" d="M29 0l796 1266h-753v168h1067l-797 -1266h803v-168h-1116z" />
            <glyph unicode="[" horiz-adv-x="686" d="M160 -479v2107h403v-160h-225v-1790h225v-157h-403z" />
            <glyph unicode="\" horiz-adv-x="892" d="M-10 1587l162 70l745 -1733l-162 -69z" />
            <glyph unicode="]" horiz-adv-x="686" d="M123 -322h225v1788h-225v160h403v-2105h-403v157z" />
            <glyph unicode="^" horiz-adv-x="1306" d="M123 662l463 874h127l471 -874h-201l-332 651l-334 -651h-194z" />
            <glyph unicode="_" horiz-adv-x="1146" d="M61 -102h1024v-125h-1024v125z" />
            <glyph unicode="`" horiz-adv-x="1013" d="M182 1360l86 139l510 -280l-86 -140z" />
            <glyph unicode="a" horiz-adv-x="1222" d="M84 465q0 98 35 187t97.5 157t150.5 106.5t194 38.5q102 0 191.5 -49t134.5 -135v160h176v-930h-176v162q-45 -86 -134 -135.5t-192 -49.5q-106 0 -194 39t-150.5 106.5t-97.5 156t-35 186.5zM260 465q0 -68 22.5 -127t62.5 -103.5t97 -71t129 -26.5t130.5 26.5t99.5 71 t63.5 103.5t22.5 127t-22.5 127t-63.5 104t-99.5 72t-130.5 27t-129 -27t-97 -72t-62.5 -104.5t-22.5 -126.5z" />
            <glyph unicode="b" horiz-adv-x="1226" d="M160 0v1434h178v-664q45 86 133 135t191 49q106 0 195 -38.5t151.5 -106.5t97.5 -157t35 -187t-35 -186.5t-97.5 -156t-151.5 -106.5t-195 -39q-102 0 -190.5 49.5t-133.5 135.5v-162h-178zM338 465q0 -68 22.5 -127t63.5 -103.5t99 -71t130 -26.5q70 0 127.5 26.5 t97.5 71t62.5 103.5t22.5 127t-22.5 127t-62.5 104t-97.5 72t-127.5 27q-72 0 -130 -27t-99 -72t-63.5 -104.5t-22.5 -126.5z" />
            <glyph unicode="c" horiz-adv-x="1083" d="M88 465q0 94 29.5 182t88 156.5t145.5 109.5t200 41t193.5 -31.5t133 -81.5t80 -116t33.5 -133h-178q-10 86 -68.5 144.5t-189.5 58.5q-72 0 -126 -27t-90 -73t-54.5 -105.5t-18.5 -124.5q0 -66 17.5 -125t54.5 -104.5t93 -72t134 -26.5q117 0 172.5 49.5t77.5 132.5h178 q-10 -72 -42.5 -134t-87 -108t-132.5 -73t-178 -27q-115 0 -201 41t-145.5 109t-89 156t-29.5 182z" />
            <glyph unicode="d" horiz-adv-x="1222" d="M84 465q0 98 35 187t97.5 157t150.5 106.5t194 38.5q102 0 191.5 -49t134.5 -135v664h176v-1434h-176v162q-45 -86 -134 -135.5t-192 -49.5q-106 0 -194 39t-150.5 106.5t-97.5 156t-35 186.5zM260 465q0 -68 22.5 -127t62.5 -103.5t97 -71t129 -26.5t130.5 26.5t99.5 71 t63.5 103.5t22.5 127t-22.5 127t-63.5 104t-99.5 72t-130.5 27t-129 -27t-97 -72t-62.5 -104.5t-22.5 -126.5z" />
            <glyph unicode="e" horiz-adv-x="1075" d="M88 465q0 104 31 194.5t89 156t143 102t196 36.5q90 0 169 -31.5t137 -89t91 -134t33 -164.5q0 -20 -1 -49t-7 -68h-705q2 -59 19.5 -111.5t51.5 -92.5t87 -63.5t131 -23.5q104 0 158.5 44t76.5 103h181q-12 -59 -45 -112t-86.5 -94t-125 -66t-159.5 -25q-117 0 -205 39 t-145.5 104.5t-86 155t-28.5 189.5zM266 553h539q0 123 -74.5 193.5t-187.5 70.5q-121 0 -197 -68.5t-80 -195.5z" />
            <glyph unicode="f" horiz-adv-x="710" d="M43 780v150h201v162q0 127 33.5 197.5t83 105.5t104.5 43t96 8q43 0 75 -7t52 -18v-151q-25 8 -49.5 12t-54.5 4q-29 0 -57.5 -4t-52 -21.5t-38 -52t-14.5 -98.5v-180h266v-150h-266v-780h-178v780h-201z" />
            <glyph unicode="g" horiz-adv-x="1218" d="M84 465q0 98 35 187t97.5 157t150.5 106.5t194 38.5q102 0 191.5 -49t134.5 -135v160h176v-989q0 -125 -34 -213t-98.5 -144.5t-155.5 -82t-208 -25.5q-119 0 -206 33.5t-144 90t-87 130t-34 151.5h180q4 -49 22.5 -94t53.5 -79t88.5 -54.5t126.5 -20.5q150 0 235 72 t85 236v221q-45 -86 -134 -135.5t-192 -49.5q-106 0 -194 39t-150.5 106.5t-97.5 156t-35 186.5zM260 465q0 -68 22.5 -127t62.5 -103.5t97.5 -71t128.5 -26.5q72 0 130.5 26.5t99.5 71t63.5 103.5t22.5 127t-22.5 127t-63.5 104t-99.5 72t-130.5 27t-129 -27t-97 -72 t-62.5 -104.5t-22.5 -126.5z" />
            <glyph unicode="h" d="M160 0v1434h178v-668q41 86 125 137t203 51q98 0 167.5 -31.5t110.5 -91.5q39 -53 55.5 -118.5t16.5 -163.5v-549h-178v494q0 63 -12.5 119.5t-40 96.5t-72.5 63.5t-111 23.5q-68 0 -117 -27t-81.5 -71t-49 -101t-16.5 -119v-479h-178z" />
            <glyph unicode="i" horiz-adv-x="497" d="M106 1282q0 59 41 102t101 43q59 0 102 -43t43 -102t-43 -100t-102 -41t-100.5 41t-41.5 100zM160 0v930h178v-930h-178z" />
            <glyph unicode="j" horiz-adv-x="497" d="M-25 -340q33 -8 50.5 -10t40.5 -2q47 0 70.5 33.5t23.5 95.5v1153h178v-1180q0 -76 -18.5 -128t-48 -84t-68.5 -46t-82 -14q-47 0 -85 7t-61 17v158zM106 1282q0 59 41 102t101 43q61 0 103 -43t42 -102t-42 -100t-103 -41q-59 0 -100.5 41t-41.5 100z" />
            <glyph unicode="k" horiz-adv-x="976" d="M160 0v1434h178v-928l389 424h225l-424 -465l424 -465h-225l-389 422v-422h-178z" />
            <glyph unicode="l" horiz-adv-x="497" d="M160 0v1434h178v-1434h-178z" />
            <glyph unicode="m" horiz-adv-x="1687" d="M160 0v930h178v-166q27 78 98.5 134t175.5 56q129 0 201 -54t98 -144q14 39 43 75.5t67 63.5t86 43t103 16q92 0 156 -28.5t102.5 -77.5t56 -116.5t17.5 -143.5v-588h-178v535q0 129 -50 195.5t-147 66.5q-104 0 -165.5 -80t-61.5 -244v-473h-178v524q0 141 -50 207 t-145 66q-102 0 -165.5 -80t-63.5 -244v-473h-178z" />
            <glyph unicode="n" d="M160 0v930h178v-164q41 86 125 137t203 51q98 0 167.5 -31.5t110.5 -91.5q39 -53 55.5 -118.5t16.5 -163.5v-549h-178v494q0 63 -12.5 119.5t-40 96.5t-72.5 63.5t-111 23.5q-68 0 -117 -27t-81.5 -71t-49 -101t-16.5 -119v-479h-178z" />
            <glyph unicode="o" horiz-adv-x="1146" d="M84 465q0 98 35 187t98.5 157t153.5 106.5t200 38.5q113 0 203 -38.5t154.5 -106.5t99.5 -157t35 -187t-35 -186.5t-99.5 -156t-154.5 -106.5t-203 -39q-111 0 -200.5 39t-153 106.5t-98.5 156t-35 186.5zM260 465q0 -68 22.5 -127t62.5 -103.5t97 -71t129 -26.5 t130.5 26.5t99.5 71t63.5 103.5t22.5 127t-22.5 127t-63.5 104t-99.5 72t-130.5 27t-129 -27t-97 -72t-62.5 -104.5t-22.5 -126.5z" />
            <glyph unicode="p" horiz-adv-x="1226" d="M160 -504v1434h178v-160q45 86 133 135t191 49q106 0 195 -38.5t151.5 -106.5t97.5 -157t35 -187t-35 -186.5t-97.5 -156t-151.5 -106.5t-195 -39q-102 0 -190.5 49.5t-133.5 135.5v-666h-178zM338 465q0 -68 22.5 -127t63.5 -103.5t99.5 -71t129.5 -26.5 q70 0 127.5 26.5t97.5 71t62.5 103.5t22.5 127t-22.5 127t-62.5 104t-97.5 72t-127.5 27q-72 0 -130 -27t-99 -72t-63.5 -104.5t-22.5 -126.5z" />
            <glyph unicode="q" horiz-adv-x="1226" d="M86 465q0 98 35 187t97.5 157t150.5 106.5t196 38.5q102 0 190.5 -49t133.5 -135v160h178v-1434h-178v666q-45 -86 -133 -135.5t-191 -49.5q-109 0 -196.5 39t-150 106.5t-97.5 156t-35 186.5zM264 465q0 -68 22.5 -127t62.5 -103.5t97.5 -71t126.5 -26.5 q72 0 130.5 26.5t99.5 71t63.5 103.5t22.5 127t-22.5 127t-63.5 104t-99.5 72t-130.5 27q-70 0 -127 -27t-97 -72t-62.5 -104.5t-22.5 -126.5z" />
            <glyph unicode="r" horiz-adv-x="747" d="M160 0v930h178v-182q37 88 124 142t185 54q53 0 88 -14v-164q-29 6 -46 8t-42 2q-156 0 -232.5 -100.5t-76.5 -267.5v-408h-178z" />
            <glyph unicode="s" horiz-adv-x="925" d="M82 313h174q0 -106 62.5 -150t156.5 -44q86 0 136.5 31.5t50.5 101.5q0 39 -20.5 62.5t-58.5 42t-93.5 34t-124.5 39.5q-53 16 -99.5 34.5t-80 47.5t-53 70t-19.5 104q0 66 26.5 116t73.5 84t110.5 51t135.5 17q76 0 141.5 -22.5t113.5 -64.5t75.5 -99t27.5 -127h-172 q0 82 -48 126t-140 44q-74 0 -123 -33t-49 -96q0 -35 17 -57.5t52 -39t84 -32t115 -35.5q53 -16 103.5 -34.5t89 -47t62 -71.5t23.5 -109q0 -70 -27.5 -122t-76.5 -87t-115.5 -52.5t-144.5 -17.5t-147.5 20.5t-122 62.5t-84 105.5t-31.5 147.5z" />
            <glyph unicode="t" horiz-adv-x="696" d="M41 780v150h172v313h178v-313h242v-150h-242v-428q0 -68 11.5 -107.5t32 -61t48 -27.5t62.5 -6q29 0 64.5 2t56.5 6v-158q-27 -4 -71 -8t-89 -4q-43 0 -94.5 8t-95.5 40t-73.5 97.5t-29.5 179.5v467h-172z" />
            <glyph unicode="u" d="M141 381v549h178v-492q0 -66 12.5 -121t40 -95t71.5 -63.5t110 -23.5q68 0 118 25.5t82.5 69.5t49 101.5t16.5 121.5v477h178v-930h-178v166q-41 -86 -126 -137.5t-201 -51.5q-98 0 -169 32t-112 89q-39 53 -54.5 119t-15.5 164z" />
            <glyph unicode="v" horiz-adv-x="987" d="M8 930h193l291 -676l294 676h193l-426 -930h-123z" />
            <glyph unicode="w" horiz-adv-x="1503" d="M8 930h191l231 -656l234 656h176l231 -656l234 656h190l-360 -930h-123l-260 735l-260 -735h-123z" />
            <glyph unicode="x" horiz-adv-x="901" d="M33 0l315 469l-311 461h205l209 -324l208 324h205l-311 -461l315 -469h-204l-213 330l-213 -330h-205z" />
            <glyph unicode="y" horiz-adv-x="1173" d="M143 -121h181q8 -127 74.5 -189.5t183.5 -62.5q59 0 107 13.5t82 45t52.5 85t18.5 133.5v262q-41 -86 -124 -137.5t-202 -51.5q-102 0 -171 31t-112 88q-39 53 -54 120t-15 171v543h178v-488q0 -68 11.5 -124t39 -97t72.5 -63.5t115 -22.5q68 0 116.5 25.5t80.5 69.5 t48.5 101.5t16.5 121.5v477h178v-1026q0 -223 -112.5 -325.5t-329.5 -102.5q-199 0 -315 100t-120 303z" />
            <glyph unicode="z" horiz-adv-x="888" d="M49 0l498 772h-481v158h782l-498 -770h500v-160h-801z" />
            <glyph unicode="{" horiz-adv-x="860" d="M139 475v148q25 0 57.5 10t61.5 31.5t49.5 55.5t20.5 83v538q0 72 25.5 125.5t65.5 89t90 53t99 17.5h135v-135h-94q-78 0 -110.5 -53.5t-32.5 -122.5v-535q0 -61 -20.5 -102t-51.5 -67.5t-63.5 -41t-57.5 -18.5q25 -6 57.5 -19.5t63.5 -41t51.5 -72.5t20.5 -115v-471 q0 -35 8 -66.5t25.5 -56t44 -39t65.5 -14.5h94v-135h-135q-49 0 -99 17.5t-90 52t-65.5 89t-25.5 125.5v476q0 53 -20.5 90t-49.5 60.5t-61.5 33.5t-57.5 10z" />
            <glyph unicode="|" horiz-adv-x="497" d="M174 -479v2105h154v-2105h-154z" />
            <glyph unicode="}" horiz-adv-x="860" d="M119 -344h92q76 0 109.5 54t33.5 122v471q0 70 20.5 115t51.5 72.5t63.5 41t57.5 19.5q-25 4 -57.5 18.5t-63.5 41t-51.5 67.5t-20.5 102v535q0 70 -32.5 123t-110.5 53h-92v135h135q49 0 99 -17.5t90 -53t66 -89t26 -125.5v-538q0 -49 20 -83t49 -55.5t61.5 -31.5 t57.5 -10v-148q-25 0 -57.5 -10t-61.5 -33.5t-49 -60.5t-20 -90v-476q0 -72 -26 -126t-66 -88.5t-90 -52t-99 -17.5h-135v135z" />
            <glyph unicode="~" horiz-adv-x="1060" d="M76 438v158q49 61 108.5 86t110.5 25q55 0 116.5 -19.5t125.5 -46.5q59 -25 118.5 -49.5t102.5 -24.5q70 0 127 36t98 77v-156q-49 -61 -109.5 -88.5t-117.5 -27.5q-55 0 -109.5 20.5t-116.5 50.5q-53 27 -114.5 47.5t-128.5 20.5q-59 0 -114.5 -33t-96.5 -76z" />
            <glyph unicode="&#xa1;" horiz-adv-x="606" d="M162 813q0 61 42 103t101 42t102.5 -42t43.5 -103q0 -59 -43 -101t-103 -42q-59 0 -101 42t-42 101zM209 496h194v-1000h-194v1000z" />
            <glyph unicode="&#xa2;" horiz-adv-x="1155" d="M117 643q0 88 25.5 170t75.5 147.5t125 110.5t171 57v220h135v-220q94 -10 161 -43.5t112 -83t67.5 -110t28.5 -121.5h-178q-10 86 -68.5 144.5t-189.5 58.5q-72 0 -125.5 -26.5t-89 -73t-54 -105.5t-18.5 -125t17.5 -125t54 -104t93 -72t134.5 -27q117 0 172 49.5 t78 133.5h178q-23 -133 -113 -227.5t-260 -112.5v-219h-135v221q-98 12 -172 56t-124 109.5t-75.5 147.5t-25.5 170z" />
            <glyph unicode="&#xa3;" horiz-adv-x="1204" d="M80 688v137h139v224q0 90 35 164.5t96.5 129t143 84t174.5 29.5q98 0 181 -33.5t143.5 -93t93 -141.5t32.5 -180h-186q0 59 -16.5 110t-50.5 88t-85 58.5t-121 21.5q-104 0 -172.5 -55.5t-78.5 -155.5q-2 -8 -2 -34.5v-62.5t1 -77t1 -74h340v-135h-340q0 -29 -2.5 -71.5 t-3.5 -88t-3 -86t-4 -63.5q-6 -82 -19.5 -134t-37.5 -81h666v-168h-877v141q31 35 48.5 89.5t25.5 140.5q4 25 7 65.5t5 86.5t4 91t2 74h-139z" />
            <glyph unicode="&#xa4;" horiz-adv-x="1531" d="M197 334l139 139q-88 123 -88 285t88 284l-139 140l112 112l137 -139q59 43 131 67.5t158 24.5t159 -24.5t132 -65.5l137 137l113 -112l-137 -138q43 -61 66.5 -133.5t23.5 -152.5t-23.5 -154t-66.5 -133l135 -137l-111 -113l-137 137q-59 -41 -132 -64.5t-159 -23.5 t-156.5 23.5t-129.5 64.5l-140 -137zM426 758q0 -68 22.5 -127.5t62.5 -103.5t97 -70.5t127 -26.5q72 0 130.5 26.5t99.5 70.5t63.5 103.5t22.5 127.5t-22.5 127t-63.5 104t-99.5 71.5t-130.5 26.5q-70 0 -127 -26.5t-97 -71.5t-62.5 -104.5t-22.5 -126.5z" />
            <glyph unicode="&#xa5;" horiz-adv-x="1214" d="M-45 1434h217l438 -676l432 676h215l-530 -832h299v-135h-332v-160h332v-135h-332v-172h-170v172h-325v135h325v160h-325v135h293z" />
            <glyph unicode="&#xa6;" horiz-adv-x="497" d="M172 473h156v-952h-156v952zM172 672v954h156v-954h-156z" />
            <glyph unicode="&#xa7;" horiz-adv-x="1187" d="M90 555q0 115 62.5 197t173.5 110q-76 47 -116 120t-40 169q0 84 36 150.5t97.5 113.5t144 72.5t177.5 25.5q96 0 179 -30.5t143.5 -86t95 -131t34.5 -167.5h-188q0 55 -19.5 103t-54.5 82t-84 53.5t-106 19.5q-115 0 -191 -51.5t-76 -153.5q0 -53 24 -91t61.5 -64.5 t86 -45t99.5 -32.5q94 -29 180 -61t151.5 -76t104.5 -105.5t39 -149.5q0 -57 -20.5 -109t-52.5 -94t-74 -70t-85 -36q164 -96 164 -289q0 -86 -35.5 -152.5t-97 -112.5t-144.5 -69.5t-177 -23.5q-100 0 -186.5 30.5t-149 87t-98 134.5t-35.5 172h188q0 -59 20.5 -108.5 t57.5 -84t89 -55t114 -20.5q117 0 191.5 48t74.5 154q0 49 -20.5 85t-57.5 63.5t-89.5 48.5t-115.5 39q-94 29 -180 60.5t-151.5 75.5t-104.5 105.5t-39 149.5zM281 573q0 -72 42 -113.5t130 -76.5q18 -10 52 -22.5t70.5 -23.5t70.5 -21.5t54 -16.5q43 2 83 19.5t69 45 t46 64.5t17 80q0 72 -40.5 109.5t-122.5 72.5q-16 10 -47 21.5t-67 24t-73 22.5t-67 20q-100 -4 -158.5 -64.5t-58.5 -140.5z" />
            <glyph unicode="&#xa8;" horiz-adv-x="1138" d="M184 1315q0 59 40 99t98 40q57 0 97 -40t40 -99q0 -57 -40 -96t-97 -39t-97.5 39t-40.5 96zM655 1315q0 59 39 99t97 40q59 0 99 -40t40 -99q0 -57 -40 -96t-99 -39q-57 0 -96.5 39t-39.5 96z" />
            <glyph unicode="&#xa9;" horiz-adv-x="1650" d="M86 717q0 145 51 281.5t146.5 240.5t232.5 166.5t309 62.5t309.5 -62.5t232.5 -166.5t146.5 -240.5t51.5 -281.5t-51.5 -281.5t-146.5 -241t-232.5 -167t-309.5 -62.5t-309 62.5t-232.5 167t-146.5 240.5t-51 282zM231 717q0 -123 41 -237.5t118 -203t186.5 -141.5 t248.5 -53q137 0 248 53t187.5 141.5t117.5 203t41 237.5t-41 237.5t-117.5 202.5t-187 141.5t-248.5 53.5q-139 0 -248.5 -53.5t-186.5 -141.5t-118 -202.5t-41 -237.5zM414 719q0 82 27.5 158.5t80.5 135t130 94.5t173 36q88 0 157 -23.5t117 -64.5t77.5 -97.5 t42.5 -119.5h-125q-23 84 -88.5 140t-180.5 56q-68 0 -122 -26.5t-92 -69.5t-57 -100.5t-19 -118.5q0 -63 20 -120.5t60 -101.5t96.5 -70t128.5 -26q90 0 155.5 45.5t94.5 112.5h129q-16 -57 -50 -105t-83.5 -84t-112 -56.5t-133.5 -20.5q-100 0 -179 33.5t-134.5 92 t-84 136.5t-28.5 164z" />
            <glyph unicode="&#xaa;" horiz-adv-x="1222" d="M84 465q0 98 35 187t97.5 157t150.5 106.5t194 38.5q102 0 191.5 -49t134.5 -135v160h176v-930h-176v162q-45 -86 -134 -135.5t-192 -49.5q-106 0 -194 39t-150.5 106.5t-97.5 156t-35 186.5zM260 465q0 -68 22.5 -127t62.5 -103.5t97 -71t129 -26.5t130.5 26.5t99.5 71 t63.5 103.5t22.5 127t-22.5 127t-63.5 104t-99.5 72t-130.5 27t-129 -27t-97 -72t-62.5 -104.5t-22.5 -126.5z" />
            <glyph unicode="&#xab;" horiz-adv-x="966" d="M82 543v108l401 342v-176l-258 -221l258 -221v-174zM483 543v108l402 342v-176l-258 -221l258 -221v-174z" />
            <glyph unicode="&#xac;" horiz-adv-x="1177" d="M176 623v159h828v-465h-179v306h-649z" />
            <glyph unicode="&#xad;" horiz-adv-x="602" d="M61 563v41h480v-41h-480z" />
            <glyph unicode="&#xae;" horiz-adv-x="1654" d="M86 717q0 145 51 281.5t146.5 240.5t233.5 166.5t310 62.5t310.5 -62.5t233.5 -166.5t146.5 -240.5t51.5 -281.5t-51.5 -281.5t-146.5 -241t-233.5 -167t-310.5 -62.5t-310 62.5t-233.5 167t-146.5 240.5t-51 282zM231 717q0 -123 41 -237.5t118 -203t187.5 -141.5 t249.5 -53t250 53t187.5 141.5t117.5 203t41 237.5t-41 237.5t-117.5 202.5t-187 141.5t-250.5 53.5q-139 0 -249.5 -53.5t-187.5 -141.5t-118 -202.5t-41 -237.5zM561 324v833h324q63 0 116.5 -22.5t90 -61.5t57 -91t20.5 -110q0 -92 -49 -163.5t-137 -100.5l178 -284h-145 l-166 266h-160v-266h-129zM690 702h182q74 0 117 50.5t43 119.5q0 70 -43 121t-117 51h-182v-342z" />
            <glyph unicode="&#xaf;" horiz-adv-x="1110" d="M188 1481v159h734v-159h-734z" />
            <glyph unicode="&#xb0;" horiz-adv-x="673" d="M43 1176q0 61 22.5 114t62.5 93t93 62.5t115 22.5q61 0 114.5 -22.5t93.5 -62.5t62.5 -93t22.5 -114t-22.5 -114.5t-62.5 -93.5t-93.5 -62.5t-114.5 -22.5t-114.5 22.5t-93.5 62.5t-62.5 93t-22.5 115zM172 1176q0 -70 48 -118t116 -48q70 0 118 48t48 118 q0 68 -48 117.5t-118 49.5q-68 0 -116 -50t-48 -117z" />
            <glyph unicode="&#xb1;" horiz-adv-x="1177" d="M180 49v160h817v-160h-817zM180 776v160h320v330h178v-330h319v-160h-319v-327h-178v327h-320z" />
            <glyph unicode="&#xb2;" horiz-adv-x="757" d="M113 645q0 94 15 159.5t44 109.5t69 75t91 58q37 18 67.5 36.5t54 38t37 45t13.5 60.5q0 53 -32 80.5t-85 27.5q-55 0 -91 -33.5t-36 -103.5h-145q0 109 71.5 179.5t200.5 70.5q55 0 102.5 -14.5t82 -43t55 -72.5t20.5 -101q0 -51 -20.5 -91.5t-51 -71t-67.5 -53 t-68 -38.5q-47 -25 -77.5 -46.5t-49 -43t-25.5 -47t-7 -60.5h366v-121h-534z" />
            <glyph unicode="&#xb3;" horiz-adv-x="782" d="M98 897h146q0 -70 40 -108.5t103 -38.5t97 35.5t34 86.5q0 57 -33.5 92t-105.5 35h-68v115h68q70 0 98.5 32t28.5 83q0 53 -32 79.5t-85 26.5q-68 0 -96.5 -34.5t-28.5 -94.5h-145q0 100 64.5 171t201.5 71q55 0 103.5 -14.5t84 -42t57 -67.5t21.5 -93q0 -68 -35.5 -114 t-91.5 -62q59 -16 99.5 -66.5t40.5 -124.5q0 -55 -21.5 -98t-59.5 -73.5t-88.5 -46t-105.5 -15.5q-139 0 -215 73.5t-76 192.5z" />
            <glyph unicode="&#xb4;" horiz-adv-x="1013" d="M123 1219l510 280l86 -139l-510 -281z" />
            <glyph unicode="&#xb5;" horiz-adv-x="1177" d="M160 -504v1434h178v-492q0 -66 12 -121t40 -95t73 -63.5t110 -23.5q68 0 117 25.5t82 69.5t49.5 101.5t16.5 121.5v477h178v-930h-178v166q-41 -86 -125 -137.5t-203 -51.5q-109 0 -172 58v-539h-178z" />
            <glyph unicode="&#xb6;" horiz-adv-x="1337" d="M31 1065q0 90 25.5 154.5t67.5 109.5t95 73t109.5 42t112 19t100.5 5h653v-147h-109v-1624h-170v1622h-274v-1622h-168v977q-94 0 -175 23.5t-140.5 71.5t-93 122t-33.5 174z" />
            <glyph unicode="&#xb7;" horiz-adv-x="522" d="M119 639q0 59 41 102t100 43t102.5 -43t43.5 -102t-43.5 -100t-102.5 -41t-100 41t-41 100z" />
            <glyph unicode="&#xb8;" horiz-adv-x="978" d="M297 -301h109q6 -37 29.5 -59.5t62.5 -22.5q43 0 69.5 27.5t26.5 72.5q0 41 -26.5 67t-67.5 26q-23 0 -43.5 -10.5t-36.5 -41.5h-94v242h118v-145q29 41 88 41q63 0 116.5 -47.5t53.5 -131.5q0 -37 -13 -71.5t-38.5 -62t-63.5 -45t-89 -17.5q-18 0 -50 7t-63 26.5 t-56.5 54.5t-31.5 90z" />
            <glyph unicode="&#xb9;" horiz-adv-x="548" d="M96 1192v106q55 0 90 8.5t54.5 25t26.5 42t7 60.5h132v-789h-150v547h-160z" />
            <glyph unicode="&#xba;" horiz-adv-x="1146" d="M84 465q0 98 35 187t98.5 157t153.5 106.5t200 38.5q113 0 203 -38.5t154.5 -106.5t99.5 -157t35 -187t-35 -186.5t-99.5 -156t-154.5 -106.5t-203 -39q-111 0 -200.5 39t-153 106.5t-98.5 156t-35 186.5zM260 465q0 -68 22.5 -127t62.5 -103.5t97 -71t129 -26.5 t130.5 26.5t99.5 71t63.5 103.5t22.5 127t-22.5 127t-63.5 104t-99.5 72t-130.5 27t-129 -27t-97 -72t-62.5 -104.5t-22.5 -126.5z" />
            <glyph unicode="&#xbb;" horiz-adv-x="966" d="M82 201v174l258 221l-258 221v176l401 -342v-108zM483 201v174l258 221l-258 221v176l402 -342v-108z" />
            <glyph unicode="&#xbc;" horiz-adv-x="1875" d="M137 1192v106q109 0 143.5 32t34.5 104h129v-789h-147v547h-160zM315 -37l859 1589l141 -79l-856 -1590zM1137 238v550h145v-428h166v230h145v-230h109v-122h-109v-238h-145v238h-311z" />
            <glyph unicode="&#xbd;" horiz-adv-x="1875" d="M137 1192v106q109 0 143.5 32t34.5 104h129v-789h-147v547h-160zM315 -37l859 1589l141 -79l-856 -1590zM1133 0q0 94 15 159.5t43 109.5t68.5 75t92.5 57q37 18 67.5 37t53 38.5t36 45t13.5 60.5q0 53 -31 80.5t-84 27.5q-57 0 -92 -33.5t-35 -103.5h-145 q0 109 71.5 179.5t200.5 70.5q55 0 102 -14.5t82 -43t55.5 -72.5t20.5 -102q0 -51 -20.5 -91t-51 -70.5t-67.5 -53t-70 -39.5q-47 -25 -77.5 -46t-49 -42.5t-26 -47t-7.5 -60.5h367v-121h-532z" />
            <glyph unicode="&#xbe;" horiz-adv-x="1875" d="M94 897h148q0 -70 38.5 -108.5t102.5 -38.5q63 0 97 35.5t34 86.5q0 57 -32.5 92t-104.5 35h-70v115h70q68 0 96.5 32t28.5 83q0 53 -32 79.5t-85 26.5q-66 0 -95.5 -34.5t-29.5 -94.5h-145q0 100 65.5 171t200.5 71q55 0 103 -14.5t84 -42t57.5 -67.5t21.5 -93 q0 -68 -36 -114t-91 -62q61 -16 100 -66.5t39 -124.5q0 -55 -21.5 -98t-59 -73.5t-88 -46t-105.5 -15.5q-137 0 -214 73.5t-77 192.5zM332 -37l858 1589l143 -79l-858 -1590zM1137 238v550h145v-428h166v230h145v-230h109v-122h-109v-238h-145v238h-311z" />
            <glyph unicode="&#xbf;" horiz-adv-x="1032" d="M90 -133q0 76 23.5 133t57.5 101t73 75t69 53q49 37 81 67t51.5 62.5t26.5 75.5t7 111h180q0 -72 -9 -129.5t-30.5 -103.5t-55.5 -84t-85 -72q-31 -23 -65.5 -48.5t-65.5 -60.5t-51.5 -79t-20.5 -101q0 -113 70 -170t186 -57q115 0 191 72.5t76 207.5h186 q0 -104 -36 -188t-97 -141.5t-143 -88t-177 -30.5q-96 0 -177 27.5t-139 78.5t-92 124t-34 165zM418 809q0 61 44 105t107 44t105.5 -44t42.5 -105t-42 -105.5t-106 -44.5q-63 0 -107 44.5t-44 105.5z" />
            <glyph unicode="&#xc0;" horiz-adv-x="1144" d="M10 0l494 1434h135l496 -1434h-197l-76 219h-581l-74 -219h-197zM309 1815l86 141l510 -281l-86 -141zM338 389h467l-232 739z" />
            <glyph unicode="&#xc1;" horiz-adv-x="1144" d="M10 0l494 1434h135l496 -1434h-197l-76 219h-581l-74 -219h-197zM276 1645l510 280l84 -139l-510 -281zM338 389h467l-232 739z" />
            <glyph unicode="&#xc2;" horiz-adv-x="1144" d="M10 0l494 1434h135l496 -1434h-197l-76 219h-581l-74 -219h-197zM209 1647l362 313l365 -313l-102 -115l-261 233l-260 -233zM338 389h467l-232 739z" />
            <glyph unicode="&#xc3;" horiz-adv-x="1144" d="M10 0l494 1434h135l496 -1434h-197l-76 219h-581l-74 -219h-197zM186 1706q47 86 114 123t134 37q51 0 90 -15.5t71 -35t59.5 -35t58.5 -15.5q47 0 76.5 30t50.5 71l131 -68q-49 -92 -119 -133t-137 -41q-53 0 -92 15.5t-71 35t-59.5 34.5t-58.5 15q-47 0 -74.5 -28.5 t-50.5 -71.5zM338 389h467l-232 739z" />
            <glyph unicode="&#xc4;" horiz-adv-x="1144" d="M10 0l494 1434h135l496 -1434h-197l-76 219h-581l-74 -219h-197zM197 1726q0 59 41 102.5t100 43.5t102 -43t43 -103q0 -59 -43 -100t-102 -41t-100 41t-41 100zM338 389h467l-232 739zM666 1726q0 59 42 102.5t101 43.5t101 -43t42 -103q0 -59 -42 -100t-101 -41 t-101 41t-42 100z" />
            <glyph unicode="&#xc5;" horiz-adv-x="1144" d="M10 0l494 1434h135l496 -1434h-197l-76 219h-581l-74 -219h-197zM322 1747q0 51 19 97t54 81t80 54.5t98 19.5q51 0 97.5 -20.5t81 -54.5t54 -80t19.5 -97t-19.5 -97t-54 -80t-80.5 -54.5t-98 -20.5q-53 0 -98 20.5t-80 54.5t-54 80t-19 97zM338 389h467l-232 739z M438 1747q0 -55 39 -94t96 -39t96.5 39t39.5 96q0 55 -39.5 95t-96.5 40q-59 0 -97 -40t-38 -97z" />
            <glyph unicode="&#xc6;" horiz-adv-x="1771" d="M4 0l707 1434h903v-168h-617v-469h617v-168h-617v-461h617v-168h-805v221h-494l-106 -221h-205zM395 389h414v856z" />
            <glyph unicode="&#xc7;" horiz-adv-x="1587" d="M84 719q0 145 50 280.5t144.5 238.5t228.5 165.5t302 62.5q156 0 276.5 -42t207.5 -113.5t140.5 -169t73.5 -209.5h-196q-16 78 -55 145.5t-100.5 116.5t-142.5 76.5t-182 27.5q-133 0 -236 -48t-174 -129t-109 -185.5t-38 -216.5q0 -119 39 -224.5t114 -185.5 t183.5 -127t247.5 -47q74 0 144.5 22.5t130 63.5t103.5 97.5t67 123.5h204q-27 -98 -84 -182t-140 -147.5t-189.5 -101.5t-229.5 -42h-16v-104q33 37 98 37q61 0 109.5 -44t48.5 -122q0 -35 -12.5 -68t-38 -59.5t-63.5 -42t-89 -15.5q-18 0 -49 6.5t-61.5 24t-55 49 t-33.5 82.5h109q16 -66 90 -65q41 0 67.5 24.5t26.5 63.5t-24.5 63.5t-63.5 24.5q-27 0 -48 -10.5t-36 -36.5h-92v196q-154 18 -273.5 85t-202.5 167.5t-127 227.5t-44 266z" />
            <glyph unicode="&#xc8;" horiz-adv-x="1114" d="M160 0v1434h805v-168h-619v-469h619v-168h-619v-461h619v-168h-805zM297 1788l84 139l510 -280l-84 -140z" />
            <glyph unicode="&#xc9;" horiz-adv-x="1114" d="M160 0v1434h805v-168h-619v-469h619v-168h-619v-461h619v-168h-805zM270 1675l510 281l86 -141l-510 -281z" />
            <glyph unicode="&#xca;" horiz-adv-x="1114" d="M160 0v1434h805v-168h-619v-469h619v-168h-619v-461h619v-168h-805zM209 1647l362 313l365 -313l-102 -115l-261 233l-258 -233z" />
            <glyph unicode="&#xcb;" horiz-adv-x="1114" d="M160 0v1434h805v-168h-619v-469h619v-168h-619v-461h619v-168h-805zM207 1726q0 59 42 102.5t101 43.5t101.5 -43t42.5 -103q0 -59 -42 -100t-102 -41q-59 0 -101 41t-42 100zM678 1726q0 59 41 102.5t100 43.5t102.5 -43t43.5 -103q0 -59 -43 -100t-103 -41 q-59 0 -100 41t-41 100z" />
            <glyph unicode="&#xcc;" horiz-adv-x="512" d="M-41 1786l86 139l510 -280l-86 -140zM160 0v1434h192v-1434h-192z" />
            <glyph unicode="&#xcd;" horiz-adv-x="512" d="M-41 1645l510 280l86 -139l-510 -281zM160 0v1434h192v-1434h-192z" />
            <glyph unicode="&#xce;" horiz-adv-x="512" d="M-106 1647l362 313l365 -313l-103 -115l-260 233l-260 -233zM160 0v1434h192v-1434h-192z" />
            <glyph unicode="&#xcf;" horiz-adv-x="512" d="M-115 1726q0 59 41 102.5t101 43.5q61 0 103 -43t42 -103q0 -59 -42 -100t-103 -41q-59 0 -100.5 41t-41.5 100zM160 0v1434h192v-1434h-192zM354 1726q0 59 42 102.5t102 43.5q59 0 101 -43t42 -103q0 -59 -42 -100t-101 -41t-101.5 41t-42.5 100z" />
            <glyph unicode="&#xd0;" horiz-adv-x="1427" d="M-78 651v135h238v648h442q176 0 314.5 -61.5t233.5 -162t145.5 -229.5t50.5 -264t-50.5 -264t-145.5 -229.5t-233.5 -162t-314.5 -61.5h-442v651h-238zM346 168h256q131 0 234.5 47t173 124t106.5 175t37 203q0 104 -37 202.5t-106.5 175t-173 124t-234.5 47.5h-256v-480 h246v-135h-246v-483z" />
            <glyph unicode="&#xd1;" horiz-adv-x="1357" d="M160 0v1434h207l645 -1108v1108h186v-1434h-207l-645 1108v-1108h-186zM279 1706q47 86 113.5 123t133.5 37q51 0 90 -15.5t71 -35t59.5 -35t58.5 -15.5q47 0 76.5 30t50.5 71l131 -68q-49 -92 -119 -133t-137 -41q-53 0 -92 15.5t-71 35t-59.5 34.5t-58.5 15 q-47 0 -74.5 -28.5t-50.5 -71.5z" />
            <glyph unicode="&#xd2;" horiz-adv-x="1644" d="M84 717q0 145 51 280.5t146.5 239.5t232.5 166.5t309 62.5t309.5 -62.5t232.5 -166.5t146.5 -239.5t51.5 -280.5t-51.5 -280.5t-146.5 -240t-232.5 -167t-309.5 -62.5t-309 62.5t-232.5 167t-146.5 239.5t-51 281zM279 717q0 -113 37.5 -217.5t108.5 -185.5t171 -130 t227 -49q125 0 226.5 49t171 130t107.5 185.5t38 217.5t-38 218t-107.5 186t-171 129t-226.5 48q-127 0 -227 -48t-171 -129t-108.5 -186.5t-37.5 -217.5zM496 1815l86 141l510 -281l-86 -141z" />
            <glyph unicode="&#xd3;" horiz-adv-x="1644" d="M84 717q0 145 51 280.5t146.5 239.5t232.5 166.5t309 62.5t309.5 -62.5t232.5 -166.5t146.5 -239.5t51.5 -280.5t-51.5 -280.5t-146.5 -240t-232.5 -167t-309.5 -62.5t-309 62.5t-232.5 167t-146.5 239.5t-51 281zM279 717q0 -113 37.5 -217.5t108.5 -185.5t171 -130 t227 -49q125 0 226.5 49t171 130t107.5 185.5t38 217.5t-38 218t-107.5 186t-171 129t-226.5 48q-127 0 -227 -48t-171 -129t-108.5 -186.5t-37.5 -217.5zM547 1675l510 281l86 -141l-510 -281z" />
            <glyph unicode="&#xd4;" horiz-adv-x="1644" d="M84 717q0 145 51 280.5t146.5 239.5t232.5 166.5t309 62.5t309.5 -62.5t232.5 -166.5t146.5 -239.5t51.5 -280.5t-51.5 -280.5t-146.5 -240t-232.5 -167t-309.5 -62.5t-309 62.5t-232.5 167t-146.5 239.5t-51 281zM279 717q0 -113 37.5 -217.5t108.5 -185.5t171 -130 t227 -49q125 0 226.5 49t171 130t107.5 185.5t38 217.5t-38 218t-107.5 186t-171 129t-226.5 48q-127 0 -227 -48t-171 -129t-108.5 -186.5t-37.5 -217.5zM461 1647l362 313l365 -313l-103 -115l-262 233l-258 -233z" />
            <glyph unicode="&#xd5;" horiz-adv-x="1644" d="M84 717q0 145 51 280.5t146.5 239.5t232.5 166.5t309 62.5t309.5 -62.5t232.5 -166.5t146.5 -239.5t51.5 -280.5t-51.5 -280.5t-146.5 -240t-232.5 -167t-309.5 -62.5t-309 62.5t-232.5 167t-146.5 239.5t-51 281zM279 717q0 -113 37.5 -217.5t108.5 -185.5t171 -130 t227 -49q125 0 226.5 49t171 130t107.5 185.5t38 217.5t-38 218t-107.5 186t-171 129t-226.5 48q-127 0 -227 -48t-171 -129t-108.5 -186.5t-37.5 -217.5zM442 1706q47 86 113 123t135 37q51 0 90 -15.5t71 -35t59.5 -35t58.5 -15.5q45 0 75.5 30t51.5 71l129 -68 q-47 -92 -117 -133t-137 -41q-53 0 -92 15.5t-71 35t-59.5 34.5t-58.5 15q-47 0 -74.5 -28.5t-50.5 -71.5z" />
            <glyph unicode="&#xd6;" horiz-adv-x="1644" d="M84 717q0 145 51 280.5t146.5 239.5t232.5 166.5t309 62.5t309.5 -62.5t232.5 -166.5t146.5 -239.5t51.5 -280.5t-51.5 -280.5t-146.5 -240t-232.5 -167t-309.5 -62.5t-309 62.5t-232.5 167t-146.5 239.5t-51 281zM279 717q0 -113 37.5 -217.5t108.5 -185.5t171 -130 t227 -49q125 0 226.5 49t171 130t107.5 185.5t38 217.5t-38 218t-107.5 186t-171 129t-226.5 48q-127 0 -227 -48t-171 -129t-108.5 -186t-37.5 -218zM444 1726q0 59 41 102.5t101 43.5q61 0 103 -43t42 -103q0 -59 -42 -100t-103 -41q-59 0 -100.5 41t-41.5 100zM913 1726 q0 59 42 102.5t102 43.5q59 0 101 -43t42 -103q0 -59 -42 -100t-101 -41t-101.5 41t-42.5 100z" />
            <glyph unicode="&#xd7;" horiz-adv-x="1177" d="M233 354l234 236l-227 229l112 113l230 -230l235 238l127 -125l-237 -237l231 -232l-115 -110l-229 229l-236 -236z" />
            <glyph unicode="&#xd8;" horiz-adv-x="1644" d="M84 717q0 145 51 280.5t146.5 239.5t232.5 166.5t309 62.5q59 0 114.5 -8t104.5 -24l72 163l125 -55l-68 -160q92 -47 165 -118.5t123 -158.5t77 -185.5t27 -202.5q0 -145 -51.5 -280.5t-146.5 -240t-232.5 -167t-309.5 -62.5q-135 0 -241 37l-76 -176l-127 55l76 176 q-90 49 -159 120t-116 157t-71.5 182t-24.5 199zM279 717q0 -147 64.5 -279.5t182.5 -212.5l451 1051q-74 23 -154 22q-127 0 -227 -48t-171 -129t-108.5 -186t-37.5 -218zM649 164q80 -29 174 -29q125 0 226.5 49t171 130t107.5 185.5t38 217.5q0 154 -69.5 289t-196.5 213 z" />
            <glyph unicode="&#xd9;" horiz-adv-x="1288" d="M145 465v969h187v-969q0 -68 22.5 -127t62.5 -104.5t97 -72t127 -26.5q72 0 130 26.5t99 72t63.5 104.5t22.5 127v969h187v-969q0 -102 -35 -192.5t-100.5 -158t-158.5 -107.5t-208 -40q-113 0 -204 40t-155.5 107.5t-100.5 157.5t-36 193zM369 1815l86 141l510 -281 l-86 -141z" />
            <glyph unicode="&#xda;" horiz-adv-x="1288" d="M145 465v969h187v-969q0 -68 22.5 -127t62.5 -104.5t97 -72t127 -26.5q72 0 130 26.5t99 72t63.5 104.5t22.5 127v969h187v-969q0 -102 -35 -192.5t-100.5 -158t-158.5 -107.5t-208 -40q-113 0 -204 40t-155.5 107.5t-100.5 157.5t-36 193zM309 1675l510 281l84 -141 l-510 -281z" />
            <glyph unicode="&#xdb;" horiz-adv-x="1288" d="M145 465v969h187v-969q0 -68 22.5 -127t62.5 -104.5t97 -72t127 -26.5q72 0 130 26.5t99 72t63.5 104.5t22.5 127v969h187v-969q0 -102 -35 -192.5t-100.5 -158t-158.5 -107.5t-208 -40q-113 0 -204 40t-155.5 107.5t-100.5 157.5t-36 193zM274 1647l363 315l364 -315 l-102 -115l-260 235l-260 -233z" />
            <glyph unicode="&#xdc;" horiz-adv-x="1288" d="M145 465v969h187v-969q0 -68 22.5 -127t62.5 -104.5t97 -72t127 -26.5q72 0 130 26.5t99 72t63.5 104.5t22.5 127v969h187v-969q0 -102 -35 -192.5t-100.5 -158t-158.5 -107.5t-208 -40q-113 0 -204 40t-155.5 107.5t-100.5 157.5t-36 193zM264 1726q0 59 41 102.5 t101 43.5q61 0 103 -43t42 -103q0 -59 -42 -100t-103 -41q-59 0 -100.5 41t-41.5 100zM733 1726q0 59 42 102.5t102 43.5q59 0 101 -43t42 -103q0 -59 -42 -100t-101 -41t-101.5 41t-42.5 100z" />
            <glyph unicode="&#xdd;" horiz-adv-x="1210" d="M20 1434h218l419 -670l338 670h205l-721 -1434h-205l287 569zM379 1679l510 281l84 -141l-510 -281z" />
            <glyph unicode="&#xde;" horiz-adv-x="1024" d="M160 0v1434h168v-271h159q113 0 201 -38t148.5 -101t92.5 -146t32 -171t-32 -170t-92.5 -145.5t-148.5 -101.5t-201 -38h-159v-252h-168zM328 401h159q72 0 129.5 26t96.5 68t59.5 97t20.5 115q0 59 -20.5 114.5t-59.5 98.5t-96.5 68.5t-129.5 25.5h-159v-613z" />
            <glyph unicode="&#xdf;" horiz-adv-x="1150" d="M145 0v1030q0 94 32 173t89.5 136.5t137 88t178.5 30.5q92 0 173 -27.5t141 -79t95 -122t35 -158.5q0 -129 -64.5 -210t-175.5 -113q117 -35 196 -126.5t79 -218.5q0 -109 -40 -188.5t-105.5 -132.5t-150.5 -80t-175 -27q-49 0 -93 7.5t-69 17.5v156q39 -10 84 -15.5 t78 -5.5q57 0 110.5 16.5t93.5 50.5t64.5 84t24.5 117q0 43 -17.5 90.5t-54.5 86t-93 63.5t-132 25h-88v159h82q70 0 121 19.5t83.5 52.5t48 78t15.5 94q0 104 -76 166.5t-190 62.5q-117 0 -188.5 -74.5t-71.5 -195.5v-1030h-177z" />
            <glyph unicode="&#xe0;" horiz-adv-x="1222" d="M84 465q0 98 35 187t97.5 157t150.5 106.5t194 38.5q102 0 191.5 -49t134.5 -135v160h176v-930h-176v162q-45 -86 -134 -135.5t-192 -49.5q-106 0 -194 39t-150.5 106.5t-97.5 156t-35 186.5zM260 465q0 -68 22.5 -127t62.5 -103.5t97 -71t129 -26.5t130.5 26.5t99.5 71 t63.5 103.5t22.5 127t-22.5 127t-63.5 104t-99.5 72t-130.5 27t-129 -27t-97 -72t-62.5 -104.5t-22.5 -126.5zM270 1311l86 139l510 -281l-86 -139z" />
            <glyph unicode="&#xe1;" horiz-adv-x="1222" d="M84 465q0 98 35 187t97.5 157t150.5 106.5t194 38.5q102 0 191.5 -49t134.5 -135v160h176v-930h-176v162q-45 -86 -134 -135.5t-192 -49.5q-106 0 -194 39t-150.5 106.5t-97.5 156t-35 186.5zM260 465q0 -68 22.5 -127t62.5 -103.5t97 -71t129 -26.5t130.5 26.5t99.5 71 t63.5 103.5t22.5 127t-22.5 127t-63.5 104t-99.5 72t-130.5 27t-129 -27t-97 -72t-62.5 -104.5t-22.5 -126.5zM281 1169l510 281l86 -139l-510 -281z" />
            <glyph unicode="&#xe2;" horiz-adv-x="1222" d="M84 465q0 98 35 187t97.5 157t150.5 106.5t194 38.5q102 0 191.5 -49t134.5 -135v160h176v-930h-176v162q-45 -86 -134 -135.5t-192 -49.5q-106 0 -194 39t-150.5 106.5t-97.5 156t-35 186.5zM215 1198l363 315l364 -315l-102 -115l-260 236l-261 -234zM260 465 q0 -68 22.5 -127t62.5 -103.5t97 -71t129 -26.5t130.5 26.5t99.5 71t63.5 103.5t22.5 127t-22.5 127t-63.5 104t-99.5 72t-130.5 27t-129 -27t-97 -72t-62.5 -104.5t-22.5 -126.5z" />
            <glyph unicode="&#xe3;" horiz-adv-x="1222" d="M84 465q0 98 35 187t97.5 157t150.5 106.5t194 38.5q102 0 191.5 -49t134.5 -135v160h176v-930h-176v162q-45 -86 -134 -135.5t-192 -49.5q-106 0 -194 39t-150.5 106.5t-97.5 156t-35 186.5zM223 1253q47 86 113.5 122t134.5 36q51 0 90 -15.5t71 -35t59.5 -34.5 t58.5 -15q47 0 76.5 29.5t50.5 70.5l131 -68q-49 -92 -119 -132t-137 -40q-53 0 -92 15.5t-71 35t-59.5 35t-58.5 15.5q-47 0 -74.5 -30t-50.5 -71zM260 465q0 -68 22.5 -127t62.5 -103.5t97 -71t129 -26.5t130.5 26.5t99.5 71t63.5 103.5t22.5 127t-22.5 127t-63.5 104 t-99.5 72t-130.5 27t-129 -27t-97 -72t-62.5 -104.5t-22.5 -126.5z" />
            <glyph unicode="&#xe4;" horiz-adv-x="1222" d="M84 465q0 98 35 187t97.5 157t150.5 106.5t194 38.5q102 0 191.5 -49t134.5 -135v160h176v-930h-176v162q-45 -86 -134 -135.5t-192 -49.5q-106 0 -194 39t-150.5 106.5t-97.5 156t-35 186.5zM190 1249q0 59 42 101.5t102 42.5q59 0 101 -42t42 -102q0 -59 -42 -101 t-101 -42t-101.5 42t-42.5 101zM260 465q0 -68 22.5 -127t62.5 -103.5t97 -71t129 -26.5t130.5 26.5t99.5 71t63.5 103.5t22.5 127t-22.5 127t-63.5 104t-99.5 72t-130.5 27t-129 -27t-97 -72t-62.5 -104.5t-22.5 -126.5zM662 1249q0 59 40.5 101.5t100.5 42.5q61 0 103 -42 t42 -102q0 -59 -42 -101t-103 -42q-59 0 -100 42t-41 101z" />
            <glyph unicode="&#xe5;" horiz-adv-x="1222" d="M84 465q0 98 35 187t97.5 157t150.5 106.5t194 38.5q102 0 191.5 -49t134.5 -135v160h176v-930h-176v162q-45 -86 -134 -135.5t-192 -49.5q-106 0 -194 39t-150.5 106.5t-97.5 156t-35 186.5zM260 465q0 -68 22.5 -127t62.5 -103.5t97 -71t129 -26.5t130.5 26.5t99.5 71 t63.5 103.5t22.5 127t-22.5 127t-63.5 104t-99.5 72t-130.5 27t-129 -27t-97 -72t-62.5 -104.5t-22.5 -126.5zM309 1292q0 55 20.5 102.5t55.5 82t83 55t101 20.5q55 0 102.5 -20.5t83.5 -56t56 -82.5t20 -101q0 -53 -20 -100t-56 -83t-83 -56.5t-103 -20.5q-53 0 -101 20.5 t-83 56.5t-55.5 83t-20.5 100zM424 1292q0 -59 42 -103t103 -44q63 0 105.5 44t42.5 105t-42.5 105.5t-105.5 44.5q-61 0 -103 -45t-42 -107z" />
            <glyph unicode="&#xe6;" horiz-adv-x="1871" d="M84 465q0 98 35 187t97.5 157t150.5 106.5t194 38.5q102 0 191.5 -49t134.5 -135v160h176v-82q51 49 120.5 77.5t159.5 28.5t169 -31.5t137.5 -89t92.5 -134t34 -164.5q0 -20 -1 -49t-8 -68h-700q0 -61 17.5 -114.5t51 -92.5t87 -61.5t127.5 -22.5q104 0 158.5 44 t76.5 103h180q-12 -59 -45.5 -112t-87 -94t-124 -66t-158.5 -25q-94 0 -166 30t-121 77v-84h-176v162q-45 -86 -134 -135.5t-192 -49.5q-106 0 -194 39t-150.5 106.5t-97.5 156t-35 186.5zM260 465q0 -68 22.5 -127t62.5 -103.5t97 -71t129 -26.5t130.5 26.5t99.5 71 t63.5 103.5t22.5 127t-22.5 128t-64.5 105t-100.5 71t-128.5 26q-72 0 -129 -27t-97 -72t-62.5 -104.5t-22.5 -126.5zM1069 553h533q0 113 -75 181.5t-188 68.5q-117 0 -191.5 -65.5t-78.5 -184.5z" />
            <glyph unicode="&#xe7;" horiz-adv-x="1083" d="M88 465q0 94 29.5 182t88 156.5t145.5 109.5t200 41t193.5 -31.5t133 -81.5t80 -116t33.5 -133h-178q-10 86 -68.5 144.5t-189.5 58.5q-72 0 -126 -27t-90 -73t-54.5 -105.5t-18.5 -124.5q0 -66 17.5 -125t54.5 -104.5t93 -72t134 -26.5q117 0 172.5 49.5t77.5 132.5h178 q-23 -139 -122 -235t-287 -107q-8 0 -13 3v-115q31 37 99 37q61 0 108 -44t47 -122q0 -35 -12 -68t-37.5 -59.5t-63.5 -42t-89 -15.5q-18 0 -48 6.5t-61 24t-56.5 49t-33.5 82.5h108q20 -66 91 -65q43 0 68.5 24.5t25.5 63.5t-24.5 63.5t-63.5 24.5q-25 0 -46.5 -10.5 t-35.5 -36.5h-94v209q-90 18 -158 63t-114 109.5t-69.5 143.5t-23.5 163z" />
            <glyph unicode="&#xe8;" horiz-adv-x="1075" d="M88 465q0 104 31 194.5t89 156t143 102t196 36.5q90 0 169 -31.5t137 -89t91 -134t33 -164.5q0 -20 -1 -49t-7 -68h-705q2 -59 19.5 -111.5t51.5 -92.5t87 -63.5t131 -23.5q104 0 158.5 44t76.5 103h181q-12 -59 -45 -112t-86.5 -94t-125 -66t-159.5 -25q-117 0 -205 39 t-145.5 104.5t-86 155t-28.5 189.5zM266 553h539q0 123 -74.5 193.5t-187.5 70.5q-121 0 -197 -68.5t-80 -195.5zM287 1311l84 139l510 -281l-84 -139z" />
            <glyph unicode="&#xe9;" horiz-adv-x="1075" d="M88 465q0 104 31 194.5t89 156t143 102t196 36.5q90 0 169 -31.5t137 -89t91 -134t33 -164.5q0 -20 -1 -49t-7 -68h-705q2 -59 19.5 -111.5t51.5 -92.5t87 -63.5t131 -23.5q104 0 158.5 44t76.5 103h181q-12 -59 -45 -112t-86.5 -94t-125 -66t-159.5 -25q-117 0 -205 39 t-145.5 104.5t-86 155t-28.5 189.5zM231 1169l510 281l84 -139l-510 -281zM266 553h539q0 123 -74.5 193.5t-187.5 70.5q-121 0 -197 -68.5t-80 -195.5z" />
            <glyph unicode="&#xea;" horiz-adv-x="1075" d="M88 465q0 104 31 194.5t89 156t143 102t196 36.5q90 0 169 -31.5t137 -89t91 -134t33 -164.5q0 -20 -1 -49t-7 -68h-705q2 -59 19.5 -111.5t51.5 -92.5t87 -63.5t131 -23.5q104 0 158.5 44t76.5 103h181q-12 -59 -45 -112t-86.5 -94t-125 -66t-159.5 -25q-117 0 -205 39 t-145.5 104.5t-86 155t-28.5 189.5zM182 1198l363 315l364 -315l-102 -115l-260 236l-260 -234zM266 553h539q0 123 -74.5 193.5t-187.5 70.5q-121 0 -197 -68.5t-80 -195.5z" />
            <glyph unicode="&#xeb;" horiz-adv-x="1075" d="M88 465q0 104 31 194.5t89 156t143 102t196 36.5q90 0 169 -31.5t137 -89t91 -134t33 -164.5q0 -20 -1 -49t-7 -68h-705q2 -59 19.5 -111.5t51.5 -92.5t87 -63.5t131 -23.5q104 0 158.5 44t76.5 103h181q-12 -59 -45 -112t-86.5 -94t-125 -66t-159.5 -25q-117 0 -205 39 t-145.5 104.5t-86 155t-28.5 189.5zM166 1247q0 61 41 103.5t100 42.5t102.5 -42t43.5 -104q0 -59 -43 -100t-103 -41q-59 0 -100 41t-41 100zM266 553h539q0 123 -74.5 193.5t-187.5 70.5q-121 0 -197 -68.5t-80 -195.5zM635 1247q0 61 42 103.5t101 42.5t101.5 -42 t42.5 -104q0 -59 -42 -100t-102 -41q-59 0 -101 41t-42 100z" />
            <glyph unicode="&#xec;" horiz-adv-x="497" d="M-49 1341l86 140l510 -281l-86 -139zM160 0v930h178v-930h-178z" />
            <glyph unicode="&#xed;" horiz-adv-x="497" d="M-49 1200l512 281l84 -140l-510 -280zM160 0v930h178v-930h-178z" />
            <glyph unicode="&#xee;" horiz-adv-x="497" d="M-115 1198l363 315l364 -315l-102 -115l-260 236l-260 -234zM160 0v930h178v-930h-178z" />
            <glyph unicode="&#xef;" horiz-adv-x="497" d="M-82 1249q0 59 42 101.5t101 42.5t101.5 -42t42.5 -102q0 -59 -42 -101t-102 -42q-59 0 -101 42t-42 101zM160 0v930h178v-930h-178zM328 1249q0 59 41 101.5t100 42.5q61 0 103 -42t42 -102q0 -59 -42 -101t-103 -42q-59 0 -100 42t-41 101z" />
            <glyph unicode="&#xf0;" d="M90 465q0 98 35 187t98.5 157t154.5 106.5t202 38.5q18 0 42.5 -6t34.5 -18l-108 178l-225 -125l-62 109l219 118l-137 224h215l80 -136l174 97l59 -107l-167 -94l266 -426q45 -72 71.5 -144.5t26.5 -158.5q0 -98 -35 -186.5t-98.5 -156t-154 -106.5t-201.5 -39t-202 39 t-154.5 106.5t-98.5 156t-35 186.5zM266 465q0 -68 22.5 -127t63.5 -103.5t98.5 -71t129.5 -26.5t129 26.5t98 71t63.5 103.5t22.5 127t-22.5 127t-63.5 104t-98.5 72t-128.5 27q-72 0 -129.5 -27t-98.5 -72t-63.5 -104.5t-22.5 -126.5z" />
            <glyph unicode="&#xf1;" d="M160 0v930h178v-164q41 86 125 137t203 51q98 0 167.5 -31.5t110.5 -91.5q39 -53 55.5 -118.5t16.5 -163.5v-549h-178v494q0 63 -12.5 119.5t-40 96.5t-72.5 63.5t-111 23.5q-68 0 -117 -27t-81.5 -71t-49 -101t-16.5 -119v-479h-178zM205 1253q47 86 113.5 122t134.5 36 q51 0 90 -15.5t70.5 -35t59 -34.5t58.5 -15q47 0 77 29.5t50 70.5l131 -68q-49 -92 -118.5 -132t-137.5 -40q-53 0 -92 15.5t-70.5 35t-59.5 35t-58 15.5q-47 0 -75 -30t-50 -71z" />
            <glyph unicode="&#xf2;" horiz-adv-x="1146" d="M84 465q0 98 35 187t98.5 157t153.5 106.5t200 38.5q113 0 203 -38.5t154.5 -106.5t99.5 -157t35 -187t-35 -186.5t-99.5 -156t-154.5 -106.5t-203 -39q-111 0 -200.5 39t-153 106.5t-98.5 156t-35 186.5zM260 465q0 -68 22.5 -127t62.5 -103.5t97 -71t129 -26.5 t130.5 26.5t99.5 71t63.5 103.5t22.5 127t-22.5 127t-63.5 104t-99.5 72t-130.5 27t-129 -27t-97 -72t-62.5 -104.5t-22.5 -126.5zM291 1311l84 139l510 -281l-84 -139z" />
            <glyph unicode="&#xf3;" horiz-adv-x="1146" d="M84 465q0 98 35 187t98.5 157t153.5 106.5t200 38.5q113 0 203 -38.5t154.5 -106.5t99.5 -157t35 -187t-35 -186.5t-99.5 -156t-154.5 -106.5t-203 -39q-111 0 -200.5 39t-153 106.5t-98.5 156t-35 186.5zM231 1169l510 281l84 -139l-510 -281zM260 465q0 -68 22.5 -127 t62.5 -103.5t97 -71t129 -26.5t130.5 26.5t99.5 71t63.5 103.5t22.5 127t-22.5 127t-63.5 104t-99.5 72t-130.5 27t-129 -27t-97 -72t-62.5 -104.5t-22.5 -126.5z" />
            <glyph unicode="&#xf4;" horiz-adv-x="1146" d="M84 465q0 98 35 187t98.5 157t153.5 106.5t200 38.5q113 0 203 -38.5t154.5 -106.5t99.5 -157t35 -187t-35 -186.5t-99.5 -156t-154.5 -106.5t-203 -39q-111 0 -200.5 39t-153 106.5t-98.5 156t-35 186.5zM209 1200l360 313l367 -313l-105 -117l-260 236l-258 -234z M260 465q0 -68 22.5 -127t62.5 -103.5t97 -71t129 -26.5t130.5 26.5t99.5 71t63.5 103.5t22.5 127t-22.5 127t-63.5 104t-99.5 72t-130.5 27t-129 -27t-97 -72t-62.5 -104.5t-22.5 -126.5z" />
            <glyph unicode="&#xf5;" horiz-adv-x="1146" d="M84 465q0 98 35 187t98.5 157t153.5 106.5t200 38.5q113 0 203 -38.5t154.5 -106.5t99.5 -157t35 -187t-35 -186.5t-99.5 -156t-154.5 -106.5t-203 -39q-111 0 -200.5 39t-153 106.5t-98.5 156t-35 186.5zM180 1253q47 86 113.5 122t134.5 36q51 0 90 -15.5t71 -35 t59.5 -34.5t58.5 -15q47 0 76.5 29.5t50.5 70.5l131 -68q-49 -92 -119 -132t-137 -40q-53 0 -92 15.5t-71 35t-59.5 35t-58.5 15.5q-47 0 -74.5 -30t-50.5 -71zM260 465q0 -68 22.5 -127t62.5 -103.5t97 -71t129 -26.5t130.5 26.5t99.5 71t63.5 103.5t22.5 127t-22.5 127 t-63.5 104t-99.5 72t-130.5 27t-129 -27t-97 -72t-62.5 -104.5t-22.5 -126.5z" />
            <glyph unicode="&#xf6;" horiz-adv-x="1146" d="M84 465q0 98 35 187t98.5 157t153.5 106.5t200 38.5q113 0 203 -38.5t154.5 -106.5t99.5 -157t35 -187t-35 -186.5t-99.5 -156t-154.5 -106.5t-203 -39q-111 0 -200.5 39t-153 106.5t-98.5 156t-35 186.5zM195 1249q0 59 42 101.5t101 42.5t101 -42t42 -102 q0 -59 -42 -101t-101 -42t-101 42t-42 101zM260 465q0 -68 22.5 -127t62.5 -103.5t97 -71t129 -26.5t130.5 26.5t99.5 71t63.5 103.5t22.5 127t-22.5 127t-63.5 104t-99.5 72t-130.5 27t-129 -27t-97 -72t-62.5 -104.5t-22.5 -126.5zM666 1249q0 59 41 101.5t100 42.5 t102 -42t43 -102q0 -59 -43 -101t-102 -42t-100 42t-41 101z" />
            <glyph unicode="&#xf7;" horiz-adv-x="1177" d="M176 401v158h828v-158h-828zM446 174q0 25 11.5 50.5t31 46t45 33.5t56.5 13t56.5 -13t45 -33.5t30.5 -46t11 -50.5q0 -59 -42 -101t-101 -42t-101.5 42t-42.5 101zM446 805q0 59 42 101t102 42q59 0 101 -42t42 -101t-42 -101t-101 -42t-101.5 42t-42.5 101z" />
            <glyph unicode="&#xf8;" horiz-adv-x="1146" d="M84 465q0 98 35 187t98.5 157t153.5 106.5t200 38.5q35 0 66 -5t61 -11l64 145l110 -45l-61 -141q119 -63 185.5 -178t66.5 -254q0 -98 -35 -186.5t-99.5 -156t-154.5 -106.5t-203 -39q-41 0 -77.5 5.5t-71.5 17.5l-66 -154l-110 45l65 156q-109 66 -168 176.5t-59 241.5 zM260 465q0 -78 32 -146.5t87 -115.5l254 583q-16 4 -30.5 6.5t-31.5 2.5q-72 0 -129 -27t-97 -72t-62.5 -104t-22.5 -127zM487 147q20 -6 40.5 -8t43.5 -2q72 0 130.5 26.5t99.5 71t63.5 103.5t22.5 127q0 86 -38 158.5t-106 117.5z" />
            <glyph unicode="&#xf9;" d="M141 381v549h178v-492q0 -66 12.5 -121t40 -95t71.5 -63.5t110 -23.5q68 0 118 25.5t82.5 69.5t49 101.5t16.5 121.5v477h178v-930h-178v166q-41 -86 -126 -137.5t-201 -51.5q-98 0 -169 32t-112 89q-39 53 -54.5 119t-15.5 164zM283 1311l86 139l510 -281l-86 -139z" />
            <glyph unicode="&#xfa;" d="M141 381v549h178v-492q0 -66 12.5 -121t40 -95t71.5 -63.5t110 -23.5q68 0 118 25.5t82.5 69.5t49 101.5t16.5 121.5v477h178v-930h-178v166q-41 -86 -126 -137.5t-201 -51.5q-98 0 -169 32t-112 89q-39 53 -54.5 119t-15.5 164zM274 1169l510 281l84 -139l-510 -281z " />
            <glyph unicode="&#xfb;" d="M141 381v549h178v-492q0 -66 12.5 -121t40 -95t71.5 -63.5t110 -23.5q68 0 118 25.5t82.5 69.5t49 101.5t16.5 121.5v477h178v-930h-178v166q-41 -86 -126 -137.5t-201 -51.5q-98 0 -169 32t-112 89q-39 53 -54.5 119t-15.5 164zM219 1198l363 315l364 -315l-102 -115 l-260 236l-260 -234z" />
            <glyph unicode="&#xfc;" d="M141 381v549h178v-492q0 -66 12.5 -121t40 -95t71.5 -63.5t110 -23.5q68 0 118 25.5t82.5 69.5t49 101.5t16.5 121.5v477h178v-930h-178v166q-41 -86 -126 -137.5t-201 -51.5q-98 0 -169 32t-112 89q-39 53 -54.5 119t-15.5 164zM193 1249q0 59 41.5 101.5t101.5 42.5 q59 0 101 -42t42 -102q0 -59 -42 -101t-101 -42t-101 42t-42 101zM664 1249q0 59 40.5 101.5t100.5 42.5q59 0 102 -42t43 -102q0 -59 -43 -101t-102 -42t-100 42t-41 101z" />
            <glyph unicode="&#xfd;" horiz-adv-x="1173" d="M143 -121h181q8 -127 74.5 -189.5t183.5 -62.5q59 0 107 13.5t82 45t52.5 85t18.5 133.5v262q-41 -86 -124 -137.5t-202 -51.5q-102 0 -171 31t-112 88q-39 53 -54 120t-15 171v543h178v-488q0 -68 11.5 -124t39 -97t72.5 -63.5t115 -22.5q68 0 116.5 25.5t80.5 69.5 t48.5 101.5t16.5 121.5v477h178v-1026q0 -223 -112.5 -325.5t-329.5 -102.5q-199 0 -315 100t-120 303zM295 1169l510 281l86 -139l-510 -281z" />
            <glyph unicode="&#xfe;" horiz-adv-x="1216" d="M160 -504v1938h178v-664q45 86 133 135t191 49q106 0 195 -38.5t151.5 -106.5t97.5 -157t35 -187t-35 -186.5t-97.5 -156t-151.5 -106.5t-195 -39q-102 0 -190.5 49.5t-133.5 135.5v-666h-178zM338 465q0 -68 22.5 -127t63.5 -103.5t99 -71t130 -26.5q70 0 127.5 26.5 t97.5 71t62.5 103.5t22.5 127t-22.5 127t-62.5 104t-97.5 72t-127.5 27q-72 0 -130 -27t-99 -72t-63.5 -104.5t-22.5 -126.5z" />
            <glyph unicode="&#xff;" horiz-adv-x="1173" d="M143 -121h181q8 -127 74.5 -189.5t183.5 -62.5q59 0 107 13.5t82 45t52.5 85t18.5 133.5v262q-41 -86 -124 -137.5t-202 -51.5q-102 0 -171 31t-112 88q-39 53 -54 120t-15 171v543h178v-488q0 -68 11.5 -124t39 -97t72.5 -63.5t115 -22.5q68 0 116.5 25.5t80.5 69.5 t48.5 101.5t16.5 121.5v477h178v-1026q0 -223 -112.5 -325.5t-329.5 -102.5q-199 0 -315 100t-120 303zM233 1247q0 59 40 99t98 40q57 0 97 -39.5t40 -99.5q0 -57 -40 -96t-97 -39t-97.5 39t-40.5 96zM705 1247q0 59 38.5 99t96.5 40q59 0 99 -39.5t40 -99.5q0 -57 -40 -96 t-99 -39q-57 0 -96 39t-39 96z" />
            <glyph unicode="&#x152;" horiz-adv-x="2320" d="M84 715q0 145 51 280t146.5 239.5t232.5 167t309 62.5q182 0 319.5 -72.5t225.5 -189.5v232h803v-168h-617v-469h617v-168h-617v-461h617v-168h-803v225q-88 -117 -225 -189.5t-320 -72.5q-172 0 -309 62.5t-232.5 167t-146.5 240.5t-51 282zM279 715q0 -113 37.5 -218.5 t108.5 -186.5t171 -129t227 -48q125 0 226.5 48t171 129t107.5 186.5t38 218.5t-38 217t-107.5 185t-171 129t-226.5 48q-127 0 -227 -48t-171 -129t-108.5 -185.5t-37.5 -216.5z" />
            <glyph unicode="&#x153;" horiz-adv-x="1871" d="M84 465q0 98 35 187t98.5 157t153.5 106.5t200 38.5q133 0 233.5 -55t162.5 -147q53 92 148 147t228 55q90 0 169 -31.5t137.5 -89t92.5 -134t34 -164.5q0 -20 -1 -49t-8 -68h-700q0 -61 17.5 -113.5t51 -92.5t87 -62.5t127.5 -22.5q104 0 158.5 44t76.5 103h180 q-12 -59 -45.5 -112t-87 -94t-124 -66t-158.5 -25q-137 0 -232.5 56.5t-148.5 146.5q-59 -92 -160.5 -147.5t-237.5 -55.5q-111 0 -200.5 39t-153 106.5t-98.5 156t-35 186.5zM260 465q0 -68 22.5 -127t62.5 -103.5t97 -71t129 -26.5q70 0 128.5 25.5t100.5 69.5t64.5 103.5 t22.5 129.5q0 68 -22.5 128t-64.5 105t-100.5 71t-128.5 26q-72 0 -129 -27t-97 -72t-62.5 -104.5t-22.5 -126.5zM1069 553h533q0 115 -75 182.5t-188 67.5q-117 0 -191.5 -65.5t-78.5 -184.5z" />
            <glyph unicode="&#x178;" horiz-adv-x="1210" d="M20 1434h218l419 -670l338 670h205l-721 -1434h-205l287 569zM276 1726q0 59 39 99.5t97 40.5q59 0 99 -40t40 -100q0 -57 -40 -96t-99 -39q-57 0 -96.5 39t-39.5 96zM745 1726q0 59 40 99.5t98 40.5q59 0 98 -40t39 -100q0 -57 -39 -96t-98 -39q-57 0 -97.5 39t-40.5 96 z" />
            <glyph unicode="&#x2c6;" horiz-adv-x="960" d="M106 1427l369 297l369 -297l-111 -124l-258 206l-256 -204z" />
            <glyph unicode="&#x2dc;" horiz-adv-x="1019" d="M152 1356q45 29 78.5 45t58 23.5t42 8.5t31.5 1q20 0 61.5 -8.5t85.5 -19.5t83 -19.5t59 -8.5q16 0 30.5 2t32 8.5t41 16.5t60.5 29l70 -115q-78 -59 -131.5 -71.5t-81.5 -12.5q-27 0 -66 8t-81 18.5t-79.5 18.5t-62.5 8q-37 0 -72 -12t-82 -37z" />
            <glyph unicode="&#x2000;" horiz-adv-x="999" />
            <glyph unicode="&#x2001;" horiz-adv-x="1999" />
            <glyph unicode="&#x2002;" horiz-adv-x="999" />
            <glyph unicode="&#x2003;" horiz-adv-x="1999" />
            <glyph unicode="&#x2004;" horiz-adv-x="666" />
            <glyph unicode="&#x2005;" horiz-adv-x="499" />
            <glyph unicode="&#x2006;" horiz-adv-x="333" />
            <glyph unicode="&#x2007;" horiz-adv-x="333" />
            <glyph unicode="&#x2008;" horiz-adv-x="249" />
            <glyph unicode="&#x2009;" horiz-adv-x="399" />
            <glyph unicode="&#x200a;" horiz-adv-x="111" />
            <glyph unicode="&#x2010;" horiz-adv-x="602" d="M61 504v160h480v-160h-480z" />
            <glyph unicode="&#x2011;" horiz-adv-x="602" d="M61 504v160h480v-160h-480z" />
            <glyph unicode="&#x2012;" horiz-adv-x="602" d="M61 504v160h480v-160h-480z" />
            <glyph unicode="&#x2013;" horiz-adv-x="1030" d="M102 504v160h826v-160h-826z" />
            <glyph unicode="&#x2014;" horiz-adv-x="2060" d="M102 504v160h1856v-160h-1856z" />
            <glyph unicode="&#x2018;" horiz-adv-x="550" d="M123 1221q0 162 78 227t217 68v-86q-109 0 -142 -62q-16 -23 -23 -45.5t-7 -40.5q6 6 19.5 10t25.5 4q63 0 100 -39t37 -96q0 -59 -40 -99t-99 -40q-76 0 -121 55.5t-45 143.5z" />
            <glyph unicode="&#x2019;" horiz-adv-x="550" d="M123 1376q0 57 40 98.5t101 41.5q76 0 120 -55.5t44 -145.5q0 -162 -78 -227.5t-215 -65.5v84q53 0 89 17.5t52 45.5q16 25 22.5 45.5t6.5 40.5q-4 -6 -17.5 -10t-27.5 -4q-61 0 -99 39t-38 96z" />
            <glyph unicode="&#x201a;" horiz-adv-x="550" d="M123 113q0 59 40 100t101 41q76 0 120 -56.5t44 -144.5q0 -162 -78 -227.5t-215 -67.5v86q106 0 141 62q16 23 22.5 45t6.5 41q-4 -6 -17.5 -10.5t-27.5 -4.5q-61 0 -99 39.5t-38 96.5z" />
            <glyph unicode="&#x201c;" horiz-adv-x="909" d="M123 1221q0 162 78 227t217 68v-86q-109 0 -142 -62q-16 -23 -23 -45.5t-7 -40.5q6 6 19.5 10t25.5 4q63 0 100 -39t37 -96q0 -59 -40 -99t-99 -40q-76 0 -121 55.5t-45 143.5zM481 1221q0 162 78 227t215 68v-86q-106 0 -141 -62q-16 -23 -22.5 -45.5t-6.5 -40.5 q4 6 17.5 10t27.5 4q61 0 99 -39t38 -96q0 -59 -39.5 -99t-101.5 -40q-76 0 -120 55.5t-44 143.5z" />
            <glyph unicode="&#x201d;" horiz-adv-x="909" d="M123 1376q0 57 40 98.5t101 41.5q76 0 120 -55.5t44 -145.5q0 -162 -78 -227.5t-215 -65.5v84q53 0 89 17.5t52 45.5q16 25 22.5 45.5t6.5 40.5q-4 -6 -17.5 -10t-27.5 -4q-61 0 -99 39t-38 96zM481 1376q0 57 40 98.5t100 41.5q76 0 120.5 -55.5t44.5 -145.5 q0 -162 -77.5 -227.5t-216.5 -65.5v84q109 0 141 63q31 45 31 86q-6 -6 -19.5 -10t-26.5 -4q-63 0 -100 39t-37 96z" />
            <glyph unicode="&#x201e;" horiz-adv-x="909" d="M123 113q0 59 40 100t101 41q76 0 120 -56.5t44 -144.5q0 -162 -78 -227.5t-215 -67.5v86q106 0 141 62q16 23 22.5 45t6.5 41q-4 -6 -17.5 -10.5t-27.5 -4.5q-61 0 -99 39.5t-38 96.5zM481 113q0 59 40 100t100 41q76 0 120.5 -56.5t44.5 -144.5q0 -162 -77.5 -227.5 t-216.5 -67.5v86q109 0 141 62q16 23 23.5 45t7.5 41q-6 -6 -19.5 -10.5t-26.5 -4.5q-63 0 -100 39.5t-37 96.5z" />
            <glyph unicode="&#x2022;" horiz-adv-x="712" d="M119 639q0 49 18.5 93t51 77t75.5 51.5t92 18.5t93.5 -18.5t77 -51.5t51 -77t18.5 -93t-18.5 -92t-51 -76t-76.5 -51.5t-94 -18.5q-49 0 -92 18.5t-75.5 51.5t-51 76t-18.5 92z" />
            <glyph unicode="&#x2026;" horiz-adv-x="1923" d="M119 131q0 61 41 103t100 42t102.5 -41.5t43.5 -103.5q0 -59 -43.5 -100t-102.5 -41t-100 41t-41 100zM819 131q0 59 41 101t101 42q59 0 102 -42t43 -101t-43 -101t-102 -42t-100.5 42t-41.5 101zM1520 129q0 59 41 101t100 42t102 -42t43 -101t-43 -101t-102 -42 t-100 42t-41 101z" />
            <glyph unicode="&#x202f;" horiz-adv-x="399" />
            <glyph unicode="&#x2039;" horiz-adv-x="565" d="M82 543v108l401 342v-176l-258 -221l258 -221v-174z" />
            <glyph unicode="&#x203a;" horiz-adv-x="565" d="M82 201v174l258 221l-258 221v176l401 -342v-108z" />
            <glyph unicode="&#x205f;" horiz-adv-x="499" />
            <glyph unicode="&#x20ac;" horiz-adv-x="1214" d="M25 487l32 138h97v182h-127l34 135h93v23q0 98 34.5 187t98 156.5t153.5 107.5t201 40q106 0 194.5 -36t152 -96t101 -142t44.5 -174h-189q-6 57 -29.5 108t-62.5 89t-93 59.5t-118 21.5q-68 0 -124 -25.5t-95 -69.5t-60.5 -102.5t-21.5 -123.5v-23h469l-35 -135h-434 v-182h465l-33 -138h-432v-20q0 -66 21.5 -124t60.5 -102t95 -70t124 -26q70 0 127 26t97 70t61.5 102t21.5 124h187q0 -98 -35 -187.5t-99.5 -157t-155.5 -106.5t-204 -39q-111 0 -201 39t-153.5 106.5t-98 157t-34.5 187.5v20h-129z" />
            <glyph unicode="&#x2122;" horiz-adv-x="1660" d="M82 1313v121h541v-121h-205v-713h-133v713h-203zM758 600v834h219l207 -603l207 603h219v-834h-133v684l-234 -684h-119l-233 684v-684h-133z" />
            <glyph unicode="&#x25fc;" horiz-adv-x="931" d="M0 0v932h932v-932h-932z" />
            </font>
</defs>
</svg>
