<?xml version="1.0" standalone="no"?>
<!DOCTYPE svg PUBLIC "-//W3C//DTD SVG 1.1//EN" "http://www.w3.org/Graphics/SVG/1.1/DTD/svg11.dtd" >
<svg xmlns="http://www.w3.org/2000/svg">
    <metadata></metadata>
    <defs>
        <font id="pf_din_text_comp_probold" horiz-adv-x="880" >
            <font-face units-per-em="2048" ascent="1536" descent="-512" />
            <missing-glyph horiz-adv-x="440" />
            <glyph unicode="&#xfb01;" horiz-adv-x="1003" d="M31 795v217h90v135q0 96 31.5 163.5t84 109.5t121 61.5t144.5 19.5q43 0 91 -5t97 -18.5t93 -36t79 -57.5l-147 -208q-37 37 -89.5 49t-99.5 12q-43 0 -67.5 -13.5t-36.5 -31.5t-16.5 -40t-4.5 -38v-102h514v-1012h-280v795h-234v-795h-280v795h-90z" />
            <glyph unicode="&#xfb02;" horiz-adv-x="1040" d="M31 795v217h90v135q0 96 27.5 163.5t77.5 109.5t119 61.5t151 19.5q16 0 58 -1t98.5 -7t125 -17.5t137.5 -31.5v-1108q0 -53 18.5 -71.5t49.5 -18.5h25v-256h-50q-164 0 -243.5 69.5t-79.5 239.5l2 924q-35 10 -59.5 12t-51.5 2q-43 0 -67.5 -13.5t-36.5 -31.5t-16.5 -40 t-4.5 -38v-102h162v-217h-162v-795h-280v795h-90z" />
            <glyph unicode="&#xfb03;" horiz-adv-x="1517" d="M31 795v219h90v76q0 96 31.5 163.5t84 109.5t121 61.5t144.5 19.5q49 0 107.5 -11.5t115.5 -35.5q53 55 129 79.5t162 24.5q43 0 90 -5t94 -18.5t91 -36t81 -55.5l-143 -208q-47 35 -94.5 47t-94.5 12q-43 0 -67.5 -13.5t-36.5 -31.5t-16.5 -40t-4.5 -38v-100h515v-1014 h-281v795h-234v-795h-280v795h-234v-795h-280v795h-90zM401 1014h234v145q-29 14 -60 17.5t-49 3.5q-43 0 -67.5 -13.5t-36.5 -32t-16.5 -40t-4.5 -37.5v-43z" />
            <glyph unicode="&#xfb04;" horiz-adv-x="1560" d="M31 795v219h90v76q0 96 29.5 163.5t80 109.5t118 61.5t143.5 19.5q49 0 112.5 -11.5t120.5 -35.5q53 55 131 79.5t160 24.5q16 0 59 -1t101.5 -7t126 -17.5t133.5 -31.5v-1108q0 -53 18.5 -71.5t48.5 -18.5h25v-256h-49q-164 0 -244 69.5t-80 239.5l2 924 q-35 10 -59.5 12t-50.5 2q-45 0 -71 -13.5t-39 -31.5t-17.5 -40t-4.5 -38v-100h162v-219h-162v-795h-280v795h-234v-795h-280v795h-90zM401 1014h234v139q-25 14 -53.5 20.5t-55.5 6.5q-43 0 -67.5 -13.5t-36.5 -32t-16.5 -40t-4.5 -37.5v-43z" />
            <glyph horiz-adv-x="0" />
            <glyph horiz-adv-x="682" />
            <glyph unicode=" "  horiz-adv-x="440" />
            <glyph unicode="&#x09;" horiz-adv-x="440" />
            <glyph unicode="&#xa0;" horiz-adv-x="440" />
            <glyph unicode="!" horiz-adv-x="563" d="M145 1425h273l-21 -1009h-231zM152 0v285h262v-285h-262z" />
            <glyph unicode="&#x22;" horiz-adv-x="634" d="M80 977v448h188v-448h-188zM367 977v448h190v-448h-190z" />
            <glyph unicode="#" d="M8 424v194h139l41 209h-106v195h137l70 401h200l-71 -401h143l72 401h201l-74 -401h110v-195h-143l-35 -209h109v-194h-146l-73 -424h-199l74 424h-146l-71 -424h-201l76 424h-107zM348 618h144l38 209h-145z" />
            <glyph unicode="$" d="M80 354l278 54q4 -59 15.5 -98.5t40.5 -51.5v346q-104 43 -169 89t-98.5 98.5t-45 112t-11.5 128.5q0 82 18.5 152.5t57.5 124t100.5 86t147.5 41.5v139h73v-137q98 -4 163 -40t101.5 -87t52 -112.5t15.5 -119.5l-274 -59q0 49 -10.5 91t-47.5 54v-291q104 -49 169 -94 t102 -96t49 -114.5t12 -149.5q0 -94 -15.5 -171t-54 -133.5t-102 -89t-160.5 -36.5v-160h-73v160q-90 4 -153.5 34.5t-103.5 80t-58.5 114t-18.5 135.5zM367 1034q0 -37 7 -64.5t40 -51.5v245q-29 -16 -38 -55t-9 -74zM487 256q39 14 48.5 61.5t9.5 100.5q0 57 -12.5 91 t-45.5 56v-309z" />
            <glyph unicode="%" horiz-adv-x="1345" d="M53 772v467q0 94 63.5 147.5t159.5 53.5q100 0 163 -53.5t63 -147.5v-467q0 -94 -63.5 -148.5t-162.5 -54.5q-98 0 -160.5 54.5t-62.5 148.5zM240 782q0 -10 8 -21t26 -11q16 0 24.5 11t8.5 21v443q0 10 -8 23.5t-27 13.5q-18 0 -25 -13.5t-7 -23.5v-443zM260 -35 l643 1497h166l-643 -1497h-166zM844 199v467q0 94 63.5 147t159.5 53q100 0 162.5 -53t62.5 -147v-467q0 -94 -63.5 -148.5t-161.5 -54.5t-160.5 54t-62.5 149zM1030 209q0 -10 8.5 -21.5t26.5 -11.5q16 0 24.5 11.5t8.5 21.5v442q0 10 -8.5 23.5t-26.5 13.5t-25.5 -13 t-7.5 -24v-442z" />
            <glyph unicode="&#x26;" horiz-adv-x="1021" d="M88 375q0 121 48 215t134 176l-22 39q-35 61 -59.5 133t-24.5 162q0 72 22.5 133t62.5 106t96 71t126 26q119 0 211 -51.5t145 -174.5l-219 -114q-18 51 -51 74.5t-61 23.5q-47 0 -63.5 -30.5t-16.5 -65.5q0 -41 23.5 -97.5t58.5 -119.5l190 -353q6 27 12.5 65t4.5 83 h235q2 -104 -24.5 -206.5t-67.5 -180.5l162 -289h-297l-41 72q-59 -49 -125 -66.5t-133 -17.5q-152 0 -239 105.5t-87 281.5zM346 383q0 -59 26.5 -104.5t76.5 -45.5q29 0 57.5 10.5t48.5 28.5l-158 271q-51 -76 -51 -160z" />
            <glyph unicode="'" horiz-adv-x="409" d="M117 977v448h188v-448h-188z" />
            <glyph unicode="(" horiz-adv-x="606" d="M115 631q0 125 22.5 241.5t61.5 223t90 204t110 183.5l174 -84q-49 -86 -88 -182.5t-66.5 -194.5t-42 -195.5t-14.5 -187.5q0 -201 56.5 -405.5t148.5 -368.5l-147 -98q-135 190 -220 403t-85 461z" />
            <glyph unicode=")" horiz-adv-x="606" d="M115 1399l174 84q57 -86 109.5 -183.5t91 -204t61 -223t22.5 -241.5q0 -248 -85 -461t-220 -403l-147 98q92 164 148.5 368.5t56.5 405.5q0 90 -14.5 187.5t-42 195.5t-66.5 194.5t-88 182.5z" />
            <glyph unicode="*" horiz-adv-x="806" d="M51 1092l58 168l223 -93l-23 256h183l-23 -254l221 91l62 -168l-240 -64l164 -201l-146 -102l-129 215l-133 -217l-145 104l160 201z" />
            <glyph unicode="+" d="M39 498v227h287v309h223v-309h287v-227h-287v-310h-223v310h-287z" />
            <glyph unicode="," horiz-adv-x="479" d="M96 -313l68 305h-60v315h279v-309l-131 -311h-156z" />
            <glyph unicode="-" horiz-adv-x="784" d="M100 442v246h607v-246h-607z" />
            <glyph unicode="." horiz-adv-x="468" d="M96 0v307h277v-307h-277z" />
            <glyph unicode="/" horiz-adv-x="591" d="M0 -86l383 1571h207l-383 -1571h-207z" />
            <glyph unicode="0" d="M115 315v793q0 76 25.5 137.5t70.5 104.5t105.5 65.5t132.5 22.5q147 0 238 -88t91 -242v-793q0 -76 -24.5 -136t-69.5 -103t-105.5 -65.5t-129.5 -22.5q-72 0 -133.5 22.5t-106.5 65.5t-69.5 103.5t-24.5 135.5zM387 305q0 -25 19.5 -40t42.5 -15t40 15.5t17 39.5v813 q0 27 -17.5 42.5t-39.5 15.5q-23 0 -42.5 -15.5t-19.5 -42.5v-813z" />
            <glyph unicode="1" d="M211 954v306l213 165h246v-1425h-273v1100z" />
            <glyph unicode="2" d="M90 1040q0 102 27.5 177t76 124.5t112 73t134.5 23.5q182 0 263 -96.5t81 -258.5q0 -96 -20.5 -165.5t-67.5 -159.5l-258 -490h328v-268h-655v246l350 649q27 49 34 93t7 95q0 29 -13.5 60t-48.5 31q-12 0 -26.5 -6.5t-25.5 -25t-19.5 -51t-8.5 -83.5z" />
            <glyph unicode="3" d="M72 387l276 33q-6 -55 0 -88t18.5 -51.5t27 -23.5t26.5 -5q23 0 49.5 17.5t26.5 72.5v170q0 59 -33 84t-74 25h-61v233h78q41 0 70.5 22.5t29.5 75.5v135q0 29 -14.5 56.5t-51.5 27.5q-14 0 -28.5 -6t-25.5 -23.5t-18.5 -50t-7.5 -85.5l-270 32q0 94 27.5 169t77 126 t115 78t141.5 27q94 0 157.5 -30t101.5 -77t54 -106.5t16 -116.5v-84q0 -39 -3 -80t-15 -79t-34.5 -69.5t-61.5 -52.5v-10q66 -31 90 -94.5t24 -122.5v-141q0 -178 -92 -282.5t-272 -104.5q-362 0 -344 399z" />
            <glyph unicode="4" d="M47 201v227l305 997h271l-289 -962h129v254h268v-254h80v-262h-80v-201h-268v201h-416z" />
            <glyph unicode="5" d="M104 387l265 33q-6 -55 -1 -88t16 -50.5t25.5 -22.5t26.5 -5q23 0 44.5 16.5t21.5 71.5v305q0 57 -58 58q-16 0 -42.5 -13.5t-45.5 -60.5h-227v794h637v-260h-379v-258l6 -2q23 25 64 37t69 12q139 0 199.5 -77.5t60.5 -200.5v-301q0 -186 -87 -286.5t-267 -100.5 q-162 0 -250 99t-78 300z" />
            <glyph unicode="6" d="M119 305v127q0 76 6 147.5t33 143.5l260 702h301l-227 -589l10 -9q31 16 76 17q33 0 69.5 -10.5t68.5 -41t52 -85t20 -142.5v-200q0 -72 -14 -140.5t-53 -121t-105.5 -84t-171.5 -31.5q-84 0 -144 24.5t-101 67.5t-60.5 100.5t-19.5 124.5zM393 307q0 -27 17.5 -41 t40.5 -14t42 14.5t19 40.5v268q0 29 -19.5 43.5t-41.5 14.5q-23 0 -40.5 -14.5t-17.5 -43.5v-268z" />
            <glyph unicode="7" d="M113 1028v397h669v-237l-352 -1188h-276l338 1165h-130v-137h-249z" />
            <glyph unicode="8" d="M111 344v72q0 39 2 86t12 92t32.5 84t65.5 63l-2 13q-39 20 -60.5 52t-32.5 69.5t-13 78.5t-2 80v62q0 66 20.5 127t61.5 109t102 77t145 29q86 0 149.5 -27t103.5 -73t59.5 -107.5t19.5 -130.5v-66q0 -41 -2 -83t-13 -81t-32.5 -69.5t-60.5 -48.5l6 -11 q39 -18 59.5 -48.5t30.5 -67.5t12 -78t2 -82v-117q0 -176 -86 -268t-244 -92q-90 0 -153.5 28.5t-104.5 77.5t-59 113.5t-18 136.5zM383 303q0 -23 19.5 -38t41.5 -15q25 0 41.5 15.5t16.5 37.5v287q0 23 -16.5 39t-41.5 16t-43 -16.5t-18 -38.5v-287zM383 903 q0 -23 19.5 -39t41.5 -16q25 0 41.5 16.5t16.5 38.5v217q0 23 -16.5 39.5t-41.5 16.5q-20 0 -40.5 -16.5t-20.5 -39.5v-217z" />
            <glyph unicode="9" d="M109 862v199q0 72 14 140.5t53 120.5t105.5 84t171.5 32q82 0 143 -24.5t102 -67.5t60.5 -100.5t19.5 -125.5v-127q0 -76 -6 -147.5t-33 -143.5l-260 -702h-301l228 590l-11 8q-31 -16 -76 -16q-33 0 -69.5 7t-68 34.5t-52 84t-20.5 154.5zM385 850q0 -29 19.5 -43 t41.5 -14q23 0 40.5 14t17.5 43v268q0 27 -17.5 41.5t-40.5 14.5t-42 -14.5t-19 -41.5v-268z" />
            <glyph unicode=":" horiz-adv-x="468" d="M96 0v307h277v-307h-277zM96 530v308h277v-308h-277z" />
            <glyph unicode=";" horiz-adv-x="479" d="M96 -313l68 305h-60v315h279v-309l-131 -311h-156zM104 530v308h277v-308h-277z" />
            <glyph unicode="&#x3c;" d="M39 524v187l801 391v-271l-506 -215l500 -210v-271z" />
            <glyph unicode="=" d="M39 319v228h797v-228h-797zM39 686v227h797v-227h-797z" />
            <glyph unicode="&#x3e;" d="M41 831v271l801 -391v-187l-795 -389v271l500 210z" />
            <glyph unicode="?" horiz-adv-x="851" d="M57 1040q8 193 104.5 295.5t274.5 102.5q190 0 276.5 -98.5t86.5 -282.5q0 -53 -4 -93t-11.5 -72t-19.5 -57.5t-27 -52.5l-104 -184q-16 -27 -23.5 -55.5t-7.5 -75.5v-76h-272v158q0 47 15 90t38 82q45 74 70.5 122t38 83t14.5 63.5t2 67.5q0 37 -19.5 75.5t-68.5 38.5 q-33 0 -63.5 -35.5t-30.5 -125.5zM334 0v285h262v-285h-262z" />
            <glyph unicode="@" horiz-adv-x="1660" d="M123 688q0 168 49 312.5t142.5 251t229.5 167t310 60.5q180 0 310 -55.5t214 -150.5t124 -222t40 -269q0 -139 -34.5 -236t-92 -158.5t-130.5 -89.5t-146 -28q-14 0 -41 5.5t-56.5 17.5t-57.5 31.5t-44 50.5l-8 2q-39 -53 -95.5 -75.5t-109.5 -22.5q-61 0 -102 20 t-65.5 56t-35 82t-10.5 98q0 51 15.5 99t49 84t85 57.5t124.5 21.5h80v59q0 31 -12 46.5t-49 15.5q-16 0 -36.5 -15.5t-33.5 -62.5l-200 67q33 109 106.5 166t185.5 57q137 0 204 -58t67 -204v-329q0 -41 23.5 -60.5t45.5 -19.5q27 0 57.5 12t56.5 48t43 98.5t17 164.5 q0 113 -29.5 207t-90 162t-151.5 105.5t-212 37.5q-143 0 -245.5 -50t-169 -134t-98.5 -193.5t-32 -228.5q0 -303 141.5 -462.5t387.5 -159.5q90 0 169 20t177 74l80 -170q-100 -47 -204.5 -77t-211.5 -30q-162 0 -296 47t-231.5 145.5t-150.5 250t-53 362.5zM743 549 q0 -35 17.5 -51.5t46.5 -16.5t45 22.5t16 57.5v82h-49q-29 0 -52.5 -20.5t-23.5 -73.5z" />
            <glyph unicode="A" horiz-adv-x="919" d="M18 0l271 1425h340l272 -1425h-293l-43 279h-209l-43 -279h-295zM395 541h129l-26 227l-31 289h-12l-31 -289z" />
            <glyph unicode="B" horiz-adv-x="913" d="M104 0v1425h322q190 0 285.5 -100t95.5 -297q0 -43 -9.5 -85t-27.5 -79t-48 -65.5t-71 -42.5v-11q49 -16 81 -46.5t51.5 -70.5t27.5 -87t8 -97q0 -229 -100.5 -336.5t-298.5 -107.5h-316zM383 268h49q39 0 62.5 15.5t37 42t17.5 61.5t4 76q0 86 -29.5 120.5t-89.5 34.5 h-51v-350zM383 877h35q123 0 123 143q0 84 -31 111.5t-98 27.5h-29v-282z" />
            <glyph unicode="C" horiz-adv-x="874" d="M92 348v715q0 170 91.5 272.5t279.5 102.5q186 0 275 -91.5t89 -236.5v-19.5t-2 -19.5l-268 -47q-2 63 -27.5 105t-68.5 42q-29 0 -46.5 -11t-27.5 -27.5t-14 -36t-4 -33.5v-727q0 -29 14 -55.5t68 -26.5q41 0 66.5 37t27.5 110l276 -36q-2 -170 -94 -273.5t-266 -103.5 q-193 0 -281 90t-88 270z" />
            <glyph unicode="D" horiz-adv-x="913" d="M106 0v1425h375q127 0 201 -44t102 -148q18 -66 21.5 -204t3.5 -314t-3 -307.5t-26 -196.5q-39 -121 -124 -166t-193 -45h-357zM383 268h43q66 0 85 31t19 92v643q0 59 -19 91t-85 32h-43v-889z" />
            <glyph unicode="E" horiz-adv-x="806" d="M104 0v1425h654v-266h-375v-301h328v-268h-328v-322h375v-268h-654z" />
            <glyph unicode="F" horiz-adv-x="806" d="M104 0v1425h654v-266h-375v-301h328v-268h-328v-590h-279z" />
            <glyph unicode="G" horiz-adv-x="901" d="M106 348v715q0 170 95.5 272.5t275.5 102.5q96 0 167 -28t117 -77t65 -117q15 -51 15 -109q0 -18 -1 -36l-269 -47q-2 63 -27.5 105t-68.5 42q-29 0 -46 -11t-27.5 -27.5t-14.5 -36t-4 -33.5v-727q0 -29 14.5 -55.5t67.5 -26.5q41 0 67.5 21.5t26.5 56.5v219h-96v244h373 v-449q0 -176 -94.5 -267t-266.5 -91q-193 0 -281 90t-88 270z" />
            <glyph unicode="H" horiz-adv-x="940" d="M104 0v1425h279v-565h178v565h277v-1425h-277v590h-178v-590h-279z" />
            <glyph unicode="I" horiz-adv-x="495" d="M109 0v1425h278v-1425h-278z" />
            <glyph unicode="J" horiz-adv-x="780" d="M-10 176l207 160q27 -39 59.5 -59.5t54.5 -20.5q47 0 67.5 33t20.5 61v1075h277v-1079q0 -168 -95.5 -263t-267.5 -95q-96 0 -180 47t-143 141z" />
            <glyph unicode="K" horiz-adv-x="913" d="M104 0v1425h279v-440h14l195 440h297l-297 -589l328 -836h-289l-199 547l-49 -129v-418h-279z" />
            <glyph unicode="L" horiz-adv-x="774" d="M104 0v1425h279v-1157h375v-268h-654z" />
            <glyph unicode="M" horiz-adv-x="1191" d="M92 0v1425h260l142 -381l96 -282h12l98 289l140 374h260v-1425h-279v666h-8l-68 -222l-55 -165h-186l-60 182l-65 211h-10v-672h-277z" />
            <glyph unicode="N" horiz-adv-x="985" d="M98 0v1425h244l168 -413l96 -260h10v673h273v-1425h-238l-168 416l-98 270h-10v-686h-277z" />
            <glyph unicode="O" horiz-adv-x="911" d="M92 348v731q0 184 96.5 271.5t266.5 87.5q186 0 275 -87t89 -272v-731q0 -184 -92 -272t-272 -88q-362 0 -363 360zM371 336q0 -49 24.5 -68.5t59.5 -19.5t58.5 19.5t23.5 68.5v754q0 47 -24 67.5t-58 20.5q-35 0 -59.5 -20.5t-24.5 -67.5v-754z" />
            <glyph unicode="P" horiz-adv-x="876" d="M104 0v1425h338q90 0 163 -21.5t125 -71.5t81 -135t29 -212q0 -219 -92.5 -341t-298.5 -122h-66v-522h-279zM383 791h47q27 0 52.5 7t46 28.5t32.5 60.5t12 100q0 94 -37.5 133t-101.5 39h-51v-368z" />
            <glyph unicode="Q" horiz-adv-x="913" d="M98 348v731q0 184 96.5 271.5t266.5 87.5q186 0 275 -87t89 -272v-731q0 -84 -22 -151l127 -95l-129 -159l-129 90q-82 -45 -211 -45q-362 0 -363 360zM377 342q0 -49 24.5 -68.5t59.5 -19.5t58.5 19.5t23.5 68.5v741q0 47 -23.5 67.5t-58.5 20.5t-59.5 -20.5 t-24.5 -67.5v-741z" />
            <glyph unicode="R" horiz-adv-x="913" d="M104 0v1425h338q88 0 162 -21.5t127 -71.5t83 -131t30 -197q0 -145 -39 -237.5t-119 -148.5l205 -618h-285l-168 555h-55v-555h-279zM383 823h43q31 0 57.5 7.5t48 28t34 54t12.5 88.5q0 82 -40 120t-104 38h-51v-336z" />
            <glyph unicode="S" horiz-adv-x="874" d="M74 354l278 54q4 -78 23.5 -117t73.5 -39q31 0 48 14.5t26 37t12.5 53t3.5 61.5q0 43 -6.5 71.5t-21.5 49t-42 36t-66 31.5q-104 43 -167.5 89t-97.5 98.5t-44 111t-10 127.5q0 88 20.5 163t64.5 128t114.5 84t171.5 31q106 0 175.5 -34t109.5 -86t56.5 -115.5 t16.5 -123.5l-274 -59q0 31 -3.5 57.5t-13.5 48t-27.5 33.5t-48.5 12q-29 0 -45 -13t-25 -32.5t-12.5 -44t-3.5 -47.5q0 -29 4.5 -51t20.5 -42.5t48 -40t89 -42.5q98 -39 155.5 -82t87.5 -94t39 -115.5t9 -146.5q0 -98 -17.5 -178t-59.5 -136.5t-113.5 -87t-180.5 -30.5 q-98 0 -168.5 28.5t-114.5 78.5t-64.5 117t-20.5 142z" />
            <glyph unicode="T" horiz-adv-x="737" d="M8 1159v266h717v-266h-219v-1159h-279v1159h-219z" />
            <glyph unicode="U" horiz-adv-x="911" d="M94 348v1075h279v-1081q0 -49 24.5 -68.5t59.5 -19.5t58.5 19.5t23.5 68.5v1081h282v-1075q0 -184 -92 -272t-272 -88q-362 0 -363 360z" />
            <glyph unicode="V" horiz-adv-x="915" d="M10 1425h305l86 -569l52 -403h12l51 399l86 573h303l-272 -1425h-352z" />
            <glyph unicode="W" horiz-adv-x="1312" d="M14 1425h318l76 -794h10l131 794h229l131 -809h13l63 809h318l-207 -1425h-308l-120 678h-13l-127 -678h-307z" />
            <glyph unicode="X" horiz-adv-x="921" d="M6 0l295 743l-274 682h325l105 -352h12l98 352h328l-283 -682l303 -743h-327l-125 418h-8l-125 -418h-324z" />
            <glyph unicode="Y" horiz-adv-x="847" d="M6 1425h297l70 -284l51 -236h10l51 240l62 280h295l-277 -845v-580h-280v580z" />
            <glyph unicode="Z" horiz-adv-x="737" d="M49 0v254l344 905h-332v266h633v-245l-346 -912h346v-268h-645z" />
            <glyph unicode="[" horiz-adv-x="530" d="M125 -209v1636h373v-198h-123v-1239h123v-199h-373z" />
            <glyph unicode="\" horiz-adv-x="591" d="M0 1485h207l383 -1571h-207z" />
            <glyph unicode="]" horiz-adv-x="530" d="M33 -12h123v1241h-123v198h370v-1638h-370v199z" />
            <glyph unicode="^" d="M4 631l342 794h186l351 -800h-271l-77 206l-89 256h-16l-82 -249l-74 -207h-270z" />
            <glyph unicode="_" horiz-adv-x="1024" d="M0 -143h1024v-185h-1024v185z" />
            <glyph unicode="`" horiz-adv-x="788" d="M264 1446l221 110l205 -380l-147 -89z" />
            <glyph unicode="a" horiz-adv-x="835" d="M57 305q0 61 18.5 117.5t57.5 99.5t101.5 68.5t148.5 25.5h100v86q0 63 -71 64q-20 0 -44 -15.5t-34 -68.5l-248 80q31 125 118 194.5t228 69.5q170 0 251 -76t81 -248v-702h-281v70l-10 2q-23 -37 -71 -60.5t-91 -23.5q-74 0 -123 23.5t-78.5 65.5t-41 100.5 t-11.5 127.5zM334 322q0 -39 23.5 -56.5t54.5 -17.5t51 24.5t20 63.5v90h-57q-35 0 -63.5 -22.5t-28.5 -81.5z" />
            <glyph unicode="b" horiz-adv-x="821" d="M72 0v1487h280v-535h10q12 18 33 32.5t44.5 25t45 15.5t35.5 5q63 0 102.5 -14.5t63 -39t35.5 -57t22 -67.5q6 -25 10.5 -66t6.5 -88t3 -97t1 -93q0 -78 -3 -144.5t-7 -101.5q-16 -150 -74.5 -212t-167.5 -62q-18 0 -39.5 4t-43 13t-42 26.5t-33.5 46.5l-8 -4v-74h-274z M350 467q0 -53 1 -100.5t5 -63.5q10 -45 56 -45q23 0 37 14.5t14 30.5q4 12 6 65.5t2 125.5q0 68 -2 131t-6 90q-4 20 -16 33.5t-35 13.5q-39 0 -54 -41q-7 -18 -7 -70v-13v-45q0 -47 -1 -104v-22z" />
            <glyph unicode="c" horiz-adv-x="780" d="M70 502q0 45 2 95t6 96t11 86t17 67q31 82 108 133t200 51q154 0 236.5 -85t82.5 -245l-272 -30q0 53 -15.5 76.5t-37.5 23.5q-20 0 -30.5 -11t-17.5 -30q-6 -16 -8 -80.5t-4 -150.5v-31q0 -53 2 -100.5t8 -71.5q10 -45 50 -45q23 0 38 20.5t15 71.5l276 -35 q0 -150 -86.5 -234.5t-238.5 -84.5q-78 0 -133.5 17.5t-94.5 47t-61.5 68.5t-32.5 80q-6 25 -10 61.5t-6 77.5t-3 83t-1 79z" />
            <glyph unicode="d" horiz-adv-x="841" d="M70 508q0 43 2 91t6 94t9 86t11 65q6 27 17.5 59.5t36 61t64.5 47t103 18.5q27 0 71 -13t79 -48h10v518h281v-1487h-275v74l-8 4q-12 -29 -32.5 -46.5t-43 -26.5t-45 -13t-41.5 -4q-109 0 -168 61.5t-71 212.5q-4 29 -5 98.5t-1 147.5zM360 494q0 -72 2.5 -125.5 t6.5 -65.5q0 -16 14 -30.5t37 -14.5q45 0 55 45q4 16 5 63.5t1 100.5v22q-1 57 -1 104v45v13q0 51 -7 70q-14 41 -53 41q-23 0 -35 -13.5t-16 -33.5q-4 -27 -6.5 -90.5t-2.5 -130.5z" />
            <glyph unicode="e" horiz-adv-x="806" d="M70 502q0 45 2 95t6 96t11 86t17 67q31 82 107 133t199 51q154 0 241.5 -83t87.5 -242v-254h-393q0 -49 -1 -91v-12q0 -34 5 -53q10 -45 51 -45q23 0 41.5 18.5t22.5 63.5l276 -41q-8 -139 -94 -221t-237 -82q-78 0 -133.5 17.5t-94.5 47t-61.5 68.5t-32.5 80 q-6 25 -10 61.5t-6 77.5t-3 83t-1 79zM350 621h111v86q0 20 -11.5 40.5t-39.5 20.5q-38 0 -50 -39q-4 -10 -6 -38.5t-4 -69.5z" />
            <glyph unicode="f" horiz-adv-x="542" d="M27 795v217h90v184q0 78 22.5 133t61.5 90t89 51.5t105 16.5h142v-254h-68q-29 0 -50.5 -21.5t-21.5 -54.5v-145h146v-217h-146v-795h-280v795h-90z" />
            <glyph unicode="g" horiz-adv-x="845" d="M70 506q0 78 3 144.5t7 101.5q16 150 74.5 212t167.5 62q18 0 39.5 -4t43 -13.5t42 -27.5t32.5 -45l8 4v74h277v-1055q0 -190 -89 -276t-251 -86q-154 0 -240 74.5t-94 226.5l270 39q4 -43 23.5 -61.5t42.5 -18.5q29 0 43 18.5t14 48.5v154h-10q-12 -18 -33.5 -32.5 t-44 -25t-45.5 -15.5t-37 -5q-63 0 -102 14.5t-62.5 39t-36 57t-22.5 67.5q-6 25 -10 63t-6 83t-3 92t-1 90zM362 520q0 -68 2.5 -123t6.5 -82q4 -20 16 -33.5t35 -13.5q39 0 53 41q8 20 9 73.5t1 141.5v23q0 53 -2 100t-6 64q-10 45 -55 45q-23 0 -37 -14.5t-14 -30.5 q-4 -12 -6.5 -65.5t-2.5 -125.5z" />
            <glyph unicode="h" horiz-adv-x="845" d="M86 0v1487h281v-553l10 -2q12 16 33.5 33.5t46 31t51.5 21.5t51 8q70 0 110 -22.5t61.5 -59.5t27.5 -85t6 -101v-758h-281v686q0 41 -16 57.5t-39 16.5q-25 0 -43 -20.5t-18 -59.5v-680h-281z" />
            <glyph unicode="i" horiz-adv-x="485" d="M102 0v1012h281v-1012h-281zM102 1159v266h281v-266h-281z" />
            <glyph unicode="j" horiz-adv-x="462" d="M-29 -137h35q53 0 70.5 33.5t17.5 107.5v1010h281v-1086q0 -176 -100.5 -251.5t-280.5 -75.5h-23v262zM94 1159v266h281v-266h-281z" />
            <glyph unicode="k" horiz-adv-x="872" d="M82 0v1485h278v-711l15 -2l145 240h334l-272 -396l278 -616h-334l-143 352l-23 -35v-317h-278z" />
            <glyph unicode="l" horiz-adv-x="479" d="M74 299v1188h280v-1151q0 -53 18.5 -71.5t49.5 -18.5h24v-256h-49q-164 0 -243.5 69.5t-79.5 239.5z" />
            <glyph unicode="m" horiz-adv-x="1243" d="M86 0v1014h281v-84l10 -2q27 33 75 65.5t95 32.5q88 0 131 -32.5t63 -86.5q41 55 100.5 87t106.5 32q70 0 112 -20.5t64.5 -55.5t29.5 -81t7 -99v-770h-280v686q0 41 -16.5 57.5t-39.5 16.5t-40 -17.5t-21 -52.5v-690h-281v686q0 41 -16 57.5t-39 16.5q-25 0 -43 -20.5 t-18 -59.5v-680h-281z" />
            <glyph unicode="n" horiz-adv-x="845" d="M86 0v1014h281v-80l10 -2q27 35 76 64.5t96 29.5q70 0 111.5 -20.5t64.5 -55.5t31 -82t8 -100v-768h-281v686q0 41 -16 57.5t-39 16.5q-25 0 -43 -20.5t-18 -59.5v-680h-281z" />
            <glyph unicode="o" horiz-adv-x="821" d="M70 502q0 45 2 95t6 96t10 86t16 67q31 82 109 133t201 51q129 0 203.5 -51t103.5 -127q10 -29 15 -70t8.5 -87t4.5 -95t1 -92v-31q0 -55 -1 -109.5t-8 -105.5q-10 -88 -46 -142t-84 -84t-104 -40t-110 -10q-72 0 -124 18.5t-89 48t-60.5 68.5t-33.5 80q-6 25 -10 61.5 t-6 77.5t-3 83t-1 79zM348 467q0 -53 1 -100.5t9 -71.5q10 -45 56 -45q23 0 37 14.5t14 30.5q4 12 7 73.5t3 133.5q0 68 -3 131t-7 90q-4 20 -16 33.5t-35 13.5q-39 0 -54 -41q-8 -20 -9 -82.5t-3 -148.5v-31z" />
            <glyph unicode="p" horiz-adv-x="821" d="M72 -389v1403h274v-74l8 -4q12 27 33 45t43.5 27.5t45 13.5t40.5 4q109 0 168 -61.5t72 -212.5q4 -29 5 -98.5t1 -147.5q0 -43 -2 -92t-5 -95.5t-7.5 -85t-10.5 -63.5q-6 -29 -18 -60.5t-37 -60.5t-65 -47t-103 -18q-27 0 -72 11t-80 46h-10v-430h-280zM350 524 q1 -57 1 -104v-44v-14q0 -51 7 -69q15 -41 54 -41q23 0 35 13.5t16 33.5q4 27 6 90.5t2 130.5q0 72 -2 125t-6 66q0 16 -14.5 30.5t-36.5 14.5q-45 0 -56 -45q-4 -16 -5 -63.5t-1 -100.5v-23z" />
            <glyph unicode="q" horiz-adv-x="847" d="M74 504q0 78 3 144.5t7 101.5q16 150 74.5 212t167.5 62q18 0 39.5 -4t43 -13.5t42 -27.5t32.5 -45l9 4v74h274v-1403h-281v450h-10q-12 -18 -32.5 -32.5t-44 -24.5t-45.5 -15t-36 -5q-63 0 -102 14t-62.5 38.5t-36 57.5t-22.5 68q-6 25 -10 65.5t-6 87.5t-3 97.5 t-1 93.5zM367 518q0 -68 2 -131t6 -90q4 -20 16 -33.5t35 -13.5q39 0 53 41q7 18 7 69v14v44q0 47 1 104v23q0 53 -1 100t-5 64q-10 45 -55 45q-23 0 -37 -14.5t-14 -30.5q-4 -12 -6 -65.5t-2 -125.5z" />
            <glyph unicode="r" horiz-adv-x="647" d="M102 0v1016h283v-113h4q39 78 95.5 100.5t123.5 22.5h23v-276q-16 2 -31.5 3t-30.5 1q-88 0 -136 -42t-48 -149v-563h-283z" />
            <glyph unicode="s" horiz-adv-x="792" d="M55 293l269 39v-7q0 -37 20 -59q22 -24 53 -24q27 0 46.5 19.5t19.5 43.5q0 53 -17.5 71.5t-48.5 29.5q-59 20 -117.5 39.5t-106.5 51t-77.5 85t-29.5 141.5q0 63 21.5 119.5t64.5 97.5t105 65.5t144 24.5q166 0 248 -84t84 -225l-266 -35q0 29 -15.5 58.5t-50.5 29.5 q-33 0 -46 -20.5t-13 -36.5q0 -31 10 -47.5t45 -26.5q74 -23 135.5 -45.5t107.5 -59t71.5 -92t25.5 -141.5q0 -61 -17.5 -118.5t-58 -101.5t-107.5 -70.5t-165 -26.5q-152 0 -240 75.5t-94 229.5z" />
            <glyph unicode="t" horiz-adv-x="567" d="M31 795v219h92v266h264v-266h115v-219h-115v-447q0 -18 2 -34.5t10.5 -30t26.5 -21.5t51 -8h25v-254h-115q-74 0 -124 22.5t-81.5 59.5t-45 83t-13.5 93v537h-92z" />
            <glyph unicode="u" horiz-adv-x="845" d="M88 246v768h281v-686q0 -41 16 -57.5t39 -16.5q25 0 43 20.5t18 59.5v680h281v-1014h-281v80l-10 2q-12 -16 -32.5 -33.5t-44 -31t-49 -21.5t-50.5 -8q-70 0 -111 20.5t-63.5 55t-29.5 82t-7 100.5z" />
            <glyph unicode="v" horiz-adv-x="813" d="M10 1012h314l53 -391l29 -261h14l22 248l54 404h307l-236 -1012h-321z" />
            <glyph unicode="w" horiz-adv-x="1191" d="M20 1012h295l35 -359l27 -262h10l31 262l43 359h264l49 -363l39 -258h10l25 264l31 357h288l-192 -1012h-309l-33 217l-35 244h-10l-33 -244l-33 -217h-309z" />
            <glyph unicode="x" horiz-adv-x="829" d="M8 0l242 516l-230 498h314l82 -264h6l84 264h301l-234 -498l246 -516h-307l-94 287h-10l-93 -287h-307z" />
            <glyph unicode="y" horiz-adv-x="782" d="M6 1012h299l41 -365l29 -239h10l35 237l63 367h287l-293 -1155q-31 -121 -104.5 -185.5t-200.5 -64.5h-94v248h51q33 0 64.5 22.5t48.5 91.5l12 54z" />
            <glyph unicode="z" horiz-adv-x="716" d="M57 0v248l283 516h-260v250h579v-230l-290 -524h290v-260h-602z" />
            <glyph unicode="{" horiz-adv-x="530" d="M23 537v165q55 4 87.5 44t32.5 133v297q0 117 64.5 183t159.5 66h141v-196h-49q-16 0 -42 -16.5t-26 -73.5v-277q0 -84 -32.5 -146.5t-92.5 -90.5l2 -15q55 -23 89 -85t34 -154v-303q0 -31 8.5 -47.5t18.5 -23.5t22.5 -9t20.5 -2h47v-197h-141q-94 0 -159 66.5t-65 183.5 v315q0 94 -33.5 136t-86.5 47z" />
            <glyph unicode="|" horiz-adv-x="530" d="M156 -332v1827h219v-1827h-219z" />
            <glyph unicode="}" horiz-adv-x="530" d="M25 -14h47q8 0 20 2t22.5 9t18.5 23.5t8 47.5v303q0 92 34 154.5t89 84.5l2 15q-59 29 -92 91t-33 146v277q0 57 -25.5 73.5t-41.5 16.5h-49v196h141q94 0 158.5 -66.5t64.5 -182.5v-297q0 -92 33 -132t88 -45v-165q-53 -4 -87 -46t-34 -137v-315q0 -117 -64.5 -183.5 t-158.5 -66.5h-141v197z" />
            <glyph unicode="~" d="M12 561q53 119 119 181.5t164 62.5q41 0 79 -17.5t71.5 -37t64.5 -36t55 -16.5q68 0 146 109l151 -90q-55 -129 -120.5 -184.5t-139.5 -55.5q-43 0 -82 16.5t-74.5 36t-67.5 36t-61 16.5q-37 0 -73.5 -21.5t-83.5 -87.5z" />
            <glyph unicode="&#xa1;" horiz-adv-x="563" d="M147 -412l21 1010h231l21 -1010h-273zM152 729v285h262v-285h-262z" />
            <glyph unicode="&#xa2;" d="M98 502q0 45 2 95t6.5 96t11.5 86t17 67q29 72 91.5 122t164.5 60v189h105v-191q129 -14 197.5 -98t68.5 -228l-273 -30q0 53 -15 76.5t-38 23.5q-20 0 -30.5 -11t-16.5 -30q-6 -16 -8 -80.5t-4 -150.5v-31q0 -53 2 -100.5t8 -71.5q10 -45 49 -45q23 0 38 20.5t15 71.5 l277 -35q0 -135 -71.5 -218t-198.5 -97v-201h-105v199q-63 6 -110.5 24.5t-80 47t-52 64.5t-29.5 75q-6 25 -10.5 61.5t-6.5 77.5t-3 83t-1 79z" />
            <glyph unicode="&#xa3;" d="M61 551v211h103q-18 74 -44 151.5t-26 176.5q0 80 28 144t75 110.5t112.5 71t141.5 24.5q86 0 155.5 -25.5t118.5 -73t73.5 -113t22.5 -143.5l-268 -59q-2 63 -27.5 100t-68.5 37h-4q-35 0 -60.5 -24.5t-25.5 -61.5t9 -71.5t21.5 -73.5t25.5 -80t21 -90h203v-211h-198 q-6 -98 -22.5 -165t-47.5 -130h407v-256h-723v229q49 70 78 143.5t35 178.5h-115z" />
            <glyph unicode="&#xa4;" horiz-adv-x="1050" d="M49 428l129 129q-35 74 -35 152q0 82 37 155l-125 127l162 160l125 -125q74 37 160 37q82 0 149 -33l129 129l158 -158l-127 -127q37 -72 37 -153q0 -80 -39 -162l127 -127l-162 -162l-127 127q-78 -39 -155 -39q-80 0 -158 39l-127 -127zM328 711q0 -66 46 -113t111 -47 q74 0 122 51t48 123q0 66 -49 109t-112 43q-70 0 -118 -47.5t-48 -118.5z" />
            <glyph unicode="&#xa5;" d="M23 1425h296l68 -264l51 -254h17l47 258l61 260h295l-225 -700h129v-139h-172l-8 -27v-57h180v-137h-180v-365h-281v365h-170v137h170v57l-8 27h-162v139h117z" />
            <glyph unicode="&#xa6;" horiz-adv-x="530" d="M156 -348v823h219v-823h-219zM156 668v811h219v-811h-219z" />
            <glyph unicode="&#xa7;" horiz-adv-x="866" d="M49 31l156 174q70 -63 120 -86t85 -23q57 0 84.5 24.5t27.5 61.5q0 41 -44 90.5t-130 96.5q-66 37 -116 70.5t-85.5 72.5t-54 86t-18.5 111q0 66 31.5 120t87.5 86q-43 47 -60.5 97.5t-17.5 103.5q0 70 25.5 129.5t71.5 102.5t108.5 66.5t138.5 23.5q98 0 177 -33 t173 -111l-147 -184q-70 63 -118 76.5t-85 13.5q-39 0 -61.5 -21.5t-22.5 -52.5q0 -39 41 -72.5t102 -70.5q59 -35 114.5 -73t98.5 -82t68.5 -97t25.5 -121q0 -70 -25.5 -114.5t-80.5 -83.5q41 -53 55 -110.5t14 -111.5q0 -70 -26.5 -129t-76.5 -102t-119.5 -67.5 t-155.5 -24.5q-90 0 -187.5 44t-173.5 120zM317 715q0 -25 20.5 -48.5t52.5 -47t70 -44t72 -38.5q16 10 27.5 30.5t11.5 38.5q0 41 -49 81t-157 93q-16 -10 -32 -28.5t-16 -36.5z" />
            <glyph unicode="&#xa8;" horiz-adv-x="708" d="M55 1120v266h242v-266h-242zM412 1120v266h243v-266h-243z" />
            <glyph unicode="&#xa9;" horiz-adv-x="1439" d="M84 698q0 156 40 287t119 227.5t195.5 150.5t270.5 54q150 0 266.5 -54t196 -150.5t120.5 -227.5t41 -287q0 -154 -41 -283.5t-120.5 -226t-196 -150.5t-266.5 -54q-154 0 -270.5 54t-195.5 150.5t-119 226.5t-40 283zM256 698q0 -115 29.5 -215t87 -176t142.5 -120 t194 -44q113 0 197.5 44t142 120t85 176.5t27.5 214.5q0 117 -29.5 218.5t-86 178t-141 121t-195.5 44.5q-115 0 -200 -44.5t-141.5 -121t-84 -178t-27.5 -218.5zM473 485v406q0 111 66 173t168 62q51 0 94 -17t74.5 -48t50 -71t20.5 -85l-164 -41q-4 41 -22.5 66.5 t-48.5 25.5q-43 0 -56.5 -19t-13.5 -48v-408q0 -25 18.5 -43t47.5 -18q63 0 69 90l168 -33q-10 -104 -68.5 -165.5t-168.5 -61.5q-100 0 -167 58.5t-67 176.5z" />
            <glyph unicode="&#xaa;" horiz-adv-x="575" d="M33 778q0 43 13 81t41 66.5t72 46t105 17.5h58v41q0 33 -37 33q-10 0 -23.5 -8t-19.5 -37l-193 55q57 180 250 180q121 0 177 -52t56 -167v-461h-210v41q-23 -23 -48.5 -36t-58.5 -13q-109 0 -145.5 59.5t-36.5 153.5zM229 788q0 -25 17.5 -34t34.5 -9q43 0 43 52v53h-35 q-20 0 -40 -13.5t-20 -48.5z" />
            <glyph unicode="&#xab;" horiz-adv-x="1103" d="M94 506l238 409h264l-236 -409l236 -412h-264zM512 506l238 409h264l-236 -409l236 -412h-264z" />
            <glyph unicode="&#xac;" d="M39 498v227h795v-537h-224v310h-571z" />
            <glyph unicode="&#xad;" horiz-adv-x="784" d="M100 442v246h607v-246h-607z" />
            <glyph unicode="&#xae;" horiz-adv-x="995" d="M82 961q0 104 26.5 192t80 152.5t132 100.5t183.5 36q100 0 177 -36t130 -100.5t81 -152.5t28 -192q0 -102 -28 -190.5t-81 -153t-130 -100.5t-177 -36q-104 0 -183 36t-132.5 100.5t-80 152.5t-26.5 191zM207 965q0 -160 75.5 -260.5t221.5 -100.5q76 0 130 27.5t89 77 t52.5 115t17.5 141.5t-18.5 142.5t-55.5 115.5t-91 77.5t-124 28.5q-76 0 -132.5 -28.5t-93 -77.5t-54 -116t-17.5 -142zM350 688v565h160q160 0 160 -176q0 -47 -13.5 -87t-52.5 -66q20 -57 44 -118t46 -118h-131l-71 213h-19v-213h-123zM473 1010h29q31 0 41 17t10 50 t-11.5 50.5t-45.5 17.5h-23v-135z" />
            <glyph unicode="&#xaf;" horiz-adv-x="784" d="M174 1159v225h516v-225h-516z" />
            <glyph unicode="&#xb0;" horiz-adv-x="722" d="M96 1169q0 55 20.5 104.5t57.5 85.5t85 57.5t103 21.5t104.5 -21.5t86.5 -57.5t57.5 -85.5t20.5 -104.5t-20.5 -104t-57.5 -86t-86 -57.5t-105 -20.5q-55 0 -103 20.5t-85 57.5t-57.5 86t-20.5 104zM268 1169q0 -41 27 -69.5t67 -28.5q43 0 70 28.5t27 69.5t-26.5 69 t-70.5 28q-41 0 -67.5 -28t-26.5 -69z" />
            <glyph unicode="&#xb1;" d="M39 0v215h797v-215h-797zM39 563v223h287v289h223v-289h287v-223h-287v-289h-223v289h-287z" />
            <glyph unicode="&#xb2;" horiz-adv-x="573" d="M37 1372q6 127 76.5 189.5t167.5 62.5q121 0 177 -58.5t56 -158.5q0 -47 -15.5 -92t-45.5 -101l-156 -276h201v-180h-443v160l230 385q29 45 28 104q0 14 -7 27.5t-27 13.5q-23 0 -36.5 -21.5t-13.5 -78.5z" />
            <glyph unicode="&#xb3;" horiz-adv-x="573" d="M57 1378q4 117 71 181.5t167 64.5q66 0 110 -19.5t69.5 -53t36.5 -80t11 -99.5q0 -43 -15 -94t-63 -76q51 -16 64.5 -63t13.5 -121q0 -59 -11 -107.5t-39 -84t-73 -55t-110 -19.5q-98 0 -164 60t-66 175l191 21q0 -51 15.5 -63.5t25.5 -12.5q12 0 23.5 8t11.5 31v104 q0 29 -15.5 39t-38.5 10h-53v154h60q47 0 47 45v86q0 10 -7.5 23.5t-29.5 13.5q-16 0 -29.5 -18.5t-13.5 -75.5z" />
            <glyph unicode="&#xb4;" horiz-adv-x="788" d="M264 1176l205 380l221 -110l-278 -359z" />
            <glyph unicode="&#xb6;" horiz-adv-x="946" d="M16 1024q0 72 21.5 143.5t68 128t121 92t183.5 35.5h469v-223h-93v-1319h-206v1319h-80v-1319h-213v750q-76 14 -127 49t-83 87t-46.5 117.5t-14.5 139.5z" />
            <glyph unicode="&#xb7;" horiz-adv-x="468" d="M96 408v307h277v-307h-277z" />
            <glyph unicode="&#xb8;" horiz-adv-x="882" d="M209 -383l43 109q47 -20 74.5 -25.5t50.5 -5.5q29 0 47 19.5t18 41.5q0 33 -21.5 45.5t-55.5 12.5l-70 47l67 209h125l-51 -144q55 -8 90 -28.5t55.5 -46t28.5 -54t8 -51.5t-9 -52.5t-32.5 -57t-61.5 -47t-95 -19.5q-8 0 -28.5 1t-49.5 5t-63.5 14.5t-69.5 26.5z" />
            <glyph unicode="&#xb9;" horiz-adv-x="458" d="M51 1303v206l142 101h174v-852h-199v631z" />
            <glyph unicode="&#xba;" horiz-adv-x="567" d="M41 905q0 61 4 128t18 100q25 53 79.5 87.5t142.5 34.5q92 0 146 -33.5t75 -86.5q6 -16 9 -43t5 -57.5t3 -64.5t1 -61v-94t-4 -65q-8 -53 -31.5 -88t-57.5 -57.5t-71.5 -32t-74.5 -9.5q-109 0 -164 46t-68 102q-10 33 -11 90t-1 104zM250 883q0 -33 2 -64t6 -41 q8 -23 27 -22q10 0 16 9t8 17q4 12 4 35v68v61q0 35 -1 57.5t-5 38.5q-8 23 -24 23t-25 -23q-4 -10 -6 -32.5t-2 -65.5v-61z" />
            <glyph unicode="&#xbb;" horiz-adv-x="1103" d="M96 94l236 412l-236 409h264l238 -409l-238 -412h-264zM514 94l236 412l-236 409h264l238 -409l-238 -412h-264z" />
            <glyph unicode="&#xbc;" horiz-adv-x="1345" d="M92 1118v207l141 100h175v-852h-199v631zM246 -35l643 1497h166l-643 -1497h-166zM754 117v145l182 590h180l-170 -571h78v174h178v-174h49v-164h-49v-117h-178v117h-270z" />
            <glyph unicode="&#xbd;" horiz-adv-x="1345" d="M68 1118v207l141 100h174v-852h-199v631zM227 -35l643 1497h166l-643 -1497h-166zM801 614q6 127 76.5 189.5t166.5 62.5q121 0 177.5 -58t56.5 -159q0 -47 -15.5 -92t-45.5 -100l-156 -277h201v-180h-443v160l230 385q29 45 28 104q0 14 -7 27.5t-28 13.5 q-23 0 -36 -21.5t-13 -78.5z" />
            <glyph unicode="&#xbe;" horiz-adv-x="1345" d="M49 1194q4 117 71 181.5t167 64.5q66 0 109.5 -19.5t69.5 -53.5t37 -80t11 -99q0 -43 -15.5 -94.5t-62.5 -75.5q51 -16 64.5 -63.5t13.5 -120.5q0 -59 -11 -107.5t-39 -84.5t-73 -55.5t-110 -19.5q-98 0 -164 60.5t-66 175.5l191 20q0 -51 15 -63t26 -12q12 0 23 8t11 30 v105q0 29 -15 39t-38 10h-53v154h59q47 0 47 45v86q0 10 -7 23.5t-29 13.5q-16 0 -29.5 -18.5t-13.5 -76.5zM291 -35l643 1497h166l-643 -1497h-166zM799 117v145l182 590h180l-170 -571h78v174h178v-174h49v-164h-49v-117h-178v117h-270z" />
            <glyph unicode="&#xbf;" horiz-adv-x="851" d="M96 -43q0 53 4 93t11.5 72t18.5 57.5t28 51.5l104 185q16 27 23.5 55.5t7.5 75.5v76h272v-158q0 -47 -15 -90t-38 -82q-45 -74 -70.5 -122t-38 -83t-14.5 -63.5t-2 -67.5q0 -37 19.5 -76t68.5 -39q33 0 63.5 36t30.5 126l269 -31q-8 -193 -104.5 -295t-274.5 -102 q-190 0 -276.5 98.5t-86.5 282.5zM299 729v285h262v-285h-262z" />
            <glyph unicode="&#xc0;" horiz-adv-x="919" d="M18 0l271 1425h340l272 -1425h-293l-43 279h-209l-43 -279h-295zM59 1686l158 190l342 -266l-100 -140zM395 541h129l-26 227l-31 289h-12l-31 -289z" />
            <glyph unicode="&#xc1;" horiz-adv-x="919" d="M18 0l271 1425h340l272 -1425h-293l-43 279h-209l-43 -279h-295zM350 1610l342 266l158 -190l-399 -216zM395 541h129l-26 227l-31 289h-12l-31 -289z" />
            <glyph unicode="&#xc2;" horiz-adv-x="919" d="M18 0l271 1425h340l272 -1425h-293l-43 279h-209l-43 -279h-295zM109 1573l274 297h162l264 -295l-107 -98l-243 163l-244 -163zM395 541h129l-26 227l-31 289h-12l-31 -289z" />
            <glyph unicode="&#xc3;" horiz-adv-x="919" d="M18 0l271 1425h340l272 -1425h-293l-43 279h-209l-43 -279h-295zM113 1585q47 111 113.5 153t125.5 42q33 0 62.5 -11.5t56.5 -23.5t50.5 -23.5t41.5 -11.5q29 0 52.5 13.5t64.5 64.5l133 -74q-49 -115 -103.5 -159t-113.5 -44q-37 0 -68.5 11.5t-59.5 25t-53.5 24.5 t-49.5 11q-25 0 -52.5 -16.5t-66.5 -63.5zM395 541h129l-26 227l-31 289h-12l-31 -289z" />
            <glyph unicode="&#xc4;" horiz-adv-x="919" d="M18 0l271 1425h340l272 -1425h-293l-43 279h-209l-43 -279h-295zM160 1493v266h241v-266h-241zM395 541h129l-26 227l-31 289h-12l-31 -289zM516 1493v266h244v-266h-244z" />
            <glyph unicode="&#xc5;" horiz-adv-x="919" d="M18 0l271 1425h88q-53 25 -86 75t-33 114q0 43 16.5 81t44 66.5t65.5 45t81 16.5q45 0 83 -16.5t65.5 -45t43 -66.5t15.5 -81q0 -63 -33 -113.5t-86 -75.5h76l272 -1425h-293l-43 279h-209l-43 -279h-295zM395 541h129l-26 227l-31 289h-12l-31 -289zM401 1612 q0 -29 19.5 -45.5t44.5 -16.5q27 0 45 16.5t18 45.5q0 27 -18 45t-45 18q-25 0 -44.5 -18.5t-19.5 -44.5z" />
            <glyph unicode="&#xc6;" horiz-adv-x="1314" d="M16 0l404 1425h850v-266h-375v-299h328v-272h-328v-309h375v-279h-654v309h-225l-80 -309h-295zM459 575h157v580h-10z" />
            <glyph unicode="&#xc7;" horiz-adv-x="874" d="M92 348v715q0 170 91.5 272.5t279.5 102.5q186 0 275 -91.5t89 -236.5v-19.5t-2 -19.5l-268 -47q-2 63 -27.5 105t-68.5 42q-29 0 -46.5 -11t-27.5 -27.5t-14 -36t-4 -33.5v-727q0 -29 14 -55.5t68 -26.5q41 0 66.5 37t27.5 110l276 -36q-2 -160 -84 -261.5t-235 -113.5 l-23 -64q55 -8 90 -28.5t55.5 -46t29 -54t8.5 -51.5t-9.5 -52.5t-33 -57t-61.5 -47t-95 -19.5q-8 0 -28.5 1t-49.5 5t-63.5 14.5t-69.5 26.5l43 109q47 -20 74.5 -25.5t50.5 -5.5q29 0 47 19.5t18 41.5q0 33 -21.5 45.5t-55.5 12.5l-70 47l43 133q-150 16 -219.5 105 t-69.5 249z" />
            <glyph unicode="&#xc8;" horiz-adv-x="806" d="M94 1686l158 190l342 -266l-100 -140zM104 0v1425h654v-266h-375v-301h328v-268h-328v-322h375v-268h-654z" />
            <glyph unicode="&#xc9;" horiz-adv-x="806" d="M104 0v1425h654v-266h-375v-301h328v-268h-328v-322h375v-268h-654zM246 1610l342 266l157 -190l-399 -216z" />
            <glyph unicode="&#xca;" horiz-adv-x="806" d="M80 1573l274 297h162l264 -295l-106 -98l-244 163l-244 -163zM104 0v1425h654v-266h-375v-301h328v-268h-328v-322h375v-268h-654z" />
            <glyph unicode="&#xcb;" horiz-adv-x="806" d="M104 0v1425h654v-266h-375v-301h328v-268h-328v-322h375v-268h-654zM129 1493v266h242v-266h-242zM485 1493v266h244v-266h-244z" />
            <glyph unicode="&#xcc;" horiz-adv-x="495" d="M-150 1686l158 190l342 -266l-100 -140zM109 0v1425h278v-1425h-278z" />
            <glyph unicode="&#xcd;" horiz-adv-x="495" d="M109 0v1425h278v-1425h-278zM127 1610l342 266l158 -190l-400 -216z" />
            <glyph unicode="&#xce;" horiz-adv-x="495" d="M-100 1573l274 297h162l264 -295l-106 -98l-244 163l-244 -163zM109 0v1425h278v-1425h-278z" />
            <glyph unicode="&#xcf;" horiz-adv-x="495" d="M-51 1493v266h241v-266h-241zM109 0v1425h278v-1425h-278zM305 1493v266h244v-266h-244z" />
            <glyph unicode="&#xd0;" horiz-adv-x="913" d="M8 612v185h98v628h375q127 0 201 -44t102 -148q18 -66 21.5 -204t3.5 -314t-3 -307.5t-26 -196.5q-39 -121 -124 -166t-193 -45h-357v612h-98zM383 268h43q66 0 85 31t19 92v643q0 59 -19 91t-85 32h-43v-360h82v-185h-82v-344z" />
            <glyph unicode="&#xd1;" horiz-adv-x="985" d="M98 0v1425h244l168 -413l96 -260h10v673h273v-1425h-238l-168 416l-98 270h-10v-686h-277zM147 1571q47 111 114 152.5t126 41.5q33 0 62.5 -11t56 -23.5t50.5 -23.5t42 -11q29 0 52.5 13t64.5 65l133 -74q-49 -115 -103.5 -159t-113.5 -44q-37 0 -69 11.5t-59.5 24.5 t-53 24.5t-50.5 11.5t-52.5 -16.5t-65.5 -63.5z" />
            <glyph unicode="&#xd2;" horiz-adv-x="911" d="M92 348v731q0 184 96.5 271.5t266.5 87.5q186 0 275 -87t89 -272v-731q0 -184 -92 -272t-272 -88q-362 0 -363 360zM119 1686l157 190l342 -266l-100 -140zM371 336q0 -49 24.5 -68.5t59.5 -19.5t58.5 19.5t23.5 68.5v754q0 47 -24 67.5t-58 20.5q-35 0 -59.5 -20.5 t-24.5 -67.5v-754z" />
            <glyph unicode="&#xd3;" horiz-adv-x="911" d="M92 348v731q0 184 96.5 271.5t266.5 87.5q186 0 275 -87t89 -272v-731q0 -184 -92 -272t-272 -88q-362 0 -363 360zM285 1610l342 266l157 -190l-399 -216zM371 336q0 -49 24.5 -68.5t59.5 -19.5t58.5 19.5t23.5 68.5v754q0 47 -24 67.5t-58 20.5q-35 0 -59.5 -20.5 t-24.5 -67.5v-754z" />
            <glyph unicode="&#xd4;" horiz-adv-x="911" d="M92 348v731q0 184 96.5 271.5t266.5 87.5q186 0 275 -87t89 -272v-731q0 -184 -92 -272t-272 -88q-362 0 -363 360zM104 1573l275 297h162l264 -295l-107 -98l-243 163l-244 -163zM371 336q0 -49 24.5 -68.5t59.5 -19.5t58.5 19.5t23.5 68.5v754q0 47 -24 67.5t-58 20.5 q-35 0 -59.5 -20.5t-24.5 -67.5v-754z" />
            <glyph unicode="&#xd5;" horiz-adv-x="911" d="M92 348v731q0 184 96.5 271.5t266.5 87.5q186 0 275 -87t89 -272v-731q0 -184 -92 -272t-272 -88q-362 0 -363 360zM113 1606q47 111 113.5 152.5t125.5 41.5q33 0 62.5 -11t56.5 -23.5t50.5 -23.5t41.5 -11q29 0 52.5 13t64.5 64l133 -73q-49 -115 -103.5 -159 t-113.5 -44q-37 0 -68.5 11t-59.5 24.5t-53.5 25t-49.5 11.5q-25 0 -52.5 -16.5t-66.5 -63.5zM371 336q0 -49 24.5 -68.5t59.5 -19.5t58.5 19.5t23.5 68.5v754q0 47 -24 67.5t-58 20.5q-35 0 -59.5 -20.5t-24.5 -67.5v-754z" />
            <glyph unicode="&#xd6;" horiz-adv-x="911" d="M92 348v731q0 184 96.5 271.5t266.5 87.5q186 0 275 -87t89 -272v-731q0 -184 -92 -272t-272 -88q-362 0 -363 360zM154 1493v266h241v-266h-241zM371 336q0 -49 24.5 -68.5t59.5 -19.5t58.5 19.5t23.5 68.5v754q0 47 -24 67.5t-58 20.5q-35 0 -59.5 -20.5t-24.5 -67.5 v-754zM510 1493v266h244v-266h-244z" />
            <glyph unicode="&#xd7;" d="M25 367l258 245l-252 262l162 158l251 -262l258 248l154 -162l-254 -246l248 -262l-162 -158l-252 263l-258 -246z" />
            <glyph unicode="&#xd8;" horiz-adv-x="911" d="M88 25l51 108q-47 80 -47 215v731q0 184 96.5 271.5t266.5 87.5q168 0 260 -74l33 70l71 -37l-49 -103q49 -84 49 -215v-731q0 -184 -92 -272t-272 -88q-172 0 -265 80l-36 -78zM371 336q0 -49 24.5 -68.5t59.5 -19.5t58.5 19.5t23.5 68.5v463l-166 -353v-110zM371 629 l166 354v107q0 47 -24 67.5t-58 20.5q-35 0 -59.5 -20.5t-24.5 -67.5v-461z" />
            <glyph unicode="&#xd9;" horiz-adv-x="911" d="M94 348v1075h279v-1081q0 -49 24.5 -68.5t59.5 -19.5t58.5 19.5t23.5 68.5v1081h282v-1075q0 -184 -92 -272t-272 -88q-362 0 -363 360zM119 1686l157 190l342 -266l-100 -140z" />
            <glyph unicode="&#xda;" horiz-adv-x="911" d="M94 348v1075h279v-1081q0 -49 24.5 -68.5t59.5 -19.5t58.5 19.5t23.5 68.5v1081h282v-1075q0 -184 -92 -272t-272 -88q-362 0 -363 360zM262 1610l342 266l158 -190l-400 -216z" />
            <glyph unicode="&#xdb;" horiz-adv-x="911" d="M94 348v1075h279v-1081q0 -49 24.5 -68.5t59.5 -19.5t58.5 19.5t23.5 68.5v1081h282v-1075q0 -184 -92 -272t-272 -88q-362 0 -363 360zM102 1573l275 297h162l264 -295l-107 -98l-243 163l-244 -163z" />
            <glyph unicode="&#xdc;" horiz-adv-x="911" d="M94 348v1075h279v-1081q0 -49 24.5 -68.5t59.5 -19.5t58.5 19.5t23.5 68.5v1081h282v-1075q0 -184 -92 -272t-272 -88q-362 0 -363 360zM154 1493v266h241v-266h-241zM510 1493v266h244v-266h-244z" />
            <glyph unicode="&#xdd;" horiz-adv-x="847" d="M6 1425h297l70 -284l51 -236h10l51 240l62 280h295l-277 -845v-580h-280v580zM295 1610l342 266l158 -190l-400 -216z" />
            <glyph unicode="&#xde;" horiz-adv-x="876" d="M104 0v1425h277v-247h61q90 0 163 -21.5t125 -72t81 -135.5t29 -212q0 -219 -92.5 -341t-298.5 -122h-66v-274h-279zM383 543h47q27 0 52.5 7t46 28.5t32.5 60.5t12 100q0 94 -37.5 133t-101.5 39h-51v-368z" />
            <glyph unicode="&#xdf;" horiz-adv-x="878" d="M96 0v1161q0 150 83 238t257 88q168 0 253 -86t85 -240v-76q0 -55 -21.5 -112.5t-74.5 -85.5v-10q66 -39 93.5 -98.5t27.5 -135.5v-311q0 -61 -8.5 -123t-35 -110t-76.5 -78.5t-132 -30.5q-45 0 -103 12v231q27 0 49.5 17.5t22.5 58.5v379q0 18 -18.5 46t-63.5 28v219 q37 0 48.5 19.5t11.5 86.5v66q0 27 -11.5 48.5t-46.5 21.5q-29 0 -44 -17.5t-15 -42.5v-1163h-281z" />
            <glyph unicode="&#xe0;" horiz-adv-x="835" d="M57 305q0 61 18.5 117.5t57.5 99.5t101.5 68.5t148.5 25.5h100v86q0 63 -71 64q-20 0 -44 -15.5t-34 -68.5l-248 80q31 125 118 194.5t228 69.5q170 0 251 -76t81 -248v-702h-281v70l-10 2q-23 -37 -71 -60.5t-91 -23.5q-74 0 -123 23.5t-78.5 65.5t-41 100.5 t-11.5 127.5zM147 1446l222 110l204 -380l-147 -89zM334 322q0 -39 23.5 -56.5t54.5 -17.5t51 24.5t20 63.5v90h-57q-35 0 -63.5 -22.5t-28.5 -81.5z" />
            <glyph unicode="&#xe1;" horiz-adv-x="835" d="M57 305q0 61 18.5 117.5t57.5 99.5t101.5 68.5t148.5 25.5h100v86q0 63 -71 64q-20 0 -44 -15.5t-34 -68.5l-248 80q31 125 118 194.5t228 69.5q170 0 251 -76t81 -248v-702h-281v70l-10 2q-23 -37 -71 -60.5t-91 -23.5q-74 0 -123 23.5t-78.5 65.5t-41 100.5 t-11.5 127.5zM334 322q0 -39 23.5 -56.5t54.5 -17.5t51 24.5t20 63.5v90h-57q-35 0 -63.5 -22.5t-28.5 -81.5zM346 1176l205 380l221 -110l-278 -359z" />
            <glyph unicode="&#xe2;" horiz-adv-x="835" d="M57 305q0 61 18.5 117.5t57.5 99.5t101.5 68.5t148.5 25.5h100v86q0 63 -71 64q-20 0 -44 -15.5t-34 -68.5l-248 80q31 125 118 194.5t228 69.5q170 0 251 -76t81 -248v-702h-281v70l-10 2q-23 -37 -71 -60.5t-91 -23.5q-74 0 -123 23.5t-78.5 65.5t-41 100.5 t-11.5 127.5zM98 1151l275 326h162l264 -324l-107 -98l-243 192l-244 -192zM334 322q0 -39 23.5 -56.5t54.5 -17.5t51 24.5t20 63.5v90h-57q-35 0 -63.5 -22.5t-28.5 -81.5z" />
            <glyph unicode="&#xe3;" horiz-adv-x="835" d="M57 305q0 61 18.5 117.5t57.5 99.5t101.5 68.5t148.5 25.5h100v86q0 63 -71 64q-20 0 -44 -15.5t-34 -68.5l-248 80q31 125 118 194.5t228 69.5q170 0 251 -76t81 -248v-702h-281v70l-10 2q-23 -37 -71 -60.5t-91 -23.5q-74 0 -123 23.5t-78.5 65.5t-41 100.5 t-11.5 127.5zM90 1190q47 111 114 152.5t126 41.5q33 0 62.5 -11t56 -23.5t50 -23.5t42.5 -11q29 0 52 13t64 65l134 -74q-49 -115 -103.5 -159t-114.5 -44q-37 0 -68.5 11.5t-59 24.5t-53 24.5t-50.5 11.5t-52.5 -16.5t-66.5 -63.5zM334 322q0 -39 23.5 -56.5t54.5 -17.5 t51 24.5t20 63.5v90h-57q-35 0 -63.5 -22.5t-28.5 -81.5z" />
            <glyph unicode="&#xe4;" horiz-adv-x="835" d="M57 305q0 61 18.5 117.5t57.5 99.5t101.5 68.5t148.5 25.5h100v86q0 63 -71 64q-20 0 -44 -15.5t-34 -68.5l-248 80q31 125 118 194.5t228 69.5q170 0 251 -76t81 -248v-702h-281v70l-10 2q-23 -37 -71 -60.5t-91 -23.5q-74 0 -123 23.5t-78.5 65.5t-41 100.5 t-11.5 127.5zM139 1120v266h242v-266h-242zM334 322q0 -39 23.5 -56.5t54.5 -17.5t51 24.5t20 63.5v90h-57q-35 0 -63.5 -22.5t-28.5 -81.5zM496 1120v266h243v-266h-243z" />
            <glyph unicode="&#xe5;" horiz-adv-x="835" d="M57 305q0 61 18.5 117.5t57.5 99.5t101.5 68.5t148.5 25.5h100v86q0 63 -71 64q-20 0 -44 -15.5t-34 -68.5l-248 80q31 125 118 194.5t228 69.5q170 0 251 -76t81 -248v-702h-281v70l-10 2q-23 -37 -71 -60.5t-91 -23.5q-74 0 -123 23.5t-78.5 65.5t-41 100.5 t-11.5 127.5zM252 1270q0 43 16.5 81t44 66.5t65.5 45t81 16.5q45 0 83 -16.5t65.5 -45t43 -66.5t15.5 -81t-15.5 -81t-43 -65.5t-65.5 -44t-83 -16.5q-43 0 -81 16.5t-65.5 44t-44 65.5t-16.5 81zM334 322q0 -39 23.5 -56.5t54.5 -17.5t51 24.5t20 63.5v90h-57 q-35 0 -63.5 -22.5t-28.5 -81.5zM395 1268q0 -29 19.5 -45.5t44.5 -16.5q27 0 45 16.5t18 45.5q0 27 -18 45t-45 18q-25 0 -44.5 -18.5t-19.5 -44.5z" />
            <glyph unicode="&#xe6;" horiz-adv-x="1202" d="M57 305q0 61 18.5 117.5t57.5 99.5t101.5 68.5t148.5 25.5h88v86q0 29 -13.5 46.5t-51.5 17.5q-20 0 -44 -12.5t-34 -65.5l-244 76q66 262 348 262q59 0 108.5 -14.5t84.5 -42.5q35 31 84 46t102 15q154 0 246 -83t92 -242v-261h-397v-139q0 -23 16 -38t41 -15 q23 0 42 17.5t23 62.5l277 -45q-8 -139 -98 -219t-242 -80q-86 0 -158.5 29.5t-107.5 93.5q-66 -80 -127.5 -101.5t-106.5 -21.5q-74 0 -123 23.5t-78.5 65.5t-41 100.5t-11.5 127.5zM334 322q0 -39 20.5 -56.5t51.5 -17.5t48 24.5t17 63.5v90h-51q-35 0 -60.5 -22.5 t-25.5 -81.5zM752 621h116v94q0 20 -18.5 36.5t-40.5 16.5q-25 0 -41 -16.5t-16 -34.5v-96z" />
            <glyph unicode="&#xe7;" horiz-adv-x="780" d="M70 502q0 45 2 95t6 96t11 86t17 67q31 82 108 133t200 51q154 0 236.5 -85t82.5 -245l-272 -30q0 53 -15.5 76.5t-37.5 23.5q-20 0 -30.5 -11t-17.5 -30q-6 -16 -8 -80.5t-4 -150.5v-31q0 -53 2 -100.5t8 -71.5q10 -45 50 -45q23 0 38 20.5t15 71.5l276 -35 q0 -139 -75.5 -223t-208.5 -94l-23 -64q55 -8 90 -28.5t55.5 -46t28.5 -54t8 -51.5t-9 -52.5t-32.5 -57t-61.5 -47t-95 -19.5q-8 0 -28.5 1t-49.5 5t-63.5 14.5t-69.5 26.5l43 109q47 -20 74.5 -25.5t50.5 -5.5q29 0 47 19.5t18 41.5q0 33 -21.5 45.5t-56.5 12.5l-69 47 l43 133q-113 16 -168 75.5t-74 131.5q-6 25 -10 61.5t-6 77.5t-3 83t-1 79z" />
            <glyph unicode="&#xe8;" horiz-adv-x="806" d="M70 502q0 45 2 95t6 96t11 86t17 67q31 82 107 133t199 51q154 0 241.5 -83t87.5 -242v-254h-393q0 -49 -1 -91.5t5 -64.5q10 -45 51 -45q23 0 41.5 18.5t22.5 63.5l276 -41q-8 -139 -94 -221t-237 -82q-78 0 -133.5 17.5t-94.5 47t-61.5 68.5t-32.5 80q-6 25 -10 61.5 t-6 77.5t-3 83t-1 79zM129 1446l221 110l205 -380l-147 -89zM350 621h111v86q0 20 -11.5 40.5t-39.5 20.5q-38 0 -50 -39q-4 -10 -6 -38.5t-4 -69.5z" />
            <glyph unicode="&#xe9;" horiz-adv-x="806" d="M70 502q0 45 2 95t6 96t11 86t17 67q31 82 107 133t199 51q154 0 241.5 -83t87.5 -242v-254h-393q0 -49 -1 -91.5t5 -64.5q10 -45 51 -45q23 0 41.5 18.5t22.5 63.5l276 -41q-8 -139 -94 -221t-237 -82q-78 0 -133.5 17.5t-94.5 47t-61.5 68.5t-32.5 80q-6 25 -10 61.5 t-6 77.5t-3 83t-1 79zM283 1176l204 380l222 -110l-279 -359zM350 621h111v86q0 20 -11.5 40.5t-39.5 20.5q-38 0 -50 -39q-4 -10 -6 -38.5t-4 -69.5z" />
            <glyph unicode="&#xea;" horiz-adv-x="806" d="M57 1151l275 326h162l264 -324l-107 -98l-243 192l-244 -192zM70 502q0 45 2 95t6 96t11 86t17 67q31 82 107 133t199 51q154 0 241.5 -83t87.5 -242v-254h-393q0 -49 -1 -91.5t5 -64.5q10 -45 51 -45q23 0 41.5 18.5t22.5 63.5l276 -41q-8 -139 -94 -221t-237 -82 q-78 0 -133.5 17.5t-94.5 47t-61.5 68.5t-32.5 80q-6 25 -10 61.5t-6 77.5t-3 83t-1 79zM350 621h111v86q0 20 -11.5 40.5t-39.5 20.5q-38 0 -50 -39q-4 -10 -6 -38.5t-4 -69.5z" />
            <glyph unicode="&#xeb;" horiz-adv-x="806" d="M70 502q0 45 2 95t6 96t11 86t17 67q31 82 107 133t199 51q154 0 241.5 -83t87.5 -242v-254h-393q0 -49 -1 -91.5t5 -64.5q10 -45 51 -45q23 0 41.5 18.5t22.5 63.5l276 -41q-8 -139 -94 -221t-237 -82q-78 0 -133.5 17.5t-94.5 47t-61.5 68.5t-32.5 80q-6 25 -10 61.5 t-6 77.5t-3 83t-1 79zM104 1120v266h242v-266h-242zM350 621h111v86q0 20 -11.5 40.5t-39.5 20.5q-38 0 -50 -39q-4 -10 -6 -38.5t-4 -69.5zM461 1120v266h244v-266h-244z" />
            <glyph unicode="&#xec;" horiz-adv-x="509" d="M-33 1446l221 110l205 -380l-147 -89zM127 0v1012h281v-1012h-281z" />
            <glyph unicode="&#xed;" horiz-adv-x="536" d="M102 0v1012h281v-1012h-281zM172 1176l205 380l221 -110l-279 -359z" />
            <glyph unicode="&#xee;" horiz-adv-x="618" d="M-41 1151l274 326h162l264 -324l-106 -98l-244 192l-243 -192zM168 0v1012h281v-1012h-281z" />
            <glyph unicode="&#xef;" horiz-adv-x="559" d="M-20 1120v266h241v-266h-241zM135 0v1012h281v-1012h-281zM336 1120v266h244v-266h-244z" />
            <glyph unicode="&#xf0;" horiz-adv-x="819" d="M70 502q0 98 8 169.5t26 125.5q29 78 95.5 128t175.5 50q25 0 73 -11.5t82 -45.5q0 59 -6 112t-26 98l-105 -75l-69 88l106 78q-35 29 -94.5 48t-130.5 27l33 201q80 -4 139 -15.5t104 -27.5t77 -39.5t60 -54.5l123 90l70 -88l-127 -94q33 -66 50.5 -174.5t17.5 -303.5 v-253v-62t-2 -70.5t-4.5 -71.5t-4.5 -63q-10 -86 -43.5 -141t-81 -87t-105.5 -43t-120 -11q-135 0 -206.5 58t-98.5 157q-6 23 -9 57.5t-4 76.5t-2 85t-1 82zM348 477q0 -61 1 -109.5t9 -72.5q10 -45 56 -45q23 0 35 13t16 32q4 12 7 69.5t3 129.5q0 68 -3 105.5t-7 64.5 q-4 20 -16 33.5t-35 13.5q-39 0 -54 -41q-8 -20 -9 -59.5t-3 -133.5z" />
            <glyph unicode="&#xf1;" horiz-adv-x="845" d="M82 1217q47 111 114 152.5t126 41.5q33 0 62.5 -11t56 -23.5t50 -24t41.5 -11.5q29 0 52.5 13.5t64.5 64.5l133 -73q-49 -115 -103 -159t-114 -44q-37 0 -68.5 11t-59 24.5t-53.5 24.5t-50 11q-25 0 -52.5 -16t-66.5 -63zM86 0v1014h281v-80l10 -2q27 35 76 64.5t96 29.5 q70 0 111.5 -20.5t64.5 -55.5t31 -82t8 -100v-768h-281v686q0 41 -16 57.5t-39 16.5q-25 0 -43 -20.5t-18 -59.5v-680h-281z" />
            <glyph unicode="&#xf2;" horiz-adv-x="821" d="M70 502q0 45 2 95t6 96t10 86t16 67q31 82 109 133t201 51q129 0 203.5 -51t103.5 -127q10 -29 15 -70t8.5 -87t4.5 -95t1 -92v-31q0 -55 -1 -109.5t-8 -105.5q-10 -88 -46 -142t-84 -84t-104 -40t-110 -10q-72 0 -124 18.5t-89 48t-60.5 68.5t-33.5 80q-6 25 -10 61.5 t-6 77.5t-3 83t-1 79zM139 1446l221 110l205 -380l-147 -89zM348 467q0 -53 1 -100.5t9 -71.5q10 -45 56 -45q23 0 37 14.5t14 30.5q4 12 7 73.5t3 133.5q0 68 -3 131t-7 90q-4 20 -16 33.5t-35 13.5q-39 0 -54 -41q-8 -20 -9 -82.5t-3 -148.5v-31z" />
            <glyph unicode="&#xf3;" horiz-adv-x="821" d="M70 502q0 45 2 95t6 96t10 86t16 67q31 82 109 133t201 51q129 0 203.5 -51t103.5 -127q10 -29 15 -70t8.5 -87t4.5 -95t1 -92v-31q0 -55 -1 -109.5t-8 -105.5q-10 -88 -46 -142t-84 -84t-104 -40t-110 -10q-72 0 -124 18.5t-89 48t-60.5 68.5t-33.5 80q-6 25 -10 61.5 t-6 77.5t-3 83t-1 79zM264 1176l205 380l221 -110l-278 -359zM348 467q0 -53 1 -100.5t9 -71.5q10 -45 56 -45q23 0 37 14.5t14 30.5q4 12 7 73.5t3 133.5q0 68 -3 131t-7 90q-4 20 -16 33.5t-35 13.5q-39 0 -54 -41q-8 -20 -9 -82.5t-3 -148.5v-31z" />
            <glyph unicode="&#xf4;" horiz-adv-x="821" d="M57 1151l275 326h162l264 -324l-107 -98l-243 192l-244 -192zM70 502q0 45 2 95t6 96t10 86t16 67q31 82 109 133t201 51q129 0 203.5 -51t103.5 -127q10 -29 15 -70t8.5 -87t4.5 -95t1 -92v-31q0 -55 -1 -109.5t-8 -105.5q-10 -88 -46 -142t-84 -84t-104 -40t-110 -10 q-72 0 -124 18.5t-89 48t-60.5 68.5t-33.5 80q-6 25 -10 61.5t-6 77.5t-3 83t-1 79zM348 467q0 -53 1 -100.5t9 -71.5q10 -45 56 -45q23 0 37 14.5t14 30.5q4 12 7 73.5t3 133.5q0 68 -3 131t-7 90q-4 20 -16 33.5t-35 13.5q-39 0 -54 -41q-8 -20 -9 -82.5t-3 -148.5v-31z " />
            <glyph unicode="&#xf5;" horiz-adv-x="821" d="M68 1217q47 111 113.5 152.5t125.5 41.5q33 0 62.5 -11t56.5 -23.5t50.5 -24t41.5 -11.5q29 0 52.5 13.5t64.5 64.5l133 -73q-49 -115 -103.5 -159t-113.5 -44q-37 0 -68.5 11t-59.5 24.5t-53.5 24.5t-50.5 11t-52 -16t-66 -63zM70 502q0 45 2 95t6 96t10 86t16 67 q31 82 109 133t201 51q129 0 203.5 -51t103.5 -127q10 -29 15 -70t8.5 -87t4.5 -95t1 -92v-31q0 -55 -1 -109.5t-8 -105.5q-10 -88 -46 -142t-84 -84t-104 -40t-110 -10q-72 0 -124 18.5t-89 48t-60.5 68.5t-33.5 80q-6 25 -10 61.5t-6 77.5t-3 83t-1 79zM348 467 q0 -53 1 -100.5t9 -71.5q10 -45 56 -45q23 0 37 14.5t14 30.5q4 12 7 73.5t3 133.5q0 68 -3 131t-7 90q-4 20 -16 33.5t-35 13.5q-39 0 -54 -41q-8 -20 -9 -82.5t-3 -148.5v-31z" />
            <glyph unicode="&#xf6;" horiz-adv-x="821" d="M70 502q0 45 2 95t6 96t10 86t16 67q31 82 109 133t201 51q129 0 203.5 -51t103.5 -127q10 -29 15 -70t8.5 -87t4.5 -95t1 -92v-31q0 -55 -1 -109.5t-8 -105.5q-10 -88 -46 -142t-84 -84t-104 -40t-110 -10q-72 0 -124 18.5t-89 48t-60.5 68.5t-33.5 80q-6 25 -10 61.5 t-6 77.5t-3 83t-1 79zM111 1120v266h241v-266h-241zM348 467q0 -53 1 -100.5t9 -71.5q10 -45 56 -45q23 0 37 14.5t14 30.5q4 12 7 73.5t3 133.5q0 68 -3 131t-7 90q-4 20 -16 33.5t-35 13.5q-39 0 -54 -41q-8 -20 -9 -82.5t-3 -148.5v-31zM467 1120v266h244v-266h-244z" />
            <glyph unicode="&#xf7;" d="M39 485v220h797v-220h-797zM291 248q0 61 44 107t107 46t107.5 -46t44.5 -107q0 -63 -44 -109.5t-108 -46.5q-63 0 -107 46t-44 110zM291 950q0 63 44 108.5t107 45.5t107.5 -45.5t44.5 -108.5q0 -61 -44 -107t-108 -46q-63 0 -107 46t-44 107z" />
            <glyph unicode="&#xf8;" horiz-adv-x="821" d="M70 502q0 45 2 95t6 96t10 86t16 67q31 82 109 133t201 51q49 0 89 -8t75 -23l59 131l55 -28l-59 -133q33 -23 54.5 -52.5t33.5 -64.5q10 -29 15 -70t8.5 -87t4.5 -95t1 -92v-31q0 -55 -1 -109.5t-8 -105.5q-10 -88 -46 -142t-84 -84t-104 -40t-110 -10q-57 0 -102 11 t-80 32l-41 -92l-53 28l45 103q-29 29 -47.5 62.5t-28.5 70.5q-6 25 -10 61.5t-6 77.5t-3 83t-1 79zM348 479l113 256q-14 35 -47 35q-39 0 -54 -41q-8 -20 -9 -82.5t-3 -148.5v-19zM350 334q4 -27 8 -39q10 -45 56 -45q23 0 37 14.5t14 30.5q4 12 7 73.5t3 133.5v55.5 t-2 50.5z" />
            <glyph unicode="&#xf9;" horiz-adv-x="845" d="M88 246v768h281v-686q0 -41 16 -57.5t39 -16.5q25 0 43 20.5t18 59.5v680h281v-1014h-281v80l-10 2q-12 -16 -32.5 -33.5t-44 -31t-49 -21.5t-50.5 -8q-70 0 -111 20.5t-63.5 55t-29.5 82t-7 100.5zM158 1446l221 110l205 -380l-148 -89z" />
            <glyph unicode="&#xfa;" horiz-adv-x="845" d="M88 246v768h281v-686q0 -41 16 -57.5t39 -16.5q25 0 43 20.5t18 59.5v680h281v-1014h-281v80l-10 2q-12 -16 -32.5 -33.5t-44 -31t-49 -21.5t-50.5 -8q-70 0 -111 20.5t-63.5 55t-29.5 82t-7 100.5zM334 1176l205 380l221 -110l-279 -359z" />
            <glyph unicode="&#xfb;" horiz-adv-x="845" d="M74 1151l274 326h162l264 -324l-106 -98l-244 192l-244 -192zM88 246v768h281v-686q0 -41 16 -57.5t39 -16.5q25 0 43 20.5t18 59.5v680h281v-1014h-281v80l-10 2q-12 -16 -32.5 -33.5t-44 -31t-49 -21.5t-50.5 -8q-70 0 -111 20.5t-63.5 55t-29.5 82t-7 100.5z" />
            <glyph unicode="&#xfc;" horiz-adv-x="845" d="M88 246v768h281v-686q0 -41 16 -57.5t39 -16.5q25 0 43 20.5t18 59.5v680h281v-1014h-281v80l-10 2q-12 -16 -32.5 -33.5t-44 -31t-49 -21.5t-50.5 -8q-70 0 -111 20.5t-63.5 55t-29.5 82t-7 100.5zM123 1120v266h242v-266h-242zM479 1120v266h244v-266h-244z" />
            <glyph unicode="&#xfd;" horiz-adv-x="782" d="M6 1012h299l41 -365l29 -239h10l35 237l63 367h287l-293 -1155q-31 -121 -104.5 -185.5t-200.5 -64.5h-94v248h51q33 0 64.5 22.5t48.5 91.5l12 54zM274 1176l205 380l221 -110l-278 -359z" />
            <glyph unicode="&#xfe;" horiz-adv-x="821" d="M72 -389v1812h274v-483l8 -4q12 27 33 45t43.5 27.5t45 13.5t40.5 4q109 0 168 -61.5t72 -212.5q4 -29 5 -98.5t1 -147.5q0 -43 -2 -92t-5 -95.5t-7.5 -85t-10.5 -63.5q-6 -29 -18 -60.5t-37 -60.5t-65 -47t-103 -18q-27 0 -72 11t-80 46h-10v-430h-280zM350 524 q2 -86 1 -148.5t7 -82.5q15 -41 54 -41q23 0 35 13.5t16 33.5q4 27 6 90.5t2 130.5q0 72 -2 125t-6 66q0 16 -14.5 30.5t-36.5 14.5q-45 0 -56 -45q-4 -16 -5 -63.5t-1 -100.5v-23z" />
            <glyph unicode="&#xff;" horiz-adv-x="782" d="M6 1012h299l41 -365l29 -239h10l35 237l63 367h287l-293 -1155q-31 -121 -104.5 -185.5t-200.5 -64.5h-94v248h51q33 0 64.5 22.5t48.5 91.5l12 54zM80 1120v266h242v-266h-242zM436 1120v266h244v-266h-244z" />
            <glyph unicode="&#x152;" horiz-adv-x="1239" d="M92 348v731q0 92 27.5 159t76 112t115 66.5t144.5 21.5q63 0 118 -13h617v-266h-395v-299h348v-272h-348v-309h395v-279h-623q-53 -12 -112 -12q-160 0 -261.5 89t-101.5 271zM371 352q0 -49 24.5 -68.5t59.5 -19.5t58.5 19.5t23.5 68.5v721q0 47 -24 67.5t-58 20.5 q-35 0 -59.5 -20.5t-24.5 -67.5v-721z" />
            <glyph unicode="&#x153;" horiz-adv-x="1220" d="M70 502q0 45 2 95t6 96t10 86t16 67q31 82 109 133t201 51q66 0 123 -19.5t86 -56.5q35 37 87 56.5t115 19.5q154 0 242 -83t88 -242v-254h-393q0 -41 1 -87.5t7 -68.5q4 -20 19.5 -32.5t33.5 -12.5q23 0 38.5 18.5t19.5 63.5l276 -41q-8 -139 -94 -221t-238 -82 q-68 0 -118 15t-91 56q-47 -43 -106 -58t-113 -15q-72 0 -124 18.5t-89 48t-60.5 68.5t-33.5 80q-6 25 -10 61.5t-6 77.5t-3 83t-1 79zM348 467q0 -53 1 -100.5t9 -71.5q10 -45 56 -45q23 0 37 14.5t14 30.5q4 12 6 73.5t2 133.5q0 68 -2 131t-6 90q-4 20 -16 33.5t-35 13.5 q-39 0 -54 -41q-8 -20 -9 -82.5t-3 -148.5v-31zM764 621h110v86q0 20 -11 40.5t-40 20.5q-20 0 -30.5 -10t-18.5 -29q-4 -10 -6 -38.5t-4 -69.5z" />
            <glyph unicode="&#x178;" horiz-adv-x="847" d="M6 1425h297l70 -284l51 -236h10l51 240l62 280h295l-277 -845v-580h-280v580zM131 1493v266h242v-266h-242zM487 1493v266h244v-266h-244z" />
            <glyph unicode="&#x2c6;" horiz-adv-x="788" d="M82 1151l274 326h162l264 -324l-106 -98l-244 192l-244 -192z" />
            <glyph unicode="&#x2dc;" horiz-adv-x="741" d="M23 1217q47 111 113.5 152.5t125.5 41.5q33 0 62.5 -11t56.5 -23.5t50.5 -24t41.5 -11.5q29 0 52.5 13.5t64.5 64.5l133 -73q-49 -115 -103.5 -159t-113.5 -44q-37 0 -68.5 11t-59.5 24.5t-53.5 24.5t-50.5 11t-52 -16t-66 -63z" />
            <glyph unicode="&#x2000;" horiz-adv-x="938" />
            <glyph unicode="&#x2001;" horiz-adv-x="1876" />
            <glyph unicode="&#x2002;" horiz-adv-x="938" />
            <glyph unicode="&#x2003;" horiz-adv-x="1876" />
            <glyph unicode="&#x2004;" horiz-adv-x="625" />
            <glyph unicode="&#x2005;" horiz-adv-x="469" />
            <glyph unicode="&#x2006;" horiz-adv-x="312" />
            <glyph unicode="&#x2007;" horiz-adv-x="312" />
            <glyph unicode="&#x2008;" horiz-adv-x="234" />
            <glyph unicode="&#x2009;" horiz-adv-x="375" />
            <glyph unicode="&#x200a;" horiz-adv-x="104" />
            <glyph unicode="&#x2010;" horiz-adv-x="784" d="M100 442v246h607v-246h-607z" />
            <glyph unicode="&#x2011;" horiz-adv-x="784" d="M100 442v246h607v-246h-607z" />
            <glyph unicode="&#x2012;" horiz-adv-x="784" d="M100 442v246h607v-246h-607z" />
            <glyph unicode="&#x2013;" horiz-adv-x="1024" d="M41 453v219h942v-219h-942z" />
            <glyph unicode="&#x2014;" horiz-adv-x="2048" d="M41 453v219h1966v-219h-1966z" />
            <glyph unicode="&#x2018;" horiz-adv-x="610" d="M154 840v309l131 311h155l-67 -305h59v-315h-278z" />
            <glyph unicode="&#x2019;" horiz-adv-x="610" d="M154 842l67 305h-59v315h278v-309l-131 -311h-155z" />
            <glyph unicode="&#x201a;" horiz-adv-x="479" d="M96 -313l68 305h-60v315h279v-309l-131 -311h-156z" />
            <glyph unicode="&#x201c;" horiz-adv-x="811" d="M92 840v309l131 311h156l-68 -305h60v-315h-279zM440 840v309l131 311h156l-68 -305h60v-315h-279z" />
            <glyph unicode="&#x201d;" horiz-adv-x="811" d="M92 842l68 305h-60v315h279v-309l-131 -311h-156zM440 842l68 305h-59v315h278v-309l-131 -311h-156z" />
            <glyph unicode="&#x201e;" horiz-adv-x="811" d="M92 -315l68 305h-60v315h279v-309l-131 -311h-156zM440 -315l68 305h-59v315h278v-309l-131 -311h-156z" />
            <glyph unicode="&#x2022;" horiz-adv-x="976" d="M193 561q0 68 25.5 126t69.5 102.5t102.5 70t125.5 25.5q68 0 126 -25.5t102 -70t70 -102.5t26 -126t-26 -126t-70 -102t-102 -69.5t-126 -25.5t-126 25.5t-102 69.5t-69.5 102t-25.5 126z" />
            <glyph unicode="&#x2026;" horiz-adv-x="1636" d="M96 0v307h277v-307h-277zM682 0v307h276v-307h-276zM1268 0v307h276v-307h-276z" />
            <glyph unicode="&#x202f;" horiz-adv-x="375" />
            <glyph unicode="&#x2039;" horiz-adv-x="688" d="M98 506l238 409h264l-235 -409l235 -412h-264z" />
            <glyph unicode="&#x203a;" horiz-adv-x="688" d="M96 94l236 412l-236 409h264l238 -409l-238 -412h-264z" />
            <glyph unicode="&#x205f;" horiz-adv-x="469" />
            <glyph unicode="&#x20ac;" d="M41 537v139h86v80h-86v145h86v162q0 170 95 272.5t276 102.5q96 0 164.5 -28t113.5 -77t65.5 -115.5t18.5 -146.5l-268 -47q-2 63 -27.5 105t-68.5 42q-29 0 -46.5 -11t-27.5 -27.5t-14.5 -36t-4.5 -33.5v-162h263v-145h-263v-80h263v-139h-263v-201q0 -29 14.5 -55.5 t67.5 -26.5q41 0 67 37t28 110l276 -36q-2 -170 -94 -273.5t-266 -103.5q-193 0 -281 90t-88 270v189h-86z" />
            <glyph unicode="&#x2122;" horiz-adv-x="1492" d="M94 1260v165h520v-165h-172v-648h-176v648h-172zM692 612v811h158l178 -356l78 156l98 200h160v-811h-172v420h-6l-53 -143l-58 -133h-94l-63 139l-54 137h-8v-420h-164z" />
            <glyph unicode="&#x25fc;" horiz-adv-x="1013" d="M0 0v1014h1014v-1014h-1014z" />
            </font>
</defs>
</svg>
