<?xml version="1.0" standalone="no"?>
<!DOCTYPE svg PUBLIC "-//W3C//DTD SVG 1.1//EN" "http://www.w3.org/Graphics/SVG/1.1/DTD/svg11.dtd" >
<svg xmlns="http://www.w3.org/2000/svg">
    <metadata></metadata>
    <defs>
        <font id="pf_din_text_comp_proBdIt" horiz-adv-x="880" >
            <font-face units-per-em="2048" ascent="1536" descent="-512" />
            <missing-glyph horiz-adv-x="440" />
            <glyph unicode="&#xfb01;" horiz-adv-x="983" d="M-25 -313l215 1108h-88l43 217h88l27 135q18 96 59 163.5t97.5 109.5t124 61.5t141.5 19.5q84 0 173 -22.5t149 -81.5l-140 -215q-45 35 -94 45t-94 10q-41 0 -68.5 -13.5t-44 -31.5t-25 -40t-10.5 -38l-20 -102h504l-197 -1012h-274l153 795h-229l-215 -1108h-275z" />
            <glyph unicode="&#xfb02;" horiz-adv-x="1009" d="M-25 -317l215 1112h-88l43 217h86l27 135q39 193 147.5 273.5t256.5 80.5q16 0 58 -2t100.5 -11t128 -26.5t143.5 -48.5l-209 -1077q-2 -10 -2 -17.5v-13.5q0 -35 18.5 -47t58.5 -12l-49 -256q-10 -2 -20 -2h-21q-143 0 -208.5 66.5t-65.5 172.5q0 23 3 46.5t7 50.5 l174 899q-41 10 -66.5 12t-52.5 2q-37 0 -60.5 -13.5t-38.5 -31.5t-22.5 -40t-9.5 -38l-20 -102h147l-43 -217h-147l-215 -1112h-275z" />
            <glyph unicode="&#xfb03;" horiz-adv-x="1486" d="M-23 -313l213 1108h-88l43 219h88l15 76q18 96 59 163.5t96.5 109.5t124 61.5t142.5 19.5q47 0 102 -11.5t107 -35.5q63 55 142 79.5t163 24.5t173 -22.5t148 -81.5l-137 -211q-41 33 -92 44t-96 11q-41 0 -68 -11t-44 -29.5t-25.5 -41t-12.5 -45.5l-18 -100h504 l-197 -1014h-275l154 795h-229l-213 -1108h-275l213 1108h-229l-213 -1108h-275zM508 1014h229l15 82q2 10 6 32.5t12 38.5q-31 10 -56 14.5t-52 4.5q-41 0 -68 -14.5t-43 -34t-24.5 -42t-10.5 -38.5z" />
            <glyph unicode="&#xfb04;" horiz-adv-x="1513" d="M-20 -313l210 1108h-88l43 219h88l15 76q18 96 59 163.5t96.5 109.5t124 61.5t142.5 19.5q47 0 102 -11.5t107 -35.5q63 55 142 79.5t163 24.5q23 0 63.5 -3t95 -12t119 -26.5t133.5 -46.5l-209 -1077q-2 -10 -2 -17.5v-13.5q0 -35 18.5 -47t59.5 -12l-49 -256 q-10 -2 -20.5 -2h-20.5q-143 0 -208.5 66.5t-65.5 172.5q0 23 3 46.5t7 50.5l174 897q-61 20 -115 20q-37 0 -61.5 -13.5t-39.5 -31.5t-23.5 -39.5t-10.5 -38.5l-20 -104h157l-43 -219h-157l-211 -1108h-275l211 1108h-229l-211 -1108h-274zM508 1014h229l15 82q2 10 6 32.5 t12 38.5q-31 10 -56 14.5t-52 4.5q-41 0 -68 -14.5t-43 -34t-24.5 -42t-10.5 -38.5z" />
            <glyph horiz-adv-x="0" />
            <glyph horiz-adv-x="682" />
            <glyph unicode=" "  horiz-adv-x="440" />
            <glyph unicode="&#x09;" horiz-adv-x="440" />
            <glyph unicode="&#xa0;" horiz-adv-x="440" />
            <glyph unicode="!" horiz-adv-x="563" d="M70 0l55 285h262l-55 -285h-262zM164 416l176 1009h272l-217 -1009h-231z" />
            <glyph unicode="&#x22;" horiz-adv-x="634" d="M186 977l88 448h189l-88 -448h-189zM473 977l88 448h191l-88 -448h-191z" />
            <glyph unicode="#" d="M-43 0l158 424h-107l37 194h139q20 53 41 104.5t41 104.5h-106l37 195h137l149 401h201l-152 -401h144q39 100 75.5 201.5t75.5 199.5h201l-154 -401h111l-37 -195h-143q-18 -53 -37.5 -104t-38.5 -105h109l-37 -194h-146q-41 -106 -79.5 -212t-75.5 -212h-199l156 424 h-146q-80 -213 -153 -424h-201zM385 618h143l80 209h-145z" />
            <glyph unicode="$" d="M51 262q0 49 12 105l283 24q-10 -35 -10 -61q0 -25 9 -42.5t36 -23.5l65 338l-8 4q-74 35 -122 71t-76.5 73.5t-40 78.5t-11.5 86q0 111 27 205t79 163t132 110t184 45l27 137h74l-29 -139q74 -6 125 -30t83 -59.5t46 -81.5t14 -96q0 -66 -18 -129l-277 -16 q4 16 6.5 32.5t2.5 33.5q0 23 -7.5 39t-27.5 24l-56 -281q137 -57 195.5 -125.5t58.5 -166.5q0 -115 -20.5 -220.5t-69.5 -185.5t-131 -130t-205 -54l-30 -160h-74l31 160q-145 10 -211 87t-66 185zM457 270q27 12 44 37t27.5 55.5t14.5 64.5t4 67q0 41 -33 71zM473 985 q0 -20 7 -37.5t28 -34.5l47 242q-25 -10 -40 -30.5t-24.5 -45t-13.5 -50.5t-4 -44z" />
            <glyph unicode="%" horiz-adv-x="1345" d="M115 795l84 436q18 94 81.5 147.5t159.5 53.5q100 0 161 -60.5t40 -173.5l-84 -430q-20 -106 -81.5 -153.5t-160.5 -47.5q-49 0 -90 16.5t-68.5 45t-40 70.5t-1.5 96zM172 -35l934 1497h166l-934 -1497h-166zM295 780q-2 -10 8 -21t29 -11q14 0 22 11t11 21l86 439 q2 10 -5.5 22t-25.5 12t-26.5 -12t-10.5 -22zM819 215l84 436q18 94 82 147.5t160 53.5q100 0 160.5 -60.5t40.5 -173.5l-84 -430q-20 -106 -82 -153t-160 -47q-49 0 -90 16t-68.5 45t-40 71t-2.5 95zM999 201q-2 -10 8.5 -21.5t28.5 -11.5q14 0 22.5 11t10.5 22l86 438 q2 10 -5 22.5t-26 12.5q-18 0 -26 -12.5t-11 -22.5z" />
            <glyph unicode="&#x26;" horiz-adv-x="1021" d="M61 287q0 82 20.5 149.5t56.5 123.5t86 106.5t112 99.5q-29 80 -44.5 145.5t-15.5 137.5q0 88 28 158.5t77 121.5t115.5 79t144.5 28q119 0 201 -54.5t116 -171.5l-221 -114q-8 51 -36.5 74.5t-57.5 23.5q-25 0 -42 -12.5t-28.5 -32t-17.5 -42t-6 -42.5q-2 -14 6 -66.5 t31 -117.5l123 -353q10 27 24.5 72t18.5 76h235q-20 -98 -64 -203.5t-102 -183.5l107 -289h-297l-29 72q-70 -49 -138.5 -66.5t-135.5 -17.5q-129 0 -198 81t-69 218zM334 338q0 -45 19.5 -75t58.5 -30q29 0 59.5 10.5t52.5 28.5l-104 271q-86 -96 -86 -205z" />
            <glyph unicode="'" horiz-adv-x="409" d="M223 977l88 448h189l-88 -448h-189z" />
            <glyph unicode="(" horiz-adv-x="606" d="M131 387q0 154 38 305.5t103.5 291.5t150.5 267t181 232l158 -84q-182 -250 -283.5 -506t-101.5 -541q0 -133 20.5 -257t61.5 -230l-168 -98q-72 141 -116 294.5t-44 325.5z" />
            <glyph unicode=")" horiz-adv-x="606" d="M12 -135q82 111 150.5 233.5t119 252.5t79 265.5t28.5 274.5q0 131 -21.5 261t-64.5 247l191 84q61 -129 102 -278.5t41 -321.5q0 -160 -37 -310.5t-103.5 -290t-157.5 -269.5t-200 -246z" />
            <glyph unicode="*" horiz-adv-x="806" d="M180 1092l90 168l205 -93l29 256h182l-74 -254l240 91l29 -168l-252 -64l125 -201l-166 -102l-86 215l-176 -217l-125 104l198 201z" />
            <glyph unicode="+" d="M53 498l43 227h287l61 309h224l-62 -309h287l-43 -227h-287l-61 -310h-223l61 310h-287z" />
            <glyph unicode="," horiz-adv-x="479" d="M-47 -313l127 305h-60l62 315h278l-61 -309l-190 -311h-156z" />
            <glyph unicode="-" horiz-adv-x="784" d="M102 442l50 246h606l-49 -246h-607z" />
            <glyph unicode="." horiz-adv-x="468" d="M14 0l60 307h276l-59 -307h-277z" />
            <glyph unicode="/" horiz-adv-x="591" d="M-98 -86l686 1571h207l-689 -1571h-204z" />
            <glyph unicode="0" d="M104.5 212q-14.5 71 1.5 157l142 749q29 154 127 237t239 83q80 0 141.5 -30t100.5 -82t51.5 -122.5t-4.5 -154.5l-153 -748q-29 -154 -120 -233.5t-233 -79.5q-78 0 -139 26.5t-100 76.5t-53.5 121zM365 322q-6 -29 11 -45.5t40 -16.5q27 0 45 15.5t22 39.5 q39 199 65.5 335t44 223.5t28 134.5t14.5 68.5t5 24.5t1 5q4 33 -15.5 46t-39.5 13q-33 0 -47.5 -17.5t-18.5 -43.5z" />
            <glyph unicode="1" d="M313 954l60 306l245 165h246l-276 -1425h-273l213 1100z" />
            <glyph unicode="2" d="M31 0l47 246l475 649q41 53 60.5 109.5t19.5 99.5q0 27 -12.5 48.5t-40.5 21.5q-25 0 -58 -33t-47 -133l-264 32q16 104 55 180t93.5 124.5t121 71t137.5 22.5q160 0 231 -74t71 -205q0 -59 -9.5 -108.5t-30 -95.5t-50 -94t-68.5 -103l-352 -490h327l-53 -268h-653z" />
            <glyph unicode="3" d="M59 387l283 33q-16 -55 -15 -88t11 -51.5t25.5 -23.5t27.5 -5q23 0 47.5 17.5t34.5 72.5l33 170q12 59 -15.5 84t-68.5 25h-62l46 233h77q41 0 75 22.5t44 75.5l27 135q6 29 -5.5 56.5t-52.5 27.5q-14 0 -30.5 -5t-31.5 -22.5t-28.5 -50t-19.5 -87.5l-264 32 q29 199 136 299.5t259 100.5q100 0 163.5 -32t99.5 -81t45 -109.5t1 -119.5l-10 -72q-8 -39 -20.5 -80t-32 -79t-49 -69.5t-72.5 -52.5l-2 -10q31 -16 47 -40.5t24.5 -53.5t8.5 -60.5t-7 -62.5l-24 -141q-16 -88 -47 -160t-79 -122t-117.5 -77.5t-164.5 -27.5 q-180 0 -262 99t-35 300z" />
            <glyph unicode="4" d="M18 201l43 227l480 997h270l-457 -962h115l55 278h269l-56 -278h80l-49 -262h-80l-39 -201h-268l39 201h-402z" />
            <glyph unicode="5" d="M87 227.5q-11 73.5 9 159.5l271 33q-16 -55 -17.5 -88t7 -50.5t21.5 -22.5t25 -5q23 0 47.5 16.5t34.5 71.5l60 305q10 57 -47 58q-16 0 -45 -13.5t-58 -60.5h-227l156 794h637l-52 -260h-379l-49 -258l4 -2q29 25 72 37t72 12q137 0 180 -77.5t22 -200.5l-47 -301 q-12 -80 -38.5 -150.5t-73.5 -123t-116 -83t-167 -30.5q-86 0 -149.5 29.5t-102.5 83t-50 127z" />
            <glyph unicode="6" d="M92 238q0 25 5 80t19.5 124.5t38 143t58.5 137.5l397 702h301l-342 -589l9 -9q33 16 79 17q25 0 53.5 -7.5t51 -29t38 -61t15.5 -105.5q0 -49 -8 -103.5t-19 -105.5q-16 -76 -39.5 -154.5t-67.5 -143t-116.5 -105.5t-187.5 -41q-59 0 -111.5 15t-91.5 46t-60.5 78 t-21.5 111zM367 297q0 -23 17 -34t38 -11q23 0 42 14.5t23 40.5l52 268q2 4 2 15q0 23 -16 33t-36 10q-23 0 -43 -14.5t-26 -43.5l-51 -268q0 -4 -1 -6t-1 -4z" />
            <glyph unicode="7" d="M72 0l563 1165h-129l-27 -137h-250l78 397h670l-47 -237l-582 -1188h-276z" />
            <glyph unicode="8" d="M84.5 251q5.5 75 21.5 165q8 39 18.5 86t29 91t49 84t80.5 64v13q-35 20 -50.5 52t-19.5 69.5t1 78.5t13 80q16 84 47 165t86 138q55 55 126 78t145 23q72 0 141.5 -24.5t101.5 -84.5q33 -53 36 -117.5t-17 -177.5q-8 -41 -18.5 -83t-29 -81t-47 -69.5t-71.5 -48.5l4 -11 q37 -20 51.5 -58t15.5 -84t-8.5 -94t-17.5 -89q-12 -63 -24.5 -110.5t-26.5 -84.5t-31.5 -66.5t-40.5 -54.5q-59 -70 -128.5 -91t-149.5 -21t-158 33.5t-109 103.5q-25 51 -19.5 126zM358 303q-4 -23 12.5 -38t39.5 -15q25 0 44 15.5t23 37.5l55 287q4 23 -11 39t-40 16 q-29 0 -46 -16.5t-21 -38.5zM475 903q-4 -23 11.5 -39t37.5 -16q25 0 45.5 16.5t24.5 38.5l41 217q4 23 -9.5 39.5t-37.5 16.5q-31 0 -49.5 -16.5t-22.5 -39.5z" />
            <glyph unicode="9" d="M92 0l342 590l-8 8q-33 -16 -80 -16q-25 0 -52.5 7t-51 28.5t-38 61.5t-14.5 105q0 49 7.5 103.5t17.5 105.5q16 76 40 155t69 143.5t116.5 105.5t186.5 41q59 0 111.5 -15.5t90 -46t60 -78t22.5 -110.5q0 -25 -6 -80t-19.5 -125t-37 -143.5t-57.5 -137.5l-398 -702h-301 zM463 836q0 -23 15.5 -33t35.5 -10q23 0 43.5 14t26.5 43l49 258q6 29 -8 47.5t-43 18.5q-27 0 -44.5 -16.5t-21.5 -43.5l-51 -264q0 -4 -1 -7t-1 -7z" />
            <glyph unicode=":" horiz-adv-x="468" d="M14 0l60 307h276l-59 -307h-277zM117 530l59 308h277l-60 -308h-276z" />
            <glyph unicode=";" horiz-adv-x="479" d="M-47 -313l127 305h-60l62 315h278l-61 -309l-190 -311h-156zM125 530l59 308h277l-60 -308h-276z" />
            <glyph unicode="&#x3c;" d="M57 524l37 187l877 391l-62 -285l-547 -215l459 -211l-45 -256z" />
            <glyph unicode="=" d="M18 319l43 228h797l-43 -228h-797zM90 686l43 227h797l-43 -227h-797z" />
            <glyph unicode="&#x3e;" d="M-10 135l53 293l541 211l-465 215l53 248l725 -391l-37 -187z" />
            <glyph unicode="?" horiz-adv-x="806" d="M131 1036q27 217 131.5 309.5t280.5 92.5q156 0 247 -79t91 -226q0 -68 -10.5 -120t-28 -93t-39 -75t-43.5 -63q-63 -82 -99 -130t-54.5 -78.5t-27 -53t-16.5 -53.5l-18 -76h-273l25 125q10 57 39 110.5t57 94.5q57 80 95 128t59.5 83t30 67.5t8.5 79.5q0 31 -18.5 56.5 t-59.5 25.5q-16 0 -34.5 -6t-35 -22.5t-30 -46t-17.5 -76.5zM203 0l55 285h262l-55 -285h-262z" />
            <glyph unicode="@" horiz-adv-x="1660" d="M158 481q0 203 61.5 384.5t175 317.5t277.5 216t366 80q150 0 261.5 -42t185.5 -116t110.5 -174t36.5 -217q0 -182 -44 -311.5t-113.5 -212t-154.5 -120.5t-167 -38q-72 0 -131 33.5t-80 93.5l-8 2q-47 -68 -104.5 -93.5t-98.5 -25.5q-92 0 -138 43t-46 109q0 55 9 135 t32 186q18 96 39.5 168t51.5 120t69.5 71.5t99.5 23.5q29 0 66.5 -14.5t64.5 -57.5l6 2l16 60h230l-111 -551q-6 -33 -2 -53.5t13.5 -30.5t21.5 -14t23 -4q51 0 97 36.5t81 100t54 148.5t19 182q0 170 -99 273t-304 103q-166 0 -292 -68.5t-210 -180t-127 -251t-43 -280.5 q0 -221 107.5 -334.5t314.5 -113.5q90 0 173 20t192 74l47 -170q-111 -47 -211.5 -77t-206.5 -30q-139 0 -252 35t-192.5 107.5t-122.5 185.5t-43 270zM788 506q0 -29 37 -33q16 0 35 15.5t31 72.5l47 236q2 10 4 23.5t2 25.5q0 18 -8 32.5t-35 14.5q-16 0 -29.5 -11.5 t-17.5 -25.5q-6 -10 -16.5 -53t-21.5 -98.5t-19.5 -110.5t-8.5 -88z" />
            <glyph unicode="A" horiz-adv-x="919" d="M-63 0l546 1425h340l-4 -1425h-291l11 279h-209l-97 -279h-296zM420 541h129l16 227l27 289h-12l-88 -289z" />
            <glyph unicode="B" horiz-adv-x="913" d="M23 0l276 1425h301q332 0 332 -299q0 -158 -56.5 -248t-160.5 -122l-2 -11q70 -25 95.5 -80t25.5 -126q0 -121 -31 -220.5t-88.5 -170t-139 -109.5t-184.5 -39h-368zM348 262h49q41 0 72 19.5t52.5 53.5t31.5 77t10 92q0 61 -29.5 87.5t-68.5 26.5h-45zM471 877h35 q74 0 113.5 51t39.5 139q0 57 -26.5 74.5t-77.5 17.5h-29z" />
            <glyph unicode="C" horiz-adv-x="874" d="M72 266q0 41 10 99l135 698q16 84 47 153.5t80 118.5t121 76t170 27q166 0 246 -82t80 -205q0 -45 -9 -80l-276 -47q2 10 3 19.5t1 19.5q0 47 -20.5 77.5t-57.5 30.5q-29 0 -47 -11t-31.5 -27.5t-20.5 -36t-9 -33.5l-142 -727q-2 -8 -2 -25q0 -23 13.5 -40t56.5 -17 q88 0 123 147l268 -36q-12 -84 -42 -153t-79 -119t-119.5 -77.5t-167.5 -27.5q-164 0 -247.5 71.5t-83.5 206.5z" />
            <glyph unicode="D" horiz-adv-x="913" d="M25 0l276 1425h336q127 0 209 -44t92 -148q1 -16 1 -35q1 -69 -11 -177q-14 -138 -49 -306q-35 -176 -59.5 -298t-65.5 -206q-63 -121 -156.5 -166t-202.5 -45h-370zM352 268h49q66 0 90.5 31t36.5 92q47 244 74 380t39 202.5t15 84t3 23.5q0 35 -18 52.5t-68 17.5h-49z " />
            <glyph unicode="E" horiz-adv-x="806" d="M23 0l276 1425h653l-51 -266h-375l-59 -299h328l-54 -272h-327l-60 -322h375l-53 -266h-653z" />
            <glyph unicode="F" horiz-adv-x="806" d="M23 0l276 1425h653l-51 -266h-375l-59 -301h328l-54 -268h-327l-113 -590h-278z" />
            <glyph unicode="G" horiz-adv-x="901" d="M96 365l135 698q16 84 48 153.5t82.5 118.5t121 76t166.5 27t163 -29t105.5 -79t50.5 -116q6 -32 6 -65q0 -38 -7 -78l-277 -47q3 21 3 39q0 38 -13 66q-21 42 -64 42q-29 0 -47 -11t-31.5 -27.5t-20.5 -36t-9 -33.5l-141 -727q-2 -14 -2 -28.5t6 -27t21.5 -19.5t41.5 -7 q41 0 69.5 20.5t39.5 67.5l41 209h-97l48 244h372l-88 -449q-18 -98 -56 -166.5t-89 -111.5t-116.5 -61.5t-139.5 -18.5q-193 0 -275 98q-57 69 -57 178q0 47 10 101z" />
            <glyph unicode="H" horiz-adv-x="940" d="M23 0l276 1425h279l-111 -565h178l111 565h276l-276 -1425h-277l113 590h-178l-113 -590h-278z" />
            <glyph unicode="I" horiz-adv-x="495" d="M27 0l276 1425h279l-277 -1425h-278z" />
            <glyph unicode="J" horiz-adv-x="782" d="M-41 176l221 160q20 -39 49 -59.5t52 -20.5q53 0 76.5 33t29.5 61l209 1075h276l-210 -1079q-33 -168 -129.5 -263t-268.5 -95q-96 0 -176 45t-129 143z" />
            <glyph unicode="K" horiz-adv-x="913" d="M23 0l276 1425h279l-78 -413h14l260 413h309l-413 -604l168 -821h-275l-98 545l-84 -127l-80 -418h-278z" />
            <glyph unicode="L" horiz-adv-x="774" d="M23 0l276 1425h279l-224 -1153h375l-53 -272h-653z" />
            <glyph unicode="M" horiz-adv-x="1191" d="M10 0l277 1425h256l61 -403l49 -274h13l145 280l219 397h264l-276 -1425h-279l129 666h-8l-110 -222l-88 -165h-187l-24 182l-25 211h-10l-129 -672h-277z" />
            <glyph unicode="N" horiz-adv-x="985" d="M16 0l277 1425h244l75 -442q6 -33 13.5 -79t13.5 -96t12 -97t8 -82h11l141 796h272l-276 -1425h-238l-84 451l-45 270h-10l-137 -721h-277z" />
            <glyph unicode="O" horiz-adv-x="856" d="M23 295q0 23 3 47.5t7 48.5l131 688q18 92 48 159t76 112t110.5 66.5t152.5 21.5q154 0 246 -78t92 -225q0 -53 -12 -111l-127 -676q-31 -168 -123 -264t-273 -96q-162 0 -246.5 84t-84.5 223zM301 340q0 -76 72 -76q35 0 59.5 19.5t34.5 68.5l135 697q4 10 4 19v19 q0 39 -20 56.5t-51 17.5q-35 0 -59.5 -20.5t-35.5 -67.5l-135 -700q-2 -10 -3 -17.5t-1 -15.5z" />
            <glyph unicode="P" horiz-adv-x="876" d="M23 0l276 1425h317q78 0 141.5 -16t108.5 -54t70 -102.5t25 -158.5q0 -279 -133.5 -425.5t-360.5 -146.5h-66l-100 -522h-278zM455 791h47q27 0 59.5 9t61 34.5t47 72.5t18.5 123q0 72 -31.5 100.5t-87.5 28.5h-43z" />
            <glyph unicode="Q" horiz-adv-x="913" d="M80 297q0 23 2 46.5t6 47.5l131 688q35 182 125 270.5t262 88.5q154 0 246 -78t92 -225q0 -53 -12 -111l-127 -676q-8 -41 -19.5 -76.5t-25.5 -66.5l123 -119l-174 -168l-115 105q-82 -35 -184 -35q-160 0 -245 84t-85 225zM356 340q0 -76 72 -76q35 0 59.5 19.5 t34.5 68.5l135 697q4 10 4.5 19t0.5 19q0 39 -20.5 56.5t-51.5 17.5q-35 0 -59.5 -20.5t-34.5 -67.5l-136 -700q-2 -10 -3 -17.5t-1 -15.5z" />
            <glyph unicode="R" horiz-adv-x="913" d="M23 0l276 1425h317q76 0 140.5 -17t111.5 -56t73 -102.5t26 -153.5q0 -102 -18.5 -179t-50.5 -134.5t-77 -97.5t-98 -67l86 -618h-285l-61 555h-55l-107 -555h-278zM461 823h43q31 0 64.5 8.5t62 32t47 63.5t18.5 105q0 66 -34.5 96.5t-92.5 30.5h-43z" />
            <glyph unicode="S" horiz-adv-x="874" d="M51 264q0 49 12 103l283 24q-10 -35 -10 -61q0 -29 15.5 -48.5t58.5 -19.5q41 0 67.5 21.5t42 55.5t21.5 75t6 80q0 41 -23.5 62.5t-85.5 49.5q-74 33 -123 69t-76.5 74.5t-39 79.5t-11.5 86q0 113 28 209.5t83 166t138 108.5t194 39q88 0 149.5 -20.5t99.5 -57.5t54 -85 t16 -104q0 -63 -18 -131l-277 -16q4 16 6.5 32.5t2.5 33.5q0 29 -14.5 50t-59.5 21q-35 0 -57.5 -19.5t-36 -47t-18.5 -57t-5 -52.5q0 -35 26.5 -63.5t106.5 -63.5q66 -29 109 -58.5t67.5 -63.5t34.5 -72.5t10 -83.5q0 -117 -21.5 -224.5t-73.5 -189.5t-139 -130t-216 -48 q-86 0 -147.5 21.5t-101.5 58t-58.5 87t-18.5 109.5z" />
            <glyph unicode="T" horiz-adv-x="737" d="M145 0l226 1159h-219l51 266h717l-52 -266h-219l-225 -1159h-279z" />
            <glyph unicode="U" horiz-adv-x="911" d="M80 200q-9 34 -10 75q0 41 10 87l207 1063h278l-209 -1060q-3 -15 -3 -27q1 -30 17 -48q24 -26 58 -26q35 0 59.5 19.5t34.5 68.5l209 1073h283l-209 -1077q-72 -360 -399 -360q-82 0 -150 24.5t-113 71t-63 116.5z" />
            <glyph unicode="V" horiz-adv-x="915" d="M199 0l6 1425h301l-25 -534q-4 -104 -14 -213t-18 -225h12l133 399l199 573h307l-549 -1425h-352z" />
            <glyph unicode="W" horiz-adv-x="1312" d="M156 0l75 1425h301l-32 -378q-10 -113 -22.5 -216.5t-24.5 -199.5h10l131 368l149 426h222l-13 -413q-2 -49 -4 -93.5t-4 -90.5t-5 -97t-5 -115h12l107 396l112 413h318l-477 -1425h-299l6 287l8 391h-12q-20 -61 -37 -108.5t-30 -87.5t-27.5 -76.5t-30.5 -79.5 l-129 -326h-299z" />
            <glyph unicode="X" horiz-adv-x="921" d="M-76 0l438 743l-141 682h318l39 -331h12l164 331h348l-416 -682l160 -743h-320l-49 397h-8l-201 -397h-344z" />
            <glyph unicode="Y" horiz-adv-x="847" d="M201 1425h288l11 -282q2 -68 5 -121q2 -32 2 -72q0 -27 -1 -57h16l211 532h303l-444 -866l-109 -559h-280l108 559z" />
            <glyph unicode="Z" horiz-adv-x="737" d="M-39 0l49 254l516 905h-321l51 266h633l-49 -245l-514 -912h338l-52 -268h-651z" />
            <glyph unicode="[" horiz-adv-x="530" d="M2 -209l317 1636h373l-39 -198h-123l-239 -1239h123l-39 -199h-373z" />
            <glyph unicode="\" horiz-adv-x="591" d="M205 1485h207l77 -1571h-206z" />
            <glyph unicode="]" horiz-adv-x="530" d="M-90 -211l37 199h123l241 1241h-123l39 198h371l-319 -1638h-369z" />
            <glyph unicode="^" d="M43 631l498 794h186l195 -800h-260l-39 206l-37 256h-17l-131 -249l-114 -207h-281z" />
            <glyph unicode="_" horiz-adv-x="1024" d="M-145 -328l36 185h1022l-36 -185h-1022z" />
            <glyph unicode="`" horiz-adv-x="788" d="M354 1497l199 107l199 -435l-134 -69z" />
            <glyph unicode="a" horiz-adv-x="821" d="M35 170q0 66 11 163t38 226q23 117 50.5 204t66.5 145.5t93 87t128 28.5q35 0 75 -17.5t62 -70.5l8 4l19 72h278l-196 -1012h-277l17 80h-11q-37 -51 -88 -72.5t-80 -21.5q-113 0 -153.5 52t-40.5 132zM328 287q0 -37 45 -41q18 0 40.5 18.5t39.5 89.5l55 285 q4 14 6 28.5t2 30.5q0 23 -10 40.5t-41 17.5q-23 0 -38 -14.5t-19 -30.5q-6 -12 -19.5 -64.5t-27 -119t-23.5 -133t-10 -107.5z" />
            <glyph unicode="b" horiz-adv-x="821" d="M-10 0l289 1487h282l-102 -529h10q41 41 82 54.5t70 13.5q109 0 153.5 -54t44.5 -138q0 -133 -49 -381q-23 -117 -50.5 -204t-66.5 -145.5t-92 -87t-129 -28.5q-35 0 -75 17.5t-62 70.5l-8 -4l-17 -72h-280zM338 315q0 -25 10 -42t41 -17q23 0 38 14.5t19 30.5 q6 12 19.5 64.5t27 119t23.5 133t10 107.5q0 37 -45 41q-18 0 -40.5 -18.5t-39.5 -90.5l-55 -284q-4 -12 -6 -27.5t-2 -30.5z" />
            <glyph unicode="c" horiz-adv-x="780" d="M53 225q-1 15 -1 32q0 41 6 95q10 76 20 150q14 92 38.5 187t57.5 157q41 80 122 132t204 52q76 0 136 -21.5t98 -63.5q38 -41 52 -103q7 -30 8 -65q0 -36 -8 -77l-278 -30q5 26 5 46q0 18 -5 30q-10 24 -33 24q-35 0 -55 -41q-10 -16 -25.5 -74.5t-32.5 -144.5 q-16 -86 -23 -138.5t-7 -76.5q4 -45 41 -45q23 0 42 20.5t29 71.5l271 -35q-29 -150 -123 -234.5t-246 -84.5q-78 0 -132 20.5t-89 53t-52.5 75.5t-19.5 88z" />
            <glyph unicode="d" horiz-adv-x="821" d="M27 190q0 16 1 34t3 38q2 31 13 106.5t27.5 164t37 174.5t43.5 137q12 27 29.5 59.5t47 61t73 47t106.5 18.5q27 0 75.5 -13t75.5 -48h10l103 518h276l-282 -1487h-277l14 74l-8 4q-18 -29 -41.5 -46.5t-48 -26.5t-48.5 -13t-42 -4q-94 0 -141 46t-47 156zM330 297 q0 -16 11 -27.5t32 -11.5q25 0 39 10.5t24 34t18.5 63.5t20.5 101l4 22q14 78 25.5 137.5t11.5 86.5q0 23 -11 36t-34 13q-20 0 -36.5 -13.5t-24.5 -33.5q-10 -27 -23.5 -91.5t-26 -132t-21.5 -124t-9 -64.5v-6z" />
            <glyph unicode="e" horiz-adv-x="835" d="M51 303q0 53 6 106.5t17 102.5q16 92 40.5 184t68.5 167t114 121t178 46q147 0 230 -67.5t83 -184.5q0 -102 -31.5 -172.5t-86 -115t-126 -63.5t-151.5 -19h-25.5t-27.5 2q-8 -29 -11 -61t-3 -48q2 -51 41 -51q29 0 46 17.5t29 60.5l279 -31q-16 -68 -43 -124t-69 -98 t-102.5 -64.5t-146.5 -22.5q-92 0 -152.5 25.5t-95 69.5t-48 101.5t-13.5 118.5zM379 627q76 0 105.5 24.5t29.5 77.5q0 16 -11 29.5t-34 13.5q-39 0 -58.5 -38t-31.5 -107z" />
            <glyph unicode="f" horiz-adv-x="618" d="M-143 -293l49 254q14 -4 30.5 -5t28.5 -1q57 0 79 26.5t26 55.5l139 758h-115l43 217h115l35 184q12 68 38.5 123t71.5 95t108.5 62.5t149.5 22.5q27 0 58.5 -3t58.5 -9l-49 -254q-14 4 -30.5 6t-28.5 2q-59 0 -80 -28.5t-25 -55.5l-27 -145h162l-43 -217h-162l-147 -797 q-12 -68 -39 -124t-72 -96t-108.5 -61.5t-149.5 -21.5q-55 0 -116 12z" />
            <glyph unicode="g" horiz-adv-x="821" d="M-31 -139l281 53q-2 -8 -2 -20q0 -27 16 -42.5t39 -15.5q27 0 40 16.5t17 36.5l31 166h-10q-41 -41 -82 -54t-70 -13q-109 0 -153.5 54t-44.5 138q2 66 13 161t36 220q23 117 50.5 204t66.5 145.5t92 87t129 28.5q35 0 74.5 -17.5t62.5 -70.5l8 4l17 72h280l-211 -1086 q-14 -74 -38.5 -137t-66.5 -108t-106.5 -71t-158.5 -26q-141 0 -222.5 78t-87.5 197zM324 289q0 -37 45 -41q18 0 40.5 18.5t39.5 89.5l55 285q4 12 6 27.5t2 29.5q0 25 -10 42.5t-41 17.5q-23 0 -38 -14.5t-20 -30.5q-6 -12 -19 -64.5t-26.5 -119t-23.5 -133t-10 -107.5z " />
            <glyph unicode="h" horiz-adv-x="843" d="M2 0l289 1487h280l-114 -569l10 -3q35 49 93 80t106 31q74 0 112 -24q38 -23 52 -62q11 -29 10 -62q0 -12 -1 -24q-5 -47 -14 -96l-145 -758h-281l133 686q6 29 -3 51.5t-37 22.5q-35 0 -55.5 -29t-28.5 -67l-125 -664h-281z" />
            <glyph unicode="i" horiz-adv-x="464" d="M10 0l197 1012h280l-196 -1012h-281zM236 1159l51 266h280l-51 -266h-280z" />
            <glyph unicode="j" horiz-adv-x="462" d="M-197 -395l50 262q10 -2 30 -2q70 0 92.5 38t36.5 105l197 1006h280l-210 -1082q-35 -176 -133.5 -255.5t-254.5 -79.5q-20 0 -43.5 2t-44.5 6zM238 1159l51 266h280l-51 -266h-280z" />
            <glyph unicode="k" horiz-adv-x="884" d="M10 0l289 1485h279l-134 -690l13 -2l180 219h350l-373 -408l168 -604h-317l-74 358l-41 -41l-61 -317h-279z" />
            <glyph unicode="l" horiz-adv-x="479" d="M47 227q0 23 3 46.5t7 50.5l224 1163h280l-225 -1151q-2 -10 -2 -17.5v-13.5q0 -35 18.5 -47t59.5 -12l-50 -256q-10 -2 -20 -2h-20q-143 0 -209 66.5t-66 172.5z" />
            <glyph unicode="m" horiz-adv-x="1243" d="M4 0l197 1014h280l-16 -84l10 -2q33 37 87 67.5t102 30.5q47 0 77.5 -10t49 -26.5t28.5 -39t15 -49.5q51 55 116.5 90t112.5 35q68 0 105.5 -20.5t55.5 -55.5q17 -33 16 -76q0 -45 -11 -104l-150 -770h-280l133 686q8 41 -5.5 57.5t-35.5 16.5q-23 0 -44.5 -17.5 t-31.5 -52.5l-133 -690h-281l134 686q8 41 -5.5 57.5t-35.5 16.5q-25 0 -47.5 -20.5t-30.5 -59.5l-131 -680h-281z" />
            <glyph unicode="n" horiz-adv-x="845" d="M4 0l197 1014h280l-22 -96l10 -3q35 49 93.5 80t105.5 31q55 0 89 -13.5t52 -37t24.5 -54t6.5 -65.5q0 -23 -4.5 -48.5t-8.5 -49.5l-145 -758h-281l134 686q2 10 2 27q0 27 -12.5 37t-30.5 10q-35 0 -55.5 -29t-28.5 -67l-125 -664h-281z" />
            <glyph unicode="o" horiz-adv-x="821" d="M55 262q0 55 7.5 114.5t19.5 125.5q10 49 21.5 100t23.5 99.5t27.5 90.5t31.5 70q47 84 128.5 126t181.5 42q80 0 138 -22.5t96 -60.5t55.5 -86t17.5 -99q0 -33 -3 -73t-9.5 -81t-12.5 -82t-12 -73q-25 -121 -53.5 -209t-73.5 -145.5t-111.5 -85t-165.5 -27.5 q-84 0 -142 25.5t-95 65.5t-53.5 89t-16.5 96zM336 307q0 -25 9 -41t38 -16q23 0 39 14.5t20 30.5q4 8 12.5 37.5t17.5 71.5t18.5 89.5t17.5 92.5t13 82t5 55q0 20 -11.5 33.5t-31.5 13.5q-23 0 -37 -8t-25 -32.5t-22.5 -70t-25.5 -116.5l-29 -162q-4 -23 -6 -40t-2 -34z " />
            <glyph unicode="p" horiz-adv-x="839" d="M-90 -395l274 1409h277l-15 -74l9 -4q18 27 41.5 45t48 27.5t48 13.5t42.5 4q94 0 141 -46t47 -157q0 -16 -1 -33.5t-3 -37.5q-4 -31 -14 -107t-26.5 -164t-37 -174t-43.5 -137q-12 -29 -29.5 -60.5t-47 -60.5t-73 -47t-106.5 -18q-27 0 -76 13t-75 48h-10l-91 -440h-280 zM334 301q0 -23 11 -36t34 -13q20 0 36.5 13.5t24.5 33.5q6 18 15.5 54t17.5 79t17.5 90t15.5 87t10 68t4 34v6q0 16 -11 27.5t-32 11.5q-25 0 -39 -10.5t-24.5 -34t-18.5 -63.5t-20 -101l-4 -23q-14 -78 -25.5 -137t-11.5 -86z" />
            <glyph unicode="q" horiz-adv-x="821" d="M37 209q4 66 14 151.5t33 198.5q25 117 52.5 204t65.5 145.5t91 87t129 28.5q35 0 75 -17.5t62 -70.5l8 4l19 72h278l-274 -1407h-283l94 448h-10q-41 -41 -85 -54t-73 -13q-59 0 -99 17t-62.5 47t-30.5 71q-5 27 -5 57q0 15 1 31zM328 287q0 -37 45 -41h3q17 0 38 18 q22 21 39 90l55 285q4 16 7 37q1 10 1 19.5t-1 18.5q-3 17 -14.5 29.5t-35.5 12.5q-23 0 -38 -14.5t-19 -30.5q-6 -12 -19.5 -64.5t-27 -119t-23.5 -133t-10 -107.5z" />
            <glyph unicode="r" horiz-adv-x="647" d="M20 0l197 1016h283l-25 -125h4q43 78 96.5 108.5t122.5 30.5q12 0 24.5 -1t25.5 -3l-54 -276q-31 6 -59 6q-86 0 -144.5 -48.5t-80.5 -156.5l-107 -551h-283z" />
            <glyph unicode="s" horiz-adv-x="792" d="M29 238q0 12 1 26.5t3 28.5l276 35q-2 -8 -3 -13.5t-1 -11.5q0 -29 16.5 -45t43.5 -16q41 0 61 31.5t20 64.5t-16 46t-39 22q-49 18 -98 35.5t-88 45t-63.5 70.5t-24.5 113q0 80 25.5 145.5t73.5 113.5t119 74.5t161 26.5q145 0 222 -65.5t77 -178.5q0 -33 -7 -65 l-274 -29q2 6 2 15q0 27 -12 47t-41 20q-25 0 -39 -11t-21.5 -25.5t-9.5 -28t-2 -17.5q0 -33 45 -47q61 -20 114.5 -40.5t91.5 -51.5t59.5 -77t21.5 -116q0 -72 -20.5 -139t-67.5 -119.5t-123 -83t-184 -30.5q-135 0 -217 62.5t-82 187.5z" />
            <glyph unicode="t" horiz-adv-x="567" d="M86 207q0 18 2 36.5t6 35.5l101 516h-93l43 219h93l51 266h264l-51 -266h114l-43 -219h-114l-86 -447q-2 -10 -4 -19.5t-2 -19.5q0 -23 15 -39t62 -16h25l-49 -254q-16 -4 -41 -5t-45 -1q-74 0 -122 18.5t-75.5 49t-39 68.5t-11.5 77z" />
            <glyph unicode="u" horiz-adv-x="845" d="M43 160q4 47 14 96l146 758h280l-133 -686q-6 -29 3 -51.5t38 -22.5q25 0 50.5 28.5t33.5 67.5l125 664h281l-197 -1014h-281l23 96l-10 2q-35 -49 -93.5 -79.5t-105.5 -30.5q-74 0 -111.5 23.5t-51.5 62.5q-11 31 -12 66q0 10 1 20z" />
            <glyph unicode="v" horiz-adv-x="821" d="M109 1012h303l-23 -391q-4 -53 -8 -105.5t-14 -134.5h14q27 59 53.5 134t53 158t51 169t45.5 170h317q-47 -139 -97 -267.5t-103.5 -251t-111 -244.5t-120.5 -249h-322z" />
            <glyph unicode="w" horiz-adv-x="1277" d="M119 1012h313l-31 -391q-4 -53 -9 -110.5t-17 -129.5h14q57 156 111.5 310.5t95.5 320.5h289l-37 -391q-4 -53 -12.5 -118t-18.5 -122h14q57 156 107.5 310.5t91.5 320.5h324q-43 -137 -91.5 -265.5t-101.5 -252t-112.5 -246.5t-122.5 -248h-322l14 227l31 279h-12 l-84 -277l-90 -229h-322z" />
            <glyph unicode="x" horiz-adv-x="854" d="M-76 0l346 516l-137 498h307l33 -277h8l137 277h326l-338 -498l154 -516h-307l-35 293h-12l-156 -293h-326z" />
            <glyph unicode="y" horiz-adv-x="784" d="M-113 -172q94 8 153.5 49t119.5 146l-56 989h293l-10 -318q-2 -25 -4 -64.5t-6 -82.5t-9.5 -86t-11.5 -74h11q59 135 108 285.5t103 339.5h294q-106 -307 -223 -576.5t-231 -480.5q-43 -80 -95.5 -149.5t-116 -118.5t-140.5 -77q-68 -24 -151 -24h-24z" />
            <glyph unicode="z" horiz-adv-x="716" d="M-25 0l48 248l383 516h-261l50 250h579l-45 -230l-393 -524h291l-49 -260h-603z" />
            <glyph unicode="{" horiz-adv-x="530" d="M43 537l33 165q57 4 97 44t58 133l58 297q12 57 29.5 103t52.5 79t90 50t141 17h92l-39 -196h-41q-16 0 -44.5 -16.5t-39.5 -73.5l-55 -277q-16 -84 -61 -146.5t-109 -90.5l-2 -15q53 -23 73.5 -85t4.5 -154l-59 -303q-6 -31 0 -47.5t17 -23.5t24.5 -9t21.5 -2h37 l-39 -197h-100q-47 0 -91.5 13.5t-75 45t-44 86t3.5 138.5l53 282q18 94 -7.5 136t-78.5 47z" />
            <glyph unicode="|" horiz-adv-x="530" d="M156 -332v1827h219v-1827h-219z" />
            <glyph unicode="}" horiz-adv-x="530" d="M-92 -209l39 197h41q16 0 44.5 16t39.5 74l55 276q16 84 61 146.5t109 91.5l2 14q-53 23 -73.5 85.5t-4.5 154.5l60 303q6 31 -0.5 47t-17.5 23.5t-24.5 9.5t-21.5 2h-37l39 196h100q47 0 91.5 -13t75 -45t43 -87t-2.5 -137l-53 -283q-18 -94 7.5 -136t78.5 -46l-33 -166 q-57 -4 -97 -44t-58 -132l-58 -297q-12 -57 -29.5 -103.5t-52 -79t-90 -50t-141.5 -17.5h-92z" />
            <glyph unicode="~" d="M76 580q76 119 148.5 172t168.5 53q39 0 74 -17.5t63.5 -37t55 -36t51.5 -16.5q35 0 66.5 18.5t80.5 74.5l134 -91q-74 -127 -145 -175t-142 -48q-41 0 -77 16.5t-66.5 36t-59.5 36t-55 16.5q-18 0 -37 -2t-38 -11.5t-43 -27t-54 -49.5z" />
            <glyph unicode="&#xa1;" horiz-adv-x="563" d="M-14 -412l217 1010h231l-176 -1010h-272zM211 729l55 285h262l-55 -285h-262z" />
            <glyph unicode="&#xa2;" d="M70 225q-4 51 5 127t19 150q14 92 39 187t57 157q41 78 116 129t192 55l37 187h104l-39 -195q115 -23 172 -104.5t31 -217.5l-279 -30q10 53 0 76.5t-32 23.5q-35 0 -56 -41q-10 -16 -25.5 -74.5t-31.5 -144.5t-23.5 -138.5t-7.5 -76.5q4 -45 41 -45q23 0 42.5 20.5 t29.5 71.5l270 -35q-27 -135 -114 -217t-216 -98l-39 -201h-104l39 201q-55 6 -97 27.5t-70 53t-43 71.5t-17 81z" />
            <glyph unicode="&#xa3;" d="M-18 0l43 229q63 70 106 143.5t70 178.5h-115l41 211h102q-4 51 -11 101t-7 110q0 102 29.5 188t84 147.5t128 96.5t161.5 35q168 0 255 -79t87 -202q0 -57 -18 -121l-279 -14q4 14 6.5 29.5t2.5 29.5q0 33 -15.5 56.5t-56.5 23.5q-55 0 -81 -43t-26 -100t10.5 -118.5 t10.5 -139.5h203l-41 -211h-199q-27 -98 -55.5 -165t-71.5 -130h408l-49 -256h-723z" />
            <glyph unicode="&#xa4;" horiz-adv-x="1050" d="M49 428l129 129q-35 74 -35 152q0 82 37 155l-125 127l162 160l125 -125q74 37 160 37q82 0 149 -33l129 129l158 -158l-127 -127q37 -72 37 -153q0 -80 -39 -162l127 -127l-162 -162l-127 127q-78 -39 -155 -39q-80 0 -158 39l-127 -127zM328 711q0 -66 46 -113t111 -47 q33 0 64.5 12t54.5 35q51 55 51 127q0 66 -46 109t-109 43q-78 0 -125 -47.5t-47 -118.5z" />
            <glyph unicode="&#xa5;" d="M119 365l26 137h170l11 57l-2 27h-162l26 139h117l-88 700h289l12 -313l2 -252h17l94 254l119 311h303l-363 -700h129l-26 -139h-172l-13 -27l-12 -57h180l-26 -137h-181l-69 -365h-281l70 365h-170z" />
            <glyph unicode="&#xa6;" horiz-adv-x="530" d="M156 -348v823h219v-823h-219zM156 668v811h219v-811h-219z" />
            <glyph unicode="&#xa7;" horiz-adv-x="866" d="M-8 31l170 174q57 -63 103 -86t81 -23q59 0 95 30t36 71q0 82 -141 172q-98 63 -155.5 122.5t-57.5 151.5q0 84 44 162t136 115q-33 35 -44 77.5t-11 85.5q0 76 29.5 140.5t82 111.5t124 75t157.5 28q98 0 173 -34t153 -112l-172 -182q-57 63 -103.5 76.5t-83.5 13.5 q-41 0 -69.5 -24.5t-28.5 -59.5q0 -29 26.5 -57.5t65.5 -59t86 -64.5t86 -74t65.5 -87t26.5 -104q0 -170 -149 -258q37 -86 37 -168q0 -78 -30 -146.5t-84 -120t-130 -81t-168 -29.5q-45 0 -93 11t-95.5 32.5t-89 52.5t-72.5 68zM373 705q0 -23 17.5 -45.5t43 -44t57 -42 t62.5 -36.5q18 10 33.5 30.5t19.5 38.5q2 4 2 15q0 37 -42 73.5t-132 85.5q-23 -12 -42 -32.5t-19 -42.5z" />
            <glyph unicode="&#xa8;" horiz-adv-x="708" d="M190 1120l52 266h241l-51 -266h-242zM547 1120l51 266h244l-51 -266h-244z" />
            <glyph unicode="&#xa9;" horiz-adv-x="1439" d="M84 698q0 156 40 287t119 227.5t195.5 150.5t270.5 54q150 0 266.5 -54t196 -150.5t120.5 -227.5t41 -287q0 -154 -41 -283.5t-120.5 -226t-196 -150.5t-266.5 -54q-154 0 -270.5 54t-195.5 150.5t-119 226.5t-40 283zM256 698q0 -115 29.5 -215t87 -176t142.5 -120 t194 -44q113 0 197.5 44t142 120t85 176.5t27.5 214.5q0 117 -29.5 218.5t-86 178t-141 121t-195.5 44.5q-115 0 -200 -44.5t-141.5 -121t-84 -178t-27.5 -218.5zM473 485v406q0 111 66 173t168 62q51 0 94 -17t74.5 -48t50 -71t20.5 -85l-164 -41q-4 41 -22.5 66.5 t-48.5 25.5q-43 0 -56.5 -19t-13.5 -48v-408q0 -25 18.5 -43t47.5 -18q63 0 69 90l168 -33q-10 -104 -68.5 -165.5t-168.5 -61.5q-100 0 -167 58.5t-67 176.5z" />
            <glyph unicode="&#xaa;" horiz-adv-x="567" d="M109 692q0 45 6 106.5t22 145.5q14 76 32.5 134.5t45.5 96t64.5 57t91.5 19.5q23 0 49 -9t47 -34l8 37h211l-129 -672h-209l8 39q-18 -29 -51 -39t-53 -10q-68 0 -105.5 37t-37.5 92zM322 764q0 -27 20 -27q8 0 23.5 12.5t21.5 51.5l41 200q2 10 3 21.5t1 21.5t-4 19.5 t-18 9.5q-16 0 -24.5 -8t-10.5 -16q-4 -8 -12.5 -43t-17.5 -79t-16 -89t-7 -74z" />
            <glyph unicode="&#xab;" horiz-adv-x="1103" d="M111 506l315 409h264l-336 -413l156 -408h-244zM530 506l316 409h264l-336 -413l156 -408h-244z" />
            <glyph unicode="&#xac;" d="M53 498l43 227h795l-105 -537h-223l62 310h-572z" />
            <glyph unicode="&#xad;" horiz-adv-x="784" d="M102 442l50 246h606l-49 -246h-607z" />
            <glyph unicode="&#xae;" horiz-adv-x="995" d="M82 961q0 104 26.5 192t80 152.5t132 100.5t183.5 36q100 0 177 -36t130 -100.5t81 -152.5t28 -192q0 -102 -28 -190.5t-81 -153t-130 -100.5t-177 -36q-104 0 -183 36t-132.5 100.5t-80 152.5t-26.5 191zM207 965q0 -160 75.5 -260.5t221.5 -100.5q76 0 130 27.5t89 77 t52.5 115t17.5 141.5t-18.5 142.5t-55.5 115.5t-91 77.5t-124 28.5q-76 0 -132.5 -28.5t-93 -77.5t-54 -116t-17.5 -142zM350 688v565h160q160 0 160 -176q0 -47 -13.5 -87t-52.5 -66q20 -57 44 -118t46 -118h-131l-71 213h-19v-213h-123zM473 1010h29q31 0 41 17t10 50 t-11.5 50.5t-45.5 17.5h-23v-135z" />
            <glyph unicode="&#xaf;" horiz-adv-x="784" d="M322 1159l43 225h516l-43 -225h-516z" />
            <glyph unicode="&#xb0;" horiz-adv-x="722" d="M96 1169q0 55 20.5 104.5t57.5 85.5t85 57.5t103 21.5t104.5 -21.5t86.5 -57.5t57.5 -85.5t20.5 -104.5t-20.5 -104t-57.5 -86t-86 -57.5t-105 -20.5q-55 0 -103 20.5t-85 57.5t-57.5 86t-20.5 104zM268 1169q0 -41 27 -69.5t67 -28.5q43 0 70 28.5t27 69.5t-26.5 69 t-70.5 28q-41 0 -67.5 -28t-26.5 -69z" />
            <glyph unicode="&#xb1;" d="M-43 0l41 215h797l-41 -215h-797zM66 563l43 223h286l58 289h223l-58 -289h287l-43 -223h-287l-55 -289h-223l55 289h-286z" />
            <glyph unicode="&#xb2;" horiz-adv-x="573" d="M98 758l31 157l305 379q23 29 36 64t13 51q0 12 -7 21.5t-23 9.5q-23 0 -41.5 -19.5t-24.5 -79.5l-186 25q25 129 99.5 189.5t172.5 60.5q94 0 153.5 -44t59.5 -130q0 -63 -26.5 -114.5t-75.5 -121.5l-209 -268h200l-34 -180h-443z" />
            <glyph unicode="&#xb3;" horiz-adv-x="573" d="M133 884q-12 44 0 101l195 19q-10 -49 3 -61.5t23 -12.5q35 0 41 39l21 100q6 29 -11.5 39t-39.5 10h-46l29 156h60q23 0 38 10t19 35l18 84q2 10 -3 22.5t-29 12.5q-14 0 -35 -17.5t-25 -74.5l-184 26q25 121 87 182.5t177 61.5q117 0 165 -62.5t34 -181.5 q-8 -51 -32 -100t-77 -74q47 -18 51 -63t-10 -119q-12 -59 -29.5 -108.5t-48 -84.5t-76 -54t-110.5 -19q-49 0 -91 15t-72 45t-42 74z" />
            <glyph unicode="&#xb4;" horiz-adv-x="788" d="M410 1176l278 380l201 -110l-348 -359z" />
            <glyph unicode="&#xb6;" horiz-adv-x="946" d="M119 897q0 80 25.5 173t83 171t150.5 130t226 52h469l-45 -223h-92l-256 -1319h-207l256 1319h-80l-256 -1319h-213l146 750q-113 23 -160 93.5t-47 172.5z" />
            <glyph unicode="&#xb7;" horiz-adv-x="468" d="M96 410l60 307h276l-59 -307h-277z" />
            <glyph unicode="&#xb8;" horiz-adv-x="882" d="M12 -383l64 119q43 -20 70.5 -25.5t50.5 -5.5q35 0 56 19.5t21 46.5t-18 35t-49 8l-62 47l109 209h125l-78 -144q88 -12 119 -57t31 -90q0 -23 -8.5 -57.5t-33 -68.5t-70.5 -58.5t-124 -24.5q-8 0 -28.5 1t-48 5t-60.5 14.5t-66 26.5z" />
            <glyph unicode="&#xb9;" horiz-adv-x="452" d="M195 1303l38 206l162 101h174l-166 -852h-198l123 628z" />
            <glyph unicode="&#xba;" horiz-adv-x="569" d="M104 752q0 39 4.5 76.5t12.5 78.5q12 61 26.5 129t38.5 105q35 55 85 84.5t128 29.5q117 0 173.5 -56t56.5 -126q0 -45 -7.5 -102.5t-17.5 -100.5q-16 -78 -35.5 -136t-50.5 -96t-76 -56.5t-110 -18.5q-66 0 -110 18.5t-70.5 46t-37 60.5t-10.5 64zM309 780q0 -41 27 -41 q18 0 26.5 16.5t14.5 41.5l20 98q10 47 17.5 92t7.5 68q0 10 -6 18t-21 8q-23 0 -34 -34.5t-31 -135.5q-2 -8 -5 -25.5t-6.5 -37t-6.5 -38.5t-3 -30z" />
            <glyph unicode="&#xbb;" horiz-adv-x="1103" d="M23 96l335 414l-155 408h243l156 -412l-315 -410h-264zM442 96l336 414l-155 408h243l156 -412l-315 -410h-265z" />
            <glyph unicode="&#xbc;" horiz-adv-x="1345" d="M162 -35l934 1497h166l-934 -1497h-166zM236 1118l38 207l162 100h174l-166 -852h-198l123 629zM719 117l29 145l296 590h187l-285 -571h78l37 172h180l-37 -172h51l-30 -164h-51l-23 -117h-180l22 117h-274z" />
            <glyph unicode="&#xbd;" horiz-adv-x="1345" d="M125 -35l934 1497h166l-934 -1497h-166zM193 1118l38 207l162 100h174l-166 -852h-198l123 629zM754 0l30 158l306 379q23 29 36 63.5t13 50.5q0 12 -7.5 21.5t-23.5 9.5q-23 0 -41 -19.5t-25 -78.5l-186 24q25 129 99.5 189.5t172.5 60.5q94 0 153.5 -44t59.5 -130 q0 -63 -26.5 -114.5t-75.5 -120.5l-209 -269h201l-35 -180h-442z" />
            <glyph unicode="&#xbe;" horiz-adv-x="1345" d="M110.5 699q-12.5 44 0.5 102l194 18q-10 -49 3.5 -61.5t23.5 -12.5q35 0 41 39l20 101q6 29 -11 39t-40 10h-45l29 156h59q23 0 38 10t19 35l19 84q2 10 -3 22t-30 12q-14 0 -34.5 -17t-24.5 -75l-185 27q25 121 87.5 182.5t177.5 61.5q117 0 165 -62.5t33 -181.5 q-8 -51 -31.5 -100.5t-76.5 -73.5q47 -18 51 -63.5t-10 -119.5q-12 -59 -30 -108t-48.5 -84t-75.5 -54.5t-111 -19.5q-49 0 -91 15.5t-71.5 45t-42 73.5zM193 -35l933 1497h166l-934 -1497h-165zM750 117l28 145l297 590h187l-285 -571h78l37 172h180l-37 -172h51l-31 -164 h-51l-22 -117h-181l23 117h-274z" />
            <glyph unicode="&#xbf;" horiz-adv-x="806" d="M8 -117q0 68 10.5 120t27.5 93t38.5 75t44.5 62q63 82 99 130.5t54.5 79t26.5 53t17 53.5l18 76h272l-24 -125q-10 -57 -39 -110.5t-57 -94.5q-57 -80 -95.5 -128t-60 -84t-29.5 -67.5t-8 -78.5q0 -31 18.5 -56.5t59.5 -25.5q16 0 34.5 6t35 22.5t30 46t17.5 76.5 l260 -26q-12 -109 -45 -186t-85.5 -125t-123 -69.5t-158.5 -21.5q-156 0 -247 79t-91 226zM369 731l55 285h262l-55 -285h-262z" />
            <glyph unicode="&#xc0;" horiz-adv-x="919" d="M-63 0l546 1425h340l-4 -1425h-291l11 279h-209l-97 -279h-296zM260 1690l158 190l327 -270l-100 -140zM420 541h129l16 227l27 289h-12l-88 -289z" />
            <glyph unicode="&#xc1;" horiz-adv-x="919" d="M-63 0l546 1425h340l-4 -1425h-291l11 279h-209l-97 -279h-296zM420 541h129l16 227l27 289h-12l-88 -289zM557 1610l395 266l119 -190l-440 -216z" />
            <glyph unicode="&#xc2;" horiz-adv-x="919" d="M-63 0l546 1425h340l-4 -1425h-291l11 279h-209l-97 -279h-296zM303 1579l332 297h162l207 -295l-117 -98l-201 176l-287 -176zM420 541h129l16 227l27 289h-12l-88 -289z" />
            <glyph unicode="&#xc3;" horiz-adv-x="919" d="M-63 0l546 1425h340l-4 -1425h-291l11 279h-209l-97 -279h-296zM324 1583q63 111 121.5 147.5t111.5 36.5q31 0 59.5 -11t53 -23.5t46 -23.5t40.5 -11q12 0 23.5 1t24.5 7t29.5 20.5t38.5 38.5l119 -73q-53 -115 -113.5 -154t-115.5 -39q-35 0 -62.5 11.5t-51 24.5 t-45 24.5t-46.5 11.5q-23 0 -49.5 -13.5t-67.5 -60.5zM420 541h129l16 227l27 289h-12l-88 -289z" />
            <glyph unicode="&#xc4;" horiz-adv-x="919" d="M-63 0l546 1425h340l-4 -1425h-291l11 279h-209l-97 -279h-296zM367 1493l51 266h241l-51 -266h-241zM420 541h129l16 227l27 289h-12l-88 -289zM723 1493l51 266h244l-51 -266h-244z" />
            <glyph unicode="&#xc5;" horiz-adv-x="919" d="M-63 0l546 1425h78q-45 20 -72.5 59.5t-27.5 88.5t16.5 95t47 80t74.5 54.5t97 20.5q78 0 132.5 -47t54.5 -119q0 -78 -37 -140.5t-105 -91.5h82l-4 -1425h-291l11 279h-209l-97 -279h-296zM420 541h129l16 227l27 289h-12l-88 -289zM608 1602q0 -23 16.5 -37.5 t39.5 -14.5q29 0 51 20.5t22 53.5q0 23 -16 37t-39 14q-29 0 -51.5 -22.5t-22.5 -50.5z" />
            <glyph unicode="&#xc6;" horiz-adv-x="1314" d="M-31 0l578 1425h874l-37 -266h-374l-41 -299h327l-39 -272h-327l-43 -320h375l-35 -268h-658l43 309h-225l-123 -309h-295zM492 575h157l82 580h-10z" />
            <glyph unicode="&#xc7;" horiz-adv-x="874" d="M72 266q0 41 10 99l135 698q16 84 47 153.5t80 118.5t121 76t170 27q166 0 246 -82t80 -205q0 -45 -9 -80l-276 -47q2 10 3 19.5t1 19.5q0 47 -20.5 77.5t-57.5 30.5q-29 0 -47 -11t-31.5 -27.5t-20.5 -36t-9 -33.5l-142 -727q-2 -8 -2 -25q0 -23 13.5 -40t56.5 -17 q88 0 123 147l268 -36q-12 -84 -42 -153t-79 -119t-119.5 -77.5t-167.5 -27.5h-2l-32 -62q88 -12 118.5 -57t30.5 -90q0 -23 -8 -57.5t-32.5 -68.5t-71 -58.5t-123.5 -24.5q-8 0 -29 1t-48.5 5t-60 14.5t-65.5 26.5l63 119q43 -20 71 -25.5t50 -5.5q35 0 56.5 19.5 t21.5 46.5t-18.5 35t-49.5 8l-61 47l72 139q-213 47 -213 266z" />
            <glyph unicode="&#xc8;" horiz-adv-x="806" d="M23 0l276 1425h653l-51 -266h-375l-59 -299h328l-54 -272h-327l-60 -322h375l-53 -266h-653zM326 1690l157 190l328 -270l-100 -140z" />
            <glyph unicode="&#xc9;" horiz-adv-x="806" d="M23 0l276 1425h653l-51 -266h-375l-59 -299h328l-54 -272h-327l-60 -322h375l-53 -266h-653zM471 1610l395 266l119 -190l-440 -216z" />
            <glyph unicode="&#xca;" horiz-adv-x="806" d="M23 0l276 1425h653l-51 -266h-375l-59 -299h328l-54 -272h-327l-60 -322h375l-53 -266h-653zM272 1579l332 297h162l207 -295l-117 -98l-201 176l-286 -176z" />
            <glyph unicode="&#xcb;" horiz-adv-x="806" d="M23 0l276 1425h653l-51 -266h-375l-59 -299h328l-54 -272h-327l-60 -322h375l-53 -266h-653zM336 1493l51 266h242l-51 -266h-242zM692 1493l51 266h244l-51 -266h-244z" />
            <glyph unicode="&#xcc;" horiz-adv-x="495" d="M27 0l276 1425h279l-277 -1425h-278zM74 1690l157 190l328 -270l-100 -140z" />
            <glyph unicode="&#xcd;" horiz-adv-x="495" d="M27 0l276 1425h279l-277 -1425h-278zM397 1610l396 266l118 -190l-440 -216z" />
            <glyph unicode="&#xce;" horiz-adv-x="495" d="M27 0l276 1425h279l-277 -1425h-278zM111 1579l331 297h162l207 -295l-117 -98l-200 176l-287 -176z" />
            <glyph unicode="&#xcf;" horiz-adv-x="495" d="M27 0l276 1425h279l-277 -1425h-278zM154 1493l51 266h241l-51 -266h-241zM510 1493l51 266h244l-51 -266h-244z" />
            <glyph unicode="&#xd0;" horiz-adv-x="913" d="M25 0l118 612h-90l33 176h90l125 637h336q127 0 209 -44t92 -148q4 -74 -10.5 -212t-48.5 -306q-35 -176 -59.5 -298t-65.5 -206q-63 -121 -156.5 -166t-202.5 -45h-370zM352 268h49q66 0 90.5 31t36.5 92q47 244 74 380t39 202.5t15 84t3 23.5q0 35 -18 52.5t-68 17.5 h-49l-71 -363h90l-35 -176h-90z" />
            <glyph unicode="&#xd1;" horiz-adv-x="985" d="M16 0l277 1425h244l75 -442q6 -33 13.5 -79t13.5 -96t12 -97t8 -82h11l141 796h272l-276 -1425h-238l-84 451l-45 270h-10l-137 -721h-277zM373 1583q63 111 121.5 147.5t111.5 36.5q31 0 59.5 -11t53 -23.5t46 -23.5t40.5 -11q12 0 23.5 1t24.5 7t29.5 20.5t39.5 38.5 l118 -73q-53 -115 -113.5 -154t-115.5 -39q-35 0 -62.5 11.5t-51 24.5t-45 24.5t-46.5 11.5q-23 0 -49.5 -13.5t-67.5 -60.5z" />
            <glyph unicode="&#xd2;" horiz-adv-x="911" d="M78 295q0 23 3 47.5t7 48.5l131 688q18 92 48 159t76 112t110.5 66.5t152.5 21.5q154 0 246 -78t92 -225q0 -53 -12 -111l-127 -676q-31 -168 -123 -264t-272 -96q-162 0 -247 84t-85 223zM319 1690l158 190l328 -270l-100 -140zM356 340q0 -76 72 -76q35 0 59.5 19.5 t34.5 68.5l135 697q4 10 4.5 19t0.5 19q0 39 -20.5 56.5t-51.5 17.5q-35 0 -59.5 -20.5t-34.5 -67.5l-136 -700q-2 -10 -3 -17.5t-1 -15.5z" />
            <glyph unicode="&#xd3;" horiz-adv-x="911" d="M78 295q0 23 3 47.5t7 48.5l131 688q18 92 48 159t76 112t110.5 66.5t152.5 21.5q154 0 246 -78t92 -225q0 -53 -12 -111l-127 -676q-31 -168 -123 -264t-272 -96q-162 0 -247 84t-85 223zM356 340q0 -76 72 -76q35 0 59.5 19.5t34.5 68.5l135 697q4 10 4.5 19t0.5 19 q0 39 -20.5 56.5t-51.5 17.5q-35 0 -59.5 -20.5t-34.5 -67.5l-136 -700q-2 -10 -3 -17.5t-1 -15.5zM557 1610l395 266l119 -190l-440 -216z" />
            <glyph unicode="&#xd4;" horiz-adv-x="911" d="M78 295q0 23 3 47.5t7 48.5l131 688q18 92 48 159t76 112t110.5 66.5t152.5 21.5q154 0 246 -78t92 -225q0 -53 -12 -111l-127 -676q-31 -168 -123 -264t-272 -96q-162 0 -247 84t-85 223zM301 1579l332 297h162l206 -295l-116 -98l-201 176l-287 -176zM356 340 q0 -76 72 -76q35 0 59.5 19.5t34.5 68.5l135 697q4 10 4.5 19t0.5 19q0 39 -20.5 56.5t-51.5 17.5q-35 0 -59.5 -20.5t-34.5 -67.5l-136 -700q-2 -10 -3 -17.5t-1 -15.5z" />
            <glyph unicode="&#xd5;" horiz-adv-x="911" d="M78 295q0 23 3 47.5t7 48.5l131 688q18 92 48 159t76 112t110.5 66.5t152.5 21.5q154 0 246 -78t92 -225q0 -53 -12 -111l-127 -676q-31 -168 -123 -264t-272 -96q-162 0 -247 84t-85 223zM319 1583q63 111 122 147.5t112 36.5q31 0 59.5 -11t53 -23.5t46 -23.5t40.5 -11 q12 0 23 1t24.5 7t30 20.5t38.5 38.5l119 -73q-53 -115 -113.5 -154t-115.5 -39q-35 0 -62.5 11.5t-51 24.5t-45 24.5t-46.5 11.5q-23 0 -49.5 -13.5t-67.5 -60.5zM356 340q0 -76 72 -76q35 0 59.5 19.5t34.5 68.5l135 697q4 10 4.5 19t0.5 19q0 39 -20.5 56.5t-51.5 17.5 q-35 0 -59.5 -20.5t-34.5 -67.5l-136 -700q-2 -10 -3 -17.5t-1 -15.5z" />
            <glyph unicode="&#xd6;" horiz-adv-x="911" d="M78 295q0 23 3 47.5t7 48.5l131 688q18 92 48 159t76 112t110.5 66.5t152.5 21.5q154 0 246 -78t92 -225q0 -53 -12 -111l-127 -676q-31 -168 -123 -264t-272 -96q-162 0 -247 84t-85 223zM356 340q0 -76 72 -76q35 0 59.5 19.5t34.5 68.5l135 697q4 10 4.5 19t0.5 19 q0 39 -20.5 56.5t-51.5 17.5q-35 0 -59.5 -20.5t-34.5 -67.5l-136 -700q-2 -10 -3 -17.5t-1 -15.5zM356 1493l52 266h241l-51 -266h-242zM713 1493l51 266h244l-52 -266h-243z" />
            <glyph unicode="&#xd7;" d="M12 367l307 245l-200 262l180 150l203 -262l305 248l131 -174l-303 -246l199 -262l-183 -150l-202 262l-306 -245z" />
            <glyph unicode="&#xd8;" horiz-adv-x="911" d="M35 25l76 116q-33 63 -33 154q0 23 3 47.5t7 48.5l131 688q18 92 48 159t76 112t110.5 66.5t152.5 21.5q96 0 168 -31t115 -90l80 121l63 -41l-104 -156q16 -49 16 -106q0 -53 -12 -111l-127 -676q-31 -168 -123 -264t-272 -96q-86 0 -149.5 24.5t-106.5 67.5l-62 -92z M356 340q0 -76 72 -76q35 0 59.5 19.5t34.5 68.5l76 396l-233 -353l-5 -22q-2 -10 -3 -17.5t-1 -15.5zM399 575l236 357l22 117q4 10 4.5 19t0.5 19q0 39 -20.5 56.5t-51.5 17.5q-35 0 -59.5 -20.5t-34.5 -67.5z" />
            <glyph unicode="&#xd9;" horiz-adv-x="911" d="M79.5 200.5q-18.5 69.5 0.5 161.5l207 1063h278l-209 -1060q-10 -49 13.5 -75t58.5 -26t59.5 19.5t34.5 68.5l209 1073h283l-209 -1077q-72 -360 -399 -360q-82 0 -150 24.5t-113 71.5t-63.5 116.5zM336 1690l158 190l327 -270l-100 -140z" />
            <glyph unicode="&#xda;" horiz-adv-x="911" d="M79.5 200.5q-18.5 69.5 0.5 161.5l207 1063h278l-209 -1060q-10 -49 13.5 -75t58.5 -26t59.5 19.5t34.5 68.5l209 1073h283l-209 -1077q-72 -360 -399 -360q-82 0 -150 24.5t-113 71.5t-63.5 116.5zM557 1610l395 266l119 -190l-440 -216z" />
            <glyph unicode="&#xdb;" horiz-adv-x="911" d="M79.5 200.5q-18.5 69.5 0.5 161.5l207 1063h278l-209 -1060q-10 -49 13.5 -75t58.5 -26t59.5 19.5t34.5 68.5l209 1073h283l-209 -1077q-72 -360 -399 -360q-82 0 -150 24.5t-113 71.5t-63.5 116.5zM313 1579l332 297h162l207 -295l-117 -98l-201 176l-286 -176z" />
            <glyph unicode="&#xdc;" horiz-adv-x="911" d="M79.5 200.5q-18.5 69.5 0.5 161.5l207 1063h278l-209 -1060q-10 -49 13.5 -75t58.5 -26t59.5 19.5t34.5 68.5l209 1073h283l-209 -1077q-72 -360 -399 -360q-82 0 -150 24.5t-113 71.5t-63.5 116.5zM371 1493l51 266h242l-52 -266h-241zM727 1493l51 266h244l-51 -266 h-244z" />
            <glyph unicode="&#xdd;" horiz-adv-x="847" d="M201 1425h288l11 -282q2 -68 5 -121t1 -129h16l211 532h303l-444 -866l-109 -559h-280l108 559zM512 1610l395 266l119 -190l-440 -216z" />
            <glyph unicode="&#xde;" horiz-adv-x="876" d="M23 0l276 1425h276l-49 -247h54q150 0 242.5 -68t92.5 -229q0 -127 -29.5 -236.5t-91 -192.5t-153.5 -130.5t-217 -47.5h-70l-53 -274h-278zM406 543h43q31 0 65.5 15t62 47t46 80t18.5 114q0 61 -29.5 86.5t-83.5 25.5h-51z" />
            <glyph unicode="&#xdf;" horiz-adv-x="878" d="M14 0l222 1147q14 74 43.5 136.5t78 107.5t114 70.5t151.5 25.5q102 0 164.5 -32t93 -87t35 -128t-12.5 -155q-10 -55 -43 -112.5t-92 -85.5l-4 -8q59 -37 74.5 -98.5t1.5 -135.5q-25 -139 -44.5 -258t-56.5 -208t-100.5 -139t-175.5 -50q-23 0 -47.5 2t-53.5 8l46 233 q27 0 52 17.5t34 58.5l63 326q12 66 -2 91.5t-55 35.5l43 219q37 4 54 31.5t26 74.5q10 55 12 68.5t2 18.5q0 20 -10.5 34.5t-38.5 14.5q-31 0 -49.5 -26t-22.5 -50l-221 -1147h-281z" />
            <glyph unicode="&#xe0;" horiz-adv-x="821" d="M35 170q0 66 11 163t38 226q23 117 50.5 204t66.5 145.5t93 87t128 28.5q35 0 75 -17.5t62 -70.5l8 4l19 72h278l-196 -1012h-277l17 80h-11q-37 -51 -88 -72.5t-80 -21.5q-113 0 -153.5 52t-40.5 132zM258 1497l199 107l198 -435l-133 -69zM328 287q0 -37 45 -41 q18 0 40.5 18.5t39.5 89.5l55 285q4 14 6 28.5t2 30.5q0 23 -10 40.5t-41 17.5q-23 0 -38 -14.5t-19 -30.5q-6 -12 -19.5 -64.5t-27 -119t-23.5 -133t-10 -107.5z" />
            <glyph unicode="&#xe1;" horiz-adv-x="821" d="M35 170q0 66 11 163t38 226q23 117 50.5 204t66.5 145.5t93 87t128 28.5q35 0 75 -17.5t62 -70.5l8 4l19 72h278l-196 -1012h-277l17 80h-11q-37 -51 -88 -72.5t-80 -21.5q-113 0 -153.5 52t-40.5 132zM328 287q0 -37 45 -41q18 0 40.5 18.5t39.5 89.5l55 285 q4 14 6 28.5t2 30.5q0 23 -10 40.5t-41 17.5q-23 0 -38 -14.5t-19 -30.5q-6 -12 -19.5 -64.5t-27 -119t-23.5 -133t-10 -107.5zM492 1176l278 380l201 -110l-348 -359z" />
            <glyph unicode="&#xe2;" horiz-adv-x="821" d="M35 170q0 66 11 163t38 226q23 117 50.5 204t66.5 145.5t93 87t128 28.5q35 0 75 -17.5t62 -70.5l8 4l19 72h278l-196 -1012h-277l17 80h-11q-37 -51 -88 -72.5t-80 -21.5q-113 0 -153.5 52t-40.5 132zM219 1151l338 326h162l207 -347l-117 -67l-203 207l-299 -215z M328 287q0 -37 45 -41q18 0 40.5 18.5t39.5 89.5l55 285q4 14 6 28.5t2 30.5q0 23 -10 40.5t-41 17.5q-23 0 -38 -14.5t-19 -30.5q-6 -12 -19.5 -64.5t-27 -119t-23.5 -133t-10 -107.5z" />
            <glyph unicode="&#xe3;" horiz-adv-x="821" d="M35 170q0 66 11 163t38 226q23 117 50.5 204t66.5 145.5t93 87t128 28.5q35 0 75 -17.5t62 -70.5l8 4l19 72h278l-196 -1012h-277l17 80h-11q-37 -51 -88 -72.5t-80 -21.5q-113 0 -153.5 52t-40.5 132zM264 1214q63 111 122 148t112 37q31 0 59.5 -11.5t53 -23.5 t46 -23.5t39.5 -11.5q12 0 23.5 1t25 7t30 20.5t38.5 39.5l119 -74q-53 -115 -113.5 -154t-116.5 -39q-35 0 -62.5 11.5t-51 25t-45 24.5t-45.5 11q-23 0 -49.5 -13t-67.5 -61zM328 287q0 -37 45 -41q18 0 40.5 18.5t39.5 89.5l55 285q4 14 6 28.5t2 30.5q0 23 -10 40.5 t-41 17.5q-23 0 -38 -14.5t-19 -30.5q-6 -12 -19.5 -64.5t-27 -119t-23.5 -133t-10 -107.5z" />
            <glyph unicode="&#xe4;" horiz-adv-x="821" d="M35 170q0 66 11 163t38 226q23 117 50.5 204t66.5 145.5t93 87t128 28.5q35 0 75 -17.5t62 -70.5l8 4l19 72h278l-196 -1012h-277l17 80h-11q-37 -51 -88 -72.5t-80 -21.5q-113 0 -153.5 52t-40.5 132zM281 1120l51 266h241l-51 -266h-241zM328 287q0 -37 45 -41 q18 0 40.5 18.5t39.5 89.5l55 285q4 14 6 28.5t2 30.5q0 23 -10 40.5t-41 17.5q-23 0 -38 -14.5t-19 -30.5q-6 -12 -19.5 -64.5t-27 -119t-23.5 -133t-10 -107.5zM637 1120l51 266h244l-51 -266h-244z" />
            <glyph unicode="&#xe5;" horiz-adv-x="821" d="M35 170q0 66 11 163t38 226q23 117 50.5 204t66.5 145.5t93 87t128 28.5q35 0 75 -17.5t62 -70.5l8 4l19 72h278l-196 -1012h-277l17 80h-11q-37 -51 -88 -72.5t-80 -21.5q-113 0 -153.5 52t-40.5 132zM328 287q0 -37 45 -41q18 0 40.5 18.5t39.5 89.5l55 285 q4 14 6 28.5t2 30.5q0 23 -10 40.5t-41 17.5q-23 0 -38 -14.5t-19 -30.5q-6 -12 -19.5 -64.5t-27 -119t-23.5 -133t-10 -107.5zM377 1229q0 49 16.5 95t47 80t74.5 54.5t97 20.5q78 0 132.5 -47.5t54.5 -118.5q0 -49 -15.5 -95.5t-46 -80t-75 -54t-99.5 -20.5q-78 0 -132 47 t-54 119zM524 1257q0 -23 16.5 -37t39.5 -14q29 0 51 20.5t22 53.5q0 23 -16 37t-39 14q-29 0 -51.5 -22.5t-22.5 -51.5z" />
            <glyph unicode="&#xe6;" horiz-adv-x="1280" d="M23 188q0 70 15 147t61 139.5t133 103t229 40.5h23.5t23.5 -2l16 86q2 8 2 23q0 18 -12 29.5t-43 11.5q-20 0 -45 -12.5t-47 -65.5l-229 76q59 135 158.5 198.5t240.5 63.5q57 0 102 -13.5t74 -41.5q43 29 97.5 44t125.5 15q147 0 230.5 -67.5t83.5 -184.5 q0 -100 -35 -170.5t-93.5 -116t-133 -65.5t-156.5 -20q-18 0 -37 1t-37 3q-8 -29 -11 -54.5t-3 -42.5q2 -27 10 -45t35 -18q29 0 50 17.5t34 60.5l276 -31q-43 -154 -138 -231.5t-259 -77.5q-100 0 -162.5 32.5t-95.5 94.5q-37 -45 -78 -71t-79 -38t-70.5 -15t-53.5 -3 q-115 0 -158.5 55t-43.5 145zM311 301q0 -29 16.5 -41t43.5 -12q33 0 53 24.5t29 63.5l18 90h-25q-135 0 -135 -125zM813 627h23q63 0 98 26.5t35 79.5q0 39 -47 39q-43 0 -70 -38t-39 -107z" />
            <glyph unicode="&#xe7;" horiz-adv-x="780" d="M53 225q-4 51 5.5 127t19.5 150q14 92 38.5 187t57.5 157q41 80 122 132t204 52q76 0 136 -21.5t98 -63.5t52.5 -103.5t-0.5 -141.5l-278 -30q10 53 0 76.5t-33 23.5q-35 0 -55 -41q-10 -16 -25.5 -74.5t-32.5 -144.5q-16 -86 -23 -138.5t-7 -76.5q4 -45 41 -45 q23 0 42 20.5t29 71.5l271 -35q-29 -141 -115 -225t-225 -92l-33 -64q88 -12 119 -57t31 -90q0 -23 -8.5 -57.5t-33 -68.5t-70.5 -58.5t-124 -24.5q-8 0 -28.5 1t-48 5t-60.5 14.5t-66 26.5l64 119q43 -20 70.5 -25.5t50.5 -5.5q35 0 56 19.5t21 46.5t-18 35t-49 8l-62 47 l70 135q-106 23 -152.5 87t-50.5 142z" />
            <glyph unicode="&#xe8;" horiz-adv-x="835" d="M51 303q0 53 6 106.5t17 102.5q16 92 40.5 184t68.5 167t114 121t178 46q147 0 230 -67.5t83 -184.5q0 -102 -31.5 -172.5t-86 -115t-126 -63.5t-151.5 -19h-25.5t-27.5 2q-8 -29 -11 -61t-3 -48q2 -51 41 -51q29 0 46 17.5t29 60.5l279 -31q-16 -68 -43 -124t-69 -98 t-102.5 -64.5t-146.5 -22.5q-92 0 -152.5 25.5t-95 69.5t-48 101.5t-13.5 118.5zM281 1497l198 107l199 -435l-133 -69zM379 627q76 0 105.5 24.5t29.5 77.5q0 16 -11 29.5t-34 13.5q-39 0 -58.5 -38t-31.5 -107z" />
            <glyph unicode="&#xe9;" horiz-adv-x="835" d="M51 303q0 53 6 106.5t17 102.5q16 92 40.5 184t68.5 167t114 121t178 46q147 0 230 -67.5t83 -184.5q0 -102 -31.5 -172.5t-86 -115t-126 -63.5t-151.5 -19h-25.5t-27.5 2q-8 -29 -11 -61t-3 -48q2 -51 41 -51q29 0 46 17.5t29 60.5l279 -31q-16 -68 -43 -124t-69 -98 t-102.5 -64.5t-146.5 -22.5q-92 0 -152.5 25.5t-95 69.5t-48 101.5t-13.5 118.5zM379 627q76 0 105.5 24.5t29.5 77.5q0 16 -11 29.5t-34 13.5q-39 0 -58.5 -38t-31.5 -107zM428 1176l279 380l200 -110l-348 -359z" />
            <glyph unicode="&#xea;" horiz-adv-x="835" d="M51 303q0 53 6 106.5t17 102.5q16 92 40.5 184t68.5 167t114 121t178 46q147 0 230 -67.5t83 -184.5q0 -102 -31.5 -172.5t-86 -115t-126 -63.5t-151.5 -19h-25.5t-27.5 2q-8 -29 -11 -61t-3 -48q2 -51 41 -51q29 0 46 17.5t29 60.5l279 -31q-16 -68 -43 -124t-69 -98 t-102.5 -64.5t-146.5 -22.5q-92 0 -152.5 25.5t-95 69.5t-48 101.5t-13.5 118.5zM178 1151l338 326h162l207 -347l-117 -67l-203 207l-299 -215zM379 627q76 0 105.5 24.5t29.5 77.5q0 16 -11 29.5t-34 13.5q-39 0 -58.5 -38t-31.5 -107z" />
            <glyph unicode="&#xeb;" horiz-adv-x="835" d="M51 303q0 53 6 106.5t17 102.5q16 92 40.5 184t68.5 167t114 121t178 46q147 0 230 -67.5t83 -184.5q0 -102 -31.5 -172.5t-86 -115t-126 -63.5t-151.5 -19h-25.5t-27.5 2q-8 -29 -11 -61t-3 -48q2 -51 41 -51q29 0 46 17.5t29 60.5l279 -31q-16 -68 -43 -124t-69 -98 t-102.5 -64.5t-146.5 -22.5q-92 0 -152.5 25.5t-95 69.5t-48 101.5t-13.5 118.5zM240 1120l51 266h241l-51 -266h-241zM379 627q76 0 105.5 24.5t29.5 77.5q0 16 -11 29.5t-34 13.5q-39 0 -58.5 -38t-31.5 -107zM596 1120l51 266h244l-51 -266h-244z" />
            <glyph unicode="&#xec;" horiz-adv-x="626" d="M152 0l196 1012h281l-197 -1012h-280zM174 1497l199 107l198 -435l-133 -69z" />
            <glyph unicode="&#xed;" horiz-adv-x="552" d="M10 0l197 1012h280l-196 -1012h-281zM317 1176l279 380l201 -110l-348 -359z" />
            <glyph unicode="&#xee;" horiz-adv-x="618" d="M92 0l197 1012h280l-196 -1012h-281zM106 1151l338 326h162l207 -347l-117 -67l-202 207l-299 -215z" />
            <glyph unicode="&#xef;" horiz-adv-x="618" d="M92 0l197 1012h280l-196 -1012h-281zM154 1120l51 266h241l-51 -266h-241zM510 1120l51 266h244l-51 -266h-244z" />
            <glyph unicode="&#xf0;" horiz-adv-x="819" d="M49 262q0 49 11.5 123t28.5 151.5t39 148.5t44 118q41 86 106.5 129t151.5 43q12 0 35.5 -3t50.5 -13.5t51.5 -28t38.5 -43.5q8 41 12.5 81t4.5 74v41t-2 39l-107 -69l-51 88l125 82q-23 33 -67 50t-124 27l47 199q127 -8 205 -43t113 -70q6 -8 13 -15t13 -17l127 84 l54 -88l-131 -86q8 -29 13 -63t5 -79q0 -35 -3 -89t-12.5 -133t-26.5 -185.5t-44 -245.5q-20 -106 -51 -197.5t-80 -157t-118.5 -100t-168.5 -28.5q-86 4 -144 31.5t-93 66.5t-50.5 86t-15.5 92zM330 307q0 -25 9 -41t38 -16t42 17.5t17 27.5q4 14 18.5 69.5t28.5 118.5 q12 55 20.5 104.5t8.5 76.5q0 20 -12.5 33.5t-32.5 13.5q-23 0 -37 -10.5t-26.5 -36t-22.5 -69.5t-23 -112q-4 -18 -8 -40.5t-9 -47t-8 -48t-3 -40.5z" />
            <glyph unicode="&#xf1;" horiz-adv-x="845" d="M4 0l197 1014h280l-22 -96l10 -3q35 49 93.5 80t105.5 31q55 0 89 -13.5t52 -37t24.5 -54t6.5 -65.5q0 -23 -4.5 -48.5t-8.5 -49.5l-145 -758h-281l134 686q2 10 2 27q0 27 -12.5 37t-30.5 10q-35 0 -55.5 -29t-28.5 -67l-125 -664h-281zM244 1214q63 111 121.5 148 t111.5 37q31 0 59.5 -11.5t53 -23.5t46 -23.5t40.5 -11.5q12 0 23.5 1t24.5 7t29.5 20.5t39.5 39.5l118 -74q-53 -115 -113.5 -154t-115.5 -39q-35 0 -62.5 11.5t-51 25t-45 24.5t-46.5 11q-23 0 -49.5 -13t-67.5 -61z" />
            <glyph unicode="&#xf2;" horiz-adv-x="821" d="M55 262q0 55 7.5 114.5t19.5 125.5q10 49 21.5 100t23.5 99.5t27.5 90.5t31.5 70q47 84 128.5 126t181.5 42q80 0 138 -22.5t96 -60.5t55.5 -86t17.5 -99q0 -33 -3 -73t-9.5 -81t-12.5 -82t-12 -73q-25 -121 -53.5 -209t-73.5 -145.5t-111.5 -85t-165.5 -27.5 q-84 0 -142 25.5t-95 65.5t-53.5 89t-16.5 96zM229 1497l199 107l199 -435l-133 -69zM336 307q0 -25 9 -41t38 -16q23 0 39 14.5t20 30.5q4 8 12.5 37.5t17.5 71.5t18.5 89.5t17.5 92.5t13 82t5 55q0 20 -11.5 33.5t-31.5 13.5q-23 0 -37 -8t-25 -32.5t-22.5 -70 t-25.5 -116.5l-29 -162q-4 -23 -6 -40t-2 -34z" />
            <glyph unicode="&#xf3;" horiz-adv-x="821" d="M55 262q0 55 7.5 114.5t19.5 125.5q10 49 21.5 100t23.5 99.5t27.5 90.5t31.5 70q47 84 128.5 126t181.5 42q80 0 138 -22.5t96 -60.5t55.5 -86t17.5 -99q0 -33 -3 -73t-9.5 -81t-12.5 -82t-12 -73q-25 -121 -53.5 -209t-73.5 -145.5t-111.5 -85t-165.5 -27.5 q-84 0 -142 25.5t-95 65.5t-53.5 89t-16.5 96zM336 307q0 -25 9 -41t38 -16q23 0 39 14.5t20 30.5q4 8 12.5 37.5t17.5 71.5t18.5 89.5t17.5 92.5t13 82t5 55q0 20 -11.5 33.5t-31.5 13.5q-23 0 -37 -8t-25 -32.5t-22.5 -70t-25.5 -116.5l-29 -162q-4 -23 -6 -40t-2 -34z M410 1176l278 380l201 -110l-348 -359z" />
            <glyph unicode="&#xf4;" horiz-adv-x="821" d="M55 262q0 55 7.5 114.5t19.5 125.5q10 49 21.5 100t23.5 99.5t27.5 90.5t31.5 70q47 84 128.5 126t181.5 42q80 0 138 -22.5t96 -60.5t55.5 -86t17.5 -99q0 -33 -3 -73t-9.5 -81t-12.5 -82t-12 -73q-25 -121 -53.5 -209t-73.5 -145.5t-111.5 -85t-165.5 -27.5 q-84 0 -142 25.5t-95 65.5t-53.5 89t-16.5 96zM174 1151l338 326h162l207 -347l-117 -67l-203 207l-299 -215zM336 307q0 -25 9 -41t38 -16q23 0 39 14.5t20 30.5q4 8 12.5 37.5t17.5 71.5t18.5 89.5t17.5 92.5t13 82t5 55q0 20 -11.5 33.5t-31.5 13.5q-23 0 -37 -8 t-25 -32.5t-22.5 -70t-25.5 -116.5l-29 -162q-4 -23 -6 -40t-2 -34z" />
            <glyph unicode="&#xf5;" horiz-adv-x="821" d="M55 262q0 55 7.5 114.5t19.5 125.5q10 49 21.5 100t23.5 99.5t27.5 90.5t31.5 70q47 84 128.5 126t181.5 42q80 0 138 -22.5t96 -60.5t55.5 -86t17.5 -99q0 -33 -3 -73t-9.5 -81t-12.5 -82t-12 -73q-25 -121 -53.5 -209t-73.5 -145.5t-111.5 -85t-165.5 -27.5 q-84 0 -142 25.5t-95 65.5t-53.5 89t-16.5 96zM211 1214q63 111 121.5 148t111.5 37q31 0 59.5 -11.5t53.5 -23.5t46.5 -23.5t39.5 -11.5q12 0 23.5 1t25 7t29.5 20.5t39 39.5l119 -74q-53 -115 -113.5 -154t-116.5 -39q-35 0 -62.5 11.5t-51 25t-45 24.5t-46.5 11 q-23 0 -49 -13t-67 -61zM336 307q0 -25 9 -41t38 -16q23 0 39 14.5t20 30.5q4 8 12.5 37.5t17.5 71.5t18.5 89.5t17.5 92.5t13 82t5 55q0 20 -11.5 33.5t-31.5 13.5q-23 0 -37 -8t-25 -32.5t-22.5 -70t-25.5 -116.5l-29 -162q-4 -23 -6 -40t-2 -34z" />
            <glyph unicode="&#xf6;" horiz-adv-x="821" d="M55 262q0 55 7.5 114.5t19.5 125.5q10 49 21.5 100t23.5 99.5t27.5 90.5t31.5 70q47 84 128.5 126t181.5 42q80 0 138 -22.5t96 -60.5t55.5 -86t17.5 -99q0 -33 -3 -73t-9.5 -81t-12.5 -82t-12 -73q-25 -121 -53.5 -209t-73.5 -145.5t-111.5 -85t-165.5 -27.5 q-84 0 -142 25.5t-95 65.5t-53.5 89t-16.5 96zM221 1120l51 266h242l-51 -266h-242zM336 307q0 -25 9 -41t38 -16q23 0 39 14.5t20 30.5q4 8 12.5 37.5t17.5 71.5t18.5 89.5t17.5 92.5t13 82t5 55q0 20 -11.5 33.5t-31.5 13.5q-23 0 -37 -8t-25 -32.5t-22.5 -70 t-25.5 -116.5l-29 -162q-4 -23 -6 -40t-2 -34zM578 1120l51 266h243l-51 -266h-243z" />
            <glyph unicode="&#xf7;" d="M51 485l41 220h797l-41 -220h-797zM254 217q0 35 15.5 68.5t41 59.5t59 41t68.5 15q55 0 90 -35.5t35 -89.5q0 -35 -16.5 -68.5t-42 -59t-59 -41t-68.5 -15.5q-55 0 -89 36t-34 89zM391 922q0 37 15.5 69.5t41 57t58 40t67.5 15.5q55 0 91 -36t36 -89q0 -35 -16 -67.5 t-42 -58.5t-59.5 -41t-68.5 -15q-55 0 -89 35.5t-34 89.5z" />
            <glyph unicode="&#xf8;" horiz-adv-x="821" d="M41 -31l74 117q-31 39 -45.5 85t-14.5 91q0 55 7.5 114.5t19.5 125.5q10 49 21.5 100t23.5 99.5t27.5 90.5t31.5 70q47 84 128.5 126t181.5 42q59 0 107 -13t83 -36l84 129l53 -33l-88 -137q35 -37 51.5 -84t16.5 -94q0 -33 -3 -73t-9.5 -81t-12.5 -82t-12 -73 q-25 -121 -53.5 -209t-73.5 -145.5t-111.5 -85t-165.5 -27.5q-66 0 -115.5 15t-84.5 42l-68 -106zM336 307q0 -25 9 -41t38 -16q23 0 39 14.5t20 30.5q4 8 11.5 36.5t16.5 70.5t19.5 89.5t18.5 92.5l-172 -269v-8zM360 469l166 260q-2 16 -13.5 28.5t-29.5 12.5 q-23 0 -37 -8t-25 -32.5t-22.5 -70t-25.5 -116.5z" />
            <glyph unicode="&#xf9;" horiz-adv-x="845" d="M43 160q4 47 14 96l146 758h280l-133 -686q-6 -29 3 -51.5t38 -22.5q25 0 50.5 28.5t33.5 67.5l125 664h281l-197 -1014h-281l23 96l-10 2q-35 -49 -93.5 -79.5t-105.5 -30.5q-74 0 -111.5 23.5t-52 62.5t-10.5 86zM248 1497l198 107l199 -435l-133 -69z" />
            <glyph unicode="&#xfa;" horiz-adv-x="845" d="M43 160q4 47 14 96l146 758h280l-133 -686q-6 -29 3 -51.5t38 -22.5q25 0 50.5 28.5t33.5 67.5l125 664h281l-197 -1014h-281l23 96l-10 2q-35 -49 -93.5 -79.5t-105.5 -30.5q-74 0 -111.5 23.5t-52 62.5t-10.5 86zM479 1176l279 380l200 -110l-348 -359z" />
            <glyph unicode="&#xfb;" horiz-adv-x="845" d="M43 160q4 47 14 96l146 758h280l-133 -686q-6 -29 3 -51.5t38 -22.5q25 0 50.5 28.5t33.5 67.5l125 664h281l-197 -1014h-281l23 96l-10 2q-35 -49 -93.5 -79.5t-105.5 -30.5q-74 0 -111.5 23.5t-52 62.5t-10.5 86zM195 1151l337 326h162l207 -347l-117 -67l-202 207 l-299 -215z" />
            <glyph unicode="&#xfc;" horiz-adv-x="845" d="M43 160q4 47 14 96l146 758h280l-133 -686q-6 -29 3 -51.5t38 -22.5q25 0 50.5 28.5t33.5 67.5l125 664h281l-197 -1014h-281l23 96l-10 2q-35 -49 -93.5 -79.5t-105.5 -30.5q-74 0 -111.5 23.5t-52 62.5t-10.5 86zM258 1120l51 266h242l-51 -266h-242zM614 1120l52 266 h243l-51 -266h-244z" />
            <glyph unicode="&#xfd;" horiz-adv-x="784" d="M-113 -172q94 8 153.5 49t119.5 146l-56 989h293l-10 -318q-2 -25 -4 -64.5t-6 -82.5t-9.5 -86t-11.5 -74h11q59 135 108 285.5t103 339.5h294q-106 -307 -223 -576.5t-231 -480.5q-43 -80 -95.5 -149.5t-116 -118.5t-141 -77t-174.5 -24zM420 1176l278 380l201 -110 l-348 -359z" />
            <glyph unicode="&#xfe;" horiz-adv-x="821" d="M-90 -395l358 1818h277l-99 -483l9 -4q18 27 41.5 45t48 27.5t48 13.5t42.5 4q94 0 141 -46t47 -157q0 -16 -1 -33.5t-3 -37.5q-4 -31 -14 -107t-26.5 -164t-37 -174t-43.5 -137q-12 -29 -29.5 -60.5t-47 -60.5t-73 -47t-106.5 -18q-27 0 -76 13t-75 48h-10l-91 -440 h-280zM334 301q0 -23 11 -36t34 -13q20 0 36.5 13.5t24.5 33.5q6 18 15.5 54t17.5 79t17.5 90t15.5 87t10 68t4 34v6q0 16 -11 27.5t-32 11.5q-25 0 -39 -10.5t-24.5 -34t-18.5 -63.5t-20 -101l-4 -23q-14 -78 -25.5 -137t-11.5 -86z" />
            <glyph unicode="&#xff;" horiz-adv-x="784" d="M-113 -172q94 8 153.5 49t119.5 146l-56 989h293l-10 -318q-2 -25 -4 -64.5t-6 -82.5t-9.5 -86t-11.5 -74h11q59 135 108 285.5t103 339.5h294q-106 -307 -223 -576.5t-231 -480.5q-43 -80 -95.5 -149.5t-116 -118.5t-141 -77t-174.5 -24zM215 1120l51 266h242l-51 -266 h-242zM571 1120l52 266h243l-51 -266h-244z" />
            <glyph unicode="&#x152;" horiz-adv-x="1224" d="M87 227.5q-15 73.5 1 163.5l131 688q35 184 132.5 271.5t254.5 87.5q35 0 65.5 -2t59.5 -11h639l-51 -266h-375l-59 -299h327l-53 -272h-328l-59 -309h375l-53 -279h-572q-53 -12 -112 -12q-88 0 -156 29.5t-110 83t-57 127zM360 373q-10 -49 6.5 -79t61.5 -30 q35 0 59.5 19.5t34.5 68.5l135 697q14 59 -8 85.5t-59 26.5q-35 0 -59.5 -20.5t-34.5 -67.5z" />
            <glyph unicode="&#x153;" horiz-adv-x="1267" d="M55 262q0 55 7.5 114.5t19.5 125.5q10 49 21.5 100t23.5 99.5t27.5 90.5t31.5 70q47 84 128 126t182 42q70 0 124 -22.5t82 -63.5q35 39 88.5 62.5t116.5 23.5q147 0 230.5 -67.5t83.5 -184.5q0 -102 -32 -172.5t-86 -115t-126 -63.5t-152 -19h-25.5t-27.5 2 q-8 -29 -11 -61t-3 -48q2 -51 41 -51q29 0 46 17.5t29 60.5l279 -31q-16 -68 -43 -124t-69 -98t-102 -64.5t-146 -22.5q-74 0 -120 24.5t-83 69.5q-37 -47 -103.5 -71.5t-142.5 -24.5q-78 0 -132 26.5t-89 67.5t-51.5 89t-16.5 93zM336 307q0 -25 9 -41t38 -16q23 0 39 14.5 t20 30.5q4 8 12.5 37.5t17.5 71.5t18.5 89.5t17.5 92.5t13 82t5 55q0 20 -11.5 33.5t-31.5 13.5q-23 0 -37 -8t-25 -32.5t-22.5 -70t-25.5 -116.5l-29 -162q-4 -23 -6 -40t-2 -34zM811 627q76 0 105.5 24.5t29.5 77.5q0 16 -11 29.5t-34 13.5q-39 0 -58.5 -38t-31.5 -107z " />
            <glyph unicode="&#x178;" horiz-adv-x="847" d="M201 1425h288l11 -282q2 -68 5 -121t1 -129h16l211 532h303l-444 -866l-109 -559h-280l108 559zM322 1493l51 266h241l-51 -266h-241zM678 1493l51 266h244l-51 -266h-244z" />
            <glyph unicode="&#x2c6;" horiz-adv-x="788" d="M223 1151l338 326h162l207 -347l-117 -67l-203 207l-299 -215z" />
            <glyph unicode="&#x2dc;" horiz-adv-x="741" d="M184 1214q63 111 122 148t112 37q31 0 59.5 -11.5t53 -23.5t46 -23.5t39.5 -11.5q12 0 23.5 1t25 7t30 20.5t38.5 39.5l119 -74q-53 -115 -113.5 -154t-115.5 -39q-35 0 -63 11.5t-51.5 25t-45 24.5t-45.5 11q-23 0 -49.5 -13t-67.5 -61z" />
            <glyph unicode="&#x2000;" horiz-adv-x="940" />
            <glyph unicode="&#x2001;" horiz-adv-x="1880" />
            <glyph unicode="&#x2002;" horiz-adv-x="940" />
            <glyph unicode="&#x2003;" horiz-adv-x="1880" />
            <glyph unicode="&#x2004;" horiz-adv-x="626" />
            <glyph unicode="&#x2005;" horiz-adv-x="470" />
            <glyph unicode="&#x2006;" horiz-adv-x="313" />
            <glyph unicode="&#x2007;" horiz-adv-x="313" />
            <glyph unicode="&#x2008;" horiz-adv-x="235" />
            <glyph unicode="&#x2009;" horiz-adv-x="376" />
            <glyph unicode="&#x200a;" horiz-adv-x="104" />
            <glyph unicode="&#x2010;" horiz-adv-x="784" d="M102 442l50 246h606l-49 -246h-607z" />
            <glyph unicode="&#x2011;" horiz-adv-x="784" d="M102 442l50 246h606l-49 -246h-607z" />
            <glyph unicode="&#x2012;" horiz-adv-x="784" d="M102 442l50 246h606l-49 -246h-607z" />
            <glyph unicode="&#x2013;" horiz-adv-x="1024" d="M45 453l43 219h942l-43 -219h-942z" />
            <glyph unicode="&#x2014;" horiz-adv-x="2048" d="M45 453l43 219h1966l-43 -219h-1966z" />
            <glyph unicode="&#x2018;" horiz-adv-x="610" d="M233 840l62 309l190 311h156l-127 -305h59l-61 -315h-279z" />
            <glyph unicode="&#x2019;" horiz-adv-x="610" d="M233 842l127 305h-59l61 315h279l-59 -309l-193 -311h-156z" />
            <glyph unicode="&#x201a;" horiz-adv-x="479" d="M-47 -313l127 305h-60l62 315h278l-61 -309l-190 -311h-156z" />
            <glyph unicode="&#x201c;" horiz-adv-x="811" d="M172 840l61 309l191 311h156l-127 -305h59l-61 -315h-279zM520 840l62 309l190 311h156l-127 -305h59l-61 -315h-279z" />
            <glyph unicode="&#x201d;" horiz-adv-x="811" d="M172 842l127 305h-59l61 315h279l-60 -309l-192 -311h-156zM520 842l127 305h-59l61 315h279l-60 -309l-192 -311h-156z" />
            <glyph unicode="&#x201e;" horiz-adv-x="827" d="M-47 -313l127 305h-60l62 315h278l-59 -309l-192 -311h-156zM301 -313l127 305h-59l61 315h279l-60 -309l-192 -311h-156z" />
            <glyph unicode="&#x2022;" horiz-adv-x="976" d="M193 565q0 68 25.5 126.5t69.5 102.5t102.5 69.5t125.5 25.5q68 0 126 -25.5t102 -69.5t70 -102.5t26 -126.5t-26 -126t-70 -102t-102 -69.5t-126 -25.5t-126 25.5t-102 69.5t-69.5 102t-25.5 126z" />
            <glyph unicode="&#x2026;" horiz-adv-x="1634" d="M14 0l60 307h276l-59 -307h-277zM600 0l59 307h277l-59 -307h-277zM1186 0l59 307h277l-60 -307h-276z" />
            <glyph unicode="&#x202f;" horiz-adv-x="376" />
            <glyph unicode="&#x2039;" horiz-adv-x="778" d="M111 506l315 409h264l-336 -413l156 -408h-244z" />
            <glyph unicode="&#x203a;" horiz-adv-x="706" d="M23 96l335 414l-155 408h243l156 -412l-315 -410h-264z" />
            <glyph unicode="&#x205f;" horiz-adv-x="470" />
            <glyph unicode="&#x20ac;" d="M61 537l29 141h82l14 78h-82l29 145h82l31 162q16 84 50 153.5t86 118.5t121.5 76t160.5 27q96 0 162.5 -29t105.5 -79t51 -116.5t-2 -142.5l-276 -47q10 63 -10.5 105t-63.5 42q-29 0 -47.5 -11t-31.5 -27.5t-20.5 -36t-9.5 -33.5l-33 -162h267l-29 -145h-264l-17 -78 h267l-29 -141h-264l-39 -201q-2 -14 -2 -28.5t6 -27t21.5 -19.5t42.5 -7q88 0 122 147l269 -36q-12 -84 -42 -153t-80 -119t-121 -77.5t-165 -27.5q-193 0 -274.5 98t-46.5 279l32 172h-82z" />
            <glyph unicode="&#x2122;" horiz-adv-x="1492" d="M94 1260v165h520v-165h-172v-648h-176v648h-172zM692 612v811h158l178 -356l78 156l98 200h160v-811h-172v420h-6l-53 -143l-58 -133h-94l-63 139l-54 137h-8v-420h-164z" />
            <glyph unicode="&#x25fc;" horiz-adv-x="1013" d="M0 0v1014h1014v-1014h-1014z" />
            </font>
</defs>
</svg>
