<?xml version="1.0" standalone="no"?>
<!DOCTYPE svg PUBLIC "-//W3C//DTD SVG 1.1//EN" "http://www.w3.org/Graphics/SVG/1.1/DTD/svg11.dtd" >
<svg xmlns="http://www.w3.org/2000/svg">
    <metadata></metadata>
    <defs>
        <font id="pf_din_text_comp_proitalic" horiz-adv-x="778" >
            <font-face units-per-em="2048" ascent="1536" descent="-512" />
            <missing-glyph horiz-adv-x="399" />
            <glyph unicode="&#xfb01;" horiz-adv-x="786" d="M-18 -309l229 1194h-100l24 125h101l40 209q27 135 113 206.5t209 71.5q92 0 151.5 -25.5t108.5 -78.5l-102 -115q-61 63 -156 63q-78 0 -116 -37.5t-48 -91.5l-41 -202h412l-195 -1010h-157l170 885h-254l-230 -1194h-159z" />
            <glyph unicode="&#xfb02;" horiz-adv-x="854" d="M-14 -309l225 1194h-100l24 125h101l40 207q27 135 97.5 212.5t208.5 77.5q20 0 58 -3t82 -11t90 -20.5t83 -30.5l-227 -1168q-6 -31 -6 -55q0 -41 20 -59.5t68 -18.5h18l-31 -155h-18q-111 0 -171.5 41t-60.5 137q0 16 2.5 34.5t6.5 39.5l219 1095q-33 10 -73 14.5 t-58 4.5q-76 0 -107 -40t-45 -112l-37 -190h156l-25 -125h-155l-226 -1194h-159z" />
            <glyph unicode="&#xfb03;" horiz-adv-x="1193" d="M-16 -309l227 1194h-100l26 127h101l38 209q27 135 111 206.5t207 71.5q59 0 108.5 -13t96.5 -36q47 41 95 60.5t118 19.5q90 0 158.5 -33t109.5 -72l-100 -114q-72 63 -166 63q-76 0 -115 -38t-49 -91l-45 -233h412l-197 -1012h-160l170 885h-252l-227 -1194h-160 l227 1194h-247l-228 -1194h-159zM397 1012h248l45 239q4 14 8 31.5t11 32.5q-29 16 -62 22t-59 6q-76 0 -109 -37.5t-43 -91.5z" />
            <glyph unicode="&#xfb04;" horiz-adv-x="1263" d="M-18 -309l229 1194h-100l24 125h101l40 209q27 135 105 206.5t213 71.5q57 0 107.5 -12t82.5 -35q90 80 215 80q20 0 55.5 -2t77.5 -9.5t87 -20.5t86 -34l-234 -1188q-6 -31 -6 -55q0 -41 20.5 -59.5t67.5 -18.5h18l-30 -155h-19q-111 0 -171 41t-60 137q0 16 2 34.5 t6 39.5l223 1114q-29 12 -60.5 15t-53.5 3q-76 0 -113 -39t-51 -110l-43 -213h155l-24 -125h-156l-229 -1194h-160l229 1194h-245l-230 -1194h-159zM395 1010h246l45 229q4 16 11.5 36.5t11.5 37.5q-23 16 -59 22t-62 6q-76 0 -109 -37.5t-43 -91.5z" />
            <glyph horiz-adv-x="0" />
            <glyph horiz-adv-x="682" />
            <glyph unicode=" "  horiz-adv-x="399" />
            <glyph unicode="&#x09;" horiz-adv-x="399" />
            <glyph unicode="&#xa0;" horiz-adv-x="399" />
            <glyph unicode="!" horiz-adv-x="466" d="M68 -2l32 164h164l-33 -164h-163zM154 362l192 1063h164l-221 -1063h-135z" />
            <glyph unicode="&#x22;" horiz-adv-x="512" d="M195 1030l77 395h123l-78 -395h-122zM430 1030l78 395h123l-78 -395h-123z" />
            <glyph unicode="#" d="M-29 0l174 461h-125l21 106h145l117 307h-125l21 107h145l174 455h109l-174 -455h178l172 455h108l-174 -455h127l-20 -107h-148l-116 -307h127l-21 -106h-147l-174 -461h-109l174 461h-178l-172 -461h-109zM293 567h178l119 307h-178z" />
            <glyph unicode="$" d="M25 256q0 39 10 90l166 21q-10 -45 -11 -86q0 -47 20.5 -84t80.5 -47l102 522q-66 31 -107.5 63.5t-66 66.5t-35 71.5t-10.5 80.5q0 223 97.5 347t269.5 135l32 161h78l-30 -161q66 -6 111.5 -30t75.5 -59.5t44 -79.5t14 -93q0 -55 -14 -105l-166 -20q6 23 10 44t4 44 q0 49 -24.5 87t-87.5 48l-88 -457q131 -63 185 -126.5t54 -158.5q0 -250 -96 -394t-305 -150l-35 -179h-78l35 183q-123 12 -179 89t-56 177zM340 985q0 -39 17.5 -70.5t70.5 -62.5l82 420q-53 -10 -86 -44t-51.5 -77t-25.5 -88t-7 -78zM369 147q55 8 94 38t61.5 76 t32.5 104.5t10 119.5q0 53 -24.5 88t-77.5 64z" />
            <glyph unicode="%" horiz-adv-x="1249" d="M129 702q0 20 10.5 81t26.5 141t34.5 169t35.5 167q18 86 72 129t134 43q104 0 152.5 -51.5t32.5 -141.5q-4 -23 -11.5 -61.5t-19.5 -99t-29.5 -144.5t-40.5 -197q-18 -86 -66 -129t-147 -43q-72 0 -128 35t-56 102zM170 -35l934 1497h104l-934 -1497h-104zM260 741 q-6 -31 12.5 -49t49.5 -18q37 0 56 20.5t23 48.5l99 510q4 23 -10.5 47.5t-55.5 24.5q-33 0 -51 -17.5t-23 -43.5zM727 131q0 20 10.5 80.5t26.5 140.5t34.5 169t35.5 167q18 86 72.5 129t133.5 43q104 0 152.5 -51t32.5 -141q-4 -23 -11.5 -62t-19.5 -99.5t-29.5 -144 t-40.5 -196.5q-18 -86 -66 -129t-147 -43q-72 0 -128 34.5t-56 102.5zM858 170q-6 -31 12.5 -49.5t49.5 -18.5q37 0 56 20.5t23 49.5l99 510q4 23 -10.5 47.5t-55.5 24.5q-33 0 -51 -17.5t-23 -44.5z" />
            <glyph unicode="&#x26;" horiz-adv-x="944" d="M53 289q0 141 81 263t216 216l-26 86q-14 47 -29.5 115.5t-15.5 134.5q0 68 22.5 128t65.5 105t103 72t136 27q92 0 161 -38t97 -124l-143 -68q-14 37 -47 60.5t-82 23.5q-45 0 -75 -18.5t-48 -46t-25.5 -60t-7.5 -63.5q0 -100 47 -238l174 -461q29 47 45.5 102.5 t32.5 108.5h148q-20 -82 -61.5 -185t-98.5 -187l98 -242h-170l-45 115q-84 -80 -158.5 -103.5t-152.5 -23.5q-109 0 -175.5 79.5t-66.5 221.5zM211 295q0 -72 32.5 -119t102.5 -47q53 0 111.5 30.5t99.5 76.5l-151 395q-104 -86 -149.5 -168t-45.5 -168z" />
            <glyph unicode="'" horiz-adv-x="352" d="M233 1030l78 395h125l-78 -395h-125z" />
            <glyph unicode="(" horiz-adv-x="430" d="M84 356q0 156 38 312.5t100.5 302t146.5 272.5t176 225l69 -36q-90 -121 -162.5 -257.5t-124 -281.5t-78 -296t-26.5 -300q0 -133 20.5 -254t55.5 -223l-80 -45q-57 119 -96 264t-39 317z" />
            <glyph unicode=")" horiz-adv-x="430" d="M-45 -180q86 113 157.5 248t123 282.5t80 301t28.5 302.5q0 129 -19.5 251t-58.5 227l86 36q57 -119 95 -261t38 -312q0 -156 -37.5 -312.5t-101 -303t-148.5 -276.5t-180 -228z" />
            <glyph unicode="*" horiz-adv-x="718" d="M188 1153l64 117l194 -88l29 241h123l-66 -241l226 88l20 -117l-237 -59l118 -189l-114 -69l-84 204l-164 -206l-88 71l190 189z" />
            <glyph unicode="+" d="M41 541l22 123h312l65 335h121l-65 -335h311l-23 -123h-311l-65 -336h-121l65 336h-311z" />
            <glyph unicode="," horiz-adv-x="395" d="M-31 -246l94 230h-43l39 198h179l-39 -194l-140 -234h-90z" />
            <glyph unicode="-" horiz-adv-x="708" d="M119 518l26 137h531l-27 -137h-530z" />
            <glyph unicode="." horiz-adv-x="395" d="M25 0l34 186h179l-35 -186h-178z" />
            <glyph unicode="/" horiz-adv-x="524" d="M-135 -86l684 1571h123l-686 -1571h-121z" />
            <glyph unicode="0" d="M77 190.5q-5 61.5 7 128.5q14 80 34.5 193t44 232.5t45 230t36.5 184.5q27 135 109.5 207t207.5 72q141 0 210 -90.5t40 -235.5l-166 -852q-23 -119 -95.5 -196.5t-209.5 -77.5q-90 0 -145.5 26.5t-84 71.5t-33.5 106.5zM234.5 258q-1.5 -35 9 -61.5t33 -42t63.5 -15.5 q66 0 101.5 39t50.5 111l161 839q14 76 -19.5 116t-88.5 40t-93 -32.5t-49 -86.5l-159 -833q-8 -39 -9.5 -74z" />
            <glyph unicode="1" d="M330 0l243 1255l-239 -165l33 172l235 163h166l-276 -1425h-162z" />
            <glyph unicode="2" d="M16 0l27 141l516 740q51 74 77 148.5t26 127.5t-27 90t-92 37q-53 0 -104.5 -53t-59.5 -162l-152 31q16 154 103.5 246t238.5 92q111 0 182.5 -64.5t71.5 -191.5q0 -117 -47 -211t-102 -176l-445 -645h383l-28 -150h-568z" />
            <glyph unicode="3" d="M45 285l166 24q-16 -78 4.5 -124t97.5 -46q61 0 93 31t43 92l43 246q12 66 -8.5 111t-102.5 45h-64l29 141h66q78 0 115.5 34.5t54.5 116.5l32 156q6 25 7.5 55.5t-8 56t-33 43t-66.5 17.5q-61 0 -105 -43t-55 -147l-155 26q27 174 119 246t223 72q68 0 118 -23.5 t80.5 -64.5t42 -96.5t-1.5 -116.5l-24 -136q-8 -41 -18.5 -78.5t-29 -70.5t-48 -60.5t-74.5 -50.5l-2 -6q35 -14 54 -37.5t25.5 -55.5t4.5 -73t-11 -90q-6 -35 -17 -86t-24 -125q-10 -57 -30.5 -108t-57 -90t-92 -61.5t-135.5 -22.5q-61 0 -112.5 17t-87 54t-51 93.5 t-5.5 134.5z" />
            <glyph unicode="4" d="M12 225l29 146l498 1054h159l-493 -1054h250l75 395h160l-76 -395h99l-29 -146h-98l-43 -225h-160l43 225h-414z" />
            <glyph unicode="5" d="M78 285l166 24q-16 -78 4 -124t98 -46q59 0 95 41t48 101l60 305q16 88 1 139t-93 51q-35 0 -75 -21.5t-63 -58.5h-141l141 729h553l-28 -145h-410l-84 -430h10q74 61 175 61q70 0 109.5 -25.5t58 -67.5t18.5 -95t-10 -107l-64 -348q-29 -156 -111.5 -219t-201.5 -63 q-61 0 -112.5 17t-87.5 54t-51 93.5t-5 134.5z" />
            <glyph unicode="6" d="M70 217q0 41 11 108.5t34 172.5q20 92 43.5 154.5t50.5 107.5l393 665h164q-92 -160 -157.5 -273.5t-107.5 -188t-65.5 -115.5t-34.5 -60l5 -6q29 23 66.5 34t66.5 11q92 0 133 -52t41 -130v-26.5t-6.5 -55.5t-19.5 -111.5t-38 -197.5q-25 -123 -98.5 -195.5 t-214.5 -72.5q-72 0 -122 18.5t-83 49t-47 72.5t-14 91zM232.5 238.5q-1.5 -27.5 8 -50t33 -37t68.5 -14.5q47 0 87 31t54 94q18 98 30.5 155.5t19 91.5t8.5 48t2 27q0 43 -27 69.5t-84 26.5q-37 0 -62.5 -13.5t-43 -35t-27.5 -48t-16 -53.5l-45 -237q-4 -27 -5.5 -54.5z " />
            <glyph unicode="7" d="M78 0l606 1280h-283l-32 -170h-142l62 315h588l-27 -133l-617 -1292h-155z" />
            <glyph unicode="8" d="M72 219q0 8 1 20.5t5 43t13 87t26 152.5q14 78 52 140.5t103 85.5q-72 55 -71 159q0 8 1 18.5t5 36t12 71.5t25 126q27 135 111.5 207t213.5 72q113 0 181.5 -62.5t68.5 -165.5v-29.5t-3 -38t-9 -64.5t-19 -107q-14 -78 -54 -139.5t-105 -83.5q47 -27 60 -70t13 -92 q0 -14 -1 -31.5t-6 -52.5t-17 -93.5t-33 -154.5q-29 -127 -103.5 -197.5t-211.5 -70.5q-51 0 -97.5 12t-82 40t-57 73t-21.5 108zM237.5 278.5q-4.5 -36.5 3 -67.5t29 -51.5t68.5 -20.5q63 0 100 36t49 95q16 76 26.5 129.5t17 88t9.5 56t3 34.5q0 45 -25 74.5t-84 29.5 q-55 0 -95 -35t-50 -88l-41 -211q-6 -33 -10.5 -69.5zM365 920q0 -45 27.5 -73t74.5 -28q55 0 97 33t52 86l35 182q12 68 -9 116t-95 48q-115 0 -137 -113q-16 -88 -25.5 -137t-13.5 -73.5t-5 -31.5t-1 -9z" />
            <glyph unicode="9" d="M129 0q92 160 155.5 273.5t105.5 188.5t63.5 115.5t31.5 59.5l-4 6q-29 -23 -66.5 -34t-66.5 -11q-92 0 -133 52t-41 130q0 10 1 25.5t7 55.5t19.5 113t36.5 197q49 268 333 269q51 0 96.5 -14.5t79 -42t53 -66.5t19.5 -90q-2 -31 -10 -103.5t-35 -195.5 q-20 -92 -43.5 -154.5t-50.5 -107.5l-379 -666h-172zM344 842q0 -43 27 -70t84 -27q37 0 62.5 13.5t43 35t27.5 48t16 53.5q14 76 24.5 126t16.5 81t8 48t2 30q0 45 -25.5 76.5t-80.5 31.5t-94 -28.5t-49 -81.5q-18 -98 -31 -159t-20 -95.5t-9 -52t-2 -29.5z" />
            <glyph unicode=":" horiz-adv-x="395" d="M25 0l34 186h179l-35 -186h-178zM143 614l37 187h178l-36 -187h-179z" />
            <glyph unicode=";" horiz-adv-x="395" d="M-31 -246l94 230h-43l39 198h179l-39 -194l-140 -234h-90zM143 614l37 187h178l-36 -187h-179z" />
            <glyph unicode="&#x3c;" d="M47 549l21 108l802 375l-20 -143l-664 -295l549 -293l-30 -127z" />
            <glyph unicode="=" d="M10 385l25 129h743l-24 -129h-744zM72 698l24 129h744l-25 -129h-743z" />
            <glyph unicode="&#x3e;" d="M-25 174l27 143l664 293l-549 295l24 127l660 -375l-21 -108z" />
            <glyph unicode="?" horiz-adv-x="759" d="M199 1116q51 322 344 322q131 0 214 -75t83 -222q0 -68 -8.5 -114t-24.5 -84t-43 -75t-64 -84l-127 -161q-20 -27 -35.5 -55.5t-25.5 -63.5l-31 -142h-162l39 170q8 41 28 80t48 74q68 82 114 140.5t74.5 104.5t41 88t12.5 95q0 78 -36 124t-114 46q-29 0 -56.5 -9 t-51 -31.5t-38.5 -60.5t-22 -93zM252 0l33 164h159l-32 -164h-160z" />
            <glyph unicode="@" horiz-adv-x="1540" d="M162 485q0 209 55 384t157.5 302t251 198t332.5 71q137 0 238.5 -41t169.5 -114t101.5 -171t33.5 -213q0 -176 -38 -296t-98 -192.5t-134 -104.5t-146 -32q-4 0 -30.5 2.5t-57 11.5t-59.5 30.5t-37 58.5q-33 -41 -88 -64.5t-102 -23.5q-29 0 -62 6t-61.5 23.5t-47 49 t-18.5 83.5q0 20 3 53t7.5 68.5t9.5 70.5t11 64q18 86 38.5 158.5t52.5 123.5t78 80t118 29q35 0 72.5 -16.5t66.5 -53.5l12 62h137l-106 -578q-2 -12 -3 -22.5t-1 -20.5q0 -35 18.5 -51.5t65.5 -16.5q123 0 197.5 130.5t74.5 371.5q0 98 -30.5 177t-87 132.5t-134.5 82 t-170 28.5q-170 0 -293.5 -67.5t-205.5 -180t-121 -259t-39 -306.5q0 -109 24.5 -197t79 -150.5t137 -96t199.5 -33.5q51 0 94 4t85 13t85 25.5t93 43.5l43 -109q-94 -41 -199 -66.5t-205 -25.5q-279 0 -423 141.5t-144 423.5zM670 510q0 -41 22.5 -63.5t69.5 -22.5 q53 0 84 37t41 84q14 70 25.5 140.5t27.5 141.5q4 10 4 20.5v20.5q0 47 -23.5 73t-64.5 26q-29 0 -50.5 -7.5t-41 -35t-36.5 -84t-38 -154.5q-12 -61 -16 -103t-4 -73z" />
            <glyph unicode="A" horiz-adv-x="808" d="M-55 0l579 1425h152l31 -1425h-154l-4 317h-318l-125 -317h-161zM287 469h262l-4 338l6 328h-8l-123 -332z" />
            <glyph unicode="B" horiz-adv-x="847" d="M27 0l276 1425h277q158 0 226 -70.5t68 -205.5q0 -172 -56 -264t-169 -133l-2 -9q66 -23 92.5 -74t26.5 -128q0 -29 -2 -57.5t-8 -63.5q-35 -219 -138.5 -319.5t-295.5 -100.5h-295zM215 147h145q76 0 124 34t77 86t40 118t11 129q0 80 -43 123t-147 43h-103zM346 821 h109q123 0 193.5 78t70.5 221q0 76 -42 116t-136 40h-103z" />
            <glyph unicode="C" horiz-adv-x="808" d="M72 198q-3 24 -3 49q0 46 11 99l133 688q14 76 35.5 148.5t62.5 129t107 91.5t168 35q88 0 148.5 -24.5t93.5 -67.5q34 -44 42 -104q3 -22 4 -45q0 -41 -10 -87l-166 -27q9 40 9 73q0 44 -16 76q-27 56 -113 56q-49 0 -83 -22.5t-57.5 -56t-37 -74.5t-21.5 -78l-139 -719 q-7 -37 -7 -68q0 -44 14 -78q23 -56 113 -57q80 0 129.5 51.5t63.5 161.5l158 -45q-25 -147 -107 -232t-239 -85q-90 0 -151.5 25.5t-96.5 73t-45 113.5z" />
            <glyph unicode="D" horiz-adv-x="866" d="M27 0l276 1425h291q127 0 208 -54t91 -159q1 -12 1 -25q0 -67 -18 -169q-20 -122 -51 -303q-31 -176 -57.5 -313.5t-67.5 -221.5q-55 -106 -131.5 -143t-187.5 -37h-354zM215 147h145q100 0 154.5 55.5t75.5 157.5l137 709q7 35 7 65q0 50 -20 86q-30 56 -132 56h-146z " />
            <glyph unicode="E" horiz-adv-x="749" d="M27 0l276 1425h610l-30 -149h-449l-92 -477h389l-29 -150h-389l-98 -502h449l-27 -147h-610z" />
            <glyph unicode="F" horiz-adv-x="749" d="M27 0l276 1425h610l-30 -149h-449l-92 -477h389l-29 -150h-389l-125 -649h-161z" />
            <glyph unicode="G" horiz-adv-x="847" d="M63 227v27.5t4.5 38t13.5 77t26.5 144.5t46 239.5t69.5 362.5q29 154 123 238t248 84q141 0 209.5 -74t68.5 -199q0 -49 -8 -96l-159 -18q6 43 6 79q0 66 -29 110t-115 44q-74 0 -120 -45t-58 -109q-39 -195 -65.5 -330.5t-45 -230t-29.5 -151t-16.5 -88t-7.5 -45 t-2 -21.5q0 -57 33 -93q30 -32 96 -32h15q78 0 130 42t68 128l64 320h-166l29 141h327l-90 -461q-18 -92 -53 -153.5t-84 -99.5t-110.5 -54t-129.5 -16q-55 0 -106 14t-92 45t-66 76t-25 106z" />
            <glyph unicode="H" horiz-adv-x="874" d="M27 0l276 1425h162l-123 -626h332l123 626h161l-276 -1425h-162l127 657h-332l-127 -657h-161z" />
            <glyph unicode="I" horiz-adv-x="393" d="M33 0l276 1425h164l-276 -1425h-164z" />
            <glyph unicode="J" horiz-adv-x="743" d="M-31 121l117 98q23 -37 67 -62.5t87 -25.5q76 0 118.5 47t59.5 125l223 1122h162l-217 -1116q-29 -147 -112 -235t-249 -88q-88 0 -154.5 34.5t-101.5 100.5z" />
            <glyph unicode="K" horiz-adv-x="847" d="M27 0l276 1425h162l-129 -671h4l463 671h172l-395 -577l170 -848h-160l-131 684l-191 -270l-80 -414h-161z" />
            <glyph unicode="L" horiz-adv-x="696" d="M27 0l276 1425h162l-250 -1278h416l-27 -147h-577z" />
            <glyph unicode="M" horiz-adv-x="1155" d="M27 0l276 1425h158l82 -434l67 -327h6l201 337l252 424h172l-276 -1425h-162l188 973h-10l-168 -281l-215 -346h-76l-80 346l-57 281h-8l-189 -973h-161z" />
            <glyph unicode="N" horiz-adv-x="921" d="M20 0l277 1425h154l155 -729l51 -243l9 2l186 970h162l-277 -1425h-151l-154 733l-53 258h-6l-191 -991h-162z" />
            <glyph unicode="O" horiz-adv-x="847" d="M76 260q0 59 12 125l143 737q29 152 116.5 234t232.5 82q80 0 136 -22.5t92 -61.5t53.5 -91.5t17.5 -113.5q0 -27 -3.5 -50.5t-7.5 -51.5l-139 -738q-29 -152 -107.5 -237.5t-226.5 -85.5q-90 0 -151.5 20.5t-98 57t-53 87t-16.5 109.5zM236 281q0 -59 35.5 -100.5 t115.5 -41.5q78 0 121 51.5t57 124.5l140 715q4 25 7 49.5t3 46.5q0 61 -30 107.5t-112 50.5q-86 0 -124.5 -49t-53.5 -115l-147 -733q-4 -27 -8 -53.5t-4 -52.5z" />
            <glyph unicode="P" horiz-adv-x="808" d="M27 0l276 1425h291q158 0 226.5 -67.5t68.5 -196.5q0 -121 -20.5 -227.5t-72 -186t-139.5 -127t-221 -47.5h-137l-111 -573h-161zM328 725h110q86 0 141.5 31.5t88 84t45 122t12.5 145.5q0 74 -39 121t-147 47h-105z" />
            <glyph unicode="Q" horiz-adv-x="847" d="M76 254q0 31 4 63.5t10 67.5l141 737q29 152 123.5 234t239.5 82q154 0 219.5 -76t65.5 -201q0 -55 -13 -119l-137 -733q-18 -98 -59 -168l86 -82l-99 -98l-82 80q-82 -55 -221 -55q-78 0 -131 20.5t-86 56t-47 85t-14 106.5zM236 281q0 -59 28.5 -100.5t108.5 -41.5 q49 0 84 15l-103 100l99 96l94 -92l10 37l148 735q12 55 12 107q0 63 -28.5 105t-108.5 42q-84 0 -128 -50t-57 -114l-147 -733q-4 -27 -8 -53.5t-4 -52.5z" />
            <glyph unicode="R" horiz-adv-x="847" d="M27 0l276 1425h293q150 0 218.5 -72.5t68.5 -222.5q0 -182 -60.5 -297.5t-201.5 -175.5l90 -657h-166l-82 625h-154l-121 -625h-161zM336 768h137q61 0 108.5 26.5t78 72.5t46 107.5t15.5 133.5q0 78 -41 123t-139 45h-107z" />
            <glyph unicode="S" horiz-adv-x="806" d="M39 252q0 23 3 46.5t7 47.5l166 21q-4 -23 -7 -44.5t-3 -43.5q0 -29 7 -53.5t23.5 -45t44 -32t68.5 -11.5q66 0 111 30t72.5 78t39 110.5t11.5 129.5q0 66 -36 103t-116 74q-72 33 -119 66.5t-74.5 68t-38 73.5t-10.5 84q0 236 108 360t294 124q78 0 133 -21.5t90 -57.5 t51.5 -84t16.5 -101q0 -25 -3.5 -51.5t-11.5 -53.5l-166 -20q14 45 15 92q0 57 -34 100t-118 43q-66 0 -105.5 -32.5t-63 -80t-32 -98.5t-8.5 -88q0 -27 8.5 -49.5t29 -44t55 -42t90.5 -44.5q125 -53 171 -116.5t46 -153.5q0 -256 -100.5 -402.5t-317.5 -146.5 q-152 0 -224.5 74.5t-72.5 191.5z" />
            <glyph unicode="T" horiz-adv-x="655" d="M166 0l246 1276h-244l31 149h647l-31 -149h-244l-245 -1276h-160z" />
            <glyph unicode="U" horiz-adv-x="860" d="M80 186q-3 22 -3 45q0 40 9 84q10 55 26.5 142.5t36 191t40 216t41 217t38 194.5t29.5 149h162q-8 -47 -24.5 -127.5t-36 -181t-41 -210t-42 -213t-37 -192.5t-26.5 -147q-8 -42 -9 -80v-5q0 -35 11 -63q12 -30 42 -48.5t85 -18.5q68 0 121 39t71 137l218 1110h161 l-217 -1116q-35 -182 -129 -252.5t-241 -70.5q-90 0 -149.5 25.5t-93.5 70t-42 104.5z" />
            <glyph unicode="V" horiz-adv-x="808" d="M229 0l13 1427h159l-18 -692q-4 -106 -7 -201.5t-9 -211.5h12l166 436l239 669h172l-550 -1427h-177z" />
            <glyph unicode="W" horiz-adv-x="1189" d="M170 0l72 1427h166l-48 -593q-10 -115 -17 -218.5t-24 -228.5h9l153 428l232 612h149l-10 -604q-2 -109 -6 -211t-12 -225h8l133 440l188 600h172l-485 -1427h-152l7 674l10 368h-6q-16 -57 -33 -105t-34 -93t-33.5 -88t-33.5 -90l-256 -666h-149z" />
            <glyph unicode="X" horiz-adv-x="772" d="M-66 0l431 750l-129 677h165l76 -503l275 503h180l-402 -677l146 -750h-166l-88 563l-307 -563h-181z" />
            <glyph unicode="Y" horiz-adv-x="770" d="M221 0l119 604l-119 823h166l37 -331q6 -55 10 -92t7 -69t5.5 -64.5t4.5 -82.5h8l135 289l170 350h174l-438 -823l-119 -604h-160z" />
            <glyph unicode="Z" horiz-adv-x="657" d="M-41 0l29 156l635 1120h-396l29 149h557l-31 -151l-630 -1129h409l-26 -145h-576z" />
            <glyph unicode="[" horiz-adv-x="430" d="M6 -207l318 1634h274l-20 -100h-136l-278 -1433h135l-18 -101h-275z" />
            <glyph unicode="\" horiz-adv-x="430" d="M166 -14v1452h123v-1452h-123z" />
            <glyph unicode="]" horiz-adv-x="430" d="M-92 -209l16 103h135l279 1433h-135l20 100h273l-318 -1636h-270z" />
            <glyph unicode="^" d="M76 688l454 731h109l172 -731h-125l-125 582l-348 -582h-137z" />
            <glyph unicode="_" horiz-adv-x="1024" d="M-133 -268l24 125h1022l-24 -125h-1022z" />
            <glyph unicode="`" horiz-adv-x="731" d="M416 1440l133 84l158 -357l-76 -49z" />
            <glyph unicode="a" horiz-adv-x="786" d="M51 197q0 27 4 68.5t10.5 87.5t14.5 92.5t14 80.5q20 111 46 203t64 157.5t95 101.5t143 36q59 0 106.5 -25.5t69.5 -66.5h5l14 82h162l-197 -1014h-162l15 78l-4 2q-41 -45 -81 -68.5t-120 -23.5q-27 0 -60.5 6t-64.5 27.5t-52.5 63.5t-21.5 112zM221 260q0 -53 30 -84 t89 -31q35 0 62.5 16.5t47 41t33 52.5t17.5 50l73 373q6 30 6 55q-1 48 -21 81q-30 50 -95 50q-37 0 -76 -15t-65 -73q-14 -29 -34 -108.5t-36 -169.5q-31 -158 -31 -238z" />
            <glyph unicode="b" horiz-adv-x="759" d="M0 0l289 1487h162l-113 -572h4q41 55 99.5 81t105.5 26q94 0 147.5 -47t53.5 -146q0 -45 -7.5 -114.5t-20.5 -150.5t-32.5 -167t-42.5 -161q-25 -84 -63.5 -133.5t-79.5 -75t-81 -32.5t-67 -7q-80 0 -115.5 23.5t-58.5 68.5l-4 -2l-14 -78h-162zM214 246q3 -28 15.5 -51 t36 -36.5t58.5 -13.5q51 0 83.5 19.5t56 62.5t41 109.5t36.5 161.5q16 84 26.5 145.5t10.5 106.5q0 59 -25 86.5t-88 27.5q-35 0 -62.5 -15t-49 -40t-36 -54.5t-20.5 -60.5l-80 -389q-4 -21 -4 -40q0 -9 1 -19z" />
            <glyph unicode="c" horiz-adv-x="694" d="M41 180q-1 8 -1 18q0 19 3 44q4 37 10 81t14.5 89t16.5 84q10 51 20.5 105t22.5 103.5t24.5 89.5t26.5 64q20 39 45 69.5t58.5 52t77.5 34t106 12.5q63 0 114.5 -19.5t85 -57.5t47.5 -91q8 -29 9 -62q0 -28 -6 -59l-172 -22q8 35 8 62q-1 41 -19 64q-30 38 -86 38 q-47 0 -76.5 -25t-50.5 -59q-23 -39 -41 -125t-45 -209l-12 -70t-11 -66.5t-8 -58t-1 -45.5q6 -45 32.5 -66.5t79.5 -21.5q123 0 154 162l160 -29q-31 -135 -104.5 -207.5t-225.5 -72.5q-72 0 -120 16t-77.5 43t-43 62.5t-15.5 72.5z" />
            <glyph unicode="d" horiz-adv-x="755" d="M33 197q0 27 4 68.5t10 87.5t14.5 92.5t14.5 80.5q20 111 45.5 203t63.5 157.5t95.5 101.5t143.5 36q59 0 106.5 -25.5t69.5 -66.5h4l107 555h161l-288 -1487h-162l14 78l-4 2q-41 -45 -81 -68.5t-120 -23.5q-27 0 -60.5 6t-64 27.5t-52 63.5t-21.5 112zM203 260 q0 -53 30 -84t89 -31q35 0 62.5 16.5t47 41t32.5 52.5t17 50l74 373q6 30 6 55q-1 48 -21 81q-30 50 -96 50q-37 0 -75.5 -15t-65.5 -73q-14 -29 -33.5 -108.5t-36.5 -169.5q-30 -153 -30 -233v-5z" />
            <glyph unicode="e" horiz-adv-x="731" d="M49 260q0 59 8.5 119.5t18.5 116.5q18 100 42.5 196t67.5 170t112 119t175 45q117 0 185.5 -59.5t68.5 -163.5q0 -98 -32.5 -171t-89 -120t-130.5 -70.5t-156 -23.5q-23 0 -47 2t-49 6q-6 -35 -13 -75t-7 -79q0 -55 22.5 -96t87.5 -41q63 0 102.5 41t49.5 107l170 -25 q-29 -121 -109 -196.5t-233 -75.5q-74 0 -121 22.5t-74.5 59t-38 87t-10.5 105.5zM248 565q20 -4 39.5 -6t42.5 -2q43 0 86 11.5t76.5 38t55 67.5t21.5 102q0 47 -30.5 77t-81.5 30q-82 0 -129 -74t-80 -244z" />
            <glyph unicode="f" horiz-adv-x="503" d="M-147 -258l30 152h18q31 0 54 5q29 7 46 20t25.5 31.5t12.5 41.5l172 882h-102l26 136h103l49 247q10 57 32.5 104.5t62.5 80.5t100 45q31 6 68.5 6t82.5 -6l-31 -152q-19 2 -35 2q-23 0 -41 -4q-28 -6 -44.5 -20.5t-23.5 -35t-12 -40.5l-45 -227h144l-27 -136h-143 l-176 -903q-10 -57 -33 -104t-63 -80t-101 -45q-30 -6 -67.5 -6t-81.5 6z" />
            <glyph unicode="g" horiz-adv-x="757" d="M-23 -178l156 47q-1 -11 -1 -21q0 -104 116 -104q61 0 102 40t53 101l46 213h-5q-41 -55 -99 -80.5t-105 -25.5q-94 0 -147.5 47t-53.5 145q0 45 7 115t20.5 150.5t33 165.5t41.5 163q25 84 64 133.5t80 75t79.5 32.5t67.5 7q80 0 116 -23.5t58 -68.5l4 2l15 78h161 l-223 -1129q-12 -61 -37.5 -115.5t-67.5 -93t-98.5 -61.5t-130.5 -23q-131 0 -195 60q-58 54 -58 147q0 11 1 23zM209 264q0 -59 24.5 -86.5t88.5 -27.5q35 0 62.5 15t49 39.5t35.5 54.5t20 60l80 390q4 21 4 40q0 10 -1 19q-3 29 -15 51.5t-35.5 35.5t-58.5 13 q-51 0 -84 -19.5t-56.5 -62.5t-41 -109.5t-35.5 -160.5q-16 -84 -26.5 -145.5t-10.5 -106.5z" />
            <glyph unicode="h" horiz-adv-x="755" d="M-4 0l289 1487h161l-112 -576h6q53 66 106.5 88.5t108.5 22.5q100 0 146.5 -55.5t46.5 -137.5q0 -14 -2.5 -31.5t-7.5 -51t-15 -88t-27.5 -142.5t-42 -214t-57.5 -302h-164q45 229 74 369.5t44 220.5t20 113.5t5 50.5q0 47 -24.5 77.5t-89.5 30.5q-78 0 -117 -51 t-53 -123l-135 -688h-160z" />
            <glyph unicode="i" horiz-adv-x="348" d="M8 0l197 1012h164l-197 -1012h-164zM252 1262l33 163h164l-33 -163h-164z" />
            <glyph unicode="j" horiz-adv-x="360" d="M-199 -399l29 153h13q36 0 61 10q28 11 46.5 34.5t29 56t18.5 75.5l215 1082h164l-227 -1145q-10 -49 -27 -97.5t-48.5 -86t-81.5 -62t-124 -24.5h-32.5t-35.5 4zM260 1264l33 163h164l-33 -163h-164z" />
            <glyph unicode="k" horiz-adv-x="765" d="M4 0l289 1487h162l-191 -948h4l377 473h184l-311 -391l158 -621h-166l-115 485l-182 -239l-47 -246h-162z" />
            <glyph unicode="l" horiz-adv-x="430" d="M55 164q0 16 2 34.5t6 39.5l244 1249h164l-235 -1213q-6 -31 -7 -55q0 -41 20.5 -59.5t67.5 -18.5h19l-31 -155h-18q-111 0 -171.5 41t-60.5 137z" />
            <glyph unicode="m" horiz-adv-x="1200" d="M16 0l197 1012h162l-21 -101h6q47 53 95.5 82t113.5 29q72 0 115 -29.5t59 -83.5q55 51 114.5 82t133.5 31q94 0 138.5 -50t44.5 -128q0 -12 -1.5 -26.5t-5.5 -44.5t-14 -83t-26.5 -143t-43 -223.5t-63.5 -323.5h-164q31 158 53.5 272.5t39 195.5t25.5 132t15 83t8 49.5 t2 27.5q0 43 -22.5 70.5t-77.5 27.5t-100 -35t-62 -100l-139 -723h-162q47 240 75 384t43 223t20.5 108.5t5.5 42.5q0 45 -25 72.5t-78 27.5q-59 0 -105 -43t-61 -115l-135 -700h-160z" />
            <glyph unicode="n" horiz-adv-x="749" d="M-10 0l196 1012h162l-20 -101h6q53 66 106.5 88.5t108.5 22.5q100 0 146 -55.5t46 -137.5q0 -14 -2 -31.5t-7 -51t-15 -88t-27.5 -142.5t-42 -214t-57.5 -302h-164q45 229 73.5 369.5t44 220.5t20.5 113.5t5 50.5q0 47 -24.5 77.5t-89.5 30.5q-78 0 -117 -51t-53 -123 l-135 -688h-160z" />
            <glyph unicode="o" horiz-adv-x="741" d="M53 215q0 53 9.5 131t23.5 150q23 125 47.5 220t61.5 161q43 76 113.5 112.5t162.5 36.5q66 0 115 -18.5t80.5 -49t48 -70.5t16.5 -83q0 -31 -4 -73t-10 -88t-14.5 -91t-16.5 -84q-25 -129 -54.5 -221t-72.5 -150.5t-106.5 -85t-155.5 -26.5q-66 0 -112 21.5t-75.5 55 t-43 74.5t-13.5 78zM207 246q0 -51 32.5 -81t90.5 -30q51 0 80.5 24.5t52.5 67.5q12 25 31.5 96.5t37 156.5t30.5 166t13 124q0 53 -35.5 82t-76.5 29q-47 0 -83 -19.5t-58 -66.5q-10 -18 -29 -84t-38 -149t-33.5 -169t-14.5 -147z" />
            <glyph unicode="p" horiz-adv-x="745" d="M-94 -397l274 1411h162l-14 -78l4 -2q41 45 81 68.5t119 23.5q27 0 61 -6t64.5 -27.5t52 -63.5t21.5 -112q0 -27 -4 -68.5t-10 -88t-14.5 -92.5t-14.5 -81q-23 -111 -47.5 -202.5t-62 -157.5t-95 -101.5t-143.5 -35.5q-59 0 -106.5 25.5t-69.5 66.5h-4l-92 -479h-162z M209 336q-6 -30 -6 -55q0 -48 21 -81q30 -50 95 -50q37 0 76 15t66 73q14 29 33.5 108.5t35.5 169.5q31 156 31 238q0 53 -30 83.5t-89 30.5q-35 0 -61.5 -16t-47 -41t-32.5 -52.5t-16 -49.5z" />
            <glyph unicode="q" horiz-adv-x="772" d="M53 184q0 45 7.5 115t20.5 150.5t32.5 165.5t42.5 163q25 84 63.5 133.5t79.5 75t80 32.5t67 7q80 0 116 -23.5t59 -68.5l4 2l14 78h162l-275 -1409h-161l100 493h-4q-41 -55 -100.5 -80.5t-106.5 -25.5q-94 0 -147.5 47t-53.5 145zM223 264q0 -59 24.5 -86.5t88.5 -27.5 q35 0 62.5 15t49 39.5t36 54.5t20.5 60l80 390q4 21 4 40q0 10 -1 19q-3 29 -15.5 51.5t-36 35.5t-58.5 13q-51 0 -84 -19.5t-56.5 -62.5t-40.5 -109.5t-36 -160.5q-16 -84 -26.5 -145.5t-10.5 -106.5z" />
            <glyph unicode="r" horiz-adv-x="526" d="M20 0l197 1012h162l-27 -138h4q47 86 108.5 119t139.5 33h19l-39 -195q-14 2 -27.5 3.5t-28.5 1.5q-88 0 -146 -53.5t-79 -159.5l-121 -623h-162z" />
            <glyph unicode="s" horiz-adv-x="694" d="M29 180q0 41 8 80l158 21q-8 -27 -9 -58q0 -35 22.5 -59.5t82.5 -24.5q86 0 126 55.5t40 139.5q0 41 -27 67.5t-94 55.5q-59 25 -98 51.5t-61.5 55t-32 60t-9.5 66.5q0 72 22.5 133.5t66.5 106.5t106.5 70.5t142.5 25.5q68 0 114 -14.5t73.5 -40t39 -60t11.5 -75.5 q0 -35 -11 -86l-159 -23q8 27 8 57q0 37 -25.5 62.5t-85.5 25.5q-45 0 -72.5 -15t-44 -38.5t-22.5 -51.5t-6 -50q0 -35 28.5 -64.5t112.5 -62.5q104 -39 142 -92.5t38 -130.5q0 -84 -21.5 -155t-65.5 -121t-109.5 -77.5t-153.5 -27.5q-129 0 -182 54t-53 140z" />
            <glyph unicode="t" horiz-adv-x="462" d="M76 174q0 12 1 25.5t3 25.5l129 662h-107l25 125h106l52 268h164l-52 -268h131l-24 -125h-131l-119 -611q-6 -22 -6 -41q0 -27 12 -47q20 -34 78 -34h20l-28 -158q-10 -2 -20.5 -2h-20.5q-63 0 -104.5 15.5t-66 41t-33.5 58t-9 65.5z" />
            <glyph unicode="u" horiz-adv-x="755" d="M37 182q0 12 2 30.5t7 52.5t15.5 89.5t27.5 142.5t41 213t58 302h164q-45 -229 -73.5 -369.5t-44 -220.5t-20.5 -114t-5 -50q0 -47 24.5 -77.5t90.5 -30.5q78 0 116.5 51t53.5 123l135 688h159l-196 -1012h-162l21 100h-7q-53 -66 -106 -88t-109 -22q-100 0 -146 55 t-46 137z" />
            <glyph unicode="v" horiz-adv-x="704" d="M113 1012h170l6 -418q2 -78 2 -168t-10 -215h6q90 203 170 399.5t153 401.5h172q-88 -242 -194.5 -489t-243.5 -523h-186z" />
            <glyph unicode="w" horiz-adv-x="1126" d="M98 1012h172v-437v-76.5v-70.5t-1 -80t-5 -102h6q39 80 78 176t76 197.5t71.5 203t63.5 189.5h184l-6 -332q0 -90 -3 -199.5t-13 -234.5h6q39 92 75 179t71.5 178t73.5 190.5t79 218.5h166q-47 -135 -95 -262t-99.5 -251t-109 -247t-120.5 -252h-172l-2 498q0 55 4 113.5 t8 117.5h-8q-33 -102 -66.5 -193.5t-70.5 -179.5t-76 -175t-82 -181h-174z" />
            <glyph unicode="x" horiz-adv-x="665" d="M-72 0l346 516l-141 496h178l76 -334l199 334h188l-336 -496l152 -516h-176l-76 350l-223 -350h-187z" />
            <glyph unicode="y" horiz-adv-x="688" d="M-119 -266q61 10 103.5 26.5t74 45t58 71.5t55.5 107l-63 1028h163l13 -443q2 -41 2 -90t-1 -100t-3 -101.5t-7 -93.5h7q37 74 77.5 174.5t82.5 212t81 226t72 215.5h168q-111 -311 -224.5 -584.5t-242.5 -529.5q-37 -72 -75 -126.5t-85 -92t-108.5 -59t-145.5 -28.5z " />
            <glyph unicode="z" horiz-adv-x="626" d="M-43 0l29 154l495 714h-329l26 142h506l-27 -142l-495 -714h356l-29 -154h-532z" />
            <glyph unicode="{" horiz-adv-x="471" d="M68 586l20 104q39 6 69.5 29.5t52 59.5t37 82t25.5 95l56 277q16 84 70.5 139t154.5 55h80l-21 -108h-24q-39 0 -62.5 -12.5t-37 -31t-20.5 -42t-11 -47.5l-54 -275q-12 -66 -35.5 -113.5t-49 -80.5t-50 -50.5t-41.5 -23.5l-2 -6q14 -6 31.5 -23.5t31 -50.5t18.5 -80 t-7 -110l-57 -320q-14 -78 -1 -116.5t66 -38.5h29l-23 -109h-55q-104 0 -143 66.5t-21 167.5l53 301q20 109 8 180t-87 82z" />
            <glyph unicode="|" horiz-adv-x="430" d="M154 -326v1819h129v-1819h-129z" />
            <glyph unicode="}" horiz-adv-x="471" d="M-72 -211l21 109h16q68 0 94.5 44t42.5 134l48 252q12 66 34.5 113.5t49 80.5t51 50.5t41.5 23.5l2 6q-14 6 -33 23.5t-32 50.5t-17 80t8 110l55 275q18 94 5 136t-66 42h-31l23 108h55q104 0 143 -66.5t21 -166.5l-53 -279q-20 -109 -8 -180t87 -82l-20 -104 q-41 -6 -70.5 -29.5t-51 -59.5t-37 -82t-25.5 -95l-60 -299q-16 -84 -68.5 -139.5t-168.5 -55.5h-56z" />
            <glyph unicode="~" d="M31 457q45 61 105 108t132 47q49 0 83 -14t63.5 -31.5t58.5 -32t68 -14.5q35 0 65.5 16.5t69.5 63.5l90 -55q-41 -72 -102.5 -115t-133.5 -43q-39 0 -70.5 13.5t-63 31t-65.5 30.5t-77 13q-39 0 -64.5 -17.5t-72.5 -62.5z" />
            <glyph unicode="&#xa1;" horiz-adv-x="466" d="M29 -416l221 1063h135l-192 -1063h-164zM274 848l33 164h164l-33 -164h-164z" />
            <glyph unicode="&#xa2;" d="M57 180q-2 25 2 62t10.5 81t14.5 89t16 84q10 51 20.5 105t23 103.5t24.5 89.5t27 64q41 72 99 117t167 51l41 205h84l-41 -209q102 -16 155.5 -90t30.5 -195l-172 -22q16 72 4 108.5t-47 48.5l-143 -733q86 25 110 156l160 -29q-29 -123 -100.5 -194.5t-198.5 -81.5 l-43 -230h-84l43 228q-57 4 -95 21.5t-60.5 43t-34 59t-13.5 68.5zM219 221q10 -72 70 -86l143 737q-29 -8 -52.5 -25.5t-43.5 -51.5q-23 -39 -41.5 -125t-44.5 -209q-6 -35 -12.5 -70t-11.5 -66.5t-7 -58.5t0 -45z" />
            <glyph unicode="&#xa3;" d="M-49 0l26 145q41 55 76 108.5t62.5 109t47 118t30.5 137.5h-119l26 134h109q2 12 2 25.5v25.5q0 72 -10.5 138.5t-10.5 119.5q0 88 27 158.5t74 120t112.5 75t143.5 25.5q141 0 210.5 -74t69.5 -199q0 -49 -8 -96l-160 -18q6 43 7 80q0 66 -28 110.5t-112 44.5 q-86 0 -126 -61.5t-40 -153.5q0 -45 7.5 -115.5t7.5 -142.5v-31.5t-2 -31.5h194l-26 -134h-185q-14 -80 -31.5 -143t-41 -117.5t-51 -103.5t-60.5 -100h436l-28 -154h-629z" />
            <glyph unicode="&#xa4;" horiz-adv-x="1007" d="M102 354l115 111q-59 88 -59 188q0 102 59 193l-113 110q23 23 48.5 49.5t48.5 49.5l110 -115q92 61 193 61q53 0 99 -15t93 -46q27 27 55.5 58.5t55.5 58.5l27.5 -27.5t21.5 -22t21.5 -22.5t27.5 -29l-114 -110q61 -92 61 -193q0 -96 -61 -188q27 -25 57.5 -56.5 t56.5 -54.5q-16 -16 -27.5 -28.5t-21.5 -22.5t-21.5 -22.5t-27.5 -26.5l-111 115q-86 -59 -192 -60q-102 0 -193 60l-112 -115zM295 664q0 -43 15.5 -82t43 -70t65.5 -48.5t83 -17.5q43 0 81 16.5t66.5 45.5t46 65.5t17.5 79.5q0 90 -60.5 150.5t-150.5 60.5q-41 0 -78 -15 t-65.5 -43t-46 -64.5t-17.5 -77.5z" />
            <glyph unicode="&#xa5;" d="M70 354l20 103h232l24 125h-231l18 100h207l-96 743h153l29 -295q8 -78 15.5 -163.5t7.5 -182.5h6l307 641h162l-387 -743h211l-19 -100h-235l-25 -125h236l-21 -103h-235l-70 -356h-148l70 356h-231z" />
            <glyph unicode="&#xa6;" horiz-adv-x="430" d="M154 -332v858h129v-858h-129zM154 602v864h129v-864h-129z" />
            <glyph unicode="&#xa7;" horiz-adv-x="866" d="M23 -29l92 101q51 -53 95 -72.5t105 -19.5q100 0 160 55t60 135q0 55 -44.5 110.5t-150.5 133.5q-47 35 -83 64.5t-60.5 59t-37 62.5t-12.5 74q0 102 53.5 164.5t143.5 111.5q-33 41 -47 79t-14 91q0 70 25.5 128.5t71.5 100.5t111.5 65.5t145.5 23.5q96 0 166.5 -33 t118.5 -88l-105 -103q-49 53 -96 72t-96 19q-41 0 -75 -14.5t-58.5 -38t-38 -54.5t-13.5 -63q0 -41 29 -77t72 -71t94 -70.5t94 -75.5t71.5 -86t28.5 -102q0 -98 -51 -171.5t-133 -121.5q47 -72 47 -161q0 -78 -26.5 -141.5t-75.5 -110.5t-119 -73t-158 -26q-86 0 -165.5 35 t-124.5 88zM307 700q0 -39 24.5 -73.5t60.5 -65.5t79 -57.5t80 -46.5q61 18 92 69.5t31 102.5q0 59 -49 111t-172 118q-29 -6 -54.5 -21.5t-46 -37t-33 -47t-12.5 -52.5z" />
            <glyph unicode="&#xa8;" horiz-adv-x="741" d="M297 1206l33 164h141l-33 -164h-141zM612 1206l33 164h139l-32 -164h-140z" />
            <glyph unicode="&#xa9;" horiz-adv-x="1439" d="M94 698q0 154 40 286t118 228.5t194.5 150.5t268.5 54q150 0 264.5 -54t193 -150.5t119.5 -228.5t41 -286t-41 -283.5t-119.5 -226t-193 -150.5t-264.5 -54q-154 0 -269.5 54t-193.5 150.5t-118 226.5t-40 283zM211 698q0 -127 32.5 -237.5t97.5 -193.5t159 -131t215 -48 q125 0 219 48t157.5 131t94.5 193.5t31 237.5t-33 240t-95.5 197t-156.5 132t-217 48q-129 0 -223.5 -48t-157 -132t-93 -197t-30.5 -240zM489 479v404q0 109 67 168t167 59q47 0 90 -14.5t75 -43t49 -69.5t15 -96l-112 -27q2 66 -30 105t-91 39q-51 0 -83 -34t-32 -77v-428 q0 -45 33 -76t82 -31q59 0 88 34t33 108l112 -21q0 -121 -66.5 -175t-162.5 -54q-47 0 -90 14.5t-75 43t-50.5 71.5t-18.5 100z" />
            <glyph unicode="&#xaa;" horiz-adv-x="563" d="M125 711q0 16 2 42.5t6 57.5t9 60.5t10 52.5q12 72 29.5 132t45 103t69.5 67.5t105 24.5q74 0 113 -43l10 37h131l-139 -672h-129l8 37q-23 -23 -51.5 -34t-73.5 -11q-18 0 -43.5 4t-48 19.5t-38 44.5t-15.5 78zM262 752q0 -64 68 -64q43 0 67.5 27.5t30.5 60.5l49 244 q10 47 -7 77.5t-56 30.5q-23 0 -47.5 -13t-38.5 -46q-10 -23 -22.5 -69t-22.5 -99q-20 -96 -21 -149z" />
            <glyph unicode="&#xab;" horiz-adv-x="888" d="M100 475l293 381h160l-295 -387l139 -375h-153zM432 475l293 381h160l-293 -387l137 -375h-154z" />
            <glyph unicode="&#xac;" d="M41 541l22 123h742l-90 -459h-121l65 336h-618z" />
            <glyph unicode="&#xad;" horiz-adv-x="708" d="M119 518l26 137h531l-27 -137h-530z" />
            <glyph unicode="&#xae;" horiz-adv-x="995" d="M104 1004q0 98 26 181t75 143.5t122.5 94t170.5 33.5q94 0 166.5 -33.5t122 -94t75 -143.5t25.5 -181q0 -96 -25.5 -178.5t-75 -142.5t-122 -94t-166.5 -34q-96 0 -170 34t-123 94t-75 142t-26 179zM188 1008q0 -82 20.5 -151t59.5 -118t96.5 -76.5t133.5 -27.5 q80 0 137 28.5t94 79t54.5 119t17.5 146.5t-19.5 146.5t-57.5 119.5t-95 80.5t-131 29.5q-80 0 -137.5 -29.5t-96.5 -80.5t-57.5 -120t-18.5 -146zM352 725v547h144q150 0 149 -166q0 -47 -15.5 -85t-56.5 -60l89 -236h-97l-76 221h-49v-221h-88zM440 1022h49 q39 0 53.5 23.5t14.5 60.5q0 41 -15.5 64.5t-58.5 23.5h-43v-172z" />
            <glyph unicode="&#xaf;" horiz-adv-x="739" d="M279 1204l28 137h490l-29 -137h-489z" />
            <glyph unicode="&#xb0;" horiz-adv-x="575" d="M88 1229q0 43 16.5 81t44 66.5t65.5 45t81 16.5t81 -16.5t65.5 -45t44 -66.5t16.5 -81t-16.5 -81t-44 -66.5t-65.5 -45t-81 -16.5t-81 16.5t-65.5 45t-44 66.5t-16.5 81zM180 1229q0 -49 34 -83t81 -34t81 34t34 83t-34 83t-81 34t-81 -34t-34 -83z" />
            <glyph unicode="&#xb1;" d="M-66 -2l25 123h743l-24 -123h-744zM41 541l22 123h312l65 335h121l-65 -335h311l-23 -123h-311l-65 -336h-121l65 336h-311z" />
            <glyph unicode="&#xb2;" horiz-adv-x="507" d="M96 758l19 94l319 422q27 35 44.5 76t21.5 69q4 33 -8.5 58.5t-59.5 25.5q-41 0 -62.5 -34.5t-35.5 -110.5l-125 20q23 109 77 173.5t167 64.5q98 0 139 -51.5t31 -141.5q-4 -41 -29 -96t-62 -104l-268 -349h248l-23 -116h-393z" />
            <glyph unicode="&#xb3;" horiz-adv-x="505" d="M114 881q-5 39 5 84l133 16q-18 -57 -7 -90t56 -33q29 0 51.5 19.5t30.5 60.5l23 119q18 86 -72 86h-53l20 104h55q90 0 103 78l20 94q6 29 -4 56.5t-57 27.5q-45 0 -69.5 -33.5t-29.5 -87.5l-126 19q16 98 78.5 155.5t166.5 57.5q55 0 90 -16.5t54.5 -44t23.5 -62.5 t-4 -72l-12 -63q-10 -47 -24.5 -85t-73.5 -69q43 -23 47 -58.5t-7 -94.5l-20 -109q-20 -102 -78.5 -146t-136.5 -44q-59 0 -98 16t-59.5 46t-25.5 69z" />
            <glyph unicode="&#xb4;" horiz-adv-x="731" d="M424 1174l207 344l135 -52l-260 -327z" />
            <glyph unicode="&#xb6;" horiz-adv-x="817" d="M131 920q0 84 22.5 177t67.5 169.5t109.5 127t148.5 50.5h488l-33 -166h-92l-281 -1446h-139l280 1446h-127l-280 -1446h-141l159 832h-22q-80 0 -120 74.5t-40 181.5z" />
            <glyph unicode="&#xb7;" horiz-adv-x="395" d="M125 461l37 186h178l-37 -186h-178z" />
            <glyph unicode="&#xb8;" horiz-adv-x="882" d="M41 -387l41 74q31 -16 58.5 -20.5t52.5 -4.5q41 0 67.5 23.5t26.5 58.5q0 29 -19.5 47.5t-58.5 18.5h-16l-27 28l94 197h76l-68 -148q39 -4 64.5 -15t40 -28.5t19.5 -39t5 -42.5q0 -27 -10 -58.5t-33.5 -58t-61.5 -45t-93 -18.5q-16 0 -66.5 4t-91.5 27z" />
            <glyph unicode="&#xb9;" horiz-adv-x="444" d="M215 1382l25 129l155 99h123l-166 -852h-125l142 723q-37 -23 -78 -49.5t-76 -49.5z" />
            <glyph unicode="&#xba;" horiz-adv-x="509" d="M98 721q0 35 5.5 85t15.5 97q16 74 33.5 139.5t44.5 108.5q63 102 198 102q92 0 138.5 -47t46.5 -106q0 -41 -9.5 -104.5t-19.5 -112.5q-16 -82 -34.5 -142.5t-48.5 -99.5t-76 -58.5t-118 -19.5q-47 0 -80.5 15.5t-55 38t-31 51t-9.5 53.5zM225 741q0 -29 19.5 -45 t52.5 -16q29 0 49.5 15.5t32.5 37.5q8 18 21.5 63.5t24.5 98.5t19.5 103.5t8.5 78.5q0 29 -20.5 43.5t-45.5 14.5q-27 0 -50.5 -10.5t-37.5 -34.5q-6 -12 -18.5 -54.5t-24.5 -94.5t-21.5 -106.5t-9.5 -93.5z" />
            <glyph unicode="&#xbb;" horiz-adv-x="888" d="M27 94l301 391l-152 371h154l151 -381l-295 -381h-159zM358 94l297 391l-147 371h154l151 -381l-295 -381h-160z" />
            <glyph unicode="&#xbc;" horiz-adv-x="1249" d="M145 -35l934 1497h105l-934 -1497h-105zM229 1198l25 129l156 98h122l-165 -852h-125l141 723q-37 -23 -78 -49t-76 -49zM657 127l21 104l313 621h127l-311 -614h141l45 231h125l-45 -231h68l-23 -111h-67l-25 -127h-123l25 127h-271z" />
            <glyph unicode="&#xbd;" horiz-adv-x="1249" d="M117 -35l934 1497h104l-934 -1497h-104zM238 1198l24 129l156 98h123l-166 -852h-125l141 723q-37 -23 -78 -49t-75 -49zM666 0l18 94l320 422q27 35 44 76t21 70q4 33 -8.5 58t-59.5 25q-41 0 -62 -34.5t-36 -110.5l-125 21q23 109 77 173t167 64q98 0 139 -51t31 -141 q-4 -41 -28.5 -96.5t-61.5 -104.5l-268 -348h247l-22 -117h-393z" />
            <glyph unicode="&#xbe;" horiz-adv-x="1249" d="M130 696q-5 39 5 84l133 17q-18 -57 -7 -90t56 -33q29 0 51.5 19.5t30.5 60.5l23 118q18 86 -72 86h-53l20 105h56q90 0 102 78l21 94q6 29 -4.5 56.5t-57.5 27.5q-45 0 -69.5 -34t-28.5 -87l-127 19q16 98 78.5 155.5t167.5 57.5q55 0 90 -16.5t54 -44.5t23.5 -62.5 t-4.5 -71.5l-12 -64q-10 -47 -24.5 -84.5t-73.5 -68.5q43 -23 47 -58.5t-6 -95.5l-21 -108q-20 -102 -78.5 -146.5t-136.5 -44.5q-59 0 -98 16.5t-59.5 46t-25.5 68.5zM217 -35l934 1497h104l-933 -1497h-105zM705 127l20 104l313 621h127l-311 -614h141l45 231h125 l-45 -231h68l-23 -111h-67l-25 -127h-123l25 127h-270z" />
            <glyph unicode="&#xbf;" horiz-adv-x="759" d="M43 -127q0 121 40 202t99 154l127 162q20 27 36.5 55.5t25.5 63.5l30 141h162l-37 -166q-10 -39 -29.5 -81t-47.5 -76q-59 -72 -104.5 -128.5t-76 -105.5t-46 -95t-15.5 -99q0 -78 36 -124t113 -46q29 0 56.5 9t51 31.5t39 60.5t21.5 93l160 -26q-51 -322 -344 -322 q-131 0 -214 75t-83 222zM438 850l33 164h160l-33 -164h-160z" />
            <glyph unicode="&#xc0;" horiz-adv-x="808" d="M-55 0l579 1425h152l31 -1425h-154l-4 317h-318l-125 -317h-161zM287 469h262l-4 338l6 328h-8l-123 -332zM305 1647l66 125l291 -218l-41 -75z" />
            <glyph unicode="&#xc1;" horiz-adv-x="808" d="M-55 0l579 1425h152l31 -1425h-154l-4 317h-318l-125 -317h-161zM287 469h262l-4 338l6 328h-8l-123 -332zM549 1542l336 232l78 -117l-369 -189z" />
            <glyph unicode="&#xc2;" horiz-adv-x="808" d="M-55 0l579 1425h152l31 -1425h-154l-4 317h-318l-125 -317h-161zM285 1546l313 244h96l207 -240l-67 -61l-209 151l-277 -151zM287 469h262l-4 338l6 328h-8l-123 -332z" />
            <glyph unicode="&#xc3;" horiz-adv-x="808" d="M-55 0l579 1425h152l31 -1425h-154l-4 317h-318l-125 -317h-161zM287 469h262l-4 338l6 328h-8l-123 -332zM317 1585q35 61 93.5 107.5t113.5 46.5q31 0 56.5 -11.5t50 -25.5t48 -25.5t50.5 -11.5q29 0 55.5 17.5t59.5 58.5l84 -55q-47 -86 -102.5 -120t-100.5 -34 q-31 0 -57.5 11t-50 24.5t-46 25t-47.5 11.5q-57 0 -121 -74z" />
            <glyph unicode="&#xc4;" horiz-adv-x="808" d="M-55 0l579 1425h152l31 -1425h-154l-4 317h-318l-125 -317h-161zM287 469h262l-4 338l6 328h-8l-123 -332zM385 1528l31 164h141l-31 -164h-141zM700 1528l31 164h139l-30 -164h-140z" />
            <glyph unicode="&#xc5;" horiz-adv-x="808" d="M-55 0l579 1425h152l31 -1425h-154l-4 317h-318l-125 -317h-161zM287 469h262l-4 338l6 328h-8l-123 -332zM459 1606q0 43 19.5 83t50 69.5t71.5 47t84 17.5q68 0 110 -42t42 -106q0 -45 -18.5 -85t-50.5 -70.5t-72 -48t-83 -17.5q-70 0 -111.5 43t-41.5 109zM547 1618 q0 -35 22.5 -57.5t59.5 -22.5q45 0 80.5 35t35.5 82q0 35 -22 56.5t-57 21.5q-47 0 -83 -34t-36 -81z" />
            <glyph unicode="&#xc6;" horiz-adv-x="1277" d="M-33 0l697 1425h718l-20 -151h-449l-67 -475h389l-21 -150h-389l-67 -485h448l-22 -164h-611l52 373h-316l-178 -373h-164zM383 524h262l107 750h-7z" />
            <glyph unicode="&#xc7;" horiz-adv-x="808" d="M80 346l133 688q14 76 35.5 148.5t62.5 129t107 91.5t168 35q88 0 148.5 -24.5t94 -67.5t42 -103.5t-6.5 -132.5l-166 -27q20 94 -7 149.5t-113 55.5q-49 0 -83 -22.5t-57.5 -56t-37 -74.5t-21.5 -78l-139 -719q-16 -90 7 -146.5t113 -56.5q80 0 129.5 51.5t63.5 161.5 l158 -45q-25 -143 -104 -228t-226 -89l-45 -99q39 -4 64.5 -15t40 -28.5t19.5 -39t5 -42.5q0 -27 -10.5 -58.5t-34 -58t-61 -45t-93.5 -18.5q-16 0 -66 4t-91 27l41 74q31 -16 58.5 -20.5t51.5 -4.5q41 0 67.5 23.5t26.5 58.5q0 29 -19.5 47.5t-58.5 18.5h-16l-27 28l72 152 q-147 16 -200.5 111.5t-24.5 244.5z" />
            <glyph unicode="&#xc8;" horiz-adv-x="749" d="M27 0l276 1425h610l-30 -149h-449l-92 -477h389l-29 -150h-389l-98 -502h449l-27 -147h-610zM338 1647l65 125l291 -218l-41 -75z" />
            <glyph unicode="&#xc9;" horiz-adv-x="749" d="M27 0l276 1425h610l-30 -149h-449l-92 -477h389l-29 -150h-389l-98 -502h449l-27 -147h-610zM508 1542l336 232l78 -117l-369 -189z" />
            <glyph unicode="&#xca;" horiz-adv-x="749" d="M27 0l276 1425h610l-30 -149h-449l-92 -477h389l-29 -150h-389l-98 -502h449l-27 -147h-610zM299 1546l313 244h97l206 -240l-67 -61l-209 151l-277 -151z" />
            <glyph unicode="&#xcb;" horiz-adv-x="749" d="M27 0l276 1425h610l-30 -149h-449l-92 -477h389l-29 -150h-389l-98 -502h449l-27 -147h-610zM377 1528l31 164h141l-31 -164h-141zM692 1528l31 164h139l-31 -164h-139z" />
            <glyph unicode="&#xcc;" horiz-adv-x="393" d="M33 0l276 1425h164l-276 -1425h-164zM94 1647l66 125l291 -218l-41 -75z" />
            <glyph unicode="&#xcd;" horiz-adv-x="393" d="M33 0l276 1425h164l-276 -1425h-164zM373 1542l336 232l77 -117l-368 -189z" />
            <glyph unicode="&#xce;" horiz-adv-x="393" d="M33 0l276 1425h164l-276 -1425h-164zM84 1546l313 244h97l206 -240l-67 -61l-209 151l-277 -151z" />
            <glyph unicode="&#xcf;" horiz-adv-x="393" d="M33 0l276 1425h164l-276 -1425h-164zM180 1528l31 164h141l-30 -164h-142zM496 1528l30 164h140l-31 -164h-139z" />
            <glyph unicode="&#xd0;" horiz-adv-x="866" d="M27 0l131 678h-97l25 123h94l123 624h291q127 0 208 -54t91 -159q4 -72 -16.5 -194.5t-51.5 -302.5q-31 -176 -57.5 -313.5t-67.5 -221.5q-55 -106 -131.5 -143t-187.5 -37h-354zM215 147h145q100 0 154.5 55.5t75.5 157.5l137 709q18 94 -12.5 150.5t-132.5 56.5h-146 l-94 -475h143l-24 -123h-142z" />
            <glyph unicode="&#xd1;" horiz-adv-x="921" d="M20 0l277 1425h154l155 -729l51 -243l9 2l186 970h162l-277 -1425h-151l-154 733l-53 258h-6l-191 -991h-162zM362 1567q35 61 93.5 107t113.5 46q31 0 56.5 -11t50 -25.5t48.5 -25.5t50 -11q29 0 55.5 17t59.5 58l84 -55q-47 -86 -102.5 -120t-100.5 -34 q-31 0 -57.5 11.5t-50 25t-46 24.5t-47.5 11q-57 0 -120 -74z" />
            <glyph unicode="&#xd2;" horiz-adv-x="847" d="M76 260q0 59 12 125l143 737q29 152 116.5 234t232.5 82q80 0 136 -22.5t92 -61.5t53.5 -91.5t17.5 -113.5q0 -27 -3.5 -50.5t-7.5 -51.5l-139 -738q-29 -152 -107.5 -237.5t-226.5 -85.5q-90 0 -151.5 20.5t-98 57t-53 87t-16.5 109.5zM236 281q0 -59 35.5 -100.5 t115.5 -41.5q78 0 121 51.5t57 124.5l140 715q4 25 7 49.5t3 46.5q0 61 -30 107.5t-112 50.5q-86 0 -124.5 -49t-53.5 -115l-147 -733q-4 -27 -8 -53.5t-4 -52.5zM389 1647l66 125l290 -218l-40 -75z" />
            <glyph unicode="&#xd3;" horiz-adv-x="847" d="M76 260q0 59 12 125l143 737q29 152 116.5 234t232.5 82q80 0 136 -22.5t92 -61.5t53.5 -91.5t17.5 -113.5q0 -27 -3.5 -50.5t-7.5 -51.5l-139 -738q-29 -152 -107.5 -237.5t-226.5 -85.5q-90 0 -151.5 20.5t-98 57t-53 87t-16.5 109.5zM236 281q0 -59 35.5 -100.5 t115.5 -41.5q78 0 121 51.5t57 124.5l140 715q4 25 7 49.5t3 46.5q0 61 -30 107.5t-112 50.5q-86 0 -124.5 -49t-53.5 -115l-147 -733q-4 -27 -8 -53.5t-4 -52.5zM528 1542l336 232l78 -117l-369 -189z" />
            <glyph unicode="&#xd4;" horiz-adv-x="847" d="M76 260q0 59 12 125l143 737q29 152 116.5 234t232.5 82q80 0 136 -22.5t92 -61.5t53.5 -91.5t17.5 -113.5q0 -27 -3.5 -50.5t-7.5 -51.5l-139 -738q-29 -152 -107.5 -237.5t-226.5 -85.5q-90 0 -151.5 20.5t-98 57t-53 87t-16.5 109.5zM236 281q0 -59 35.5 -100.5 t115.5 -41.5q78 0 121 51.5t57 124.5l140 715q4 25 7 49.5t3 46.5q0 61 -30 107.5t-112 50.5q-86 0 -124.5 -49t-53.5 -115l-147 -733q-4 -27 -8 -53.5t-4 -52.5zM307 1546l314 244h96l207 -240l-68 -61l-209 151l-276 -151z" />
            <glyph unicode="&#xd5;" horiz-adv-x="847" d="M76 260q0 59 12 125l143 737q29 152 116.5 234t232.5 82q80 0 136 -22.5t92 -61.5t53.5 -91.5t17.5 -113.5q0 -27 -3.5 -50.5t-7.5 -51.5l-139 -738q-29 -152 -107.5 -237.5t-226.5 -85.5q-90 0 -151.5 20.5t-98 57t-53 87t-16.5 109.5zM236 281q0 -59 35.5 -100.5 t115.5 -41.5q78 0 121 51.5t57 124.5l140 715q4 25 7 49.5t3 46.5q0 61 -30 107.5t-112 50.5q-86 0 -124.5 -49t-53.5 -115l-147 -733q-4 -27 -8 -53.5t-4 -52.5zM344 1585q35 61 93.5 107.5t113.5 46.5q31 0 56.5 -11.5t50 -25.5t48 -25.5t50.5 -11.5q29 0 55.5 17.5 t58.5 58.5l84 -55q-47 -86 -102 -120t-100 -34q-31 0 -57.5 11t-50 24.5t-46.5 25t-47 11.5q-57 0 -121 -74z" />
            <glyph unicode="&#xd6;" horiz-adv-x="847" d="M76 260q0 59 12 125l143 737q29 152 116.5 234t232.5 82q80 0 136 -22.5t92 -61.5t53.5 -91.5t17.5 -113.5q0 -27 -3.5 -50.5t-7.5 -51.5l-139 -738q-29 -152 -107.5 -237.5t-226.5 -85.5q-90 0 -151.5 20.5t-98 57t-53 87t-16.5 109.5zM236 281q0 -59 35.5 -100.5 t115.5 -41.5q78 0 121 51.5t57 124.5l140 715q4 25 7 49.5t3 46.5q0 61 -30 107.5t-112 50.5q-86 0 -124.5 -49t-53.5 -115l-147 -733q-4 -27 -8 -53.5t-4 -52.5zM410 1528l30 164h142l-31 -164h-141zM725 1528l31 164h139l-31 -164h-139z" />
            <glyph unicode="&#xd7;" d="M2 322l338 280l-213 264l92 76l213 -264l336 283l74 -97l-334 -280l211 -265l-92 -75l-215 262l-334 -281z" />
            <glyph unicode="&#xd8;" horiz-adv-x="847" d="M16 27l76 120q-16 47 -16 113q0 59 12 125l143 737q29 152 116.5 234t232.5 82q94 0 156.5 -32t97.5 -85l75 121l80 -43l-117 -185q6 -31 7 -65q0 -27 -3.5 -50.5t-7.5 -51.5l-139 -738q-29 -152 -107.5 -237.5t-226.5 -85.5q-92 0 -153.5 20.5t-98.5 59.5l-53 -84z M244 223q14 -37 49 -60.5t94 -23.5q78 0 121 51.5t57 124.5l117 598zM250 395l465 738q-2 59 -32 103t-110 48q-86 0 -124.5 -49t-53.5 -115z" />
            <glyph unicode="&#xd9;" horiz-adv-x="860" d="M80 185.5q-8 60.5 6 129.5q10 55 26.5 142.5t36 191t40 216t41 217t38 194.5t29.5 149h162q-8 -47 -24.5 -127.5t-36 -181t-41 -210t-42 -213t-37 -192.5t-26.5 -147q-8 -41 -9 -79.5t11 -68.5t42 -48.5t85 -18.5q68 0 121 39t71 137l218 1110h161l-217 -1116 q-35 -182 -129 -252.5t-241 -70.5q-90 0 -149.5 25.5t-93.5 69.5t-42 104.5zM362 1647l66 125l291 -218l-41 -75z" />
            <glyph unicode="&#xda;" horiz-adv-x="860" d="M80 185.5q-8 60.5 6 129.5q10 55 26.5 142.5t36 191t40 216t41 217t38 194.5t29.5 149h162q-8 -47 -24.5 -127.5t-36 -181t-41 -210t-42 -213t-37 -192.5t-26.5 -147q-8 -41 -9 -79.5t11 -68.5t42 -48.5t85 -18.5q68 0 121 39t71 137l218 1110h161l-217 -1116 q-35 -182 -129 -252.5t-241 -70.5q-90 0 -149.5 25.5t-93.5 69.5t-42 104.5zM565 1542l336 232l78 -117l-369 -189z" />
            <glyph unicode="&#xdb;" horiz-adv-x="860" d="M80 185.5q-8 60.5 6 129.5q10 55 26.5 142.5t36 191t40 216t41 217t38 194.5t29.5 149h162q-8 -47 -24.5 -127.5t-36 -181t-41 -210t-42 -213t-37 -192.5t-26.5 -147q-8 -41 -9 -79.5t11 -68.5t42 -48.5t85 -18.5q68 0 121 39t71 137l218 1110h161l-217 -1116 q-35 -182 -129 -252.5t-241 -70.5q-90 0 -149.5 25.5t-93.5 69.5t-42 104.5zM338 1546l313 244h97l206 -240l-67 -61l-209 151l-277 -151z" />
            <glyph unicode="&#xdc;" horiz-adv-x="860" d="M80 185.5q-8 60.5 6 129.5q10 55 26.5 142.5t36 191t40 216t41 217t38 194.5t29.5 149h162q-8 -47 -24.5 -127.5t-36 -181t-41 -210t-42 -213t-37 -192.5t-26.5 -147q-8 -41 -9 -79.5t11 -68.5t42 -48.5t85 -18.5q68 0 121 39t71 137l218 1110h161l-217 -1116 q-35 -182 -129 -252.5t-241 -70.5q-90 0 -149.5 25.5t-93.5 69.5t-42 104.5zM412 1528l30 164h142l-31 -164h-141zM727 1528l31 164h139l-31 -164h-139z" />
            <glyph unicode="&#xdd;" horiz-adv-x="770" d="M221 0l119 604l-119 823h166l37 -331q6 -55 10 -92t7 -69t5.5 -64.5t4.5 -82.5h8l135 289l170 350h174l-438 -823l-119 -604h-160zM449 1542l335 232l78 -117l-368 -189z" />
            <glyph unicode="&#xde;" horiz-adv-x="808" d="M27 0l274 1425h160l-53 -276h133q82 0 139 -19.5t91 -54.5t49.5 -84t15.5 -110q0 -111 -17.5 -216.5t-69 -186.5t-144.5 -131t-243 -50h-116l-58 -297h-161zM274 449h111q88 0 144.5 33.5t88 88t43 122t11.5 134.5q0 35 -8.5 66t-28 54.5t-54 36.5t-85.5 13h-115z" />
            <glyph unicode="&#xdf;" horiz-adv-x="768" d="M0 0l229 1190q29 135 112 216t224 81q111 0 180.5 -56.5t69.5 -164.5q0 -8 -1 -17.5t-3 -28t-7 -50t-11 -80.5q-14 -72 -49 -125.5t-103 -81.5v-6q47 -18 68.5 -56.5t21.5 -85.5q0 -6 -1 -18t-8 -54t-21.5 -126t-41.5 -236q-10 -61 -32.5 -119.5t-59.5 -102.5t-92 -70.5 t-131 -26.5q-12 0 -26.5 1t-24.5 3l26 131h19q39 0 65.5 13t43 35.5t25.5 55.5t17 70q29 145 45.5 226t23.5 121t8 50t1 14q0 96 -116 97l28 141q68 0 102.5 40t45.5 97q8 45 12 73t6 43t3 21.5t1 10.5q0 51 -25.5 79.5t-78.5 28.5q-59 0 -101.5 -39t-52.5 -94l-231 -1200 h-160z" />
            <glyph unicode="&#xe0;" horiz-adv-x="786" d="M51 197q0 27 4 68.5t10.5 87.5t14.5 92.5t14 80.5q20 111 46 203t64 157.5t95 101.5t143 36q59 0 106.5 -25.5t69.5 -66.5h5l14 82h162l-197 -1014h-162l15 78l-4 2q-41 -45 -81 -68.5t-120 -23.5q-27 0 -60.5 6t-64.5 27.5t-52.5 63.5t-21.5 112zM221 260q0 -53 30 -84 t89 -31q35 0 62.5 16.5t47 41t33 52.5t17.5 50l73 373q16 86 -14.5 136t-95.5 50q-37 0 -76 -15t-65 -73q-14 -29 -34 -108.5t-36 -169.5q-31 -158 -31 -238zM332 1440l133 84l158 -357l-76 -49z" />
            <glyph unicode="&#xe1;" horiz-adv-x="786" d="M51 197q0 27 4 68.5t10.5 87.5t14.5 92.5t14 80.5q20 111 46 203t64 157.5t95 101.5t143 36q59 0 106.5 -25.5t69.5 -66.5h5l14 82h162l-197 -1014h-162l15 78l-4 2q-41 -45 -81 -68.5t-120 -23.5q-27 0 -60.5 6t-64.5 27.5t-52.5 63.5t-21.5 112zM221 260q0 -53 30 -84 t89 -31q35 0 62.5 16.5t47 41t33 52.5t17.5 50l73 373q16 86 -14.5 136t-95.5 50q-37 0 -76 -15t-65 -73q-14 -29 -34 -108.5t-36 -169.5q-31 -158 -31 -238zM442 1174l207 344l135 -52l-260 -327z" />
            <glyph unicode="&#xe2;" horiz-adv-x="786" d="M51 197q0 27 4 68.5t10.5 87.5t14.5 92.5t14 80.5q20 111 46 203t64 157.5t95 101.5t143 36q59 0 106.5 -25.5t69.5 -66.5h5l14 82h162l-197 -1014h-162l15 78l-4 2q-41 -45 -81 -68.5t-120 -23.5q-27 0 -60.5 6t-64.5 27.5t-52.5 63.5t-21.5 112zM221 260q0 -53 30 -84 t89 -31q35 0 62.5 16.5t47 41t33 52.5t17.5 50l73 373q16 86 -14.5 136t-95.5 50q-37 0 -76 -15t-65 -73q-14 -29 -34 -108.5t-36 -169.5q-31 -158 -31 -238zM240 1188l321 285h96l199 -281l-76 -62l-192 199l-283 -199z" />
            <glyph unicode="&#xe3;" horiz-adv-x="786" d="M51 197q0 27 4 68.5t10.5 87.5t14.5 92.5t14 80.5q20 111 46 203t64 157.5t95 101.5t143 36q59 0 106.5 -25.5t69.5 -66.5h5l14 82h162l-197 -1014h-162l15 78l-4 2q-41 -45 -81 -68.5t-120 -23.5q-27 0 -60.5 6t-64.5 27.5t-52.5 63.5t-21.5 112zM221 260q0 -53 30 -84 t89 -31q35 0 62.5 16.5t47 41t33 52.5t17.5 50l73 373q16 86 -14.5 136t-95.5 50q-37 0 -76 -15t-65 -73q-14 -29 -34 -108.5t-36 -169.5q-31 -158 -31 -238zM260 1237q35 61 93.5 107.5t113.5 46.5q31 0 56.5 -11.5t50 -26t48 -25.5t50.5 -11q29 0 55.5 17.5t58.5 58.5 l84 -56q-47 -86 -102 -119.5t-100 -33.5q-31 0 -57.5 11t-50 24.5t-46 24.5t-47.5 11q-57 0 -121 -73z" />
            <glyph unicode="&#xe4;" horiz-adv-x="786" d="M51 197q0 27 4 68.5t10.5 87.5t14.5 92.5t14 80.5q20 111 46 203t64 157.5t95 101.5t143 36q59 0 106.5 -25.5t69.5 -66.5h5l14 82h162l-197 -1014h-162l15 78l-4 2q-41 -45 -81 -68.5t-120 -23.5q-27 0 -60.5 6t-64.5 27.5t-52.5 63.5t-21.5 112zM221 260q0 -53 30 -84 t89 -31q35 0 62.5 16.5t47 41t33 52.5t17.5 50l73 373q16 86 -14.5 136t-95.5 50q-37 0 -76 -15t-65 -73q-14 -29 -34 -108.5t-36 -169.5q-31 -158 -31 -238zM315 1206l33 164h141l-32 -164h-142zM631 1206l33 164h139l-33 -164h-139z" />
            <glyph unicode="&#xe5;" horiz-adv-x="786" d="M51 197q0 27 4 68.5t10.5 87.5t14.5 92.5t14 80.5q20 111 46 203t64 157.5t95 101.5t143 36q59 0 106.5 -25.5t69.5 -66.5h5l14 82h162l-197 -1014h-162l15 78l-4 2q-41 -45 -81 -68.5t-120 -23.5q-27 0 -60.5 6t-64.5 27.5t-52.5 63.5t-21.5 112zM221 260q0 -53 30 -84 t89 -31q35 0 62.5 16.5t47 41t33 52.5t17.5 50l73 373q16 86 -14.5 136t-95.5 50q-37 0 -76 -15t-65 -73q-14 -29 -34 -108.5t-36 -169.5q-31 -158 -31 -238zM391 1262q0 43 19.5 82.5t50.5 69.5t71.5 47.5t83.5 17.5q68 0 110 -42t42 -106q0 -45 -18.5 -85t-50 -70.5 t-71.5 -48t-83 -17.5q-70 0 -112 43t-42 109zM479 1274q0 -35 22.5 -57.5t59.5 -22.5q45 0 81 35t36 82q0 35 -22.5 56.5t-57.5 21.5q-47 0 -83 -34t-36 -81z" />
            <glyph unicode="&#xe6;" horiz-adv-x="1140" d="M18 201q0 41 10.5 109.5t49.5 134t111.5 112.5t199.5 47q61 0 135 -12l29 151q2 10 3 18.5t1 18.5q0 43 -27.5 67.5t-85.5 24.5q-20 0 -44.5 -5t-46 -17t-38 -32.5t-20.5 -49.5l-145 43q25 98 110.5 156.5t208.5 58.5q61 0 120.5 -20.5t88.5 -67.5q41 41 100 64.5 t131 23.5q117 0 184.5 -60.5t67.5 -164.5q0 -98 -32.5 -170t-88 -120t-128 -70.5t-154.5 -22.5q-23 0 -47.5 2t-48.5 6q-6 -35 -14.5 -75t-8.5 -79q0 -55 22.5 -95t88.5 -40q63 0 102 39t51 107l164 -25q-29 -121 -106.5 -196.5t-231.5 -75.5q-86 0 -139 34.5t-76 94.5 q-35 -49 -76 -76t-80 -39t-72.5 -13t-52.5 -1q-61 0 -103 18.5t-66.5 48t-35 68.5t-10.5 80zM182 254q0 -47 29 -78t88 -31q66 0 112 45.5t58 116.5l25 152q-25 4 -53.5 8t-51.5 4q-111 0 -159 -59.5t-48 -157.5zM686 565q20 -4 39.5 -6t42.5 -2q43 0 83 10.5t72.5 35 t52 64.5t19.5 101q0 47 -28.5 74.5t-79.5 27.5q-41 0 -71 -15t-53.5 -51t-42 -94.5t-34.5 -144.5z" />
            <glyph unicode="&#xe7;" horiz-adv-x="694" d="M41 180q-2 25 2 62t10 81t14.5 89t16.5 84q10 51 20.5 105t22.5 103.5t24.5 89.5t26.5 64q20 39 45 69.5t58.5 52t77.5 34t106 12.5q63 0 114.5 -19.5t85 -57.5t48 -91t2.5 -121l-172 -22q20 88 -10.5 126t-86.5 38q-47 0 -76.5 -25t-50.5 -59q-23 -39 -41 -125t-45 -209 l-12 -70t-11 -66.5t-8 -58t-1 -45.5q6 -45 32.5 -66.5t79.5 -21.5q123 0 154 162l160 -29q-31 -133 -101.5 -204.5t-212.5 -75.5l-45 -99q39 -4 64.5 -15t40 -28.5t19.5 -39t5 -42.5q0 -27 -10 -58.5t-33.5 -58t-61.5 -45t-93 -18.5q-16 0 -66.5 4t-91.5 27l41 74 q31 -16 58.5 -20.5t52.5 -4.5q41 0 67.5 23.5t26.5 58.5q0 29 -19.5 47.5t-58.5 18.5h-16l-27 28l72 152q-109 12 -151 67.5t-46 122.5z" />
            <glyph unicode="&#xe8;" horiz-adv-x="731" d="M49 260q0 59 8.5 119.5t18.5 116.5q18 100 42.5 196t67.5 170t112 119t175 45q117 0 185.5 -59.5t68.5 -163.5q0 -98 -32.5 -171t-89 -120t-130.5 -70.5t-156 -23.5q-23 0 -47 2t-49 6q-6 -35 -13 -75t-7 -79q0 -55 22.5 -96t87.5 -41q63 0 102.5 41t49.5 107l170 -25 q-29 -121 -109 -196.5t-233 -75.5q-74 0 -121 22.5t-74.5 59t-38 87t-10.5 105.5zM248 565q20 -4 39.5 -6t42.5 -2q43 0 86 11.5t76.5 38t55 67.5t21.5 102q0 47 -30.5 77t-81.5 30q-82 0 -129 -74t-80 -244zM285 1440l133 84l157 -357l-75 -49z" />
            <glyph unicode="&#xe9;" horiz-adv-x="731" d="M49 260q0 59 8.5 119.5t18.5 116.5q18 100 42.5 196t67.5 170t112 119t175 45q117 0 185.5 -59.5t68.5 -163.5q0 -98 -32.5 -171t-89 -120t-130.5 -70.5t-156 -23.5q-23 0 -47 2t-49 6q-6 -35 -13 -75t-7 -79q0 -55 22.5 -96t87.5 -41q63 0 102.5 41t49.5 107l170 -25 q-29 -121 -109 -196.5t-233 -75.5q-74 0 -121 22.5t-74.5 59t-38 87t-10.5 105.5zM248 565q20 -4 39.5 -6t42.5 -2q43 0 86 11.5t76.5 38t55 67.5t21.5 102q0 47 -30.5 77t-81.5 30q-82 0 -129 -74t-80 -244zM424 1174l207 344l135 -52l-260 -327z" />
            <glyph unicode="&#xea;" horiz-adv-x="731" d="M49 260q0 59 8.5 119.5t18.5 116.5q18 100 42.5 196t67.5 170t112 119t175 45q117 0 185.5 -59.5t68.5 -163.5q0 -98 -32.5 -171t-89 -120t-130.5 -70.5t-156 -23.5q-23 0 -47 2t-49 6q-6 -35 -13 -75t-7 -79q0 -55 22.5 -96t87.5 -41q63 0 102.5 41t49.5 107l170 -25 q-29 -121 -109 -196.5t-233 -75.5q-74 0 -121 22.5t-74.5 59t-38 87t-10.5 105.5zM201 1188l321 285h96l199 -281l-76 -62l-192 199l-283 -199zM248 565q20 -4 39.5 -6t42.5 -2q43 0 86 11.5t76.5 38t55 67.5t21.5 102q0 47 -30.5 77t-81.5 30q-82 0 -129 -74t-80 -244z" />
            <glyph unicode="&#xeb;" horiz-adv-x="731" d="M49 260q0 59 8.5 119.5t18.5 116.5q18 100 42.5 196t67.5 170t112 119t175 45q117 0 185.5 -59.5t68.5 -163.5q0 -98 -32.5 -171t-89 -120t-130.5 -70.5t-156 -23.5q-23 0 -47 2t-49 6q-6 -35 -13 -75t-7 -79q0 -55 22.5 -96t87.5 -41q63 0 102.5 41t49.5 107l170 -25 q-29 -121 -109 -196.5t-233 -75.5q-74 0 -121 22.5t-74.5 59t-38 87t-10.5 105.5zM248 565q20 -4 39.5 -6t42.5 -2q43 0 86 11.5t76.5 38t55 67.5t21.5 102q0 47 -30.5 77t-81.5 30q-82 0 -129 -74t-80 -244zM297 1206l33 164h141l-33 -164h-141zM612 1206l33 164h139 l-32 -164h-140z" />
            <glyph unicode="&#xec;" horiz-adv-x="415" d="M76 0l196 1012h164l-196 -1012h-164zM143 1440l133 84l158 -357l-76 -49z" />
            <glyph unicode="&#xed;" horiz-adv-x="389" d="M8 0l197 1012h164l-197 -1012h-164zM250 1174l207 344l135 -52l-260 -327z" />
            <glyph unicode="&#xee;" horiz-adv-x="512" d="M88 1188l322 285h96l199 -281l-76 -62l-193 199l-282 -199zM90 0l197 1012h164l-197 -1012h-164z" />
            <glyph unicode="&#xef;" horiz-adv-x="417" d="M43 0l197 1012h163l-196 -1012h-164zM125 1206l33 164h141l-33 -164h-141zM440 1206l33 164h139l-32 -164h-140z" />
            <glyph unicode="&#xf0;" horiz-adv-x="794" d="M76 215q0 27 3 62.5t7 75.5t11 81t14 78q23 125 52.5 211t45.5 113q86 149 264 149q33 0 82 -17.5t76 -64.5h4q12 66 19.5 133.5t0.5 122.5l-161 -104l-41 67l180 117l-6 14q-31 49 -90.5 72t-116.5 31l41 131q111 -8 174 -40t94 -67q20 -25 37 -55l158 102l41 -67 l-172 -113q8 -47 8 -113.5t-10.5 -159.5t-31 -217t-50.5 -288q-23 -121 -52.5 -211t-73.5 -150.5t-108.5 -91t-157.5 -30.5q-66 0 -111.5 21.5t-74.5 55t-42 74.5t-13 78zM227 246q0 -51 33 -81t90 -30q51 0 81 24.5t52 67.5q12 25 30.5 90.5t35 142.5t29 151.5t12.5 117.5 q0 53 -37 82t-78 29q-47 0 -82 -19.5t-57 -66.5q-10 -18 -27.5 -78t-36 -135.5t-32 -154.5t-13.5 -140z" />
            <glyph unicode="&#xf1;" horiz-adv-x="749" d="M-10 0l196 1012h162l-20 -101h6q53 66 106.5 88.5t108.5 22.5q100 0 146 -55.5t46 -137.5q0 -14 -2 -31.5t-7 -51t-15 -88t-27.5 -142.5t-42 -214t-57.5 -302h-164q45 229 73.5 369.5t44 220.5t20.5 113.5t5 50.5q0 47 -24.5 77.5t-89.5 30.5q-78 0 -117 -51t-53 -123 l-135 -688h-160zM199 1237q35 61 93 107.5t114 46.5q31 0 56 -11.5t50 -26t48.5 -25.5t49.5 -11q29 0 55.5 17.5t59.5 58.5l84 -56q-47 -86 -102.5 -119.5t-100.5 -33.5q-31 0 -57.5 11t-50 24.5t-46 24.5t-46.5 11q-57 0 -121 -73z" />
            <glyph unicode="&#xf2;" horiz-adv-x="741" d="M53 215q0 53 9.5 131t23.5 150q23 125 47.5 220t61.5 161q43 76 113.5 112.5t162.5 36.5q66 0 115 -18.5t80.5 -49t48 -70.5t16.5 -83q0 -31 -4 -73t-10 -88t-14.5 -91t-16.5 -84q-25 -129 -54.5 -221t-72.5 -150.5t-106.5 -85t-155.5 -26.5q-66 0 -112 21.5t-75.5 55 t-43 74.5t-13.5 78zM207 246q0 -51 32.5 -81t90.5 -30q51 0 80.5 24.5t52.5 67.5q12 25 31.5 96.5t37 156.5t30.5 166t13 124q0 53 -35.5 82t-76.5 29q-47 0 -83 -19.5t-58 -66.5q-10 -18 -29 -84t-38 -149t-33.5 -169t-14.5 -147zM266 1440l133 84l158 -357l-76 -49z" />
            <glyph unicode="&#xf3;" horiz-adv-x="741" d="M53 215q0 53 9.5 131t23.5 150q23 125 47.5 220t61.5 161q43 76 113.5 112.5t162.5 36.5q66 0 115 -18.5t80.5 -49t48 -70.5t16.5 -83q0 -31 -4 -73t-10 -88t-14.5 -91t-16.5 -84q-25 -129 -54.5 -221t-72.5 -150.5t-106.5 -85t-155.5 -26.5q-66 0 -112 21.5t-75.5 55 t-43 74.5t-13.5 78zM207 246q0 -51 32.5 -81t90.5 -30q51 0 80.5 24.5t52.5 67.5q12 25 31.5 96.5t37 156.5t30.5 166t13 124q0 53 -35.5 82t-76.5 29q-47 0 -83 -19.5t-58 -66.5q-10 -18 -29 -84t-38 -149t-33.5 -169t-14.5 -147zM397 1174l207 344l135 -52l-260 -327z" />
            <glyph unicode="&#xf4;" horiz-adv-x="741" d="M53 215q0 53 9.5 131t23.5 150q23 125 47.5 220t61.5 161q43 76 113.5 112.5t162.5 36.5q66 0 115 -18.5t80.5 -49t48 -70.5t16.5 -83q0 -31 -4 -73t-10 -88t-14.5 -91t-16.5 -84q-25 -129 -54.5 -221t-72.5 -150.5t-106.5 -85t-155.5 -26.5q-66 0 -112 21.5t-75.5 55 t-43 74.5t-13.5 78zM203 1188l321 285h97l198 -281l-76 -62l-192 199l-283 -199zM207 246q0 -51 32.5 -81t90.5 -30q51 0 80.5 24.5t52.5 67.5q12 25 31.5 96.5t37 156.5t30.5 166t13 124q0 53 -35.5 82t-76.5 29q-47 0 -83 -19.5t-58 -66.5q-10 -18 -29 -84t-38 -149 t-33.5 -169t-14.5 -147z" />
            <glyph unicode="&#xf5;" horiz-adv-x="741" d="M53 215q0 53 9.5 131t23.5 150q23 125 47.5 220t61.5 161q43 76 113.5 112.5t162.5 36.5q66 0 115 -18.5t80.5 -49t48 -70.5t16.5 -83q0 -31 -4 -73t-10 -88t-14.5 -91t-16.5 -84q-25 -129 -54.5 -221t-72.5 -150.5t-106.5 -85t-155.5 -26.5q-66 0 -112 21.5t-75.5 55 t-43 74.5t-13.5 78zM178 1237q35 61 93.5 107.5t113.5 46.5q31 0 56.5 -11.5t50 -26t48 -25.5t50.5 -11q29 0 55.5 17.5t59.5 58.5l83 -56q-47 -86 -102 -119.5t-100 -33.5q-31 0 -57.5 11t-50 24.5t-46 24.5t-47.5 11q-57 0 -121 -73zM207 246q0 -51 32.5 -81t90.5 -30 q51 0 80.5 24.5t52.5 67.5q12 25 31.5 96.5t37 156.5t30.5 166t13 124q0 53 -35.5 82t-76.5 29q-47 0 -83 -19.5t-58 -66.5q-10 -18 -29 -84t-38 -149t-33.5 -169t-14.5 -147z" />
            <glyph unicode="&#xf6;" horiz-adv-x="741" d="M53 215q0 53 9.5 131t23.5 150q23 125 47.5 220t61.5 161q43 76 113.5 112.5t162.5 36.5q66 0 115 -18.5t80.5 -49t48 -70.5t16.5 -83q0 -31 -4 -73t-10 -88t-14.5 -91t-16.5 -84q-25 -129 -54.5 -221t-72.5 -150.5t-106.5 -85t-155.5 -26.5q-66 0 -112 21.5t-75.5 55 t-43 74.5t-13.5 78zM207 246q0 -51 32.5 -81t90.5 -30q51 0 80.5 24.5t52.5 67.5q12 25 31.5 96.5t37 156.5t30.5 166t13 124q0 53 -35.5 82t-76.5 29q-47 0 -83 -19.5t-58 -66.5q-10 -18 -29 -84t-38 -149t-33.5 -169t-14.5 -147zM270 1206l33 164h141l-32 -164h-142z M586 1206l32 164h140l-33 -164h-139z" />
            <glyph unicode="&#xf7;" d="M41 541l25 125h741l-25 -125h-741zM252 254q0 51 40 90t91 39q39 0 63.5 -25.5t24.5 -64.5q0 -25 -11 -48.5t-29.5 -41t-42 -27.5t-48.5 -10q-39 0 -63.5 25.5t-24.5 62.5zM379 907q0 51 40 90t91 39q39 0 63.5 -25.5t24.5 -64.5q0 -25 -11.5 -48.5t-29.5 -40.5 t-41.5 -27.5t-48.5 -10.5q-39 0 -63.5 25.5t-24.5 62.5z" />
            <glyph unicode="&#xf8;" horiz-adv-x="741" d="M6 16l70 97q-12 25 -17.5 51t-5.5 51q0 53 9.5 131t23.5 150q23 125 47.5 220t61.5 161q43 76 113.5 112.5t162.5 36.5q70 0 121 -21.5t84 -56.5l57 80l64 -37l-80 -110q6 -18 10 -37t4 -39q0 -31 -4 -73t-10 -88t-14.5 -91t-16.5 -84q-25 -129 -54.5 -221t-72.5 -150.5 t-106.5 -85t-155.5 -26.5q-61 0 -106.5 19.5t-73.5 47.5l-54 -73zM209 299l362 504q-10 39 -41.5 58.5t-66.5 19.5q-47 0 -83 -19.5t-58 -66.5q-8 -18 -24.5 -73.5t-35 -127.5t-33 -152t-20.5 -143zM217 193q29 -57 113 -58q51 0 80.5 24.5t52.5 67.5q10 20 24.5 70.5 t29.5 115t28.5 134t21.5 127.5z" />
            <glyph unicode="&#xf9;" horiz-adv-x="755" d="M37 182q0 12 2 30.5t7 52.5t15.5 89.5t27.5 142.5t41 213t58 302h164q-45 -229 -73.5 -369.5t-44 -220.5t-20.5 -114t-5 -50q0 -47 24.5 -77.5t90.5 -30.5q78 0 116.5 51t53.5 123l135 688h159l-196 -1012h-162l21 100h-7q-53 -66 -106 -88t-109 -22q-100 0 -146 55 t-46 137zM293 1440l133 84l158 -357l-76 -49z" />
            <glyph unicode="&#xfa;" horiz-adv-x="755" d="M37 182q0 12 2 30.5t7 52.5t15.5 89.5t27.5 142.5t41 213t58 302h164q-45 -229 -73.5 -369.5t-44 -220.5t-20.5 -114t-5 -50q0 -47 24.5 -77.5t90.5 -30.5q78 0 116.5 51t53.5 123l135 688h159l-196 -1012h-162l21 100h-7q-53 -66 -106 -88t-109 -22q-100 0 -146 55 t-46 137zM457 1174l207 344l135 -52l-260 -327z" />
            <glyph unicode="&#xfb;" horiz-adv-x="755" d="M37 182q0 12 2 30.5t7 52.5t15.5 89.5t27.5 142.5t41 213t58 302h164q-45 -229 -73.5 -369.5t-44 -220.5t-20.5 -114t-5 -50q0 -47 24.5 -77.5t90.5 -30.5q78 0 116.5 51t53.5 123l135 688h159l-196 -1012h-162l21 100h-7q-53 -66 -106 -88t-109 -22q-100 0 -146 55 t-46 137zM199 1188l321 285h96l199 -281l-76 -62l-192 199l-283 -199z" />
            <glyph unicode="&#xfc;" horiz-adv-x="755" d="M37 182q0 12 2 30.5t7 52.5t15.5 89.5t27.5 142.5t41 213t58 302h164q-45 -229 -73.5 -369.5t-44 -220.5t-20.5 -114t-5 -50q0 -47 24.5 -77.5t90.5 -30.5q78 0 116.5 51t53.5 123l135 688h159l-196 -1012h-162l21 100h-7q-53 -66 -106 -88t-109 -22q-100 0 -146 55 t-46 137zM297 1206l33 164h141l-33 -164h-141zM612 1206l33 164h139l-32 -164h-140z" />
            <glyph unicode="&#xfd;" horiz-adv-x="1126" d="M-119 -266q61 10 103.5 26.5t74 45t58 71.5t55.5 107l-63 1028h163l13 -443q2 -41 2 -90t-1 -100t-3 -101.5t-7 -93.5h7q37 74 77.5 174.5t82.5 212t81 226t72 215.5h168q-111 -311 -224.5 -584.5t-242.5 -529.5q-37 -72 -75 -126.5t-85 -92t-108.5 -59t-145.5 -28.5z M401 1174l207 344l135 -52l-260 -327z" />
            <glyph unicode="&#xfe;" horiz-adv-x="745" d="M-94 -397l356 1818h162l-96 -485l4 -2q41 45 81 68.5t119 23.5q27 0 61 -6t64.5 -27.5t52 -63.5t21.5 -112q0 -27 -4 -68.5t-10 -88t-14.5 -92.5t-14.5 -81q-23 -111 -47.5 -202.5t-62 -157.5t-95 -101.5t-143.5 -35.5q-59 0 -106.5 25.5t-69.5 66.5h-4l-92 -479h-162z M209 336q-16 -86 14.5 -136t95.5 -50q37 0 76 15t66 73q14 29 33.5 108.5t35.5 169.5q31 156 31 238q0 53 -30 83.5t-89 30.5q-35 0 -61.5 -16t-47 -41t-32.5 -52.5t-16 -49.5z" />
            <glyph unicode="&#xff;" horiz-adv-x="688" d="M-119 -266q61 10 103.5 26.5t74 45t58 71.5t55.5 107l-63 1028h163l13 -443q2 -41 2 -90t-1 -100t-3 -101.5t-7 -93.5h7q37 74 77.5 174.5t82.5 212t81 226t72 215.5h168q-111 -311 -224.5 -584.5t-242.5 -529.5q-37 -72 -75 -126.5t-85 -92t-108.5 -59t-145.5 -28.5z M236 1206l32 164h142l-33 -164h-141zM551 1206l33 164h139l-33 -164h-139z" />
            <glyph unicode="&#x152;" horiz-adv-x="1163" d="M77 232.5q-3 72.5 13 152.5l141 737q29 152 123.5 234t239.5 82q29 0 52.5 -4t45.5 -9h635l-31 -149h-448l-92 -477h389l-29 -150h-389l-98 -502h448l-26 -147h-572q-29 -6 -59.5 -10t-65.5 -4q-98 0 -157.5 31.5t-88 87t-31.5 128zM234.5 298q-3.5 -44 8 -80t42.5 -57.5 t88 -21.5q61 0 98 23l211 1085q-37 37 -102 37q-84 0 -128 -50t-57 -114l-147 -733q-10 -45 -13.5 -89z" />
            <glyph unicode="&#x153;" horiz-adv-x="1183" d="M45 215q0 53 9 131t24 150q23 125 47.5 220t60.5 161q43 76 114 112.5t163 36.5q80 0 134 -27.5t83 -72.5q41 45 103.5 72.5t142.5 27.5q117 0 185.5 -59.5t68.5 -163.5q0 -113 -43 -192t-114 -125t-162 -61t-185 1q-8 -41 -16.5 -91t-3 -94t30 -74t79.5 -30q63 0 102 40 t50 106l169 -25q-29 -121 -108.5 -196.5t-233.5 -75.5q-74 0 -132 21.5t-85 68.5q-41 -47 -98 -68.5t-141 -21.5q-66 0 -112 21.5t-75.5 55t-43 74.5t-13.5 78zM199 246q0 -51 32.5 -81t90.5 -30q51 0 76.5 24.5t47.5 67.5q12 25 32 96.5t37 156.5t30.5 166t13.5 124 q0 53 -31.5 82t-72.5 29q-47 0 -83 -19.5t-59 -66.5q-10 -18 -28.5 -84t-38 -149t-33.5 -169t-14 -147zM700 565q49 -10 103.5 -8t100.5 23.5t77 66.5t31 121q0 47 -29 74.5t-80 27.5q-41 0 -71.5 -15t-54 -51t-42 -94.5t-35.5 -144.5z" />
            <glyph unicode="&#x178;" horiz-adv-x="770" d="M221 0l119 604l-119 823h166l37 -331q6 -55 10 -92t7 -69t5.5 -64.5t4.5 -82.5h8l135 289l170 350h174l-438 -823l-119 -604h-160zM346 1528l31 164h141l-31 -164h-141zM662 1528l30 164h139l-30 -164h-139z" />
            <glyph unicode="&#x2c6;" horiz-adv-x="757" d="M221 1188l322 285h96l199 -281l-76 -62l-193 199l-282 -199z" />
            <glyph unicode="&#x2dc;" horiz-adv-x="741" d="M242 1237q35 61 93 107.5t114 46.5q31 0 56 -11.5t50 -26t48.5 -25.5t49.5 -11q29 0 55.5 17.5t59.5 58.5l84 -56q-47 -86 -102.5 -119.5t-100.5 -33.5q-31 0 -57.5 11t-50 24.5t-46 24.5t-46.5 11q-57 0 -121 -73z" />
            <glyph unicode="&#x2000;" horiz-adv-x="911" />
            <glyph unicode="&#x2001;" horiz-adv-x="1823" />
            <glyph unicode="&#x2002;" horiz-adv-x="911" />
            <glyph unicode="&#x2003;" horiz-adv-x="1823" />
            <glyph unicode="&#x2004;" horiz-adv-x="607" />
            <glyph unicode="&#x2005;" horiz-adv-x="455" />
            <glyph unicode="&#x2006;" horiz-adv-x="303" />
            <glyph unicode="&#x2007;" horiz-adv-x="303" />
            <glyph unicode="&#x2008;" horiz-adv-x="227" />
            <glyph unicode="&#x2009;" horiz-adv-x="364" />
            <glyph unicode="&#x200a;" horiz-adv-x="101" />
            <glyph unicode="&#x2010;" horiz-adv-x="708" d="M119 518l26 137h531l-27 -137h-530z" />
            <glyph unicode="&#x2011;" horiz-adv-x="708" d="M119 518l26 137h531l-27 -137h-530z" />
            <glyph unicode="&#x2012;" horiz-adv-x="708" d="M119 518l26 137h531l-27 -137h-530z" />
            <glyph unicode="&#x2013;" horiz-adv-x="1024" d="M49 471l31 154h942l-31 -154h-942z" />
            <glyph unicode="&#x2014;" horiz-adv-x="2048" d="M37 471l31 154h1966l-31 -154h-1966z" />
            <glyph unicode="&#x2018;" horiz-adv-x="462" d="M248 1008l39 194l139 234h90l-94 -230h43l-39 -198h-178z" />
            <glyph unicode="&#x2019;" horiz-adv-x="462" d="M248 1010l94 229h-43l39 199h178l-39 -195l-139 -233h-90z" />
            <glyph unicode="&#x201a;" horiz-adv-x="395" d="M-31 -246l94 230h-43l39 198h179l-39 -194l-140 -234h-90z" />
            <glyph unicode="&#x201c;" horiz-adv-x="600" d="M207 1008l39 194l139 234h90l-94 -230h43l-39 -198h-178zM446 1008l39 194l140 234h90l-94 -230h43l-39 -198h-179z" />
            <glyph unicode="&#x201d;" horiz-adv-x="600" d="M209 1010l94 229h-43l39 199h178l-39 -195l-139 -233h-90zM449 1010l94 229h-43l39 199h178l-39 -195l-139 -233h-90z" />
            <glyph unicode="&#x201e;" horiz-adv-x="634" d="M-31 -242l94 230h-43l39 198h179l-39 -194l-140 -234h-90zM223 -242l94 230h-43l39 198h179l-39 -194l-140 -234h-90z" />
            <glyph unicode="&#x2022;" horiz-adv-x="841" d="M168 553q0 51 19.5 98t54 81t81 54.5t99.5 20.5t99 -20.5t81 -54.5t55.5 -81t20.5 -98q0 -53 -20.5 -99t-55.5 -80t-81 -54.5t-99 -20.5t-99.5 20.5t-81 54.5t-54 80t-19.5 99z" />
            <glyph unicode="&#x2026;" horiz-adv-x="1243" d="M25 0l34 186h179l-35 -186h-178zM451 0l34 186h179l-35 -186h-178zM881 0l34 186h179l-35 -186h-178z" />
            <glyph unicode="&#x202f;" horiz-adv-x="364" />
            <glyph unicode="&#x2039;" horiz-adv-x="544" d="M68 475l294 381h160l-301 -391l152 -371h-154z" />
            <glyph unicode="&#x203a;" horiz-adv-x="544" d="M27 94l301 391l-152 371h154l151 -381l-295 -381h-159z" />
            <glyph unicode="&#x205f;" horiz-adv-x="455" />
            <glyph unicode="&#x20ac;" d="M51 553l21 102h67l25 125h-68l19 101h67l31 153q14 76 35.5 148.5t62.5 129t106.5 91.5t168.5 35q162 0 230.5 -77t55.5 -202l-167 -39q10 78 -20 123t-107 45q-49 0 -83 -22.5t-57.5 -56t-37 -74.5t-21.5 -78l-35 -176h299l-18 -101h-299l-25 -125h299l-20 -102h-299 l-41 -215q-16 -90 7 -146.5t113 -56.5q145 0 185 164l157 -39q-29 -135 -116.5 -204.5t-235.5 -69.5q-90 0 -149.5 25.5t-91 72.5t-39 113.5t9.5 148.5l39 207h-68z" />
            <glyph unicode="&#x2122;" horiz-adv-x="1372" d="M76 1307v118h473v-118h-172v-691h-129v691h-172zM631 614v809h127l192 -487l187 487h125v-809h-129l-3 465h-6l-125 -319h-108l-127 323h-6v-469h-127z" />
            <glyph unicode="&#x25fc;" horiz-adv-x="1013" d="M0 0v1014h1014v-1014h-1014z" />
            </font>
</defs>
</svg>
