<?xml version="1.0" standalone="no"?>
<!DOCTYPE svg PUBLIC "-//W3C//DTD SVG 1.1//EN" "http://www.w3.org/Graphics/SVG/1.1/DTD/svg11.dtd" >
<svg xmlns="http://www.w3.org/2000/svg">
    <metadata></metadata>
    <defs>
        <font id="pf_din_text_comp_prolight" horiz-adv-x="751" >
            <font-face units-per-em="2048" ascent="1536" descent="-512" />
            <missing-glyph horiz-adv-x="376" />
            <glyph unicode="&#xfb01;" horiz-adv-x="757" d="M23 907v99h106v233q0 123 76 189.5t190 66.5q158 0 250 -94l-74 -88q-35 37 -82 49t-88 12q-78 0 -110.5 -39t-32.5 -98v-231h395v-1006h-125v907h-270v-907h-129v907h-106z" />
            <glyph unicode="&#xfb02;" horiz-adv-x="817" d="M23 907v99h106v229q0 129 70.5 201.5t193.5 72.5q37 0 101.5 -5t160.5 -31v-1221q0 -74 20.5 -113t90.5 -39h25v-114h-31q-57 0 -100.5 11t-73 38.5t-44 74t-14.5 117.5v1143q-43 10 -73.5 13t-55.5 3q-80 0 -110.5 -44t-30.5 -121v-215h172v-99h-172v-907h-129v907h-106 z" />
            <glyph unicode="&#xfb03;" horiz-adv-x="1150" d="M23 907v101h106v223q0 125 75.5 192.5t192.5 67.5q49 0 97.5 -11.5t91.5 -37.5q74 82 205 82q84 0 144 -21.5t109 -72.5l-77 -89q-35 35 -82 48.5t-88 13.5q-74 0 -110 -39t-36 -98v-258h396v-1008h-125v907h-271v-907h-127v907h-266v-907h-129v907h-106zM258 1008h266 v260q0 16 2 31.5t6 31.5q-35 23 -70.5 31t-58.5 8q-80 0 -112.5 -41t-32.5 -100v-221z" />
            <glyph unicode="&#xfb04;" horiz-adv-x="1210" d="M23 907v99h106v225q0 125 77.5 190.5t190.5 65.5q41 0 94.5 -10.5t98.5 -36.5q35 41 85 60.5t111 19.5q37 0 103.5 -6.5t159.5 -32.5v-1229q0 -74 21.5 -113t90.5 -39h25v-114h-33q-57 0 -100 11t-73 38.5t-44 74t-14 117.5v1155q-43 10 -74 14.5t-55 4.5q-78 0 -111 -46 t-33 -124v-225h178v-99h-178v-907h-125v907h-266v-907h-129v907h-106zM258 1006h266v239q0 23 2 44.5t9 41.5q-37 23 -73 29t-59 6q-78 0 -111.5 -39t-33.5 -98v-223z" />
            <glyph horiz-adv-x="0" />
            <glyph horiz-adv-x="682" />
            <glyph unicode=" "  horiz-adv-x="376" />
            <glyph unicode="&#x09;" horiz-adv-x="376" />
            <glyph unicode="&#xa0;" horiz-adv-x="376" />
            <glyph unicode="!" horiz-adv-x="438" d="M152 0v131h133v-131h-133zM154 1425h129l-13 -1081h-104z" />
            <glyph unicode="&#x22;" horiz-adv-x="450" d="M78 1053v372h100v-372h-100zM276 1053v372h97v-372h-97z" />
            <glyph unicode="#" d="M10 459v84h140l63 352h-119v86h135l88 455h89l-89 -455h207l86 455h88l-86 -455h123v-86h-139l-66 -352h119v-84h-135l-86 -459h-88l86 459h-207l-84 -459h-88l86 459h-123zM236 543h206l66 352h-207z" />
            <glyph unicode="$" d="M43 301l125 27q0 -41 9 -79t28.5 -67.5t52.5 -49t82 -26.5v586q-94 43 -150.5 85t-87 87t-40 95.5t-9.5 111.5q0 152 70 251t217 114v172h68v-172q84 -4 139 -33t89 -73t48 -96t14 -101l-125 -31q0 88 -37.5 146.5t-127.5 68.5v-518q2 0 10 -3t10 -5q92 -37 145.5 -77 t81 -88t35.5 -107.5t8 -137.5q0 -84 -15 -154.5t-49 -122t-89.5 -81t-136.5 -35.5v-191h-68v191q-78 4 -134 29.5t-92 66.5t-53.5 96.5t-17.5 120.5zM178 1073q0 -41 6 -73.5t22.5 -60.5t48.5 -54.5t85 -53.5v484q-51 -6 -83 -30.5t-49.5 -58.5t-23.5 -75t-6 -78zM408 106 q55 6 87.5 31t49 62t21.5 83t5 97q0 61 -5 102t-21.5 73t-49 56.5t-87.5 51.5v-556z" />
            <glyph unicode="%" horiz-adv-x="1187" d="M88 737v514q0 82 55.5 130.5t135.5 48.5q76 0 132 -45.5t56 -127.5v-520q0 -82 -56.5 -128t-131.5 -46q-86 0 -138.5 46t-52.5 128zM190 741q0 -35 23 -56t66 -21q41 0 62 24.5t21 59.5v505q0 33 -21.5 56.5t-61.5 23.5q-47 0 -68 -25.5t-21 -58.5v-508zM225 -35 l643 1497h86l-643 -1497h-86zM723 166v514q0 82 55.5 130t134.5 48q76 0 132.5 -45t56.5 -127v-520q0 -82 -56.5 -128t-132.5 -46q-86 0 -138 46t-52 128zM825 170q0 -35 22.5 -56.5t65.5 -21.5q41 0 62.5 24.5t21.5 59.5v506q0 33 -21.5 56.5t-62.5 23.5q-47 0 -67.5 -25.5 t-20.5 -58.5v-508z" />
            <glyph unicode="&#x26;" horiz-adv-x="937" d="M84 340q0 125 56.5 227.5t160.5 200.5q-10 23 -26.5 48.5t-26.5 45.5q-35 63 -55.5 137t-20.5 142q0 61 18.5 114.5t52 93.5t83 63.5t108.5 23.5q100 0 164 -32t100 -104l-112 -59q-23 43 -61 61.5t-87 18.5q-37 0 -64.5 -16.5t-44 -43t-24.5 -59.5t-8 -63 q0 -109 84 -262l301 -521q23 57 34 116.5t15 119.5h117q-4 -82 -26.5 -178.5t-61.5 -175.5l139 -238h-147l-76 129q-74 -90 -148.5 -115.5t-150.5 -25.5q-59 0 -112.5 23.5t-93.5 68.5t-63.5 110.5t-23.5 149.5zM207 346q0 -51 13 -95t38 -78t62.5 -53.5t87.5 -19.5 q53 0 110 32t100 91l-256 443q-82 -84 -118.5 -162t-36.5 -158z" />
            <glyph unicode="'" horiz-adv-x="319" d="M113 1053v372h98v-372h-98z" />
            <glyph unicode="(" horiz-adv-x="436" d="M90 618q0 248 74 465t184 383l62 -28q-47 -86 -85 -184.5t-65 -203t-41 -212t-14 -211.5q0 -225 55 -439.5t148 -384.5l-56 -32q-53 80 -101 175t-84 202.5t-56.5 225.5t-20.5 244z" />
            <glyph unicode=")" horiz-adv-x="436" d="M90 1438q6 2 30.5 13t29.5 15q111 -166 185.5 -383t74.5 -467q0 -125 -20.5 -242.5t-56.5 -225t-84.5 -202.5t-103.5 -175q-2 2 -9 6t-16 10t-17.5 10t-10.5 6q92 170 147.5 384t55.5 440q0 104 -14.5 210.5t-41 211t-64.5 204t-85 185.5z" />
            <glyph unicode="*" horiz-adv-x="696" d="M49 1169l35 99l217 -92l-16 247h104l-16 -247l219 92l35 -99l-232 -65l158 -197l-88 -57l-127 213l-127 -215l-86 59l154 197z" />
            <glyph unicode="+" d="M25 551v100h303v328h96v-328h301v-100h-301v-330h-96v330h-303z" />
            <glyph unicode="," horiz-adv-x="335" d="M88 -219l43 209h-35v155h144v-153l-80 -211h-72z" />
            <glyph unicode="-" horiz-adv-x="684" d="M100 530v113h506v-113h-506z" />
            <glyph unicode="." horiz-adv-x="335" d="M96 0v150h144v-150h-144z" />
            <glyph unicode="/" horiz-adv-x="499" d="M12 -86l381 1571h99l-381 -1571h-99z" />
            <glyph unicode="0" d="M100 248v926q0 63 22.5 113t60.5 83t88.5 50.5t105.5 17.5q117 0 196.5 -67.5t79.5 -196.5v-926q0 -66 -22.5 -115t-60.5 -82t-88 -49t-105 -16t-105.5 16t-88.5 49t-60.5 82t-22.5 115zM223 244q0 -66 43 -104t111 -38q66 0 107.5 38t41.5 104v934q0 66 -42 103.5 t-107 37.5q-68 0 -111 -38t-43 -103v-934z" />
            <glyph unicode="1" d="M193 1130v136l208 159h129v-1425h-124v1292z" />
            <glyph unicode="2" d="M100 1104q0 160 70 246t213 88q150 0 214.5 -85t64.5 -225q0 -90 -17.5 -166.5t-58.5 -154.5l-344 -690h409v-117h-549v113l381 764q29 59 38 121.5t9 129.5q0 35 -5 70t-21.5 61.5t-46 43t-78.5 16.5q-72 0 -114 -56.5t-42 -181.5z" />
            <glyph unicode="3" d="M96 291l125 24q-4 -98 30 -155.5t122 -57.5q66 0 109.5 39t43.5 131v228q0 98 -40 140t-117 42h-60v113h64q74 0 113.5 38.5t39.5 133.5v192q0 33 -7 61.5t-24.5 50t-45 35t-68.5 13.5q-84 0 -122 -58.5t-38 -150.5q-6 2 -23.5 4t-39 5t-39 6t-23.5 3q2 68 20.5 124.5 t55.5 97.5t91 64.5t126 23.5q74 0 124 -21.5t81 -59.5t44 -89t13 -111v-166q0 -39 -4 -75.5t-17.5 -68.5t-38 -58.5t-65.5 -45.5v-4q43 -16 67.5 -41.5t38 -59.5t16.5 -75t3 -88l-2 -199q0 -147 -76.5 -218.5t-203.5 -71.5q-141 0 -209 78.5t-64 226.5z" />
            <glyph unicode="4" d="M49 236v114l299 1075h125l-301 -1075h297v398h127v-398h109v-114h-109v-236h-127v236h-420z" />
            <glyph unicode="5" d="M94 297l125 18q0 -96 31 -154.5t127 -58.5q66 0 106.5 39t42.5 133l4 381q0 78 -39.5 113t-107.5 35q-51 0 -90 -22.5t-57 -61.5h-111v706h528v-112h-417v-467h8q31 31 78 47t100 16q117 0 175 -65.5t58 -165.5l-4 -399q-2 -147 -76.5 -220t-199.5 -73q-143 0 -210 82 t-71 229z" />
            <glyph unicode="6" d="M100 248v250q0 82 11.5 137t27.5 98l269 692h127q-41 -106 -83 -216.5t-77 -202t-58.5 -153.5t-27.5 -75l6 -4q23 18 55.5 30.5t65.5 12.5q123 0 180 -73.5t57 -184.5v-311q0 -66 -22.5 -115t-60.5 -82t-88 -49t-105 -16t-105.5 16t-88.5 49t-60.5 82t-22.5 115zM223 240 q0 -66 43 -102t111 -36q66 0 107.5 36t41.5 102v325q0 63 -42 99t-107 36q-41 0 -69.5 -15t-47 -39.5t-28 -55.5t-9.5 -62v-288z" />
            <glyph unicode="7" d="M92 1141v284h567v-104l-374 -1321h-123l370 1313h-331v-172h-109z" />
            <glyph unicode="8" d="M100 248v274q0 78 31 133.5t84 87.5q-53 31 -84 86.5t-31 135.5v209q0 63 22.5 113t60.5 83t88.5 50.5t105.5 17.5t105 -17.5t88 -50.5t60.5 -83t22.5 -113v-209q0 -80 -32.5 -134.5t-83.5 -87.5q51 -33 83.5 -88t32.5 -133v-274q0 -66 -22.5 -115t-60.5 -82t-88 -49 t-105 -16t-105.5 16t-88.5 49t-60.5 82t-22.5 115zM223 240q0 -66 43 -102t111 -36q66 0 107.5 36t41.5 102v309q0 63 -42 102t-107 41q-68 0 -111 -40t-43 -103v-309zM223 940q0 -63 43 -101t111 -38q66 0 107.5 38t41.5 101v242q0 66 -42 102.5t-107 36.5q-68 0 -111 -37 t-43 -102v-242z" />
            <glyph unicode="9" d="M100 866v312q0 66 22.5 114.5t60.5 81.5t88.5 49.5t105.5 16.5q125 0 200.5 -65.5t75.5 -196.5v-250q0 -82 -11 -137.5t-28 -98.5l-270 -692h-129q41 106 83 217t77 202t58.5 153.5t27.5 74.5l-6 4q-20 -18 -53 -30.5t-68 -12.5q-123 0 -178.5 74t-55.5 184zM223 860 q0 -63 43 -100t109 -37q39 0 67.5 15.5t47 40t27.5 56t9 62.5v289q0 66 -42 101.5t-107 35.5q-66 0 -110 -36t-44 -101v-326z" />
            <glyph unicode=":" horiz-adv-x="335" d="M96 0v150h144v-150h-144zM96 621v151h144v-151h-144z" />
            <glyph unicode=";" horiz-adv-x="335" d="M88 -219l43 209h-35v155h144v-153l-80 -211h-72zM96 621v149h144v-149h-144z" />
            <glyph unicode="&#x3c;" d="M27 557v90l694 369v-109l-594 -305l594 -305v-109z" />
            <glyph unicode="=" d="M25 395v105h700v-105h-700zM25 700v103h700v-103h-700z" />
            <glyph unicode="&#x3e;" d="M29 188v109l596 305l-596 305v109l694 -369v-90z" />
            <glyph unicode="?" horiz-adv-x="731" d="M63 1124q4 154 91.5 234t216.5 80q86 0 146.5 -23.5t97 -67.5t54 -106.5t17.5 -138.5q0 -111 -36 -201t-78 -163.5t-77.5 -134t-35.5 -114.5v-145h-123v164q0 39 12 83t35 79q47 80 80 133t54.5 98t30.5 89t9 104q0 100 -40 162.5t-146 62.5q-72 0 -125 -50t-56 -161z M332 0v131h129v-131h-129z" />
            <glyph unicode="@" horiz-adv-x="1527" d="M119 686q0 168 44 307.5t129 238.5t210 153.5t286 54.5q152 0 269 -49.5t195.5 -136.5t118.5 -207.5t40 -262.5q0 -141 -27.5 -235t-72.5 -150.5t-103.5 -80t-122.5 -23.5q-16 0 -41.5 6t-53 21.5t-51.5 39t-34 60.5h-2q-31 -57 -91 -83t-118 -26q-53 0 -89 19.5 t-58.5 51.5t-31.5 73t-9 84t11 88t38 82t70 60.5t106 23.5h137v106q0 53 -27.5 87t-95.5 34q-43 0 -76.5 -21.5t-43.5 -62.5q-4 0 -19.5 4t-32 9t-32 9.5t-19.5 6.5q23 70 83.5 111.5t144.5 41.5q49 0 90 -11t71.5 -36.5t48 -66.5t17.5 -103v-371q0 -68 33.5 -103.5 t79.5 -35.5q41 0 79.5 15.5t68.5 57.5t47.5 119t17.5 199q0 131 -38 235.5t-105.5 175.5t-161 108.5t-203.5 37.5q-147 0 -256 -51t-178.5 -139t-103.5 -208t-34 -257q0 -152 36 -273.5t108.5 -209.5t180 -135.5t251.5 -47.5q94 0 177 16.5t169 67.5l39 -92 q-86 -41 -181.5 -65.5t-193.5 -24.5q-162 0 -290 48t-217 144.5t-136 240t-47 331.5zM608 543q0 -51 33 -91t98 -40q59 0 94 38.5t35 100.5v154h-112q-59 0 -103.5 -36t-44.5 -126z" />
            <glyph unicode="A" horiz-adv-x="790" d="M25 0l307 1425h127l313 -1425h-125l-76 344h-354l-74 -344h-118zM238 463h311l-86 414l-66 340h-6l-67 -345z" />
            <glyph unicode="B" horiz-adv-x="843" d="M109 0v1425h299q92 0 156.5 -24.5t104.5 -71.5t57 -115.5t17 -154.5q0 -111 -32.5 -184.5t-118.5 -118.5v-8q94 -29 130 -118t36 -212q0 -223 -92.5 -320.5t-272.5 -97.5h-284zM233 115h168q74 0 120 24.5t70.5 67.5t34 100.5t9.5 120.5q0 129 -50 198.5t-173 69.5h-179 v-581zM233 807h168q121 0 170.5 65.5t49.5 188.5q0 121 -53.5 185.5t-182.5 64.5h-152v-504z" />
            <glyph unicode="C" horiz-adv-x="786" d="M96 315v752q0 76 16.5 143.5t53.5 117.5t97.5 80t150.5 30q150 0 231.5 -83t81.5 -233l-127 -24v9q0 105 -47 158q-49 56 -141 56q-53 0 -89 -20.5t-58.5 -54.5t-33 -77t-10.5 -88v-759q0 -41 10.5 -81t33 -71t58 -49.5t89.5 -18.5q84 0 135 52.5t53 171.5l129 -23 q-4 -158 -89 -237.5t-226 -79.5q-156 0 -237 85t-81 244z" />
            <glyph unicode="D" horiz-adv-x="847" d="M109 0v1425h319q129 0 201.5 -44t101.5 -148q23 -84 23 -212v-306v-304t-25 -206q-18 -61 -51 -100t-74 -63t-90 -33t-104 -9h-301zM233 115h181q111 0 161 61.5t50 183.5v705q0 55 -10.5 100t-35 77t-65.5 50.5t-102 18.5h-179v-1196z" />
            <glyph unicode="E" horiz-adv-x="739" d="M109 0v1425h596v-116h-472v-523h412v-116h-412v-555h472v-115h-596z" />
            <glyph unicode="F" horiz-adv-x="737" d="M109 0v1425h596v-116h-472v-523h412v-116h-412v-670h-124z" />
            <glyph unicode="G" horiz-adv-x="829" d="M98 313v744q0 82 15.5 151.5t52.5 120.5t98.5 80t151.5 29q150 0 229.5 -79t83.5 -231l-125 -30v2q0 113 -50 167t-140 54q-53 0 -89 -20.5t-58.5 -54.5t-33 -77t-10.5 -88v-762q0 -41 10.5 -80.5t33 -70.5t58 -49.5t89.5 -18.5h2q86 0 143 50.5t57 138.5v354h-172v111 h297v-453q0 -78 -25.5 -136.5t-70.5 -98t-103 -60t-126 -20.5q-154 0 -236 84t-82 243z" />
            <glyph unicode="H" horiz-adv-x="860" d="M109 0v1425h124v-641h392v641h127v-1425h-127v674h-392v-674h-124z" />
            <glyph unicode="I" horiz-adv-x="374" d="M123 0v1425h129v-1425h-129z" />
            <glyph unicode="J" horiz-adv-x="692" d="M-10 88l86 82q27 -29 69.5 -49.5t83.5 -20.5q84 0 141.5 53.5t57.5 170.5v1101h125v-1089q0 -170 -81 -260t-245 -90q-70 0 -134 24.5t-103 77.5z" />
            <glyph unicode="K" horiz-adv-x="831" d="M109 0v1425h122v-782h5l397 782h129l-287 -563l342 -862h-131l-285 725l-170 -317v-408h-122z" />
            <glyph unicode="L" horiz-adv-x="690" d="M109 0v1425h124v-1310h443v-115h-567z" />
            <glyph unicode="M" horiz-adv-x="1122" d="M106 0v1425h127q12 -31 37 -94t51.5 -134t51 -134.5t35.5 -93.5l149 -398h6q10 29 30.5 84.5t44.5 117t45.5 117.5t31.5 85q2 6 15 41t31.5 82t40 102t39 102.5t31 81t15.5 41.5h129v-1425h-125v1077h-8q-10 -25 -28.5 -73t-38 -101t-39 -101t-27.5 -73 q-2 -6 -13.5 -35.5t-28 -70.5t-36 -88.5t-35.5 -88t-28.5 -70.5t-14.5 -36h-70q-10 27 -31.5 80t-45 112.5t-45 112.5t-31.5 80l-131 348h-9v-1073h-125z" />
            <glyph unicode="N" horiz-adv-x="903" d="M102 0v1425h119q12 -31 36 -88t53.5 -127.5t61 -147.5t61.5 -147.5t53.5 -128t37.5 -88.5l144 -356h8v1083h125v-1425h-119q-12 31 -35.5 87t-53.5 127t-61.5 147.5t-61.5 146.5t-54.5 126t-36.5 87l-146 356h-6v-1077h-125z" />
            <glyph unicode="O" horiz-adv-x="837" d="M96 319v750q0 76 16.5 143.5t54.5 117.5t100.5 79t152.5 29q92 0 154.5 -26t99.5 -74t53 -114.5t16 -148.5v-723q0 -180 -80.5 -273t-244.5 -93t-243 88t-79 245zM219 317q0 -41 11.5 -79.5t35 -69.5t61.5 -49.5t91 -18.5q109 0 153.5 70t44.5 168v756q0 45 -10 86 t-32.5 72.5t-60.5 51t-93 19.5q-59 0 -98 -25.5t-61.5 -64.5t-32 -85t-9.5 -87v-744z" />
            <glyph unicode="P" horiz-adv-x="800" d="M109 0v1425h284q106 0 177 -28.5t111 -82.5t56.5 -131t16.5 -171q0 -90 -16.5 -168t-57.5 -134.5t-113.5 -88t-183.5 -31.5h-150v-590h-124zM233 707h144q78 0 127 21.5t77.5 61t39 96t10.5 124.5q0 63 -9.5 118.5t-37 95.5t-76.5 63.5t-127 23.5h-148v-604z" />
            <glyph unicode="Q" horiz-adv-x="835" d="M96 319v750q0 76 16.5 143.5t54.5 117.5t100.5 79t152.5 29q92 0 154.5 -26t99.5 -74t53 -114.5t16 -148.5v-723q0 -129 -43 -215l121 -94l-65 -80l-119 92q-75 -69 -213 -69h-4q-164 0 -244 88t-80 245zM219 317q0 -41 11.5 -79.5t35 -69.5t61.5 -49.5t91 -18.5 q78 0 121 35l-129 103l63 77l123 -96q10 25 15 55.5t5 63.5v756q0 45 -10 86t-32.5 72.5t-60.5 51t-93 19.5q-59 0 -98 -25.5t-61.5 -64.5t-32 -85t-9.5 -87v-744z" />
            <glyph unicode="R" horiz-adv-x="831" d="M106 0v1425h295q188 0 268.5 -100t80.5 -293q0 -127 -44 -224t-159 -142q53 -162 110.5 -334t110.5 -332h-129l-209 639h-199v-639h-125zM231 752h158q131 0 183.5 70.5t52.5 209.5q0 63 -11.5 114.5t-39 88.5t-74.5 56.5t-119 19.5h-150v-559z" />
            <glyph unicode="S" horiz-adv-x="790" d="M68 301l127 27q0 -43 10 -83t33.5 -71t61.5 -49.5t95 -18.5q70 0 110 23t60.5 59.5t26.5 86t6 104.5q0 68 -6 112t-28.5 75.5t-64.5 58t-114 57.5q-102 45 -162.5 88t-92.5 89t-42 98.5t-10 113.5q0 80 19.5 147.5t60.5 115.5t102.5 76t145.5 28q92 0 153.5 -28t98 -73 t52 -99t15.5 -105l-127 -31q0 96 -44 156.5t-155 60.5q-61 0 -99 -23.5t-59.5 -59.5t-28.5 -79t-7 -84q0 -47 8 -84t33.5 -69.5t75 -63.5t133.5 -65q92 -37 145 -77t81 -88t36 -107.5t8 -137.5q0 -90 -16.5 -163t-55.5 -124t-102.5 -79.5t-155.5 -28.5q-86 0 -147.5 24.5 t-101.5 66.5t-59 99t-19 125z" />
            <glyph unicode="T" horiz-adv-x="655" d="M6 1311v114h641v-114h-256v-1311h-129v1311h-256z" />
            <glyph unicode="U" horiz-adv-x="833" d="M92 319v1104h125v-1106q0 -41 11.5 -79.5t35 -69.5t61 -49.5t91.5 -18.5q109 0 153.5 70t44.5 168v1085h125v-1071q0 -180 -79.5 -273t-243.5 -93q-162 0 -243 88t-81 245z" />
            <glyph unicode="V" horiz-adv-x="792" d="M37 1425h127l145 -753l80 -479h6l82 481l148 751h129l-291 -1427h-144z" />
            <glyph unicode="W" horiz-adv-x="1189" d="M37 1425h129l104 -710l58 -465h6l72 461l131 714h118l127 -714l76 -461h6l56 463l104 712h129l-223 -1427h-129l-139 754l-66 381h-6l-64 -388l-139 -747h-127z" />
            <glyph unicode="X" horiz-adv-x="741" d="M16 -2l289 739l-274 688h133l207 -563l204 563h136l-281 -688l295 -739h-133l-221 602l-224 -602h-131z" />
            <glyph unicode="Y" horiz-adv-x="743" d="M23 1425h131l122 -374q6 -18 18.5 -57.5t27 -84.5t26.5 -84t19 -57h6l90 287l123 370h131q-12 -35 -35 -99t-50.5 -145t-58 -168t-58.5 -167t-49.5 -145.5t-33.5 -98.5v-604h-125v604q-12 33 -33.5 98.5t-49 145.5t-58.5 167t-58.5 168t-50 145.5t-34.5 98.5z" />
            <glyph unicode="Z" horiz-adv-x="641" d="M33 0v115l446 1196h-418v114h545v-114l-446 -1196h434v-115h-561z" />
            <glyph unicode="[" horiz-adv-x="417" d="M129 -213v1640h256v-84h-145v-1474h145v-82h-256z" />
            <glyph unicode="\" horiz-adv-x="436" d="M20 1452h99l295 -1489h-97z" />
            <glyph unicode="]" horiz-adv-x="417" d="M61 -131h146v1474h-146v84h254v-1642h-254v84z" />
            <glyph unicode="^" d="M20 729l314 690h90l313 -690h-106l-254 578l-252 -578h-105z" />
            <glyph unicode="_" horiz-adv-x="1024" d="M0 -156h1024v-102h-1024v102z" />
            <glyph unicode="`" horiz-adv-x="716" d="M199 1450l118 43l140 -326l-70 -28z" />
            <glyph unicode="a" horiz-adv-x="720" d="M51 274q0 57 12.5 114.5t45 104t86 76t137.5 29.5h178v147q0 72 -33 115t-127 43q-45 0 -93 -25.5t-62 -84.5l-119 36q27 88 98.5 139.5t181.5 51.5q133 0 206 -60.5t73 -211.5v-748h-127v90h-2q-45 -63 -101.5 -82.5t-119.5 -19.5q-66 0 -110 24.5t-71.5 64.5t-40 91 t-12.5 106zM174 281q0 -78 36 -126.5t122 -48.5q82 0 130 45.5t48 131.5v204h-150q-78 0 -132 -46t-54 -160z" />
            <glyph unicode="b" horiz-adv-x="733" d="M82 0v1487h123v-588h4q33 59 93 89t118 30q92 -2 140 -36t73 -91q23 -53 28 -126t7 -159v-143q0 -115 -13 -234q-8 -78 -34.5 -126t-62.5 -73.5t-75.5 -33.5t-70.5 -8q-82 0 -125 25.5t-78 72.5h-4v-86h-123zM205 295q0 -84 45 -136.5t123 -52.5q55 0 93 24t56 81 q12 41 15.5 110.5t3.5 165.5q0 106 -3 194.5t-22 131.5q-33 84 -139 84q-49 0 -82 -20.5t-53.5 -53t-28.5 -73.5t-8 -82v-373z" />
            <glyph unicode="c" horiz-adv-x="679" d="M68 492q0 53 1 108t5 104.5t9 89.5t15 64q27 74 91.5 118t175.5 44q141 0 206.5 -74t65.5 -207l-129 -18v2q1 13 1 25q0 63 -35 107q-42 52 -116 52q-47 0 -84.5 -22.5t-58.5 -73.5q-16 -39 -19 -129t-6 -213q2 -80 4.5 -153.5t12.5 -110.5q16 -49 53 -78t96 -29 q74 0 114 45q38 43 38 129v9l129 -23q-6 -272 -287 -272q-61 0 -107 15t-78 42t-51.5 59.5t-27.5 69.5q-6 25 -10 62.5t-5 81.5t-2 89.5t-1 86.5z" />
            <glyph unicode="d" horiz-adv-x="735" d="M63 479q0 123 4.5 220.5t28.5 164.5q25 68 78 112t156 44q72 0 119 -31t69 -69h4v567h125v-1487h-125v86h-4q-33 -47 -77 -72.5t-124 -25.5q-33 0 -72.5 8t-74.5 33.5t-62.5 74t-35.5 125.5q-6 63 -7.5 127t-1.5 123zM190 487q0 -96 3.5 -165.5t15.5 -110.5 q16 -57 52 -81t93 -24q80 0 125 52.5t45 136.5v407q0 82 -41 138.5t-127 56.5q-55 0 -93 -28.5t-54 -88.5q-10 -43 -14.5 -121.5t-4.5 -171.5z" />
            <glyph unicode="e" horiz-adv-x="716" d="M66 492q0 53 1 106t5 102.5t9 89t15 66.5q29 76 92.5 120t176.5 44q123 0 191.5 -60.5t80.5 -171.5q2 -23 3 -45t1 -45v-225h-451q0 -20 1.5 -38.5t1.5 -39.5q0 -53 3 -108.5t13 -83.5q33 -102 147 -103q78 0 115 46.5t41 121.5l127 -24q-10 -125 -83 -191.5t-206 -66.5 q-63 0 -109 16t-78 42t-51.5 59.5t-27.5 68.5q-6 25 -10 62.5t-5 81.5t-2 89.5t-1 86.5zM193 575h323v107q0 43 -5 83t-22.5 70.5t-48 49t-82.5 18.5q-45 0 -83.5 -20.5t-61.5 -73.5q-12 -33 -15 -91.5t-5 -142.5z" />
            <glyph unicode="f" horiz-adv-x="454" d="M23 899v107h106v251q0 119 62.5 174.5t160.5 55.5h74v-117h-53q-61 0 -88 -35t-27 -88v-241h164v-107h-164v-899h-129v899h-106z" />
            <glyph unicode="g" horiz-adv-x="743" d="M68 422v98q0 61 1 124t7 132q8 78 35.5 126t64.5 73.5t77 35t71 9.5q82 0 125 -26.5t77 -73.5h4v86h123v-1076q0 -70 -12 -131t-44 -107t-89 -74t-146 -28q-123 0 -195.5 64.5t-76.5 187.5l125 23q2 -72 39 -116t117 -44t119.5 55.5t39.5 128.5v217h-4q-33 -59 -93 -87.5 t-118 -28.5q-92 0 -141 36.5t-74 96.5q-23 55 -27.5 134t-4.5 165zM195 518q0 -106 3 -194t21 -131q33 -84 139 -84q49 0 82 20.5t53.5 53t28.5 73.5t8 82v373q0 84 -45 136t-125 52q-53 0 -91 -23.5t-56 -80.5q-12 -41 -15 -111t-3 -166z" />
            <glyph unicode="h" horiz-adv-x="745" d="M82 0v1487h127v-586h4q35 57 91 88t124 31q63 0 107.5 -20.5t73 -55.5t42 -84t13.5 -106v-754h-129v717q0 78 -36 127t-122 49q-82 0 -126 -54.5t-44 -131.5v-707h-125z" />
            <glyph unicode="i" horiz-adv-x="333" d="M100 0v1008h127v-1008h-127zM100 1253v131h129v-131h-129z" />
            <glyph unicode="j" horiz-adv-x="333" d="M-35 -295h23q76 0 96 45t20 129v1129h127v-1153q0 -55 -9 -103.5t-33.5 -84.5t-67.5 -56.5t-111 -20.5h-45v115zM104 1255v131h129v-131h-129z" />
            <glyph unicode="k" horiz-adv-x="737" d="M86 0v1487h125v-1018h2q23 37 69 110.5t95 156.5t94 158t68 112h141l-234 -381q18 -39 57.5 -127t83.5 -185.5t84 -185.5t58 -127h-137q-10 23 -28.5 63.5t-40 90t-45 103.5t-45 103.5t-39 90.5t-27.5 63q-12 -18 -34 -54t-44.5 -76t-44 -77t-33.5 -55v-252h-125z" />
            <glyph unicode="l" horiz-adv-x="387" d="M100 227v1260h125v-1235q0 -74 21.5 -113t91.5 -39h24v-114h-30q-57 0 -101.5 11t-73 38.5t-43 74t-14.5 117.5z" />
            <glyph unicode="m" horiz-adv-x="1191" d="M96 0v1008h125v-107h6q35 57 82 88t117 31q82 0 132 -35t75 -94q39 59 97 95q55 34 124 34h8q61 0 106.5 -20.5t73 -56.5t41 -84t13.5 -105v-754h-127v717q0 72 -34 124t-118 52q-72 0 -115 -52.5t-45 -129.5v-711h-125v717q0 72 -32.5 124t-114.5 52q-80 0 -123 -56.5 t-43 -136.5v-700h-123z" />
            <glyph unicode="n" horiz-adv-x="741" d="M78 0v1008h127v-107h4q35 57 91 88t124 31q63 0 107 -20.5t73 -55.5t42 -84t13 -106v-754h-129v717q0 78 -32.5 127t-118.5 49q-84 0 -130 -56.5t-46 -136.5v-700h-125z" />
            <glyph unicode="o" horiz-adv-x="729" d="M68 405.5v86.5q0 53 1 107t5 103.5t9 89t15 64.5q27 74 93.5 119t177.5 45q115 0 177 -45t87 -113q18 -53 23.5 -135t5.5 -164v-100q0 -55 -2.5 -109.5t-8.5 -115.5q-8 -76 -37.5 -125.5t-71.5 -77t-91.5 -38.5t-96.5 -11q-125 0 -186.5 54t-81.5 132q-6 25 -10 62.5 t-6 81.5t-2 89.5zM193 455q0 -84 2 -149.5t14 -100.5q31 -104 158 -105q59 0 101 35t56 94q6 37 10.5 109t4.5 149q0 43 -1 90.5t-2 90.5t-5.5 77.5t-10.5 53.5q-16 53 -57 80.5t-96 27.5q-47 0 -88 -20.5t-64 -73.5q-14 -37 -18 -112.5t-4 -180.5v-65z" />
            <glyph unicode="p" horiz-adv-x="731" d="M72 -395v1401h123v-86h4q35 47 77.5 73.5t124.5 26.5q33 0 73 -9.5t75 -35t62.5 -73.5t35.5 -126q6 -63 6 -127.5v-136.5q0 -113 -4 -208t-28 -163q-25 -68 -77 -110.5t-155 -42.5q-72 0 -120 29.5t-70 68.5h-4v-481h-123zM195 303q0 -82 39.5 -138t125.5 -56 q119 0 150 116q10 43 13 122t3 171q0 96 -3 166t-15 111q-16 57 -51 80.5t-92 23.5q-80 0 -125 -52t-45 -136v-408z" />
            <glyph unicode="q" horiz-adv-x="741" d="M68 422v156q0 47 1 95t7 103q8 78 35.5 126t64.5 73.5t77 35t71 9.5q82 0 125 -26.5t77 -73.5h4v86h123v-1405h-123v505h-4q-33 -59 -93 -87.5t-118 -28.5q-98 0 -148 42t-73 109q-16 53 -21 128t-5 153zM195 518q0 -106 4 -194t20 -131q37 -84 139 -84q49 0 82 20.5 t53.5 53t28.5 73.5t8 82v373q0 84 -45 136t-125 52q-53 0 -91 -23.5t-56 -80.5q-12 -41 -15 -111t-3 -166z" />
            <glyph unicode="r" horiz-adv-x="503" d="M106 0v1008h127v-127h5q35 80 88 110.5t131 30.5h15t15 -2v-148q-14 2 -27.5 3.5t-27.5 1.5q-94 0 -146.5 -56.5t-52.5 -173.5v-647h-127z" />
            <glyph unicode="s" horiz-adv-x="677" d="M57 252l127 20v-7q0 -73 39 -118t109 -45h6q90 0 124 43t34 127q0 39 -6.5 68t-25 51.5t-51 41t-85.5 38.5q-80 31 -130.5 62.5t-78 66.5t-37.5 74t-10 82q0 117 67.5 191.5t208.5 74.5t209 -70.5t68 -197.5l-131 -19v15q0 75 -38 113q-42 42 -110 42q-45 0 -74.5 -13 t-46 -34.5t-23.5 -48.5t-7 -53q0 -29 7 -52.5t28.5 -45t59.5 -42t99 -41.5q76 -29 122 -59.5t69.5 -67t30.5 -79.5t7 -95q0 -127 -63 -207.5t-213 -80.5q-279 0 -285 266z" />
            <glyph unicode="t" horiz-adv-x="460" d="M29 907v101h112v260h125v-260h142v-101h-142v-651q0 -76 29 -107.5t90 -31.5h27v-117h-62q-117 0 -164 65.5t-47 159.5v682h-110z" />
            <glyph unicode="u" horiz-adv-x="745" d="M80 254v756h129v-719q0 -86 33.5 -133t119.5 -47q78 0 126.5 56t48.5 136v707h125v-1008h-127v104h-7q-35 -57 -90 -86.5t-123 -29.5q-63 0 -107 19.5t-73 55t-42 84t-13 105.5z" />
            <glyph unicode="v" horiz-adv-x="663" d="M10 1008h133q6 -29 20.5 -88.5t29 -126t29 -127t20.5 -86.5q6 -27 18 -85.5t25.5 -123t26 -123t18.5 -84.5h6q6 27 17.5 85t25.5 124.5t26.5 125t18.5 85.5t19.5 86t27.5 124.5t27.5 125t19.5 88.5h133l-250 -1008h-143z" />
            <glyph unicode="w" horiz-adv-x="1101" d="M20 1006h132q12 -59 31.5 -153.5t41.5 -203.5q14 -66 27.5 -132t26 -125.5t22.5 -111t16 -83.5h7q14 78 39.5 203.5t52.5 254.5l73 351h129l68 -334q25 -121 48.5 -241t47.5 -238h6l74 372q8 43 20.5 102.5t25 121t24.5 119t20 98.5h131q-59 -254 -116.5 -503 t-114.5 -503h-129l-70 303q-27 115 -51 230.5t-49 230.5h-6l-94 -438l-74 -326h-127z" />
            <glyph unicode="x" horiz-adv-x="643" d="M12 0l244 516l-233 492h141l160 -383l155 383h146l-230 -492l238 -516h-141l-168 406l-174 -406h-138z" />
            <glyph unicode="y" horiz-adv-x="667" d="M10 1006h133q29 -111 53.5 -220.5t51.5 -220.5q10 -43 22.5 -95t24.5 -104.5t23.5 -99.5t17.5 -78h6q23 98 45.5 206t44.5 206l98 406h127l-303 -1182q-12 -45 -29.5 -86t-44 -72t-65.5 -49t-94 -18h-47v108h32q61 0 92 43t52 135l29 113z" />
            <glyph unicode="z" horiz-adv-x="602" d="M39 0v117l387 778h-354v111h491v-111l-389 -778h385v-117h-520z" />
            <glyph unicode="{" horiz-adv-x="454" d="M49 567v78q39 8 64.5 32.5t41 61.5t20.5 82t5 92v295q0 104 53.5 161.5t145.5 57.5h41v-84h-35q-31 0 -50.5 -17t-29.5 -45t-14 -60.5t-4 -63.5v-266q0 -66 -12.5 -115t-31 -84t-40 -55.5t-39.5 -26.5v-6q20 -6 41.5 -26.5t40 -54.5t30 -81t11.5 -108v-283q0 -31 4 -62.5 t14 -59t29.5 -45t50.5 -17.5h35v-84h-41q-86 0 -142.5 52t-56.5 163v285q0 121 -24.5 194.5t-106.5 89.5z" />
            <glyph unicode="|" horiz-adv-x="395" d="M154 -332v1798h98v-1798h-98z" />
            <glyph unicode="}" horiz-adv-x="454" d="M51 -133h33q31 0 51.5 14.5t30.5 38t14 52t4 59.5v303q0 123 40 189.5t81 80.5v6q-39 14 -80 83t-41 198v266q0 31 -4 63.5t-14 60.5t-30.5 45t-51.5 17h-33v84h70q86 0 128 -68.5t42 -166.5v-279q0 -47 6 -92t20.5 -82t39 -61.5t63.5 -32.5v-78q-82 -16 -105.5 -90 t-23.5 -194v-285q0 -100 -49 -157.5t-127 -57.5h-64v84z" />
            <glyph unicode="~" d="M25 463q33 55 81 94t111 39q49 0 90 -14.5t80 -33t75 -32.5t73 -14q39 0 62.5 16.5t59.5 61.5l72 -45q-35 -59 -82 -101.5t-112 -42.5q-39 0 -78 15.5t-79 33t-80 32.5t-83 15q-37 0 -62.5 -16t-60.5 -57z" />
            <glyph unicode="&#xa1;" horiz-adv-x="438" d="M152 883v133h133v-133h-133zM154 -410l12 1078h104l13 -1078h-129z" />
            <glyph unicode="&#xa2;" horiz-adv-x="688" d="M68 428v74q0 51 1 105.5t4 101.5t9 86t14 63q23 66 77 108t146 52v217h60v-215q133 -4 195.5 -78t62.5 -203l-129 -18v6q0 82 -34 127t-95 51v-805q20 0 35 9q90 31 94 172l127 -23q-6 -258 -256 -270v-224h-60v224q-109 8 -163 62t-72 122q-10 39 -13 111.5t-3 144.5z M190 455q2 -70 3.5 -141.5t13.5 -108.5q27 -88 112 -103v799q-35 -4 -62.5 -26.5t-43.5 -63.5q-16 -39 -18 -129t-5 -213v-14z" />
            <glyph unicode="&#xa3;" horiz-adv-x="780" d="M94 0v115q59 111 93 219t34 248q0 14 -1 28.5t-3 28.5h-123v106h115q-10 61 -25.5 111.5t-31 95.5t-25.5 88t-10 90q0 139 80 223.5t221 84.5q68 0 125 -19.5t99 -57.5t65.5 -96.5t21.5 -136.5l-127 -30q2 111 -45 167t-137 58q-80 0 -126 -51t-46 -131q0 -43 10 -85 t23.5 -88t28 -100.5t24.5 -122.5h207v-106h-197q0 -8 1 -26.5t1 -26.5q0 -145 -30.5 -254t-82.5 -217h472v-115h-611z" />
            <glyph unicode="&#xa4;" horiz-adv-x="1007" d="M117 350l112 111q-66 86 -65 194q0 115 65 201l-110 109q14 16 36.5 39.5t39.5 39.5l110 -112q88 68 199 67q109 0 201 -67q8 8 23 24.5t30.5 33t30 31.5t24.5 23l78 -79l-111 -109q33 -45 50.5 -95t17.5 -106q0 -53 -17.5 -101t-50.5 -93q8 -10 23.5 -25.5l32 -32 t32 -31t23.5 -22.5q-23 -23 -39 -41t-39 -39l-108 113q-86 -66 -201 -66q-109 0 -199 66l-110 -113zM274 655q-2 -47 16.5 -88t50.5 -72.5t74 -50t89 -18.5t90 18.5t74.5 49t50 72.5t18.5 89q0 49 -18.5 92.5t-49 75t-73.5 50t-92 18.5q-47 0 -89 -18.5t-74 -51.5t-50.5 -75 t-16.5 -91z" />
            <glyph unicode="&#xa5;" d="M49 1425h121l203 -659h6l201 659h125l-252 -761h223v-82h-242v-136h242v-84h-242v-364h-117v364h-233v84h233v136h-233v82h213z" />
            <glyph unicode="&#xa6;" horiz-adv-x="395" d="M154 -332v850h98v-850h-98zM154 610v856h98v-856h-98z" />
            <glyph unicode="&#xa7;" horiz-adv-x="854" d="M98 709q0 78 43 139t109 102q-53 47 -78 97.5t-25 111.5q0 59 21.5 110.5t60.5 88.5t93.5 58.5t119.5 21.5q88 0 159 -28t130 -79l-80 -82q-55 47 -104 65.5t-105 18.5q-82 0 -127 -50t-45 -116q0 -76 56.5 -124t146.5 -101q61 -35 114.5 -70.5t94.5 -77.5t64.5 -90.5 t23.5 -107.5q0 -76 -40 -138.5t-107 -105.5q98 -104 98 -219q0 -131 -91 -209t-245 -78q-76 0 -150.5 30t-130.5 77l68 80q57 -47 106.5 -65.5t108.5 -18.5q104 0 157.5 49t53.5 125q0 72 -57.5 136.5t-186.5 135.5q-66 37 -112.5 70t-79.5 69.5t-48.5 78.5t-15.5 96z M219 717q0 -47 34 -90t83 -80t103.5 -67.5t95.5 -51.5q53 20 84.5 66.5t31.5 95.5q0 82 -73.5 145.5t-233.5 141.5q-53 -16 -89 -58.5t-36 -101.5z" />
            <glyph unicode="&#xa8;" horiz-adv-x="722" d="M150 1202v131h114v-131h-114zM459 1202v131h112v-131h-112z" />
            <glyph unicode="&#xa9;" horiz-adv-x="1439" d="M104 698q0 154 40 286t118 228.5t193.5 150.5t267.5 54q150 0 264.5 -54t193.5 -150.5t119.5 -228.5t40.5 -286t-40.5 -283.5t-119.5 -226t-193.5 -150.5t-264.5 -54q-152 0 -267.5 54t-193.5 150.5t-118 226.5t-40 283zM201 698q0 -133 34.5 -247.5t101 -199.5t164 -133 t222.5 -48q129 0 227.5 49t164 133t99 198.5t33.5 247.5t-33.5 249t-100 202t-165 135t-225.5 49q-131 0 -229.5 -50t-163 -136t-97 -202t-32.5 -247zM500 481v402q0 109 65.5 166t163.5 57q45 0 87 -13.5t73 -41t48 -68.5t15 -96l-90 -21q0 72 -35.5 112t-101.5 40 q-57 0 -93 -37t-36 -88v-422q0 -53 37 -88t92 -35q129 0 135 150l92 -19q0 -113 -65.5 -167t-157.5 -54t-160.5 55.5t-68.5 167.5z" />
            <glyph unicode="&#xaa;" horiz-adv-x="497" d="M29 760q0 39 9 76.5t31.5 68.5t60.5 50.5t97 19.5h111v84q0 41 -18.5 66.5t-75.5 25.5q-35 0 -62.5 -19.5t-38.5 -56.5l-102 31q20 63 72.5 103t134.5 40q96 0 148.5 -41t52.5 -147v-490h-111v45q-29 -31 -65.5 -42t-77.5 -11q-47 0 -79 16.5t-51.5 44t-27.5 63.5t-8 73z M133 764q0 -47 22.5 -74.5t75.5 -27.5q51 0 79 27.5t28 76.5v117h-86q-51 0 -85 -27t-34 -92z" />
            <glyph unicode="&#xab;" horiz-adv-x="790" d="M84 475l219 381h125l-217 -381l217 -381h-125zM375 475l219 381h125l-215 -381l215 -381h-125z" />
            <glyph unicode="&#xac;" d="M25 551v100h698v-430h-96v330h-602z" />
            <glyph unicode="&#xad;" horiz-adv-x="684" d="M100 530v113h506v-113h-506z" />
            <glyph unicode="&#xae;" horiz-adv-x="995" d="M109 1004q0 98 25.5 181t74.5 143.5t121.5 94t169.5 33.5q92 0 164.5 -33.5t122 -94t75 -143.5t25.5 -181q0 -96 -25.5 -177.5t-75 -141.5t-122 -94t-164.5 -34q-96 0 -169 34t-122 94t-74.5 141t-25.5 178zM182 1008q0 -84 21.5 -153t61.5 -120t99.5 -78.5t135.5 -27.5 q80 0 139 29.5t98 81t57.5 120t18.5 148.5t-20.5 150.5t-60.5 122.5t-98 82t-134 30q-80 0 -139.5 -30t-99.5 -82t-59.5 -123t-19.5 -150zM362 731v541h134q150 0 149 -164q0 -43 -15.5 -82t-58.5 -61q20 -57 43 -117t45 -117h-84l-77 223h-60v-223h-76zM438 1020h56 q43 0 59 24.5t16 63.5q0 45 -17 69.5t-65 24.5h-49v-182z" />
            <glyph unicode="&#xaf;" horiz-adv-x="720" d="M150 1204v111h456v-111h-456z" />
            <glyph unicode="&#xb0;" horiz-adv-x="575" d="M98 1231q0 41 15.5 78t42 64.5t62.5 43t77 15.5q86 0 142.5 -58.5t56.5 -142.5t-56.5 -141.5t-142.5 -57.5q-82 0 -139.5 57.5t-57.5 141.5zM176 1231q0 -51 35 -86t84 -35q51 0 86 35t35 86q0 53 -35 88t-86 35q-49 0 -84 -35t-35 -88z" />
            <glyph unicode="&#xb1;" d="M25 41v96h700v-96h-700zM25 551v100h303v328h96v-328h301v-100h-301v-330h-96v330h-303z" />
            <glyph unicode="&#xb2;" horiz-adv-x="489" d="M53 1401q-2 98 47.5 155.5t149.5 57.5q102 0 148 -51.5t46 -137.5q0 -102 -55 -196l-213 -377h260v-96h-379v80l244 438q20 37 28.5 73.5t8.5 75.5t-18.5 70t-71.5 31q-41 0 -65.5 -34t-24.5 -106z" />
            <glyph unicode="&#xb3;" horiz-adv-x="489" d="M51 1417q4 84 53.5 139.5t149.5 55.5q53 0 88 -14.5t55.5 -39t28.5 -57.5t8 -69v-72q0 -47 -9 -87t-56 -73q45 -23 55 -59.5t10 -89.5v-117q0 -88 -47 -137t-139 -49q-104 0 -149.5 54t-41.5 148l105 13q-4 -57 16.5 -91t71.5 -34q41 0 62.5 26.5t21.5 69.5v121 q0 53 -23.5 75.5t-70.5 22.5h-52v88h54q45 0 68.5 20.5t23.5 67.5v103q0 35 -17.5 63.5t-66.5 28.5q-51 0 -72.5 -35t-21.5 -88z" />
            <glyph unicode="&#xb4;" horiz-adv-x="716" d="M289 1167l137 326l121 -43l-189 -311z" />
            <glyph unicode="&#xb6;" horiz-adv-x="821" d="M39 1073q0 74 14.5 144.5t46 125t86 87t133.5 32.5h449v-131h-96v-1499h-115v1499h-131v-1499h-115v866q-14 0 -31.5 2t-27.5 7q-49 6 -89 37.5t-67.5 82t-42 114t-14.5 132.5z" />
            <glyph unicode="&#xb7;" horiz-adv-x="335" d="M96 467v151h144v-151h-144z" />
            <glyph unicode="&#xb8;" horiz-adv-x="882" d="M209 -387l22 61q35 -16 65 -20t54 -4q37 0 62.5 19.5t25.5 58.5q0 41 -27.5 64.5t-88.5 21.5l-33 26l53 191l66 -4l-37 -148q47 -4 77.5 -19.5t49 -37t25.5 -47t7 -45.5q0 -25 -9 -51.5t-28.5 -48t-50 -36t-75.5 -14.5q-23 0 -69 5t-89 28z" />
            <glyph unicode="&#xb9;" horiz-adv-x="409" d="M80 1405v106l139 97h98v-852h-100v745z" />
            <glyph unicode="&#xba;" horiz-adv-x="501" d="M37 841.5v57.5q0 68 4 136.5t18 99.5q18 51 66.5 81.5t126.5 30.5q84 0 129 -30.5t63 -77.5q14 -33 17.5 -87.5t3.5 -109.5v-61q0 -37 -2 -74t-6 -76q-6 -47 -27.5 -80t-51.5 -53t-66 -28.5t-68 -8.5q-90 0 -134 38t-61 87q-4 16 -7 41t-4 54.5t-1 60zM143 874 q0 -53 1 -95t10 -64q18 -59 98 -60q39 0 64.5 19.5t33.5 54.5q4 25 7 71t3 97q0 53 -2 112.5t-10 82.5q-10 29 -35.5 45t-60.5 16q-70 0 -92 -53q-10 -23 -13.5 -72t-3.5 -113v-41z" />
            <glyph unicode="&#xbb;" horiz-adv-x="790" d="M86 94l215 381l-215 381h123l219 -381l-219 -381h-123zM377 94l217 381l-217 381h125l219 -381l-219 -381h-125z" />
            <glyph unicode="&#xbc;" horiz-adv-x="1187" d="M92 1221v106l139 96h99v-852h-101v746zM195 -35l643 1497h86l-643 -1497h-86zM651 135v84l193 633h104l-192 -625h166v232h100v-232h72v-92h-72v-135h-100v135h-271z" />
            <glyph unicode="&#xbd;" horiz-adv-x="1187" d="M98 1221v106l140 96h98v-852h-100v746zM166 -35l643 1497h86l-643 -1497h-86zM696 645q-2 98 47.5 155.5t149.5 57.5q102 0 148 -51t46 -137q0 -102 -55 -197l-213 -377h260v-96h-379v80l244 438q20 37 28.5 74t8.5 76t-18.5 69.5t-71.5 30.5q-41 0 -65.5 -34t-24.5 -105 z" />
            <glyph unicode="&#xbe;" horiz-adv-x="1187" d="M70 1233q4 84 53 139t149 55q53 0 88 -14t55.5 -38.5t29 -57.5t8.5 -70v-71q0 -47 -9.5 -87t-56.5 -73q45 -23 55.5 -59.5t10.5 -90.5v-116q0 -88 -47.5 -137.5t-139.5 -49.5q-104 0 -149 54.5t-41 148.5l104 12q-4 -57 16.5 -91t71.5 -34q41 0 62.5 27t21.5 70v120 q0 53 -23.5 76t-70.5 23h-51v88h53q45 0 68.5 20.5t23.5 67.5v102q0 35 -17.5 63.5t-66.5 28.5q-51 0 -72.5 -34.5t-21.5 -87.5zM246 -35l643 1497h86l-643 -1497h-86zM674 135v84l192 633h105l-193 -625h166v232h100v-232h72v-92h-72v-135h-100v135h-270z" />
            <glyph unicode="&#xbf;" horiz-adv-x="731" d="M96 -90q0 51 4 89t13.5 68.5t23 58.5t31.5 62q35 55 63.5 98.5t49 82.5t32 74.5t13.5 76.5v146h120v-168q0 -43 -12 -84t-35 -82q-47 -82 -79.5 -133.5t-53 -93.5t-31 -83.5t-10.5 -103.5q0 -49 9.5 -90t31 -70.5t57 -46t89.5 -16.5q72 0 125 49t57 160l125 -15 q-4 -156 -91 -234.5t-216 -78.5q-172 0 -244 91t-72 243zM322 879v133h129v-133h-129z" />
            <glyph unicode="&#xc0;" horiz-adv-x="790" d="M25 0l307 1425h127l313 -1425h-125l-76 344h-354l-74 -344h-118zM86 1667l86 96l277 -223l-48 -59zM238 463h311l-86 414l-66 340h-6l-67 -345z" />
            <glyph unicode="&#xc1;" horiz-adv-x="790" d="M25 0l307 1425h127l313 -1425h-125l-76 344h-354l-74 -344h-118zM238 463h311l-86 414l-66 340h-6l-67 -345zM336 1538l276 223l82 -96l-311 -186z" />
            <glyph unicode="&#xc2;" horiz-adv-x="790" d="M25 0l307 1425h127l313 -1425h-125l-76 344h-354l-74 -344h-118zM106 1542l252 227h82l238 -223l-53 -49l-232 154l-231 -156zM238 463h311l-86 414l-66 340h-6l-67 -345z" />
            <glyph unicode="&#xc3;" horiz-adv-x="790" d="M25 0l307 1425h127l313 -1425h-125l-76 344h-354l-74 -344h-118zM111 1573q25 51 68.5 93t94.5 42q31 0 57.5 -12.5t54.5 -26.5t56.5 -26.5t61.5 -12.5q51 0 104 80l66 -43q-33 -68 -79 -103.5t-89 -35.5q-31 0 -60.5 12t-58.5 25.5t-55.5 26t-50.5 12.5q-53 0 -103 -72z M238 463h311l-86 414l-66 340h-6l-67 -345z" />
            <glyph unicode="&#xc4;" horiz-adv-x="790" d="M25 0l307 1425h127l313 -1425h-125l-76 344h-354l-74 -344h-118zM184 1534v129h115v-129h-115zM238 463h311l-86 414l-66 340h-6l-67 -345zM492 1534v129h112v-129h-112z" />
            <glyph unicode="&#xc5;" horiz-adv-x="790" d="M25 0l307 1425h127l313 -1425h-125l-76 344h-354l-74 -344h-118zM219 1634q0 74 51.5 125t124.5 51q72 0 123 -51t51 -125t-51 -125t-123 -51q-74 0 -125 51.5t-51 124.5zM238 463h311l-86 414l-66 340h-6l-67 -345zM291 1632q0 -43 30.5 -73.5t73.5 -30.5q41 0 72 30.5 t31 73.5t-31 74t-72 31q-43 0 -73.5 -31t-30.5 -74z" />
            <glyph unicode="&#xc6;" horiz-adv-x="1277" d="M8 0l553 1425h670v-116h-469v-523h409v-116h-409v-553h469v-117h-596v381h-354l-146 -381h-127zM324 500h311v809h-4z" />
            <glyph unicode="&#xc7;" horiz-adv-x="786" d="M96 315v752q0 76 16.5 143.5t53.5 117.5t97.5 80t150.5 30q150 0 231.5 -83t81.5 -233l-127 -24q2 111 -47 167t-141 56q-53 0 -89 -20.5t-58.5 -54.5t-33 -77t-10.5 -88v-759q0 -41 10.5 -81t33 -71t58 -49.5t89.5 -18.5q84 0 135 52.5t53 171.5l129 -23 q-4 -145 -77.5 -225t-196.5 -90l-27 -109q47 -4 78 -19.5t49 -37t25.5 -47t7.5 -45.5q0 -25 -9.5 -51.5t-29 -48t-50 -36t-75.5 -14.5q-23 0 -69 5t-89 28l23 61q35 -16 64.5 -20t54.5 -4q37 0 62.5 19.5t25.5 58.5q0 41 -28 64.5t-89 21.5l-33 26l41 148q-143 6 -217 90 t-74 237z" />
            <glyph unicode="&#xc8;" horiz-adv-x="739" d="M109 0v1425h596v-116h-472v-523h412v-116h-412v-555h472v-115h-596zM119 1667l86 96l276 -223l-47 -59z" />
            <glyph unicode="&#xc9;" horiz-adv-x="739" d="M109 0v1425h596v-116h-472v-523h412v-116h-412v-555h472v-115h-596zM276 1538l277 223l82 -96l-311 -186z" />
            <glyph unicode="&#xca;" horiz-adv-x="739" d="M109 0v1425h596v-116h-472v-523h412v-116h-412v-555h472v-115h-596zM109 1542l251 227h82l238 -223l-53 -49l-232 154l-231 -156z" />
            <glyph unicode="&#xcb;" horiz-adv-x="739" d="M109 0v1425h596v-116h-472v-523h412v-116h-412v-555h472v-115h-596zM186 1534v129h115v-129h-115zM494 1534v129h112v-129h-112z" />
            <glyph unicode="&#xcc;" horiz-adv-x="374" d="M-104 1667l86 96l276 -223l-47 -59zM123 0v1425h129v-1425h-129z" />
            <glyph unicode="&#xcd;" horiz-adv-x="374" d="M123 0v1425h129v-1425h-129zM123 1538l276 223l82 -96l-311 -186z" />
            <glyph unicode="&#xce;" horiz-adv-x="374" d="M-96 1542l252 227h82l237 -223l-53 -49l-232 154l-231 -156zM123 0v1425h129v-1425h-129z" />
            <glyph unicode="&#xcf;" horiz-adv-x="374" d="M-20 1534v129h114v-129h-114zM123 0v1425h129v-1425h-129zM287 1534v129h112v-129h-112z" />
            <glyph unicode="&#xd0;" horiz-adv-x="847" d="M12 700v99h97v626h319q129 0 201.5 -44t101.5 -148q23 -84 23 -212v-306v-304t-25 -206q-18 -61 -51 -100t-74 -63t-90 -33t-104 -9h-301v700h-97zM233 115h181q111 0 161 61.5t50 183.5v705q0 55 -10.5 100t-35 77t-65.5 50.5t-102 18.5h-179v-512h183v-99h-183v-585z " />
            <glyph unicode="&#xd1;" horiz-adv-x="903" d="M102 0v1425h119q12 -31 36 -88t53.5 -127.5t61 -147.5t61.5 -147.5t53.5 -128t37.5 -88.5l144 -356h8v1083h125v-1425h-119q-12 31 -35.5 87t-53.5 127t-61.5 147.5t-61.5 146.5t-54.5 126t-36.5 87l-146 356h-6v-1077h-125zM168 1561q25 51 69 93t95 42q31 0 57.5 -12.5 t54 -27t56 -26.5t61.5 -12q51 0 105 80l65 -43q-33 -68 -79 -103.5t-89 -35.5q-31 0 -60.5 12t-58 25.5t-55.5 25.5t-51 12q-53 0 -102 -71z" />
            <glyph unicode="&#xd2;" horiz-adv-x="837" d="M96 319v750q0 76 16.5 143.5t54.5 117.5t100.5 79t152.5 29q92 0 154.5 -26t99.5 -74t53 -114.5t16 -148.5v-723q0 -180 -80.5 -273t-244.5 -93t-243 88t-79 245zM154 1667l86 96l276 -223l-47 -59zM219 317q0 -41 11.5 -79.5t35 -69.5t61.5 -49.5t91 -18.5 q109 0 153.5 70t44.5 168v756q0 45 -10 86t-32.5 72.5t-60.5 51t-93 19.5q-59 0 -98 -25.5t-61.5 -64.5t-32 -85t-9.5 -87v-744z" />
            <glyph unicode="&#xd3;" horiz-adv-x="837" d="M96 319v750q0 76 16.5 143.5t54.5 117.5t100.5 79t152.5 29q92 0 154.5 -26t99.5 -74t53 -114.5t16 -148.5v-723q0 -180 -80.5 -273t-244.5 -93t-243 88t-79 245zM219 317q0 -41 11.5 -79.5t35 -69.5t61.5 -49.5t91 -18.5q109 0 153.5 70t44.5 168v756q0 45 -10 86 t-32.5 72.5t-60.5 51t-93 19.5q-59 0 -98 -25.5t-61.5 -64.5t-32 -85t-9.5 -87v-744zM330 1538l276 223l82 -96l-311 -186z" />
            <glyph unicode="&#xd4;" horiz-adv-x="837" d="M96 319v750q0 76 16.5 143.5t54.5 117.5t100.5 79t152.5 29q92 0 154.5 -26t99.5 -74t53 -114.5t16 -148.5v-723q0 -180 -80.5 -273t-244.5 -93t-243 88t-79 245zM133 1542l252 227h82l238 -223l-54 -49l-231 154l-232 -156zM219 317q0 -41 11.5 -79.5t35 -69.5 t61.5 -49.5t91 -18.5q109 0 153.5 70t44.5 168v756q0 45 -10 86t-32.5 72.5t-60.5 51t-93 19.5q-59 0 -98 -25.5t-61.5 -64.5t-32 -85t-9.5 -87v-744z" />
            <glyph unicode="&#xd5;" horiz-adv-x="837" d="M96 319v750q0 76 16.5 143.5t54.5 117.5t100.5 79t152.5 29q92 0 154.5 -26t99.5 -74t53 -114.5t16 -148.5v-723q0 -180 -80.5 -273t-244.5 -93t-243 88t-79 245zM135 1573q25 51 69 93t95 42q31 0 57.5 -12.5t54 -26.5t56.5 -26.5t61 -12.5q51 0 105 80l65 -43 q-33 -68 -79 -103.5t-89 -35.5q-31 0 -60.5 12t-58 25.5t-55 26t-51.5 12.5q-53 0 -102 -72zM219 317q0 -41 11.5 -79.5t35 -69.5t61.5 -49.5t91 -18.5q109 0 153.5 70t44.5 168v756q0 45 -10 86t-32.5 72.5t-60.5 51t-93 19.5q-59 0 -98 -25.5t-61.5 -64.5t-32 -85 t-9.5 -87v-744z" />
            <glyph unicode="&#xd6;" horiz-adv-x="837" d="M96 319v750q0 76 16.5 143.5t54.5 117.5t100.5 79t152.5 29q92 0 154.5 -26t99.5 -74t53 -114.5t16 -148.5v-723q0 -180 -80.5 -273t-244.5 -93t-243 88t-79 245zM207 1534v129h115v-129h-115zM219 317q0 -41 11.5 -79.5t35 -69.5t61.5 -49.5t91 -18.5q109 0 153.5 70 t44.5 168v756q0 45 -10 86t-32.5 72.5t-60.5 51t-93 19.5q-59 0 -98 -25.5t-61.5 -64.5t-32 -85t-9.5 -87v-744zM514 1534v129h113v-129h-113z" />
            <glyph unicode="&#xd7;" horiz-adv-x="778" d="M41 326l278 276l-256 258l68 70l260 -258l275 278l67 -69l-274 -277l260 -262l-68 -70l-262 263l-278 -279z" />
            <glyph unicode="&#xd8;" horiz-adv-x="837" d="M72 6l57 135q-33 72 -33 178v750q0 76 16.5 143.5t54.5 117.5t100.5 79t152.5 29q82 0 139 -20.5t96 -59.5l39 88l74 -29l-59 -137q18 -43 26 -94t8 -111v-723q0 -180 -80.5 -273t-244.5 -93q-156 0 -238 82l-39 -91zM219 348l375 866q-20 47 -62.5 78t-111.5 31 q-59 0 -98 -25.5t-61.5 -64.5t-32 -85t-9.5 -87v-713zM242 207q23 -47 64.5 -77t111.5 -30q109 0 153.5 70t44.5 168v731z" />
            <glyph unicode="&#xd9;" horiz-adv-x="833" d="M92 319v1104h125v-1106q0 -41 11.5 -79.5t35 -69.5t61 -49.5t91.5 -18.5q109 0 153.5 70t44.5 168v1085h125v-1071q0 -180 -79.5 -273t-243.5 -93q-162 0 -243 88t-81 245zM137 1667l86 96l277 -223l-47 -59z" />
            <glyph unicode="&#xda;" horiz-adv-x="833" d="M92 319v1104h125v-1106q0 -41 11.5 -79.5t35 -69.5t61 -49.5t91.5 -18.5q109 0 153.5 70t44.5 168v1085h125v-1071q0 -180 -79.5 -273t-243.5 -93q-162 0 -243 88t-81 245zM334 1538l276 223l82 -96l-311 -186z" />
            <glyph unicode="&#xdb;" horiz-adv-x="833" d="M92 319v1104h125v-1106q0 -41 11.5 -79.5t35 -69.5t61 -49.5t91.5 -18.5q109 0 153.5 70t44.5 168v1085h125v-1071q0 -180 -79.5 -273t-243.5 -93q-162 0 -243 88t-81 245zM125 1542l252 227h82l237 -223l-53 -49l-231 154l-232 -156z" />
            <glyph unicode="&#xdc;" horiz-adv-x="833" d="M92 319v1104h125v-1106q0 -41 11.5 -79.5t35 -69.5t61 -49.5t91.5 -18.5q109 0 153.5 70t44.5 168v1085h125v-1071q0 -180 -79.5 -273t-243.5 -93q-162 0 -243 88t-81 245zM211 1534v129h115v-129h-115zM518 1534v129h113v-129h-113z" />
            <glyph unicode="&#xdd;" horiz-adv-x="743" d="M23 1425h131l122 -374q6 -18 18.5 -57.5t27 -84.5t26.5 -84t19 -57h6l90 287l123 370h131q-12 -35 -35 -99t-50.5 -145t-58 -168t-58.5 -167t-49.5 -145.5t-33.5 -98.5v-604h-125v604q-12 33 -33.5 98.5t-49 145.5t-58.5 167t-58.5 168t-50 145.5t-34.5 98.5zM309 1538 l277 223l82 -96l-312 -186z" />
            <glyph unicode="&#xde;" horiz-adv-x="800" d="M106 1425h123v-280h164q106 0 177 -29t111 -83t56.5 -131t16.5 -171q0 -90 -16.5 -168t-57.5 -134t-113.5 -88t-183.5 -32h-150v-309h-124zM233 426h144q78 0 127 21.5t77.5 61.5t39 96.5t10.5 123.5q0 63 -9.5 118.5t-37 95.5t-76.5 62.5t-127 22.5h-148v-602z" />
            <glyph unicode="&#xdf;" horiz-adv-x="749" d="M78 0v1202q0 66 21.5 118t59.5 89t90 57.5t113 20.5q59 0 110.5 -17.5t90.5 -51.5t60.5 -84t21.5 -117v-123q0 -70 -27.5 -126.5t-95.5 -82.5v-6q51 -16 80 -44t42 -64t16.5 -79t3.5 -86v-321q0 -61 -13.5 -115.5t-42 -95.5t-78 -64.5t-118.5 -23.5h-56v100h21 q92 0 126 47t34 135v381q0 86 -48.5 130t-111.5 40v109q68 8 104.5 48t36.5 109v123q0 72 -43 116t-115 44t-115.5 -47t-43.5 -113v-1208h-123z" />
            <glyph unicode="&#xe0;" horiz-adv-x="720" d="M51 274q0 57 12.5 114.5t45 104t86 76t137.5 29.5h178v147q0 72 -33 115t-127 43q-45 0 -93 -25.5t-62 -84.5l-119 36q27 88 98.5 139.5t181.5 51.5q133 0 206 -60.5t73 -211.5v-748h-127v90h-2q-45 -63 -101.5 -82.5t-119.5 -19.5q-66 0 -110 24.5t-71.5 64.5t-40 91 t-12.5 106zM162 1450l119 43l139 -326l-70 -28zM174 281q0 -78 36 -126.5t122 -48.5q82 0 130 45.5t48 131.5v204h-150q-78 0 -132 -46t-54 -160z" />
            <glyph unicode="&#xe1;" horiz-adv-x="720" d="M51 274q0 57 12.5 114.5t45 104t86 76t137.5 29.5h178v147q0 72 -33 115t-127 43q-45 0 -93 -25.5t-62 -84.5l-119 36q27 88 98.5 139.5t181.5 51.5q133 0 206 -60.5t73 -211.5v-748h-127v90h-2q-45 -63 -101.5 -82.5t-119.5 -19.5q-66 0 -110 24.5t-71.5 64.5t-40 91 t-12.5 106zM174 281q0 -78 36 -126.5t122 -48.5q82 0 130 45.5t48 131.5v204h-150q-78 0 -132 -46t-54 -160zM293 1167l137 326l121 -43l-189 -311z" />
            <glyph unicode="&#xe2;" horiz-adv-x="720" d="M51 274q0 57 12.5 114.5t45 104t86 76t137.5 29.5h178v147q0 72 -33 115t-127 43q-45 0 -93 -25.5t-62 -84.5l-119 36q27 88 98.5 139.5t181.5 51.5q133 0 206 -60.5t73 -211.5v-748h-127v90h-2q-45 -63 -101.5 -82.5t-119.5 -19.5q-66 0 -110 24.5t-71.5 64.5t-40 91 t-12.5 106zM76 1176l252 268h80l239 -264l-55 -50l-230 195l-231 -195zM174 281q0 -78 36 -126.5t122 -48.5q82 0 130 45.5t48 131.5v204h-150q-78 0 -132 -46t-54 -160z" />
            <glyph unicode="&#xe3;" horiz-adv-x="720" d="M51 274q0 57 12.5 114.5t45 104t86 76t137.5 29.5h178v147q0 72 -33 115t-127 43q-45 0 -93 -25.5t-62 -84.5l-119 36q27 88 98.5 139.5t181.5 51.5q133 0 206 -60.5t73 -211.5v-748h-127v90h-2q-45 -63 -101.5 -82.5t-119.5 -19.5q-66 0 -110 24.5t-71.5 64.5t-40 91 t-12.5 106zM88 1225q25 51 69 93t95 42q31 0 57.5 -12.5t54 -26.5t56.5 -26.5t61 -12.5q51 0 105 80l65 -43q-33 -68 -79 -103.5t-89 -35.5q-31 0 -60.5 12t-58 25.5t-55 25.5t-51.5 12q-53 0 -102 -71zM174 281q0 -78 36 -126.5t122 -48.5q82 0 130 45.5t48 131.5v204h-150 q-78 0 -132 -46t-54 -160z" />
            <glyph unicode="&#xe4;" horiz-adv-x="720" d="M51 274q0 57 12.5 114.5t45 104t86 76t137.5 29.5h178v147q0 72 -33 115t-127 43q-45 0 -93 -25.5t-62 -84.5l-119 36q27 88 98.5 139.5t181.5 51.5q133 0 206 -60.5t73 -211.5v-748h-127v90h-2q-45 -63 -101.5 -82.5t-119.5 -19.5q-66 0 -110 24.5t-71.5 64.5t-40 91 t-12.5 106zM152 1202v131h114v-131h-114zM174 281q0 -78 36 -126.5t122 -48.5q82 0 130 45.5t48 131.5v204h-150q-78 0 -132 -46t-54 -160zM461 1202v131h112v-131h-112z" />
            <glyph unicode="&#xe5;" horiz-adv-x="720" d="M51 274q0 57 12.5 114.5t45 104t86 76t137.5 29.5h178v147q0 72 -33 115t-127 43q-45 0 -93 -25.5t-62 -84.5l-119 36q27 88 98.5 139.5t181.5 51.5q133 0 206 -60.5t73 -211.5v-748h-127v90h-2q-45 -63 -101.5 -82.5t-119.5 -19.5q-66 0 -110 24.5t-71.5 64.5t-40 91 t-12.5 106zM174 281q0 -78 36 -126.5t122 -48.5q82 0 130 45.5t48 131.5v204h-150q-78 0 -132 -46t-54 -160zM205 1294q0 74 51 125t125 51q72 0 123 -51t51 -125t-51 -125t-123 -51q-74 0 -125 51.5t-51 124.5zM276 1292q0 -43 31 -73.5t74 -30.5q41 0 71.5 30.5t30.5 73.5 t-30.5 74t-71.5 31q-43 0 -74 -31t-31 -74z" />
            <glyph unicode="&#xe6;" horiz-adv-x="1144" d="M47 276q0 57 14.5 113.5t47 103t86 75t131.5 28.5h178v149q0 72 -36 115t-124 43q-55 0 -97 -28.5t-57 -81.5l-118 36q25 88 99.5 140.5t178.5 52.5q92 0 145.5 -26.5t77.5 -73.5q76 100 236 100q141 0 212 -77t71 -218v-240h-455v-60.5t1 -77.5t3 -72.5t6 -45.5 q10 -57 50 -93t108 -36q76 0 113.5 47.5t44.5 110.5l124 -29q-16 -111 -83.5 -178t-206.5 -67q-92 0 -152.5 34.5t-93.5 90.5q-31 -41 -63.5 -66t-64.5 -37t-60.5 -16t-53.5 -4q-78 0 -128 24.5t-79.5 65.5t-42 92t-12.5 106zM170 283q0 -72 39 -123t129 -51q74 0 120 46 t46 130v204h-148q-78 0 -132 -47t-54 -159zM637 594h328v111q0 84 -36 141t-128 57q-121 0 -150 -123q-4 -10 -6 -31.5t-4 -48t-3 -55.5t-1 -51z" />
            <glyph unicode="&#xe7;" horiz-adv-x="679" d="M68 492q0 53 1 108t5 104.5t9 89.5t15 64q27 74 91.5 118t175.5 44q141 0 206.5 -74t65.5 -207l-129 -18v2q8 80 -34 132t-116 52q-47 0 -84.5 -22.5t-58.5 -73.5q-16 -39 -19 -129t-6 -213q2 -80 4.5 -153.5t12.5 -110.5q16 -49 53 -78t96 -29q74 0 114 45t38 138 l129 -23q-6 -252 -248 -270l-27 -109q47 -4 78 -19.5t49.5 -37t25.5 -47t7 -45.5q0 -25 -9 -51.5t-28.5 -48t-50.5 -36t-76 -14.5q-23 0 -68.5 5t-88.5 28l22 61q35 -16 64.5 -20t54.5 -4q37 0 62.5 19.5t25.5 58.5q0 41 -27.5 64.5t-89.5 21.5l-32 26l41 148 q-111 8 -165.5 62t-70.5 122q-6 25 -10 62.5t-5 81.5t-2 89.5t-1 86.5z" />
            <glyph unicode="&#xe8;" horiz-adv-x="716" d="M66 492q0 53 1 106t5 102.5t9 89t15 66.5q29 76 92.5 120t176.5 44q123 0 191.5 -60.5t80.5 -171.5q2 -23 3 -45t1 -45v-225h-451q0 -20 1.5 -38.5t1.5 -39.5q0 -53 3 -108.5t13 -83.5q33 -102 147 -103q78 0 115 46.5t41 121.5l127 -24q-10 -125 -83 -191.5t-206 -66.5 q-63 0 -109 16t-78 42t-51.5 59.5t-27.5 68.5q-6 25 -10 62.5t-5 81.5t-2 89.5t-1 86.5zM176 1450l119 43l139 -326l-69 -28zM193 575h323v107q0 43 -5 83t-22.5 70.5t-48 49t-82.5 18.5q-45 0 -83.5 -20.5t-61.5 -73.5q-12 -33 -15 -91.5t-5 -142.5z" />
            <glyph unicode="&#xe9;" horiz-adv-x="716" d="M66 492q0 53 1 106t5 102.5t9 89t15 66.5q29 76 92.5 120t176.5 44q123 0 191.5 -60.5t80.5 -171.5q2 -23 3 -45t1 -45v-225h-451q0 -20 1.5 -38.5t1.5 -39.5q0 -53 3 -108.5t13 -83.5q33 -102 147 -103q78 0 115 46.5t41 121.5l127 -24q-10 -125 -83 -191.5t-206 -66.5 q-63 0 -109 16t-78 42t-51.5 59.5t-27.5 68.5q-6 25 -10 62.5t-5 81.5t-2 89.5t-1 86.5zM193 575h323v107q0 43 -5 83t-22.5 70.5t-48 49t-82.5 18.5q-45 0 -83.5 -20.5t-61.5 -73.5q-12 -33 -15 -91.5t-5 -142.5zM301 1167l137 326l121 -43l-188 -311z" />
            <glyph unicode="&#xea;" horiz-adv-x="716" d="M66 492q0 53 1 106t5 102.5t9 89t15 66.5q29 76 92.5 120t176.5 44q123 0 191.5 -60.5t80.5 -171.5q2 -23 3 -45t1 -45v-225h-451q0 -20 1.5 -38.5t1.5 -39.5q0 -53 3 -108.5t13 -83.5q33 -102 147 -103q78 0 115 46.5t41 121.5l127 -24q-10 -125 -83 -191.5t-206 -66.5 q-63 0 -109 16t-78 42t-51.5 59.5t-27.5 68.5q-6 25 -10 62.5t-5 81.5t-2 89.5t-1 86.5zM74 1176l252 268h80l239 -264l-55 -50l-230 195l-231 -195zM193 575h323v107q0 43 -5 83t-22.5 70.5t-48 49t-82.5 18.5q-45 0 -83.5 -20.5t-61.5 -73.5q-12 -33 -15 -91.5t-5 -142.5z " />
            <glyph unicode="&#xeb;" horiz-adv-x="716" d="M66 492q0 53 1 106t5 102.5t9 89t15 66.5q29 76 92.5 120t176.5 44q123 0 191.5 -60.5t80.5 -171.5q2 -23 3 -45t1 -45v-225h-451q0 -20 1.5 -38.5t1.5 -39.5q0 -53 3 -108.5t13 -83.5q33 -102 147 -103q78 0 115 46.5t41 121.5l127 -24q-10 -125 -83 -191.5t-206 -66.5 q-63 0 -109 16t-78 42t-51.5 59.5t-27.5 68.5q-6 25 -10 62.5t-5 81.5t-2 89.5t-1 86.5zM143 1202v131h115v-131h-115zM193 575h323v107q0 43 -5 83t-22.5 70.5t-48 49t-82.5 18.5q-45 0 -83.5 -20.5t-61.5 -73.5q-12 -33 -15 -91.5t-5 -142.5zM453 1202v131h112v-131h-112z " />
            <glyph unicode="&#xec;" horiz-adv-x="356" d="M-29 1450l119 43l139 -326l-69 -28zM123 0v1008h127v-1008h-127z" />
            <glyph unicode="&#xed;" horiz-adv-x="352" d="M100 0v1008h127v-1008h-127zM121 1167l137 326l121 -43l-189 -311z" />
            <glyph unicode="&#xee;" horiz-adv-x="489" d="M-41 1176l252 268h80l239 -264l-55 -50l-229 195l-232 -195zM176 0v1008h127v-1008h-127z" />
            <glyph unicode="&#xef;" horiz-adv-x="339" d="M-41 1202v131h115v-131h-115zM109 0v1008h127v-1008h-127zM268 1202v131h113v-131h-113z" />
            <glyph unicode="&#xf0;" horiz-adv-x="741" d="M68 487q4 131 10 207t22 121q27 70 89.5 115t160.5 49q16 0 42 -4t53.5 -14.5t53 -29t44.5 -46.5h2v56.5t-2 55.5q0 53 -8.5 102.5t-24.5 90.5l-143 -103l-43 64l149 106q-6 10 -13 17.5t-18 17.5q-39 41 -100 66.5t-127 36.5l12 102q104 -10 175 -40t110 -64 q35 -31 59 -66l125 90l45 -59l-131 -94q35 -61 44.5 -230.5t9.5 -455.5q0 -96 -4.5 -190.5t-8.5 -147.5q-8 -78 -37.5 -127.5t-70.5 -77t-91.5 -38.5t-97.5 -11q-61 0 -107 15t-78 41t-52.5 60.5t-30.5 73.5q-6 23 -9 58.5t-5 78.5t-3 88t-1 86zM193 449q0 -84 2 -147.5 t14 -98.5q16 -51 54 -79t104 -28q55 0 96 32t57 85q10 29 14.5 104.5t4.5 161.5v137q0 41 -4.5 76t-10.5 60q-16 53 -52.5 83.5t-102.5 30.5q-51 0 -91 -23.5t-63 -76.5q-12 -35 -16 -87t-6 -151v-79z" />
            <glyph unicode="&#xf1;" horiz-adv-x="741" d="M68 1225q25 51 68.5 93t94.5 42q31 0 57.5 -12.5t54.5 -26.5t56.5 -26.5t61.5 -12.5q51 0 104 80l66 -43q-33 -68 -79 -103.5t-89 -35.5q-31 0 -60.5 12t-58.5 25.5t-55.5 25.5t-50.5 12q-53 0 -103 -71zM78 0v1008h127v-107h4q35 57 91 88t124 31q63 0 107 -20.5 t73 -55.5t42 -84t13 -106v-754h-129v717q0 78 -32.5 127t-118.5 49q-84 0 -130 -56.5t-46 -136.5v-700h-125z" />
            <glyph unicode="&#xf2;" horiz-adv-x="729" d="M68 405.5v86.5q0 53 1 107t5 103.5t9 89t15 64.5q27 74 93.5 119t177.5 45q115 0 177 -45t87 -113q18 -53 23.5 -135t5.5 -164v-100q0 -55 -2.5 -109.5t-8.5 -115.5q-8 -76 -37.5 -125.5t-71.5 -77t-91.5 -38.5t-96.5 -11q-125 0 -186.5 54t-81.5 132q-6 25 -10 62.5 t-6 81.5t-2 89.5zM156 1450l118 43l140 -326l-70 -28zM193 455q0 -84 2 -149.5t14 -100.5q31 -104 158 -105q59 0 101 35t56 94q6 37 10.5 109t4.5 149q0 43 -1 90.5t-2 90.5t-5.5 77.5t-10.5 53.5q-16 53 -57 80.5t-96 27.5q-47 0 -88 -20.5t-64 -73.5q-14 -37 -18 -112.5 t-4 -180.5v-65z" />
            <glyph unicode="&#xf3;" horiz-adv-x="729" d="M68 405.5v86.5q0 53 1 107t5 103.5t9 89t15 64.5q27 74 93.5 119t177.5 45q115 0 177 -45t87 -113q18 -53 23.5 -135t5.5 -164v-100q0 -55 -2.5 -109.5t-8.5 -115.5q-8 -76 -37.5 -125.5t-71.5 -77t-91.5 -38.5t-96.5 -11q-125 0 -186.5 54t-81.5 132q-6 25 -10 62.5 t-6 81.5t-2 89.5zM193 455q0 -84 2 -149.5t14 -100.5q31 -104 158 -105q59 0 101 35t56 94q6 37 10.5 109t4.5 149q0 43 -1 90.5t-2 90.5t-5.5 77.5t-10.5 53.5q-16 53 -57 80.5t-96 27.5q-47 0 -88 -20.5t-64 -73.5q-14 -37 -18 -112.5t-4 -180.5v-65zM289 1167l137 326 l121 -43l-189 -311z" />
            <glyph unicode="&#xf4;" horiz-adv-x="729" d="M68 405.5v86.5q0 53 1 107t5 103.5t9 89t15 64.5q27 74 93.5 119t177.5 45q115 0 177 -45t87 -113q18 -53 23.5 -135t5.5 -164v-100q0 -55 -2.5 -109.5t-8.5 -115.5q-8 -76 -37.5 -125.5t-71.5 -77t-91.5 -38.5t-96.5 -11q-125 0 -186.5 54t-81.5 132q-6 25 -10 62.5 t-6 81.5t-2 89.5zM82 1176l252 268h80l239 -264l-55 -50l-229 195l-232 -195zM193 455q0 -84 2 -149.5t14 -100.5q31 -104 158 -105q59 0 101 35t56 94q6 37 10.5 109t4.5 149q0 43 -1 90.5t-2 90.5t-5.5 77.5t-10.5 53.5q-16 53 -57 80.5t-96 27.5q-47 0 -88 -20.5 t-64 -73.5q-14 -37 -18 -112.5t-4 -180.5v-65z" />
            <glyph unicode="&#xf5;" horiz-adv-x="729" d="M68 405.5v86.5q0 53 1 107t5 103.5t9 89t15 64.5q27 74 93.5 119t177.5 45q115 0 177 -45t87 -113q18 -53 23.5 -135t5.5 -164v-100q0 -55 -2.5 -109.5t-8.5 -115.5q-8 -76 -37.5 -125.5t-71.5 -77t-91.5 -38.5t-96.5 -11q-125 0 -186.5 54t-81.5 132q-6 25 -10 62.5 t-6 81.5t-2 89.5zM86 1225q25 51 69 93t95 42q31 0 57.5 -12.5t54 -26.5t56 -26.5t61.5 -12.5q51 0 105 80l65 -43q-33 -68 -79 -103.5t-89 -35.5q-31 0 -60.5 12t-58 25.5t-55 25.5t-51.5 12q-53 0 -102 -71zM193 455q0 -84 2 -149.5t14 -100.5q31 -104 158 -105 q59 0 101 35t56 94q6 37 10.5 109t4.5 149q0 43 -1 90.5t-2 90.5t-5.5 77.5t-10.5 53.5q-16 53 -57 80.5t-96 27.5q-47 0 -88 -20.5t-64 -73.5q-14 -37 -18 -112.5t-4 -180.5v-65z" />
            <glyph unicode="&#xf6;" horiz-adv-x="729" d="M68 405.5v86.5q0 53 1 107t5 103.5t9 89t15 64.5q27 74 93.5 119t177.5 45q115 0 177 -45t87 -113q18 -53 23.5 -135t5.5 -164v-100q0 -55 -2.5 -109.5t-8.5 -115.5q-8 -76 -37.5 -125.5t-71.5 -77t-91.5 -38.5t-96.5 -11q-125 0 -186.5 54t-81.5 132q-6 25 -10 62.5 t-6 81.5t-2 89.5zM147 1202v131h115v-131h-115zM193 455q0 -84 2 -149.5t14 -100.5q31 -104 158 -105q59 0 101 35t56 94q6 37 10.5 109t4.5 149q0 43 -1 90.5t-2 90.5t-5.5 77.5t-10.5 53.5q-16 53 -57 80.5t-96 27.5q-47 0 -88 -20.5t-64 -73.5q-14 -37 -18 -112.5 t-4 -180.5v-65zM457 1202v131h112v-131h-112z" />
            <glyph unicode="&#xf7;" d="M25 551v102h698v-102h-698zM287 281q0 39 26.5 65.5t63.5 26.5t63.5 -27t26.5 -65q0 -37 -26.5 -65t-63.5 -28t-63.5 28t-26.5 65zM287 915q0 37 26.5 64t63.5 27t63.5 -27t26.5 -64q0 -39 -26.5 -65.5t-63.5 -26.5t-63.5 27t-26.5 65z" />
            <glyph unicode="&#xf8;" horiz-adv-x="729" d="M68 405.5v86.5q0 53 1 107t5 103.5t9 89t15 64.5q27 74 93.5 119t177.5 45q63 0 110 -15.5t80 -41.5l35 65l59 -33l-45 -86q14 -20 25 -47q18 -53 23.5 -135t5.5 -164v-100q0 -55 -2.5 -109.5t-8.5 -115.5q-8 -76 -37.5 -125.5t-71.5 -77t-91.5 -38.5t-96.5 -11 q-66 0 -112.5 15t-79.5 44q-10 -16 -18.5 -32.5t-16.5 -32.5l-53 30l43 86q-20 33 -31 76q-6 25 -10 62.5t-6 81.5t-2 89.5zM193 344.5q0 -51.5 4 -90.5l301 590q-45 63 -131 63q-47 0 -88 -20.5t-64 -73.5q-14 -37 -18 -112.5t-4 -180.5v-65v-110.5zM225 166 q41 -66 142 -66q59 0 101 35t56 94q6 37 10.5 109t4.5 149q0 68 -2 141.5t-9 125.5z" />
            <glyph unicode="&#xf9;" horiz-adv-x="745" d="M80 254v756h129v-719q0 -86 33.5 -133t119.5 -47q78 0 126.5 56t48.5 136v707h125v-1008h-127v104h-7q-35 -57 -90 -86.5t-123 -29.5q-63 0 -107 19.5t-73 55t-42 84t-13 105.5zM170 1450l119 43l139 -326l-70 -28z" />
            <glyph unicode="&#xfa;" horiz-adv-x="745" d="M80 254v756h129v-719q0 -86 33.5 -133t119.5 -47q78 0 126.5 56t48.5 136v707h125v-1008h-127v104h-7q-35 -57 -90 -86.5t-123 -29.5q-63 0 -107 19.5t-73 55t-42 84t-13 105.5zM354 1167l138 326l120 -43l-188 -311z" />
            <glyph unicode="&#xfb;" horiz-adv-x="745" d="M80 254v756h129v-719q0 -86 33.5 -133t119.5 -47q78 0 126.5 56t48.5 136v707h125v-1008h-127v104h-7q-35 -57 -90 -86.5t-123 -29.5q-63 0 -107 19.5t-73 55t-42 84t-13 105.5zM82 1176l252 268h80l239 -264l-55 -50l-229 195l-232 -195z" />
            <glyph unicode="&#xfc;" horiz-adv-x="745" d="M80 254v756h129v-719q0 -86 33.5 -133t119.5 -47q78 0 126.5 56t48.5 136v707h125v-1008h-127v104h-7q-35 -57 -90 -86.5t-123 -29.5q-63 0 -107 19.5t-73 55t-42 84t-13 105.5zM152 1202v131h114v-131h-114zM461 1202v131h112v-131h-112z" />
            <glyph unicode="&#xfd;" horiz-adv-x="667" d="M10 1006h133q29 -111 53.5 -220.5t51.5 -220.5q10 -43 22.5 -95t24.5 -104.5t23.5 -99.5t17.5 -78h6q23 98 45.5 206t44.5 206l98 406h127l-303 -1182q-12 -45 -29.5 -86t-44 -72t-65.5 -49t-94 -18h-47v108h32q61 0 92 43t52 135l29 113zM283 1167l137 326l121 -43 l-189 -311z" />
            <glyph unicode="&#xfe;" horiz-adv-x="731" d="M72 -395v1818h123v-503h4q35 47 77.5 73.5t124.5 26.5q33 0 73 -9.5t75 -35t62.5 -73.5t35.5 -126q6 -63 6 -126.5v-123.5v-14q0 -123 -5 -225.5t-38 -171.5q-27 -57 -78 -92t-143 -35q-76 0 -120 30.5t-70 67.5h-4v-481h-123zM195 303q0 -82 39.5 -138t125.5 -56 q119 0 150 116q10 43 13 122t3 171q0 96 -3 166t-15 111q-16 57 -51 80.5t-92 23.5q-80 0 -125 -52t-45 -136v-408z" />
            <glyph unicode="&#xff;" horiz-adv-x="667" d="M10 1006h133q29 -111 53.5 -220.5t51.5 -220.5q10 -43 22.5 -95t24.5 -104.5t23.5 -99.5t17.5 -78h6q23 98 45.5 206t44.5 206l98 406h127l-303 -1182q-12 -45 -29.5 -86t-44 -72t-65.5 -49t-94 -18h-47v108h32q61 0 92 43t52 135l29 113zM121 1202v131h115v-131h-115z M430 1202v131h113v-131h-113z" />
            <glyph unicode="&#x152;" horiz-adv-x="1167" d="M88 317v752q0 76 17.5 143.5t55.5 117.5t99.5 79t151.5 29q14 0 25.5 -1t21.5 -5q47 0 78 -7h585v-116h-471v-525h412v-114h-412v-557h471v-113h-583q-27 -6 -60 -10t-67 -4q-162 0 -243 87t-81 244zM213 315q0 -41 11.5 -79.5t35 -69.5t60 -49.5t90.5 -18.5q72 0 118 29 v1169q-44 27 -116 27q-59 0 -97.5 -25.5t-61 -64.5t-31.5 -85t-9 -87v-746z" />
            <glyph unicode="&#x153;" horiz-adv-x="1183" d="M68 492q0 53 1 108t5 104.5t9 90.5t15 65q29 74 94.5 117t176.5 43q92 0 149 -32t88 -81h2q33 53 90.5 83t147.5 30q127 0 194.5 -61.5t79.5 -176.5q2 -20 3 -40.5t1 -43.5v-225h-452q0 -20 1 -38.5t1 -39.5q2 -53 4 -108.5t12 -83.5q16 -47 52 -75t98 -28 q78 0 113.5 47.5t43.5 110.5l123 -29q-16 -111 -83.5 -177t-202.5 -66q-96 0 -150.5 33.5t-81.5 80.5q-43 -66 -111.5 -90t-136.5 -24q-125 0 -185 54t-83 132q-6 25 -10 62.5t-5 81.5t-2 89.5t-1 86.5zM193 455q0 -84 2 -149.5t14 -100.5q16 -51 54 -78t104 -27 q59 0 101 35t56 94q6 37 10.5 109t4.5 149q0 43 -1 90.5t-2 90.5t-5.5 77.5t-10.5 53.5q-16 53 -56 80.5t-97 27.5q-47 0 -88 -20.5t-64 -73.5q-14 -37 -18 -112.5t-4 -180.5v-65zM674 575h323v107v31.5t-2 31.5q-4 68 -39.5 113t-115.5 45q-43 0 -82 -20.5t-62 -73.5 q-14 -33 -17 -91.5t-5 -142.5z" />
            <glyph unicode="&#x178;" horiz-adv-x="743" d="M23 1425h131l122 -374q6 -18 18.5 -57.5t27 -84.5t26.5 -84t19 -57h6l90 287l123 370h131q-12 -35 -35 -99t-50.5 -145t-58 -168t-58.5 -167t-49.5 -145.5t-33.5 -98.5v-604h-125v604q-12 33 -33.5 98.5t-49 145.5t-58.5 167t-58.5 168t-50 145.5t-34.5 98.5zM162 1534 v129h114v-129h-114zM469 1534v129h113v-129h-113z" />
            <glyph unicode="&#x2c6;" horiz-adv-x="722" d="M74 1176l252 268h80l239 -264l-55 -50l-230 195l-231 -195z" />
            <glyph unicode="&#x2dc;" horiz-adv-x="741" d="M88 1225q25 51 69 93t95 42q31 0 57.5 -12.5t54 -26.5t56.5 -26.5t61 -12.5q51 0 105 80l65 -43q-33 -68 -79 -103.5t-89 -35.5q-31 0 -60.5 12t-58 25.5t-55 25.5t-51.5 12q-53 0 -102 -71z" />
            <glyph unicode="&#x2000;" horiz-adv-x="905" />
            <glyph unicode="&#x2001;" horiz-adv-x="1810" />
            <glyph unicode="&#x2002;" horiz-adv-x="905" />
            <glyph unicode="&#x2003;" horiz-adv-x="1810" />
            <glyph unicode="&#x2004;" horiz-adv-x="603" />
            <glyph unicode="&#x2005;" horiz-adv-x="452" />
            <glyph unicode="&#x2006;" horiz-adv-x="301" />
            <glyph unicode="&#x2007;" horiz-adv-x="301" />
            <glyph unicode="&#x2008;" horiz-adv-x="226" />
            <glyph unicode="&#x2009;" horiz-adv-x="362" />
            <glyph unicode="&#x200a;" horiz-adv-x="100" />
            <glyph unicode="&#x2010;" horiz-adv-x="684" d="M100 530v113h506v-113h-506z" />
            <glyph unicode="&#x2011;" horiz-adv-x="684" d="M100 530v113h506v-113h-506z" />
            <glyph unicode="&#x2012;" horiz-adv-x="684" d="M100 530v113h506v-113h-506z" />
            <glyph unicode="&#x2013;" horiz-adv-x="1024" d="M41 481v121h942v-121h-942z" />
            <glyph unicode="&#x2014;" horiz-adv-x="2048" d="M41 481v121h1966v-121h-1966z" />
            <glyph unicode="&#x2018;" horiz-adv-x="397" d="M119 1069v154l80 213h73q-12 -53 -23 -105.5t-22 -103.5h35v-158h-143z" />
            <glyph unicode="&#x2019;" horiz-adv-x="397" d="M119 1071q10 51 21.5 103.5t23.5 105.5h-35v156h143v-154l-82 -211h-71z" />
            <glyph unicode="&#x201a;" horiz-adv-x="335" d="M88 -219l43 209h-35v155h144v-153l-80 -211h-72z" />
            <glyph unicode="&#x201c;" horiz-adv-x="536" d="M86 1069v154l80 213h74q-4 -12 -10.5 -42t-13.5 -63t-13 -62.5t-8 -41.5h34v-158h-143zM299 1069v154l80 213h74q-4 -12 -10.5 -42t-13.5 -63t-13 -62.5t-8 -41.5h34v-158h-143z" />
            <glyph unicode="&#x201d;" horiz-adv-x="536" d="M100 1071q10 51 21.5 103.5t23.5 105.5h-34v156h143v-154l-82 -211h-72zM301 1071l43 209h-35v156h144v-154l-80 -211h-72z" />
            <glyph unicode="&#x201e;" horiz-adv-x="536" d="M88 -221q10 51 21.5 103t23.5 106h-35v155h144v-153l-82 -211h-72zM289 -221l43 209h-35v155h143v-153l-80 -211h-71z" />
            <glyph unicode="&#x2022;" horiz-adv-x="780" d="M166 547q0 47 18.5 89t49 72.5t72.5 49t89 18.5t89 -18.5t73 -49t49.5 -72.5t18.5 -89t-18.5 -89t-49.5 -73t-73 -49.5t-89 -18.5t-89 18.5t-72.5 49.5t-49 73t-18.5 89z" />
            <glyph unicode="&#x2026;" horiz-adv-x="1179" d="M96 0v150h144v-150h-144zM512 0v150h141v-150h-141zM934 0v150h143v-150h-143z" />
            <glyph unicode="&#x202f;" horiz-adv-x="362" />
            <glyph unicode="&#x2039;" horiz-adv-x="509" d="M86 475l219 381h125l-215 -381l215 -381h-125z" />
            <glyph unicode="&#x203a;" horiz-adv-x="509" d="M86 94l215 381l-215 381h123l219 -381l-219 -381h-123z" />
            <glyph unicode="&#x205f;" horiz-adv-x="452" />
            <glyph unicode="&#x20ac;" d="M31 573v80h69v140h-69v79h69v203q0 76 16.5 142.5t53.5 115.5t96.5 77t143.5 28q137 0 218 -71t85 -200l-125 -20q-6 90 -53.5 132t-126.5 42q-49 0 -83 -19.5t-56.5 -51t-33 -74.5t-10.5 -89v-215h322v-79h-322v-140h322v-80h-322v-260q0 -41 10.5 -79.5t33 -67.5 t57 -46.5t82.5 -17.5q78 0 124 42t56 135l129 -19q-12 -135 -94 -204.5t-213 -69.5q-145 0 -227.5 82t-82.5 241v264h-69z" />
            <glyph unicode="&#x2122;" horiz-adv-x="1306" d="M66 1329v96h444v-96h-172v-700h-100v700h-172zM586 627v796h98l213 -520l207 520h96v-796h-100v522h-6l-160 -385h-82l-162 393h-6v-530h-98z" />
            <glyph unicode="&#x25fc;" horiz-adv-x="1003" d="M0 0v1004h1004v-1004h-1004z" />
            </font>
</defs>
</svg>
