<?xml version="1.0" standalone="no"?>
<!DOCTYPE svg PUBLIC "-//W3C//DTD SVG 1.1//EN" "http://www.w3.org/Graphics/SVG/1.1/DTD/svg11.dtd" >
<svg xmlns="http://www.w3.org/2000/svg">
    <metadata></metadata>
    <defs>
        <font id="pf_din_text_comp_proLtIt" horiz-adv-x="751" >
            <font-face units-per-em="2048" ascent="1536" descent="-512" />
            <missing-glyph horiz-adv-x="376" />
            <glyph unicode="&#xfb01;" horiz-adv-x="741" d="M-14 -307l233 1214h-104l20 99h105l45 233q25 123 101.5 189.5t191.5 66.5q76 0 132 -22.5t103 -69.5l-78 -88q-35 33 -77 46t-83 13q-74 0 -113.5 -39t-51.5 -98l-45 -231h389l-195 -1006h-121l174 907h-268l-233 -1214h-125z" />
            <glyph unicode="&#xfb02;" horiz-adv-x="792" d="M-10 -307l231 1214h-106l20 99h105l45 229q25 129 92 200.5t192 71.5q43 0 107.5 -11t161.5 -48l-232 -1206q-2 -14 -3 -26.5t-1 -25.5q0 -41 21.5 -66.5t93.5 -25.5l-23 -112h-22q-104 0 -153.5 50t-49.5 128q0 31 6 61l227 1131q-31 14 -63.5 20t-60.5 6 q-78 0 -117 -42t-55 -119l-41 -215h170l-21 -99h-170l-229 -1214h-125z" />
            <glyph unicode="&#xfb03;" horiz-adv-x="1128" d="M-14 -307l233 1214h-106l22 101h105l41 223q25 125 101 192.5t191 67.5q102 0 195 -47q45 41 94 60.5t111 19.5q76 0 139.5 -27t104.5 -65l-76 -89q-39 33 -82 46.5t-84 13.5q-76 0 -119 -39t-55 -104l-51 -252h391l-195 -1008h-125l176 907h-268l-231 -1214h-123 l233 1214h-264l-233 -1214h-125zM365 1008h264l49 260q4 16 9 34.5t13 34.5q-35 18 -71.5 25.5t-59.5 7.5q-78 0 -114.5 -41t-48.5 -100z" />
            <glyph unicode="&#xfb04;" horiz-adv-x="1179" d="M-10 -305q57 305 114.5 606t116.5 606h-106l20 99h105l43 225q20 115 96 186.5t196 71.5q49 0 97.5 -11.5t89.5 -35.5q82 78 201 78q47 0 116.5 -11.5t147.5 -46.5l-234 -1220q-2 -14 -3 -26.5t-1 -25.5q0 -41 21.5 -66.5t93.5 -25.5l-23 -112h-22q-104 0 -153.5 50 t-49.5 128q0 31 6 61l228 1151q-33 14 -67 19.5t-60 5.5q-72 0 -114 -46t-56 -120l-45 -229h180l-19 -99h-180l-233 -1212h-123q57 305 115.5 606t115.5 606h-260l-233 -1212h-121zM362 1006h263q12 59 24.5 121.5t22.5 121.5q4 20 12 45t16 43q-31 18 -69.5 24.5t-61.5 6.5 q-78 0 -114.5 -41t-46.5 -100q-12 -55 -22.5 -110.5t-23.5 -110.5z" />
            <glyph horiz-adv-x="0" />
            <glyph horiz-adv-x="682" />
            <glyph unicode=" "  horiz-adv-x="376" />
            <glyph unicode="&#x09;" horiz-adv-x="376" />
            <glyph unicode="&#xa0;" horiz-adv-x="376" />
            <glyph unicode="!" horiz-adv-x="438" d="M70 0l24 131h133l-26 -131h-131zM150 344q47 268 99 540.5t99 540.5h129l-223 -1081h-104z" />
            <glyph unicode="&#x22;" horiz-adv-x="450" d="M201 1053l71 372h101l-74 -372h-98zM397 1053l74 372h96l-71 -372h-99z" />
            <glyph unicode="#" d="M-35 0l174 459h-123l17 84h137l133 352h-117l17 86h135l176 455h88l-176 -455h207l174 455h88l-174 -455h123l-17 -86h-139l-135 -352h117l-15 -84h-135l-174 -459h-88l174 459h-207l-172 -459h-88zM256 543h209l135 352h-207z" />
            <glyph unicode="$" d="M16 246q0 20 2 39.5t7 40.5l129 16q-4 -18 -6.5 -38.5t-2.5 -41.5q0 -55 29 -98t102 -53l115 581q-66 33 -107.5 66t-66 66.5t-35 70.5t-10.5 78q0 209 95 330.5t268 132.5l34 172h68l-35 -172q68 -6 114 -29t75.5 -56.5t43 -75.5t13.5 -87q0 -47 -12 -92l-129 -19 q10 45 10 82q0 57 -31 100.5t-108 51.5l-99 -510q12 -8 25 -10q121 -53 166 -116t45 -153q0 -119 -22.5 -216t-71 -167.5t-123 -110.5t-176.5 -42l-37 -189h-68l37 193q-63 6 -108.5 27.5t-74 56.5t-42 79t-13.5 93zM301 995q0 -47 24.5 -85t92.5 -76l92 477 q-61 -10 -102 -46t-65 -83t-33 -98.5t-9 -88.5zM344 111q68 6 113 39.5t72.5 86t39 116.5t11.5 132q0 63 -30 102.5t-97 76.5z" />
            <glyph unicode="%" horiz-adv-x="1187" d="M76 713q0 14 12 82.5t28.5 155.5t35 174t28.5 139q39 168 201 168q92 0 141 -49.5t33 -135.5l-100 -514q-18 -82 -64.5 -125t-140.5 -43q-37 0 -70 9.5t-57.5 28t-37.5 46t-9 64.5zM90 -35l934 1497h88l-934 -1497h-88zM178 739q-6 -35 14.5 -60.5t65.5 -25.5t67.5 26 t26.5 58l99 520q6 29 -12.5 57.5t-65.5 28.5q-43 0 -64.5 -22.5t-27.5 -54.5zM635 139q0 14 12 83t28.5 156t35 175t28.5 139q39 168 201 168q94 0 142 -49t32 -135q-2 -16 -12 -70.5t-24.5 -128.5t-32 -157.5t-31.5 -159.5q-16 -82 -62.5 -124t-142.5 -42q-37 0 -69.5 9 t-57.5 27.5t-38 46t-9 62.5zM739 166q-8 -35 13.5 -60.5t64.5 -25.5q47 0 68.5 25.5t27.5 58.5l99 520q4 31 -14.5 59.5t-65.5 28.5q-43 0 -63.5 -22.5t-26.5 -57.5z" />
            <glyph unicode="&#x26;" horiz-adv-x="937" d="M59 313q10 129 92 246t218 213l-29 82q-20 59 -36.5 138t-12.5 151q4 61 26.5 114.5t62.5 93.5t97.5 62.5t130.5 22.5q84 0 151.5 -35t96.5 -107l-115 -57q-12 43 -53 64.5t-90 21.5q-45 0 -78 -15.5t-56.5 -42t-34.5 -59t-13 -67.5q-4 -57 8 -125t37 -142l198 -520 q35 57 57.5 118.5t39.5 121.5h116q-20 -82 -63 -182.5t-98 -180.5l94 -229h-133l-51 131q-90 -90 -168 -116.5t-154 -26.5q-115 0 -182.5 86t-57.5 239zM182 315q-4 -43 2 -82.5t25.5 -69.5t51.5 -48.5t77 -18.5q51 0 119.5 34t122.5 97l-170 439q-121 -94 -170.5 -182.5 t-57.5 -168.5z" />
            <glyph unicode="'" horiz-adv-x="319" d="M233 1053l74 372h99l-72 -372h-101z" />
            <glyph unicode="(" horiz-adv-x="436" d="M100 338q0 154 35 310.5t96.5 304t143.5 278.5t176 235l53 -28q-90 -125 -162.5 -262.5t-124 -284t-79 -298t-27.5 -302.5q0 -135 20.5 -259t55.5 -229l-62 -32q-53 115 -89 258t-36 309z" />
            <glyph unicode=")" horiz-adv-x="436" d="M-29 -197q86 115 158 252.5t124 285.5t82 303t30 306q0 266 -78 488q2 0 12 4t21.5 9t20.5 9t11 6q55 -117 89 -257t34 -302q0 -156 -36 -314.5t-98 -308t-145 -281.5t-178 -232z" />
            <glyph unicode="*" horiz-adv-x="696" d="M195 1169l53 99l201 -92l30 247h105l-66 -247l236 92l16 -99l-244 -65l119 -197l-96 -57l-88 213l-168 -215l-76 59l193 197z" />
            <glyph unicode="+" d="M49 551l19 100h303l63 328h96l-63 -328h301l-18 -100h-301l-64 -330h-98l65 330h-303z" />
            <glyph unicode="," horiz-adv-x="335" d="M-37 -219l82 209h-35l31 155h143l-30 -151l-121 -213h-70z" />
            <glyph unicode="-" horiz-adv-x="684" d="M121 530l22 113h506l-22 -113h-506z" />
            <glyph unicode="." horiz-adv-x="335" d="M14 0l29 150h141l-26 -150h-144z" />
            <glyph unicode="/" horiz-adv-x="499" d="M-86 -86l684 1571h98l-686 -1571h-96z" />
            <glyph unicode="0" d="M67.5 175q-4.5 56 8.5 122q6 35 19.5 104.5t29.5 155.5t34.5 181.5t35 181.5t30 153.5t19.5 100.5q27 129 106.5 196.5t200.5 67.5q63 0 114.5 -21.5t83 -61.5t44 -95.5t-1.5 -122.5l-173 -885q-27 -137 -104.5 -201.5t-204.5 -64.5q-84 0 -134 24.5t-76.5 66.5t-31 98z M199 303q-16 -84 9 -141.5t111 -57.5q68 0 115 44.5t64 121.5l170 879q16 78 -22.5 124t-106.5 46q-70 0 -113 -38t-57 -103z" />
            <glyph unicode="1" d="M324 0l249 1292l-243 -162l26 136l240 159h129l-276 -1425h-125z" />
            <glyph unicode="2" d="M16 0l21 113l530 764q53 76 81 150.5t28 141.5q0 61 -32 105.5t-105 44.5q-29 0 -61 -13.5t-58.5 -41t-46 -68.5t-23.5 -98l-121 24q16 147 102.5 231.5t223.5 84.5q115 0 181.5 -64.5t66.5 -183.5q0 -117 -46 -209t-102 -174l-477 -690h406l-21 -117h-547z" />
            <glyph unicode="3" d="M63 203q0 23 3.5 44t7.5 44l131 24q-10 -47 -10 -79q0 -63 31.5 -98.5t99.5 -35.5q66 0 112.5 42t65.5 139l41 217q8 33 8 65q0 63 -33 90t-96 27h-59l20 113h64q74 0 121.5 38.5t66.5 133.5l37 192q4 20 4 31q0 53 -36 91t-99 38q-84 0 -133.5 -58.5t-61.5 -150.5 l-127 27q23 137 106 219t228 82q133 0 190.5 -63.5t57.5 -157.5q0 -35 -6 -68l-27 -160q-8 -39 -20.5 -80t-33 -75.5t-51 -61.5t-75.5 -37v-4q51 -23 70.5 -57.5t19.5 -83.5q0 -51 -16 -123l-39 -191q-29 -145 -100.5 -217.5t-217.5 -72.5q-117 0 -180.5 56t-63.5 161z" />
            <glyph unicode="4" d="M16 236l23 114l502 1075h125l-502 -1075h291l75 398h125l-77 -398h108l-22 -114h-107l-45 -236h-125l45 236h-416z" />
            <glyph unicode="5" d="M72 229v22.5t2 24.5l127 17q-2 -14 -3 -28.5t-1 -26.5q0 -59 27.5 -97.5t97.5 -38.5t115.5 46.5t62.5 117.5l65 338q6 37 6 73t-12 63.5t-37.5 45t-70.5 17.5q-43 0 -89.5 -22.5t-70.5 -61.5h-111q35 178 69 353t68 353h529l-23 -112h-415l-93 -469h9q76 63 184 63 q74 0 115 -27.5t59 -72.5t17 -99.5t-13 -105.5q-16 -86 -32.5 -171t-32.5 -171q-25 -139 -104 -206.5t-204 -67.5q-109 0 -175 60t-66 183z" />
            <glyph unicode="6" d="M66 211v16q4 47 16 113t31 158q16 80 37.5 135t46.5 98l405 694h125q-78 -135 -138.5 -239.5t-104.5 -184t-76.5 -136t-55.5 -97.5l4 -4q29 23 70 37t74 14q90 0 137 -50t47 -134q0 -10 -1 -23.5t-5 -36.5q-8 -51 -22.5 -126.5t-37.5 -198.5q-25 -135 -105.5 -196.5 t-215.5 -61.5q-115 0 -173 62.5t-58 160.5zM190 236q0 -53 30 -93.5t97 -40.5q61 0 110.5 37t61.5 103q23 111 36.5 180.5t21.5 116.5q6 31 6 49q0 51 -32 81.5t-97 30.5q-41 0 -71.5 -15t-53.5 -39.5t-37 -55.5t-20 -64q-14 -70 -24.5 -127t-22.5 -123q-2 -10 -3.5 -20 t-1.5 -20z" />
            <glyph unicode="7" d="M80 0l625 1313h-330l-33 -172h-113l58 284h567l-20 -104l-631 -1321h-123z" />
            <glyph unicode="8" d="M66 197q0 12 1 24t3 27l49 274q14 78 53 135.5t109 85.5q-37 25 -58.5 65t-21.5 97q0 29 6 60l41 209q27 129 98.5 196.5t212.5 67.5q106 0 175 -63.5t69 -168.5q0 -27 -6 -57l-33 -184q-16 -80 -57 -139.5t-105 -82.5q35 -27 56.5 -66.5t21.5 -94.5q0 -29 -6 -60 l-51 -264q-29 -141 -108 -206.5t-204 -65.5q-49 0 -94 13t-79 40t-53 65.5t-19 92.5zM190 211q0 -51 40 -80t100 -29q66 0 109.5 40t58.5 110l55 276q2 10 3 17.5t1 15.5q0 53 -34 92t-95 39q-66 0 -118 -40t-62 -103l-55 -309q-2 -10 -3 -29zM326 913q0 -53 37.5 -82.5 t97.5 -29.5q66 0 114 42t64 134l31 182q2 8 2 15.5v13.5q0 55 -36 94t-93 39q-68 0 -112 -37t-56 -102l-47 -242q-2 -6 -2 -13v-14z" />
            <glyph unicode="9" d="M133 0q78 135 138.5 239.5t104.5 184.5t76.5 136t55.5 97l-4 5q-29 -23 -70 -37.5t-74 -14.5q-90 0 -137 50.5t-47 134.5q0 10 1 23t5 36q8 51 22.5 127t37.5 199q25 135 105.5 196.5t215.5 61.5q115 0 173.5 -62.5t58.5 -161.5v-16q-8 -92 -45 -270q-16 -80 -39 -135.5 t-47 -98.5l-406 -694h-125zM307 838q0 -51 32 -82t97 -31q39 0 71 15.5t54.5 40t36.5 55t20 63.5q14 70 24.5 127t23.5 123q2 10 3 20.5t1 20.5q0 53 -30 93t-97 40q-61 0 -110.5 -36.5t-61.5 -102.5q-23 -111 -36 -180.5t-22 -116.5q-6 -31 -6 -49z" />
            <glyph unicode=":" horiz-adv-x="335" d="M14 0l29 150h143l-28 -150h-144zM135 621l29 151h143l-28 -151h-144z" />
            <glyph unicode=";" horiz-adv-x="335" d="M-37 -219l82 209h-35l31 155h143l-30 -151l-121 -213h-70zM133 621q8 37 15.5 73.5t13.5 75.5h143q-6 -39 -13 -76t-16 -73h-143z" />
            <glyph unicode="&#x3c;" d="M53 557l17 90l764 369l-17 -115l-653 -307l532 -303l-22 -103z" />
            <glyph unicode="=" d="M18 395l21 105h700l-20 -105h-701zM78 700l20 103h701l-21 -103h-700z" />
            <glyph unicode="&#x3e;" d="M-16 188l20 117l653 303l-534 305l20 103l621 -369l-16 -90z" />
            <glyph unicode="?" horiz-adv-x="731" d="M195 1128q59 310 340 310q135 0 208.5 -74t73.5 -203q0 -66 -9 -114t-24.5 -85.5t-38 -70.5t-49.5 -68q-45 -59 -81.5 -102t-64.5 -79t-46.5 -69.5t-26.5 -74.5l-33 -154h-125l37 170q18 90 78 160q63 78 110.5 137t80 111.5t49 104.5t16.5 114q0 86 -40 132t-130 46 q-68 0 -126 -48t-77 -163zM252 0l27 131h129l-27 -131h-129z" />
            <glyph unicode="@" horiz-adv-x="1527" d="M150 475q0 209 57 386t161.5 306t254 201t333.5 72q131 0 231.5 -39t168 -109.5t101.5 -167t34 -211.5q0 -166 -36 -284.5t-92 -194.5t-128 -110.5t-143 -34.5q-6 0 -34 3t-58.5 14t-57.5 33.5t-33 63.5q-41 -55 -97 -76.5t-99 -21.5q-39 0 -75 9.5t-62.5 28.5t-43 51 t-16.5 77q0 23 3 53.5t7 65.5t9.5 69.5t11.5 65.5q16 88 37.5 158.5t54.5 120t81 75t118 25.5q47 0 87 -21.5t64 -62.5h2l15 74h106l-104 -576q-2 -10 -3 -20.5t-1 -20.5q0 -41 23.5 -64.5t76.5 -23.5q59 0 111.5 35t92.5 102.5t62.5 164.5t22.5 224q0 102 -33 182.5 t-91.5 135.5t-139 85t-177.5 30q-176 0 -306 -70t-218 -187.5t-131 -271t-43 -321.5q0 -111 27.5 -201t84 -152.5t144.5 -96.5t209 -34q96 0 179 16.5t177 63.5l35 -86q-92 -37 -193.5 -61.5t-199.5 -24.5q-274 0 -420.5 137.5t-146.5 415.5zM631 506q-1 -98 112 -98 q41 0 70 16t49.5 43t31.5 59.5t17 67.5l37 207q6 33 7 67.5t-8 64.5t-32.5 49t-68.5 19t-76 -16t-53 -61q-16 -29 -31.5 -89.5t-32.5 -140.5q-23 -125 -22 -188z" />
            <glyph unicode="A" horiz-adv-x="790" d="M-57 0l583 1425h127l37 -1425h-121l-6 344h-356l-139 -344h-125zM250 463h311l-8 414l2 350h-8l-131 -355z" />
            <glyph unicode="B" horiz-adv-x="843" d="M25 0l276 1425h281q156 0 223 -70.5t67 -199.5q0 -164 -57 -263t-172 -140q0 -2 -1 -3t-1 -4q70 -23 97.5 -78t27.5 -132q0 -135 -33 -235.5t-91 -167t-139 -99.5t-175 -33h-303zM170 115h180q84 0 140.5 35.5t91 93t50 129t15.5 143.5q0 86 -45 133t-149 47h-168z M305 805h135q143 0 227.5 80t84.5 248q0 86 -46.5 132t-154.5 46h-145z" />
            <glyph unicode="C" horiz-adv-x="800" d="M66 238q0 25 3 49t7 51q4 23 14 77t24.5 122.5t29 146.5t28.5 146.5t24.5 122t14.5 75.5q16 86 40.5 161t67.5 130t106.5 87t156.5 32q145 0 212.5 -72t67.5 -176q0 -33 -6 -70l-125 -22q8 33 8 69q0 66 -37.5 110t-121.5 44q-104 0 -157.5 -65.5t-76.5 -174.5 q-4 -23 -15.5 -80t-26.5 -133.5t-31.5 -161.5t-32 -161t-26.5 -134.5t-15 -80.5q-4 -23 -5 -37t-1 -31q0 -76 36.5 -120t118.5 -44q195 0 232 232l120 -33q-27 -160 -117.5 -235.5t-240.5 -75.5q-145 0 -210.5 66.5t-65.5 185.5z" />
            <glyph unicode="D" horiz-adv-x="847" d="M25 0l276 1425h291q135 0 213 -59t78 -176v-12q1 -72 -21 -182q-24 -118 -53 -281q-31 -176 -57.5 -317.5t-67.5 -219.5q-57 -109 -135 -143.5t-187 -34.5h-337zM170 113h184q113 0 173.5 62.5t82.5 176.5l142 725q4 18 6 37t2 35q0 72 -39 117t-135 45h-183z" />
            <glyph unicode="E" horiz-adv-x="739" d="M27 0l276 1425h596l-25 -116h-471l-100 -523h412l-23 -116h-411l-109 -555h471l-20 -115h-596z" />
            <glyph unicode="F" horiz-adv-x="737" d="M27 0l276 1425h596l-25 -116h-468l-103 -523h412l-23 -116h-411l-129 -670h-125z" />
            <glyph unicode="G" horiz-adv-x="829" d="M63 223q0 23 1.5 43.5t11.5 67.5l151 786q29 143 118 230.5t243 87.5q74 0 126 -20.5t86 -57.5t49 -86t15 -107q0 -37 -6 -73l-123 -17q6 37 6 70q0 35 -8 66.5t-27.5 55t-51 37t-79.5 13.5q-88 0 -145 -48t-78 -153l-159 -815q-2 -16 -3.5 -27.5t-1.5 -21.5 q0 -68 39 -110t119 -42q94 0 146.5 40t81 113t45 172t38.5 216h-170l23 111h295q-16 -115 -41 -226.5t-47 -226.5q-33 -170 -132.5 -242.5t-240.5 -72.5q-55 0 -105.5 13t-89 42t-62.5 74t-24 108z" />
            <glyph unicode="H" horiz-adv-x="860" d="M27 0l276 1425h125l-127 -641h393l125 641h127l-276 -1425h-127l131 674h-391l-131 -674h-125z" />
            <glyph unicode="I" horiz-adv-x="374" d="M41 0l276 1425h129l-276 -1425h-129z" />
            <glyph unicode="J" horiz-adv-x="704" d="M-41 94l88 80q20 -29 66.5 -52.5t87.5 -23.5q78 0 133 40t78 151l223 1136h125l-219 -1126q-33 -170 -116 -241.5t-235 -71.5q-76 0 -131 28.5t-100 79.5z" />
            <glyph unicode="K" horiz-adv-x="831" d="M27 0l276 1425h123l-145 -751h4l534 751h137l-401 -571l180 -854h-127l-149 727l-230 -319l-79 -408h-123z" />
            <glyph unicode="L" horiz-adv-x="690" d="M27 0l276 1425h125l-256 -1310h442l-20 -115h-567z" />
            <glyph unicode="M" horiz-adv-x="1122" d="M25 0l276 1425h121q6 -31 18.5 -95t24.5 -135t23.5 -135.5t17.5 -94.5q2 -10 12 -68.5t23.5 -126.5t25 -126t13.5 -69h6q14 29 46 83.5t66.5 115t67.5 115.5t49 84q16 31 53 93t78 132t78 133.5t53 93.5h133l-276 -1425h-125l209 1073h-8q-14 -25 -42 -73t-58.5 -99 t-58.5 -99t-42 -73l-48 -81t-68 -113.5t-68.5 -113.5t-46.5 -81h-70q-4 23 -15.5 72t-22.5 104t-21.5 105.5t-14.5 72.5l-69 375h-9q-10 -49 -26.5 -133t-36 -187.5t-41 -215t-42 -214t-36.5 -187.5t-24 -132h-125z" />
            <glyph unicode="N" horiz-adv-x="903" d="M20 0l277 1425h117q14 -66 34.5 -158.5t44 -198t49 -219.5t48.5 -218q20 -92 36.5 -166t26.5 -121q2 0 4 1t5 1l208 1079h123l-276 -1425h-117q-12 59 -31.5 147.5t-42 190.5t-46 211.5t-46 211t-42 188.5l-32.5 145h-6q-53 -274 -105 -547t-106 -547h-123z" />
            <glyph unicode="O" horiz-adv-x="837" d="M74 256q0 25 3 50.5t7 53.5l147 760q29 154 124.5 236t238.5 82t210.5 -73t67.5 -196q0 -25 -3 -49t-7 -53l-143 -764q-33 -172 -126 -244.5t-245 -72.5q-145 0 -209.5 75.5t-64.5 194.5zM197 276q0 -74 35.5 -124t125.5 -50q94 0 151.5 46.5t76.5 144.5l151 770 q4 23 6 43t2 39q0 78 -36.5 126t-124.5 48q-98 0 -155.5 -60.5t-74.5 -144.5l-149 -754q-8 -39 -8 -84z" />
            <glyph unicode="P" horiz-adv-x="800" d="M27 0l276 1425h277q166 0 234.5 -70.5t68.5 -199.5q0 -121 -23.5 -224.5t-77 -179t-139.5 -118.5t-213 -43h-164l-114 -590h-125zM287 707h145q88 0 149.5 30.5t100.5 85t56.5 129t17.5 164.5q0 43 -10.5 79t-35 61.5t-65.5 40t-102 14.5h-137z" />
            <glyph unicode="Q" horiz-adv-x="835" d="M74 250q0 27 2 54.5t8 55.5l147 766q29 152 124.5 232t238.5 80q147 0 213.5 -73t66.5 -196q0 -23 -3 -47t-7 -53l-145 -766q-20 -104 -66 -174l92 -86l-79 -80l-91 84q-43 -35 -100 -48t-127 -13q-147 0 -210.5 73.5t-63.5 190.5zM195 274q0 -74 36.5 -123t126.5 -49 q74 0 127 31l-112 105l80 77l104 -98q10 16 16.5 34.5t12.5 41.5l151 770q10 51 11 86q0 76 -38 123t-126 47q-98 0 -154.5 -57.5t-73.5 -141.5l-151 -760q-10 -51 -10 -86z" />
            <glyph unicode="R" horiz-adv-x="831" d="M25 0l276 1425h279q160 0 229.5 -70.5t69.5 -211.5q0 -190 -69 -309t-216 -170q23 -160 47.5 -333t46.5 -331h-127l-88 639h-201l-122 -639h-125zM293 748h162q143 0 221 101t78 275q0 88 -46 137.5t-163 49.5h-142z" />
            <glyph unicode="S" horiz-adv-x="790" d="M39 244q0 43 8 82l129 16q-10 -47 -10 -80q0 -66 37 -112t133 -46q76 0 127 33t81.5 87.5t44 122t13.5 138.5q0 72 -39 113t-129 84q-72 35 -119 68.5t-74.5 68.5t-37.5 73t-10 81q0 217 103.5 341t289.5 124q76 0 130 -20.5t88 -55.5t49 -80t15 -94q0 -23 -2 -46.5 t-8 -45.5l-131 -19q12 45 12 84q0 63 -38.5 110.5t-135.5 47.5q-74 0 -121 -35t-74.5 -86t-37.5 -106.5t-10 -96.5q0 -59 42 -105t160 -99q121 -53 166 -117t45 -152q0 -121 -23.5 -220t-73.5 -170t-127 -108.5t-183 -37.5q-152 0 -220.5 72.5t-68.5 185.5z" />
            <glyph unicode="T" horiz-adv-x="655" d="M176 1309l25 116h641l-27 -116h-256l-252 -1309h-125l252 1309h-258z" />
            <glyph unicode="U" horiz-adv-x="833" d="M68 266q0 8 14 84t35.5 188.5t47 248t51.5 261.5t45.5 228t29.5 149h123q-4 -29 -16.5 -91t-29 -146t-36 -181.5t-39 -195.5t-36.5 -190.5t-31.5 -165t-22.5 -117.5t-8 -49q-2 -16 -2 -31q1 -62 33 -104q40 -52 132 -52q86 0 147.5 48.5t84.5 162.5l221 1112h127 l-221 -1116q-35 -182 -131.5 -252.5t-237.5 -70.5q-147 0 -219 76q-62 65 -62 171q0 16 1 33z" />
            <glyph unicode="V" horiz-adv-x="792" d="M231 1427h121l-2 -798l-4 -400h8l160 414l299 784h135l-567 -1427h-145z" />
            <glyph unicode="W" horiz-adv-x="1189" d="M176 0l55 1427h127l-36 -698l-31 -455h6l164 441l268 712h119l-10 -710l-15 -443h8l144 445l242 708h131l-500 -1427h-129l4 754l8 372h-6l-139 -378l-283 -748h-127z" />
            <glyph unicode="X" horiz-adv-x="741" d="M-68 0l433 737l-140 688h129l99 -553l313 553h141l-413 -688l153 -737h-131l-104 592l-338 -592h-142z" />
            <glyph unicode="Y" horiz-adv-x="743" d="M219 1427h125q12 -102 25.5 -206.5t26 -194.5t21.5 -160.5t13 -105.5h6l340 667h137l-446 -823l-117 -604h-125l117 604z" />
            <glyph unicode="Z" horiz-adv-x="641" d="M-49 0l22 119l678 1190h-418l23 116h545l-25 -116l-676 -1194h432l-20 -115h-561z" />
            <glyph unicode="[" horiz-adv-x="417" d="M4 -213l320 1640h256l-17 -84h-145l-287 -1474h145l-14 -82h-258z" />
            <glyph unicode="\" horiz-adv-x="436" d="M219 1452h96q2 -375 3 -745.5t6 -743.5h-99z" />
            <glyph unicode="]" horiz-adv-x="417" d="M-61 -215l12 84h147l287 1474h-145l16 84h254l-317 -1642h-254z" />
            <glyph unicode="^" d="M78 729l448 690h90l179 -690h-99l-143 578l-363 -578h-112z" />
            <glyph unicode="_" horiz-adv-x="1024" d="M-131 -258l20 102h1022l-20 -102h-1022z" />
            <glyph unicode="`" horiz-adv-x="716" d="M426 1440l111 67l159 -346l-61 -39z" />
            <glyph unicode="a" horiz-adv-x="782" d="M51 188q0 29 4 70t10.5 87t14.5 94t16 91q23 117 48.5 207t64.5 153.5t95 96.5t138 33q68 0 118 -27.5t73 -72.5h4q0 6 2 17t5 25.5t5 26.5t4 19h125q-8 -41 -23.5 -121t-35 -178.5t-40 -206t-38.5 -204.5t-33.5 -177t-23.5 -121h-127q4 14 10 47t8 47l-4 2 q-43 -53 -91 -80.5t-130 -27.5q-35 0 -71 9t-64.5 31.5t-46 61.5t-17.5 98zM182 233q0 -61 36 -92.5t97 -31.5q43 0 79 19t61.5 50t41 67t21.5 68l74 373q6 30 6 57q0 53 -20 93q-30 62 -119 61q-55 0 -98.5 -24.5t-69.5 -88.5q-10 -27 -31.5 -103.5t-40.5 -172.5 q-16 -86 -26.5 -156.5t-10.5 -118.5z" />
            <glyph unicode="b" horiz-adv-x="737" d="M0 0l289 1487h123q-29 -147 -57.5 -293.5t-57.5 -294.5h4q45 59 105.5 89t119.5 30q102 0 151.5 -52.5t49.5 -142.5q0 -63 -14.5 -160.5t-36.5 -207.5q-10 -55 -23.5 -112.5t-29.5 -113.5q-23 -78 -59 -126t-75.5 -73.5t-80.5 -33.5t-74 -8q-80 0 -123 25.5t-66 72.5h-4 l-18 -86h-123zM176 226q4 -34 20.5 -60.5t45 -43t69.5 -16.5q63 0 102.5 25t67.5 84q20 41 39 109.5t35 162.5q16 86 28.5 164t12.5 125q-4 57 -34 89t-95 32q-49 0 -87 -22.5t-63.5 -57.5t-42 -78t-24.5 -82l-72 -362q-4 -21 -4 -41q0 -15 2 -28z" />
            <glyph unicode="c" horiz-adv-x="686" d="M41 172q-1 8 -1 18q0 18 3 44q4 38 10 82t14.5 89.5t16.5 86.5q10 53 21.5 108t23.5 104.5t24.5 89.5t26.5 64q39 74 102.5 118t184.5 44q66 0 115 -21.5t78.5 -60.5t41.5 -90q6 -26 5 -54q0 -27 -5 -55l-133 -18v2q9 32 9 59q0 42 -21 73q-35 52 -108 52 q-49 0 -90.5 -21.5t-63.5 -74.5q-16 -41 -41 -130t-51 -212q-15 -79 -27 -153q-9 -56 -9 -91q0 -11 1 -20q8 -49 39 -78t90 -29q86 0 130 45t60 138l121 -23q-16 -123 -94 -197.5t-240 -74.5q-61 0 -105 15t-71.5 42t-41 59.5t-15.5 69.5z" />
            <glyph unicode="d" horiz-adv-x="735" d="M35 193q0 27 4 67.5t11 86.5t14.5 91t13.5 78q20 113 44.5 206t62.5 159.5t96.5 102.5t146.5 36q76 0 122 -34t66 -71h5q6 37 21 117t32.5 169t33 169t23.5 117h125l-289 -1487h-125l15 86h-4q-41 -47 -87 -72.5t-128 -25.5q-31 0 -67 7t-65.5 28.5t-50 62.5t-20.5 107z M166 238q0 -66 29.5 -97.5t107.5 -31.5q49 0 84 19t58.5 48t37 61.5t17.5 57.5l75 389q5 28 5 53q0 55 -24 97q-34 62 -116 63q-43 0 -82 -16.5t-67 -67.5q-23 -37 -45.5 -122t-44.5 -195q-16 -82 -25.5 -149.5t-9.5 -108.5z" />
            <glyph unicode="e" horiz-adv-x="724" d="M53 252q0 57 8.5 118.5t18.5 121.5q18 100 42.5 195t67.5 170t110 120t171 45q121 0 185.5 -57.5t64.5 -157.5q0 -96 -33 -167t-88 -118t-128 -70.5t-153 -23.5q-51 0 -120 12q-10 -41 -17.5 -88t-7.5 -88q0 -63 26.5 -112.5t106.5 -49.5q74 0 121 45.5t61 118.5l132 -20 q-29 -119 -108 -189.5t-220 -70.5q-72 0 -118 21.5t-72.5 58t-38 85t-11.5 101.5zM217 551q25 -4 56.5 -8t56.5 -4q49 0 96 13t85 43t61.5 77t23.5 114q0 53 -36.5 88t-102.5 35q-90 0 -145.5 -84t-94.5 -274z" />
            <glyph unicode="f" horiz-adv-x="454" d="M-158 -258l25 115h20q80 0 113 33.5t45 101.5l176 907h-112l20 105h113q10 53 18 104t19 98q12 61 30.5 114.5t48 91.5t74.5 59.5t115 21.5q33 0 69 -6l-18 -115q-12 2 -24.5 3t-22.5 1q-68 0 -96.5 -35.5t-38.5 -93.5l-49 -243h155l-20 -105h-156q-45 -233 -89 -464.5 t-91 -465.5q-16 -109 -81 -170t-179 -61h-31.5t-32.5 4z" />
            <glyph unicode="g" horiz-adv-x="743" d="M-18 -174l118 33q-1 -11 -1 -21q0 -57 28 -91q33 -40 104 -40q90 0 133.5 49t59.5 127q10 57 22.5 112.5t24.5 113.5h-4q-45 -59 -105.5 -89t-119.5 -30q-100 0 -150.5 49t-50.5 139q0 59 12.5 149.5t30.5 192.5q12 63 26.5 128t34.5 130q23 78 58 125t74.5 74t79.5 35 t75 8q82 0 125 -26.5t66 -73.5q2 0 2 1t2 1q4 23 8 43t8 43h125l-223 -1133q-27 -133 -107 -209t-215 -76q-123 0 -182 62.5t-59 173.5zM172 238q0 -129 127 -129q49 0 86 22.5t63.5 58t44 79.5t25.5 85l72 359q4 21 4 41q0 14 -2 28q-4 33 -20.5 59.5t-45 43t-71.5 16.5 q-66 0 -106 -28.5t-70 -94.5q-16 -39 -33 -105.5t-33 -152.5t-28.5 -160.5t-12.5 -121.5z" />
            <glyph unicode="h" horiz-adv-x="745" d="M0 0l289 1487h125l-117 -594h6q51 68 110.5 96.5t121.5 28.5q55 0 92 -15.5t60.5 -42t32.5 -62.5t9 -75q0 -23 -3 -44t-7 -44l-139 -735h-127l141 721q2 14 3 26.5t1 24.5q0 51 -26.5 87t-100.5 36q-41 0 -78 -21.5t-66.5 -54.5t-49 -72.5t-25.5 -76.5l-129 -670h-123z " />
            <glyph unicode="i" horiz-adv-x="333" d="M18 0l195 1008h129l-197 -1008h-127zM260 1253l27 131h129l-27 -131h-129z" />
            <glyph unicode="j" horiz-adv-x="333" d="M-195 -401l21 116q8 -2 24 -2q39 0 65 13.5t41 36t24.5 55t17.5 71.5q53 281 108.5 558.5t110.5 558.5h127q-12 -61 -29.5 -150.5t-39 -195t-44 -218t-44 -221t-41 -207t-33.5 -170.5q-23 -117 -79.5 -183.5t-178.5 -66.5h-23.5t-26.5 5zM264 1253l27 131h127l-25 -131 h-129z" />
            <glyph unicode="k" horiz-adv-x="737" d="M4 0l289 1487h125l-199 -1004h2l426 525h146l-308 -383l162 -625h-129l-127 520l-213 -268l-49 -252h-125z" />
            <glyph unicode="l" horiz-adv-x="387" d="M53 164q0 31 6 61l246 1262h127l-242 -1245q-2 -14 -3 -26.5t-1 -25.5q0 -41 21.5 -66.5t93.5 -25.5l-22 -112h-23q-104 0 -153.5 50t-49.5 128z" />
            <glyph unicode="m" horiz-adv-x="1191" d="M12 0l197 1006h125q-6 -29 -12.5 -56.5t-10.5 -56.5h4q47 59 102.5 92t123.5 33q84 0 126 -36t54 -95q117 131 256 131q55 0 91 -15.5t57.5 -42t29.5 -61.5t8 -74q0 -27 -4 -53.5t-8 -52.5l-139 -719h-127l139 713q6 31 6 61q0 47 -23.5 83t-91.5 36q-74 0 -132 -53.5 t-72 -126.5l-138 -713h-124l139 715q6 31 6 61q0 47 -23.5 82t-91.5 35q-39 0 -73.5 -16.5t-62.5 -44t-46 -63.5t-27 -77l-133 -692h-125z" />
            <glyph unicode="n" horiz-adv-x="741" d="M-4 0q49 252 98 502t96 504h125q-4 -29 -11 -56.5t-11 -56.5h6q51 68 110.5 96.5t120.5 28.5q55 0 93.5 -15.5t61 -43t31.5 -63.5t9 -77q0 -23 -3 -47t-7 -49l-140 -723h-126l137 700q4 18 6 36t2 34q0 51 -26.5 88t-100.5 37q-55 0 -95 -25.5t-65.5 -65.5t-42 -88 t-24.5 -95l-121 -621h-123z" />
            <glyph unicode="o" horiz-adv-x="729" d="M47 205q0 53 12.5 134t26.5 155q27 129 49.5 225t61.5 162q82 139 266 139q63 0 110.5 -18.5t78 -49t45 -69.5t14.5 -78q0 -68 -15.5 -159t-33.5 -183q-25 -129 -52.5 -220t-68.5 -147.5t-101.5 -83t-152.5 -26.5q-66 0 -111 20.5t-73.5 52t-42 70.5t-13.5 76zM168 227 q0 -53 35 -91t108 -38q59 0 105.5 34t66.5 97q12 41 32 114t36 152.5t28.5 155.5t12.5 125q0 61 -39 97t-98 36q-49 0 -92.5 -21.5t-71.5 -74.5q-16 -33 -42 -128t-50 -218q-14 -74 -22.5 -134.5t-8.5 -105.5z" />
            <glyph unicode="p" horiz-adv-x="731" d="M-92 -399l274 1411h127l-16 -86l4 -2q43 47 89 73.5t126 26.5q31 0 66.5 -7t65.5 -29.5t50.5 -63.5t20.5 -107q0 -27 -3 -67.5t-9.5 -87t-13.5 -91.5t-13 -77q-25 -115 -47.5 -208t-59.5 -159t-95 -101.5t-150 -35.5q-76 0 -123 33.5t-66 70.5h-4l-96 -493h-127zM174 328 q-7 -35 -7 -65q0 -60 27 -100q39 -61 132 -61q49 0 82.5 29t59.5 83t44 130t37 172q16 82 24.5 148.5t8.5 107.5q0 66 -37.5 97.5t-98.5 31.5q-45 0 -78.5 -16.5t-57 -43t-38 -60t-20.5 -66.5z" />
            <glyph unicode="q" horiz-adv-x="753" d="M51 176q0 53 8.5 128t22.5 158t32.5 166t39.5 150q25 76 58.5 123t72.5 72.5t79.5 35t77.5 9.5q82 0 125 -26.5t66 -73.5q2 0 2 1t2 1q4 23 8 43t8 43h123l-270 -1403h-125l100 501h-4q-45 -59 -105.5 -87.5t-121.5 -28.5q-98 0 -148.5 50t-50.5 138zM182 231 q0 -125 127 -125q55 0 93 23t64 58.5t40 78.5t22 84l70 361q4 26 4 52v17q-2 33 -16.5 58.5t-44 42t-76.5 16.5q-63 0 -105.5 -27.5t-70.5 -93.5q-16 -37 -31.5 -98.5t-32.5 -142.5q-16 -92 -29.5 -171t-13.5 -133z" />
            <glyph unicode="r" horiz-adv-x="503" d="M25 0l196 1008h125l-27 -142h5q47 86 109.5 121t139.5 35h31l-31 -150q-12 2 -25 3.5t-28 1.5q-94 0 -158.5 -64.5t-87.5 -181.5l-122 -631h-127z" />
            <glyph unicode="s" horiz-adv-x="677" d="M23 180q0 31 6 72l123 16q-6 -29 -7 -55q0 -47 31 -78t100 -31q104 0 150.5 63.5t46.5 160.5q0 49 -29.5 79.5t-107.5 63.5q-59 25 -98 51.5t-61.5 55t-32 59.5t-9.5 65q0 68 21.5 126.5t62.5 101.5t102.5 67.5t139.5 24.5q131 0 182 -54.5t51 -142.5q0 -35 -6 -71 l-125 -19q6 25 6 49q0 49 -30.5 84t-98.5 35q-53 0 -89 -17.5t-56.5 -43t-28.5 -57t-8 -62.5q0 -41 33 -76t127 -72q106 -41 143 -93t37 -130q0 -80 -20.5 -147.5t-62.5 -116.5t-105.5 -75.5t-149.5 -26.5q-125 0 -181 52t-56 142z" />
            <glyph unicode="t" horiz-adv-x="454" d="M90 164v26.5t4 26.5l133 690h-110l18 99h111q14 70 27.5 137t25.5 137h125l-51 -274h141l-20 -99h-142l-127 -655q-6 -29 -6 -53q0 -41 25.5 -69t97.5 -28l-20 -112q-131 0 -181.5 51t-50.5 123z" />
            <glyph unicode="u" horiz-adv-x="745" d="M43 184q0 25 3 49.5t7 49.5l140 723h126l-137 -701q-6 -31 -6 -63q0 -53 26.5 -92t98.5 -39q55 0 95 25.5t65.5 65.5t41 88t25.5 95l121 621h123q-49 -254 -98 -504t-96 -502h-125q4 29 11 55.5t11 55.5h-6q-51 -66 -110.5 -94.5t-120.5 -28.5q-57 0 -94.5 15t-60 43 t-31.5 62.5t-9 75.5z" />
            <glyph unicode="v" horiz-adv-x="663" d="M98 1008h129l21 -508q4 -70 4 -150t-6 -184h4q96 203 185 417t167 425h133q-92 -248 -199.5 -494t-242.5 -514h-143z" />
            <glyph unicode="w" horiz-adv-x="1101" d="M98 1008h131l11 -525q0 -37 1 -69.5t1 -66.5t-1 -72.5t-3 -88.5h6q41 86 84 188.5t84 210t78.5 216t72.5 207.5h146l6 -455q1 -52 1 -111v-61q-1 -94 -9 -195h6q86 193 167 391.5t160 430.5h129q-47 -133 -94 -260t-99 -251t-109.5 -247t-123.5 -250h-135l-12 563 q0 53 2 111.5t6 120.5h-6q-68 -207 -152 -401.5t-176 -393.5h-137z" />
            <glyph unicode="x" horiz-adv-x="632" d="M-72 0l342 516l-137 492h139l86 -373l228 373h149l-332 -494l150 -514h-137l-92 389l-250 -389h-146z" />
            <glyph unicode="y" horiz-adv-x="667" d="M-121 -301q55 8 97 24.5t77 48t64.5 82t62.5 126.5l-74 1028h127l29 -521q2 -37 3 -82t1 -91t-1 -92t-3 -85h6q39 78 84 183.5t91 221t89 236.5t80 230h133q-59 -162 -115.5 -305.5t-114.5 -278.5t-118.5 -265t-126.5 -261q-33 -68 -68.5 -122.5t-80.5 -94t-103.5 -63.5 t-136.5 -28z" />
            <glyph unicode="z" horiz-adv-x="612" d="M-47 0l22 117l537 778h-354l20 111h494l-21 -111l-538 -778h383l-23 -117h-520z" />
            <glyph unicode="{" horiz-adv-x="454" d="M80 586l14 80q43 8 75 35.5t53.5 67.5t35.5 87t25 96l53 277q16 86 69.5 142t145.5 56h65l-16 -84h-25q-39 0 -63.5 -14t-39.5 -37.5t-23.5 -51.5t-12.5 -52l-55 -277q-12 -66 -33.5 -114.5t-46.5 -83.5t-50.5 -55.5t-45.5 -26.5v-4q39 -14 64.5 -82t2.5 -191l-57 -317 q-6 -35 -7 -66.5t6 -54t24.5 -36t48.5 -13.5h26l-18 -84h-47q-94 0 -130 63.5t-18 161.5l54 295q23 121 13.5 194.5t-87.5 88.5z" />
            <glyph unicode="|" horiz-adv-x="395" d="M154 -332v1798h98v-1798h-98z" />
            <glyph unicode="}" horiz-adv-x="454" d="M-63 -217l14 84h18q72 0 99.5 48t46.5 144l47 258q10 57 30.5 106.5t45 86.5t51 59.5t51.5 28.5v4q-35 12 -56.5 58.5t-21.5 117.5q0 23 3 47.5t7 53.5l56 278q10 51 10 88q0 43 -16.5 70.5t-61.5 27.5h-29l17 82h49q80 0 116 -45t36 -116q0 -33 -11 -80l-43 -223 l-10 -56q-6 -33 -10 -64.5t-4 -58.5q2 -57 21.5 -95t70.5 -48q-4 -20 -8 -38.5t-9 -39.5q-84 -16 -123.5 -95t-62.5 -192q-14 -74 -27.5 -147.5t-29.5 -144.5q-23 -94 -72 -146.5t-147 -52.5h-47z" />
            <glyph unicode="~" d="M33 463q43 55 99.5 94t119.5 39q49 0 85 -14.5t67.5 -33t62.5 -32.5t68 -14q35 0 66.5 15t72.5 63l67 -45q-41 -63 -96 -100.5t-121 -37.5q-39 0 -72.5 14.5t-66.5 31t-68.5 30.5t-76.5 14q-37 0 -67 -16t-73 -57z" />
            <glyph unicode="&#xa1;" horiz-adv-x="438" d="M-6 -420q55 268 111.5 539.5t109.5 539.5h104q-47 -268 -98 -539.5t-100 -539.5h-127zM244 872l24 134h133l-26 -134h-131z" />
            <glyph unicode="&#xa2;" horiz-adv-x="741" d="M41 172q-2 25 2 62.5t10 81.5t14.5 89.5t16.5 86.5q10 53 21.5 108t23.5 104.5t24.5 89.5t26.5 64q37 70 94.5 113t163.5 49l45 215h70l-45 -217q111 -14 162 -92t32 -187l-133 -18v2q20 70 -4 119t-82 61l-166 -805q74 4 114 50.5t56 132.5l121 -23q-16 -121 -90 -194.5 t-225 -77.5l-45 -222h-70l45 226q-47 6 -80.5 22.5t-56.5 41t-33 55t-12 63.5zM168 205q6 -39 25.5 -64.5t54.5 -36.5l166 801q-39 -6 -71 -27.5t-48 -66.5q-16 -41 -41 -130t-51 -212q-14 -80 -26.5 -153.5t-8.5 -110.5z" />
            <glyph unicode="&#xa3;" horiz-adv-x="780" d="M10 0l21 113q88 119 147.5 243.5t77.5 282.5h-123q4 29 10.5 53.5t10.5 50.5h114q2 10 2 17.5v17.5q0 78 -10 153t-10 132q0 86 25.5 155.5t71.5 118.5t110.5 76t142.5 27q131 0 200.5 -72t69.5 -190q0 -43 -8 -82l-123 -17q4 18 6.5 38t2.5 36q0 72 -35 121t-125 49 q-106 0 -156.5 -74.5t-50.5 -185.5q0 -53 8 -124t8 -144v-26.5t-2 -25.5h207q-4 -27 -10 -51t-10 -53h-199q-12 -84 -31.5 -154.5t-45 -134t-57.5 -120t-69 -113.5h463l-22 -117h-611z" />
            <glyph unicode="&#xa4;" horiz-adv-x="1007" d="M117 350l112 111q-66 86 -65 194q0 115 65 201l-110 109q14 16 36.5 39.5t39.5 39.5l110 -112q88 68 199 67q109 0 201 -67q8 8 23 24.5t30.5 33t30 31.5t24.5 23l78 -79l-111 -109q33 -45 50.5 -95t17.5 -106q0 -53 -17.5 -101t-50.5 -93q8 -10 23.5 -25.5l32 -32 t32 -31t23.5 -22.5q-23 -23 -39 -41t-39 -39l-108 113q-86 -66 -201 -66q-109 0 -199 66l-110 -113zM274 655q-2 -47 16.5 -88t50.5 -72.5t74 -50t89 -18.5t90 18.5t74.5 49t50 72.5t18.5 89q0 49 -18.5 92.5t-49 75t-73.5 50t-92 18.5q-47 0 -89 -18.5t-74 -51.5t-50.5 -75 t-16.5 -91z" />
            <glyph unicode="&#xa5;" d="M72 362l8 40t8 42h234l26 138h-233q4 20 7 39.5t7 40.5h215l-102 763h118q8 -74 15.5 -146.5t17.5 -143.5q10 -92 20.5 -188.5t14.5 -201.5h6l338 680h125l-399 -763h221l-14 -80h-242q-6 -35 -12.5 -69t-14.5 -69h242q-4 -23 -8 -42t-8 -40h-242q-18 -92 -35.5 -182 t-36.5 -180h-115l36 180t36 182h-233z" />
            <glyph unicode="&#xa6;" horiz-adv-x="395" d="M154 -332v850h98v-850h-98zM154 610v856h98v-856h-98z" />
            <glyph unicode="&#xa7;" horiz-adv-x="854" d="M23 -47l71 82q47 -47 94.5 -65.5t108.5 -18.5q115 0 181.5 60.5t66.5 152.5q0 61 -44 118.5t-159 135.5q-94 66 -143 122t-49 134q0 102 60 169.5t150 112.5q-39 43 -56 84t-17 95q0 66 24.5 122t68.5 96t107.5 62.5t141.5 22.5q88 0 152.5 -28t113.5 -81 q-4 -4 -15.5 -15t-25.5 -24.5t-25.5 -26t-15.5 -14.5q-47 47 -94 65.5t-98 18.5q-49 0 -88 -15t-67 -42t-42 -59.5t-14 -69.5q0 -43 29.5 -82t73.5 -75t96.5 -72.5t96.5 -77.5t73.5 -89.5t29.5 -105.5q0 -92 -54.5 -167t-142.5 -126q55 -76 56 -168q0 -76 -28 -138t-77 -106 t-117.5 -69t-150.5 -25q-76 0 -150.5 30t-121.5 77zM274 694q0 -43 29 -82t69 -72.5t85 -61t80 -50.5q70 27 110.5 85t40.5 116q0 68 -57.5 127t-184.5 129q-31 -10 -61.5 -28.5t-55 -43.5t-40 -55.5t-15.5 -63.5z" />
            <glyph unicode="&#xa8;" horiz-adv-x="722" d="M301 1202l27 131h114l-26 -131h-115zM610 1202l25 131h113l-27 -131h-111z" />
            <glyph unicode="&#xa9;" horiz-adv-x="1439" d="M104 698q0 154 40 286t118 228.5t193.5 150.5t267.5 54q150 0 264.5 -54t193.5 -150.5t119.5 -228.5t40.5 -286t-40.5 -283.5t-119.5 -226t-193.5 -150.5t-264.5 -54q-152 0 -267.5 54t-193.5 150.5t-118 226.5t-40 283zM201 698q0 -133 34.5 -247.5t101 -199.5t164 -133 t222.5 -48q129 0 227.5 49t164 133t99 198.5t33.5 247.5t-33.5 249t-100 202t-165 135t-225.5 49q-131 0 -229.5 -50t-163 -136t-97 -202t-32.5 -247zM500 481v402q0 109 65.5 166t163.5 57q45 0 87 -13.5t73 -41t48 -68.5t15 -96l-90 -21q0 72 -35.5 112t-101.5 40 q-57 0 -93 -37t-36 -88v-422q0 -53 37 -88t92 -35q129 0 135 150l92 -19q0 -113 -65.5 -167t-157.5 -54t-160.5 55.5t-68.5 167.5z" />
            <glyph unicode="&#xaa;" horiz-adv-x="540" d="M117 707q0 37 9 99t19 109q10 53 19.5 98.5t25.5 86.5q29 74 80 110.5t123 36.5q41 0 74 -12t49 -41l10 45h103l-135 -666h-101l10 45q-29 -27 -62.5 -41t-78.5 -14q-63 0 -104 36t-41 108zM225 739q0 -78 78 -77q59 0 90 38.5t43 98.5l47 229q10 47 -10.5 84t-73.5 37 q-29 0 -53 -10.5t-45 -40.5q-20 -41 -30.5 -85t-22.5 -106q-12 -59 -17.5 -99t-5.5 -69z" />
            <glyph unicode="&#xab;" horiz-adv-x="790" d="M94 475l293 381h125l-295 -385l141 -377h-120zM385 475l293 381h125l-291 -385l137 -377h-121z" />
            <glyph unicode="&#xac;" d="M49 551l19 100h698l-82 -430h-96l63 330h-602z" />
            <glyph unicode="&#xad;" horiz-adv-x="684" d="M121 530l22 113h506l-22 -113h-506z" />
            <glyph unicode="&#xae;" horiz-adv-x="995" d="M109 1004q0 98 25.5 181t74.5 143.5t121.5 94t169.5 33.5q92 0 164.5 -33.5t122 -94t75 -143.5t25.5 -181q0 -96 -25.5 -177.5t-75 -141.5t-122 -94t-164.5 -34q-96 0 -169 34t-122 94t-74.5 141t-25.5 178zM180 1008q0 -84 21.5 -154t61.5 -120t99.5 -78.5t137.5 -28.5 q80 0 139 29.5t98 82t57.5 121t18.5 148.5t-20.5 150.5t-60.5 122.5t-98 82t-134 30q-80 0 -140.5 -30t-100.5 -82t-59.5 -123t-19.5 -150zM362 731v541h134q150 0 149 -164q0 -43 -15.5 -82t-58.5 -61q20 -59 50 -131l38 -103h-84l-77 223h-60v-223h-76zM438 1018h56 q43 0 59 25.5t16 64.5q0 45 -17 69.5t-65 24.5h-49v-184z" />
            <glyph unicode="&#xaf;" horiz-adv-x="731" d="M291 1204l22 111h459l-22 -111h-459z" />
            <glyph unicode="&#xb0;" horiz-adv-x="575" d="M98 1231q0 41 15.5 78t42 64.5t62.5 43t77 15.5q86 0 142.5 -58.5t56.5 -142.5t-56.5 -141.5t-142.5 -57.5q-82 0 -139.5 57.5t-57.5 141.5zM176 1231q0 -51 35 -86t84 -35q51 0 86 35t35 86q0 53 -35 88t-86 35q-49 0 -84 -35t-35 -88z" />
            <glyph unicode="&#xb1;" d="M-51 41l20 96h701l-21 -96h-700zM49 551l19 100h303l63 328h96l-63 -328h301l-18 -100h-301l-64 -330h-98l65 330h-303z" />
            <glyph unicode="&#xb2;" horiz-adv-x="489" d="M92 758l14 80l330 438q29 37 47.5 81t22.5 79q2 35 -14.5 61.5t-65.5 26.5q-41 0 -68.5 -33t-44.5 -107l-102 19q23 98 77 155.5t154 57.5q90 0 132 -47t34 -127q-4 -51 -29.5 -106.5t-62.5 -104.5q-23 -31 -61.5 -82t-81.5 -107.5t-82 -107.5t-64 -82h260l-16 -94h-379z " />
            <glyph unicode="&#xb3;" horiz-adv-x="489" d="M119 950l108 13q-16 -55 -1.5 -89t65.5 -34q82 0 98 94l25 123q10 47 -5.5 72.5t-66.5 25.5h-53l16 88h53q43 0 73 20.5t38 67.5l18 94q6 35 -6 67t-65 32q-49 0 -78 -36t-33 -89l-104 14q14 92 72.5 146.5t156.5 54.5q51 0 86 -16.5t53.5 -42t22.5 -59.5t-2 -69l-12 -67 q-10 -47 -26.5 -88t-74.5 -70q41 -23 46 -60.5t-5 -90.5l-26 -129q-16 -86 -69.5 -129t-133.5 -43q-104 0 -146.5 55t-23.5 145z" />
            <glyph unicode="&#xb4;" horiz-adv-x="716" d="M432 1167l203 326l110 -43l-247 -311z" />
            <glyph unicode="&#xb6;" horiz-adv-x="821" d="M156 965q0 86 22.5 175t68.5 160.5t113.5 116.5t159.5 45h451l-27 -131h-96q-74 -377 -145.5 -749.5t-145.5 -747.5h-115q74 375 145.5 747.5t145.5 749.5h-131q-72 -377 -144.5 -749.5t-146.5 -747.5h-114l165 864q-100 6 -153 81t-53 186z" />
            <glyph unicode="&#xb7;" horiz-adv-x="335" d="M117 467l28 151h144l-29 -151h-143z" />
            <glyph unicode="&#xb8;" horiz-adv-x="882" d="M49 -387l37 61q31 -16 59.5 -20t53.5 -4q45 0 74.5 24.5t29.5 65.5q0 33 -23.5 53.5t-64.5 20.5h-12l-27 26q4 10 17.5 37t26.5 56.5t26.5 56t17.5 37.5h68l-14.5 -29t-21.5 -44.5t-20.5 -45t-13.5 -29.5q41 -4 66.5 -15t41 -29.5t20.5 -40t5 -44.5q0 -29 -11 -58.5 t-35.5 -54t-60.5 -41t-85 -16.5q-29 0 -74 5t-80 28z" />
            <glyph unicode="&#xb9;" horiz-adv-x="423" d="M219 1407l23 106l159 97h97l-166 -852h-101l146 743z" />
            <glyph unicode="&#xba;" horiz-adv-x="501" d="M100 711q0 39 7.5 94t17.5 110q14 70 31.5 130.5t40.5 99.5q29 47 74.5 75.5t115.5 28.5q96 0 139 -48t43 -105q0 -41 -9 -100.5t-19 -116.5q-16 -82 -35 -142.5t-47.5 -99.5t-71.5 -57.5t-106 -18.5q-49 0 -83 14.5t-55.5 36t-32 48t-10.5 51.5zM205 731 q0 -33 20.5 -54.5t65.5 -21.5q43 0 68.5 25t41.5 59q12 27 23.5 73t21 96t15.5 97.5t6 75.5q0 37 -24.5 54.5t-59.5 17.5q-43 0 -67.5 -17.5t-41.5 -52.5q-10 -25 -22 -71.5t-22.5 -100t-17.5 -102.5t-7 -78z" />
            <glyph unicode="&#xbb;" horiz-adv-x="856" d="M74 94l297 387l-148 375h119q39 -96 76 -190.5t74 -190.5l-295 -381h-123zM367 94q74 98 147.5 193.5t147.5 193.5q-37 92 -74 186.5t-72 188.5h121q37 -96 74 -190.5t75 -190.5l-294 -381h-125z" />
            <glyph unicode="&#xbc;" horiz-adv-x="1187" d="M86 -35l934 1497h88l-934 -1497h-88zM217 1223l23 106l159 96h97l-166 -852h-101l146 744zM578 133l16 86l315 633h103l-314 -627h166l45 232h101l-45 -232h71l-18 -92h-72l-26 -133h-99l27 133h-270z" />
            <glyph unicode="&#xbd;" horiz-adv-x="1187" d="M72 -35l934 1497h88l-934 -1497h-88zM244 1223l22 106l160 96h96l-166 -852h-100l145 744zM584 0l16 80l330 438q29 37 47 81t22 79q2 35 -14 61.5t-67 26.5q-41 0 -68 -33t-43 -106l-102 18q23 98 77 155.5t154 57.5q90 0 132 -47t34 -127q-4 -51 -29.5 -106.5 t-62.5 -104.5q-25 -31 -64 -82t-81 -107.5t-81 -107.5t-63 -82h260l-16 -94h-381z" />
            <glyph unicode="&#xbe;" horiz-adv-x="1187" d="M117 766l108 12q-16 -55 -1.5 -89t65.5 -34q82 0 98 95l25 122q10 47 -5.5 73t-66.5 26h-53l16 88h53q43 0 73 20.5t38 67.5l18 94q6 35 -6 66.5t-65 31.5q-49 0 -78 -35.5t-33 -89.5l-104 15q14 92 72.5 146.5t156.5 54.5q51 0 86 -16.5t53.5 -42t22.5 -59.5t-2 -69 l-13 -67q-10 -47 -26.5 -88t-73.5 -70q41 -23 46 -60.5t-5 -91.5l-27 -129q-16 -86 -69 -129t-133 -43q-104 0 -146.5 55.5t-23.5 145.5zM145 -35l934 1497h88l-934 -1497h-88zM614 133l17 86l315 633h103l-314 -627h166l45 232h101l-46 -232h72l-18 -92h-72l-27 -133h-98 l27 133h-271z" />
            <glyph unicode="&#xbf;" horiz-adv-x="731" d="M27 -139q0 55 10 100t26.5 84t40 74t52.5 69q37 49 71.5 89t63 78t49 77t31.5 86l30 146h123l-37 -168q-8 -39 -26.5 -87.5t-46.5 -82.5q-63 -78 -111.5 -135.5t-81.5 -108.5t-49 -101.5t-16 -111.5q0 -86 40 -132t130 -46q66 0 125 48t75 163l123 -21 q-55 -309 -340 -309q-141 0 -211.5 78t-70.5 211zM438 877l25 131h129l-25 -131h-129z" />
            <glyph unicode="&#xc0;" horiz-adv-x="790" d="M-57 0l583 1425h127l37 -1425h-121l-6 344h-356l-139 -344h-125zM250 463h311l-8 414l2 350h-8l-131 -355zM307 1657l60 102l274 -213l-33 -61z" />
            <glyph unicode="&#xc1;" horiz-adv-x="790" d="M-57 0l583 1425h127l37 -1425h-121l-6 344h-356l-139 -344h-125zM250 463h311l-8 414l2 350h-8l-131 -355zM551 1538l319 223l66 -96l-348 -186z" />
            <glyph unicode="&#xc2;" horiz-adv-x="790" d="M-57 0l583 1425h127l37 -1425h-121l-6 344h-356l-139 -344h-125zM250 463h311l-8 414l2 350h-8l-131 -355zM297 1542l295 227h82l196 -223l-53 -49l-199 154l-272 -156z" />
            <glyph unicode="&#xc3;" horiz-adv-x="790" d="M-57 0l583 1425h127l37 -1425h-121l-6 344h-356l-139 -344h-125zM250 463h311l-8 414l2 350h-8l-131 -355zM324 1573q35 57 87 96t101 39q31 0 57.5 -12.5t51 -25.5t49 -25.5t53.5 -12.5t56.5 18.5t58.5 59.5l65 -43q-41 -78 -93 -108.5t-95 -30.5q-31 0 -58.5 11 t-52 25.5t-48.5 26t-48 11.5q-55 0 -117 -72z" />
            <glyph unicode="&#xc4;" horiz-adv-x="790" d="M-57 0l583 1425h127l37 -1425h-121l-6 344h-356l-139 -344h-125zM250 463h311l-8 414l2 350h-8l-131 -355zM389 1526l27 129h112l-24 -129h-115zM698 1526l25 129h111l-23 -129h-113z" />
            <glyph unicode="&#xc5;" horiz-adv-x="790" d="M-57 0l583 1425h127l37 -1425h-121l-6 344h-356l-139 -344h-125zM250 463h311l-8 414l2 350h-8l-131 -355zM457 1602q0 43 18.5 80.5t48 66.5t67.5 45t79 16q63 0 103 -40.5t40 -100.5q0 -43 -17.5 -81t-47 -67.5t-67.5 -46t-81 -16.5q-63 0 -103 41t-40 103zM528 1614 q0 -37 23.5 -61.5t62.5 -24.5q49 0 87 37t38 86q0 37 -23.5 61.5t-60.5 24.5q-47 0 -87 -37t-40 -86z" />
            <glyph unicode="&#xc6;" horiz-adv-x="1277" d="M-29 0l744 1425h680l-17 -116h-469l-73 -523h409l-16 -116h-410l-76 -545h469l-16 -125h-596l53 381h-354l-199 -381h-129zM356 500h312l114 807h-4z" />
            <glyph unicode="&#xc7;" horiz-adv-x="800" d="M66 238q0 25 3 49t7 51q4 23 14 77t24.5 122.5t29 146.5t28.5 146.5t24.5 122t14.5 75.5q16 86 40.5 161t67.5 130t106.5 87t156.5 32q145 0 212.5 -72t67.5 -176q0 -33 -6 -70l-125 -22q8 33 8 69q0 66 -37.5 110t-121.5 44q-104 0 -157.5 -65.5t-76.5 -174.5 q-4 -23 -15.5 -80t-26.5 -133.5t-31.5 -161.5t-32 -161t-26.5 -134.5t-15 -80.5q-4 -23 -5 -37t-1 -31q0 -76 36.5 -120t118.5 -44q195 0 232 232l120 -33q-27 -158 -115.5 -233.5t-236.5 -77.5q-14 -29 -29.5 -62t-19.5 -45q41 -4 66.5 -15t41 -29.5t20.5 -40t5 -44.5 q0 -29 -11 -58.5t-36 -54t-60.5 -41t-84.5 -16.5q-29 0 -74 5t-80 28l37 61q31 -16 59.5 -20t53.5 -4q45 0 74.5 24.5t29.5 65.5q0 33 -23.5 53.5t-64.5 20.5h-12l-27 26q2 8 10 25.5t18.5 39t21.5 44t20 41.5q-115 12 -166 76.5t-51 171.5z" />
            <glyph unicode="&#xc8;" horiz-adv-x="739" d="M27 0l276 1425h596l-25 -116h-471l-100 -523h412l-23 -116h-411l-109 -555h471l-20 -115h-596zM336 1657l59 102l275 -213l-33 -61z" />
            <glyph unicode="&#xc9;" horiz-adv-x="739" d="M27 0l276 1425h596l-25 -116h-471l-100 -523h412l-23 -116h-411l-109 -555h471l-20 -115h-596zM514 1538l320 223l65 -96l-348 -186z" />
            <glyph unicode="&#xca;" horiz-adv-x="739" d="M27 0l276 1425h596l-25 -116h-471l-100 -523h412l-23 -116h-411l-109 -555h471l-20 -115h-596zM311 1542l295 227h82l197 -223l-54 -49l-198 154l-273 -156z" />
            <glyph unicode="&#xcb;" horiz-adv-x="739" d="M27 0l276 1425h596l-25 -116h-471l-100 -523h412l-23 -116h-411l-109 -555h471l-20 -115h-596zM383 1526l27 129h112l-24 -129h-115zM692 1526l25 129h110l-22 -129h-113z" />
            <glyph unicode="&#xcc;" horiz-adv-x="374" d="M41 0l276 1425h129l-276 -1425h-129zM98 1657l60 102l274 -213l-33 -61z" />
            <glyph unicode="&#xcd;" horiz-adv-x="374" d="M41 0l276 1425h129l-276 -1425h-129zM369 1538l319 223l66 -96l-348 -186z" />
            <glyph unicode="&#xce;" horiz-adv-x="374" d="M41 0l276 1425h129l-276 -1425h-129zM100 1542l295 227h82l197 -223l-53 -49l-199 154l-272 -156z" />
            <glyph unicode="&#xcf;" horiz-adv-x="374" d="M41 0l276 1425h129l-276 -1425h-129zM188 1526l27 129h113l-25 -129h-115zM498 1526l24 129h111l-23 -129h-112z" />
            <glyph unicode="&#xd0;" horiz-adv-x="847" d="M25 0l135 700h-113l19 97h112l123 628h291q135 0 213 -59t78 -176q2 -76 -21.5 -194.5t-52.5 -280.5q-31 -176 -57.5 -317.5t-67.5 -219.5q-57 -109 -135 -143.5t-187 -34.5h-337zM170 113h184q113 0 173.5 62.5t82.5 176.5l142 725q4 18 6 37t2 35q0 72 -39 117t-135 45 h-183l-100 -514h168q-4 -23 -9 -47.5t-11 -49.5h-166z" />
            <glyph unicode="&#xd1;" horiz-adv-x="903" d="M20 0l277 1425h117q14 -66 34.5 -158.5t44 -198t49 -219.5t48.5 -218q20 -92 36.5 -166t26.5 -121q2 0 4 1t5 1l208 1079h123l-276 -1425h-117q-12 59 -31.5 147.5t-42 190.5t-46 211.5t-46 211t-42 188.5l-32.5 145h-6q-53 -274 -105 -547t-106 -547h-123zM365 1554 q35 57 87 96.5t101 39.5q31 0 57.5 -12.5t51 -26t49 -25.5t53.5 -12t56.5 18.5t58.5 59.5l65 -43q-41 -78 -93 -109t-95 -31q-31 0 -58.5 11.5t-52 26t-48.5 25.5t-48 11q-55 0 -117 -72z" />
            <glyph unicode="&#xd2;" horiz-adv-x="837" d="M74 256q0 25 3 50.5t7 53.5l147 760q29 154 124.5 236t238.5 82t210.5 -73t67.5 -196q0 -25 -3 -49t-7 -53l-143 -764q-33 -172 -126 -244.5t-245 -72.5q-145 0 -209.5 75.5t-64.5 194.5zM197 276q0 -74 35.5 -124t125.5 -50q94 0 151.5 46.5t76.5 144.5l151 770 q4 23 6 43t2 39q0 78 -36.5 126t-124.5 48q-98 0 -155.5 -60.5t-74.5 -144.5l-149 -754q-8 -39 -8 -84zM381 1657l59 102l275 -213l-33 -61z" />
            <glyph unicode="&#xd3;" horiz-adv-x="837" d="M74 256q0 25 3 50.5t7 53.5l147 760q29 154 124.5 236t238.5 82t210.5 -73t67.5 -196q0 -25 -3 -49t-7 -53l-143 -764q-33 -172 -126 -244.5t-245 -72.5q-145 0 -209.5 75.5t-64.5 194.5zM197 276q0 -74 35.5 -124t125.5 -50q94 0 151.5 46.5t76.5 144.5l151 770 q4 23 6 43t2 39q0 78 -36.5 126t-124.5 48q-98 0 -155.5 -60.5t-74.5 -144.5l-149 -754q-8 -39 -8 -84zM532 1538l320 223l66 -96l-349 -186z" />
            <glyph unicode="&#xd4;" horiz-adv-x="837" d="M74 256q0 25 3 50.5t7 53.5l147 760q29 154 124.5 236t238.5 82t210.5 -73t67.5 -196q0 -25 -3 -49t-7 -53l-143 -764q-33 -172 -126 -244.5t-245 -72.5q-145 0 -209.5 75.5t-64.5 194.5zM197 276q0 -74 35.5 -124t125.5 -50q94 0 151.5 46.5t76.5 144.5l151 770 q4 23 6 43t2 39q0 78 -36.5 126t-124.5 48q-98 0 -155.5 -60.5t-74.5 -144.5l-149 -754q-8 -39 -8 -84zM332 1542l295 227h82l196 -223l-53 -49l-199 154l-272 -156z" />
            <glyph unicode="&#xd5;" horiz-adv-x="837" d="M74 256q0 25 3 50.5t7 53.5l147 760q29 154 124.5 236t238.5 82t210.5 -73t67.5 -196q0 -25 -3 -49t-7 -53l-143 -764q-33 -172 -126 -244.5t-245 -72.5q-145 0 -209.5 75.5t-64.5 194.5zM197 276q0 -74 35.5 -124t125.5 -50q94 0 151.5 46.5t76.5 144.5l151 770 q4 23 6 43t2 39q0 78 -36.5 126t-124.5 48q-98 0 -155.5 -60.5t-74.5 -144.5l-149 -754q-8 -39 -8 -84zM348 1573q35 57 87 96t102 39q31 0 57.5 -12.5t51 -25.5t49 -25.5t53.5 -12.5t56 18.5t58 59.5l66 -43q-41 -78 -93.5 -108.5t-95.5 -30.5q-31 0 -58.5 11t-52 25.5 t-48 26t-48.5 11.5q-55 0 -116 -72z" />
            <glyph unicode="&#xd6;" horiz-adv-x="837" d="M74 256q0 25 3 50.5t7 53.5l147 760q29 154 124.5 236t238.5 82t210.5 -73t67.5 -196q0 -25 -3 -49t-7 -53l-143 -764q-33 -172 -126 -244.5t-245 -72.5q-145 0 -209.5 75.5t-64.5 194.5zM197 276q0 -74 35.5 -124t125.5 -50q94 0 151.5 46.5t76.5 144.5l151 770 q4 23 6 43t2 39q0 78 -36.5 126t-124.5 48q-98 0 -155.5 -60.5t-74.5 -144.5l-149 -754q-8 -39 -8 -84zM420 1526l26 129h113l-24 -129h-115zM729 1526l25 129h110l-22 -129h-113z" />
            <glyph unicode="&#xd7;" horiz-adv-x="778" d="M23 326l331 276l-207 258l74 62l209 -256l330 276l57 -78l-328 -274l211 -262l-75 -62l-213 260l-330 -276z" />
            <glyph unicode="&#xd8;" horiz-adv-x="837" d="M10 14l80 127q-10 27 -13 55.5t-3 59.5q0 25 3 50.5t7 53.5l147 760q29 154 124.5 236t238.5 82q90 0 148.5 -30t91.5 -83l75 121l66 -35l-109 -172q6 -35 6 -70q0 -25 -3 -49t-7 -53l-143 -764q-33 -172 -126 -244.5t-245 -72.5q-78 0 -131 21.5t-88 62.5l-57 -93z M197 313l546 869q-8 61 -44.5 99t-114.5 38q-98 0 -155.5 -60.5t-74.5 -144.5l-149 -754q-4 -12 -5 -24t-3 -23zM209 195q16 -41 51 -67t98 -26q94 0 151.5 46.5t76.5 144.5l143 727z" />
            <glyph unicode="&#xd9;" horiz-adv-x="833" d="M68 266q0 8 14 84t35.5 188.5t47 248t51.5 261.5t45.5 228t29.5 149h123q-4 -29 -16.5 -91t-29 -146t-36 -181.5t-39 -195.5t-36.5 -190.5t-31.5 -165t-22.5 -117.5t-8 -49q-10 -82 30.5 -134.5t132.5 -52.5q86 0 147.5 48.5t84.5 162.5l221 1112h127l-221 -1116 q-35 -182 -131.5 -252.5t-237.5 -70.5q-147 0 -219 75.5t-61 204.5zM354 1657l60 102l274 -213l-33 -61z" />
            <glyph unicode="&#xda;" horiz-adv-x="833" d="M68 266q0 8 14 84t35.5 188.5t47 248t51.5 261.5t45.5 228t29.5 149h123q-4 -29 -16.5 -91t-29 -146t-36 -181.5t-39 -195.5t-36.5 -190.5t-31.5 -165t-22.5 -117.5t-8 -49q-10 -82 30.5 -134.5t132.5 -52.5q86 0 147.5 48.5t84.5 162.5l221 1112h127l-221 -1116 q-35 -182 -131.5 -252.5t-237.5 -70.5q-147 0 -219 75.5t-61 204.5zM565 1538l320 223l65 -96l-348 -186z" />
            <glyph unicode="&#xdb;" horiz-adv-x="833" d="M68 266q0 8 14 84t35.5 188.5t47 248t51.5 261.5t45.5 228t29.5 149h123q-4 -29 -16.5 -91t-29 -146t-36 -181.5t-39 -195.5t-36.5 -190.5t-31.5 -165t-22.5 -117.5t-8 -49q-10 -82 30.5 -134.5t132.5 -52.5q86 0 147.5 48.5t84.5 162.5l221 1112h127l-221 -1116 q-35 -182 -131.5 -252.5t-237.5 -70.5q-147 0 -219 75.5t-61 204.5zM348 1542l295 227h82l197 -223l-54 -49l-198 154l-273 -156z" />
            <glyph unicode="&#xdc;" horiz-adv-x="833" d="M68 266q0 8 14 84t35.5 188.5t47 248t51.5 261.5t45.5 228t29.5 149h123q-4 -29 -16.5 -91t-29 -146t-36 -181.5t-39 -195.5t-36.5 -190.5t-31.5 -165t-22.5 -117.5t-8 -49q-10 -82 30.5 -134.5t132.5 -52.5q86 0 147.5 48.5t84.5 162.5l221 1112h127l-221 -1116 q-35 -182 -131.5 -252.5t-237.5 -70.5q-147 0 -219 75.5t-61 204.5zM416 1526l26 129h113l-25 -129h-114zM725 1526l25 129h110l-22 -129h-113z" />
            <glyph unicode="&#xdd;" horiz-adv-x="743" d="M219 1427h125q12 -102 25.5 -206.5t26 -194.5t21.5 -160.5t13 -105.5h6l340 667h137l-446 -823l-117 -604h-125l117 604zM469 1538l319 223l66 -96l-348 -186z" />
            <glyph unicode="&#xde;" horiz-adv-x="800" d="M27 0l274 1425h123l-53 -280h155q86 0 143.5 -19.5t93.5 -55.5t51 -86t15 -112q0 -115 -21.5 -216t-75.5 -179t-144 -123t-228 -45h-149l-59 -309h-125zM231 426h146q90 0 151.5 33t100.5 88t55 129t16 158q0 41 -9 76.5t-32.5 61t-62.5 41t-100 15.5h-146z" />
            <glyph unicode="&#xdf;" horiz-adv-x="749" d="M-2 0l229 1194q27 133 103 213t225 80q135 0 197.5 -80t40.5 -209l-19 -104q-12 -70 -51 -126.5t-113 -84.5v-6q53 -18 77 -62.5t24 -97.5q-2 -35 -17.5 -131.5t-50.5 -268.5q-14 -72 -38.5 -137t-66.5 -112.5t-104.5 -71t-152.5 -10.5l20 100q57 -4 94 13.5t59.5 49 t36 75.5t23.5 93l64 316q8 37 7 69.5t-15.5 59t-43 41t-73.5 14.5l22 111q41 0 72 15t52.5 40t33.5 55.5t18 61.5q14 70 16.5 98.5t2.5 34.5q0 55 -35 95t-96 40q-74 0 -118 -41t-61 -100q-6 -23 -11 -46.5t-9 -45.5l-221 -1135h-121z" />
            <glyph unicode="&#xe0;" horiz-adv-x="782" d="M51 188q0 29 4 70t10.5 87t14.5 94t16 91q23 117 48.5 207t64.5 153.5t95 96.5t138 33q68 0 118 -27.5t73 -72.5h4q0 6 2 17t5 25.5t5 26.5t4 19h125q-8 -41 -23.5 -121t-35 -178.5t-40 -206t-38.5 -204.5t-33.5 -177t-23.5 -121h-127q4 14 10 47t8 47l-4 2 q-43 -53 -91 -80.5t-130 -27.5q-35 0 -71 9t-64.5 31.5t-46 61.5t-17.5 98zM182 233q0 -61 36 -92.5t97 -31.5q43 0 79 19t61.5 50t41 67t21.5 68l74 373q16 88 -14.5 149.5t-118.5 61.5q-55 0 -98.5 -24.5t-69.5 -88.5q-10 -27 -31.5 -103.5t-40.5 -172.5 q-16 -86 -26.5 -156.5t-10.5 -118.5zM334 1440l110 67l160 -346l-61 -39z" />
            <glyph unicode="&#xe1;" horiz-adv-x="782" d="M51 188q0 29 4 70t10.5 87t14.5 94t16 91q23 117 48.5 207t64.5 153.5t95 96.5t138 33q68 0 118 -27.5t73 -72.5h4q0 6 2 17t5 25.5t5 26.5t4 19h125q-8 -41 -23.5 -121t-35 -178.5t-40 -206t-38.5 -204.5t-33.5 -177t-23.5 -121h-127q4 14 10 47t8 47l-4 2 q-43 -53 -91 -80.5t-130 -27.5q-35 0 -71 9t-64.5 31.5t-46 61.5t-17.5 98zM182 233q0 -61 36 -92.5t97 -31.5q43 0 79 19t61.5 50t41 67t21.5 68l74 373q16 88 -14.5 149.5t-118.5 61.5q-55 0 -98.5 -24.5t-69.5 -88.5q-10 -27 -31.5 -103.5t-40.5 -172.5 q-16 -86 -26.5 -156.5t-10.5 -118.5zM446 1167l203 326l111 -43l-248 -311z" />
            <glyph unicode="&#xe2;" horiz-adv-x="782" d="M51 188q0 29 4 70t10.5 87t14.5 94t16 91q23 117 48.5 207t64.5 153.5t95 96.5t138 33q68 0 118 -27.5t73 -72.5h4q0 6 2 17t5 25.5t5 26.5t4 19h125q-8 -41 -23.5 -121t-35 -178.5t-40 -206t-38.5 -204.5t-33.5 -177t-23.5 -121h-127q4 14 10 47t8 47l-4 2 q-43 -53 -91 -80.5t-130 -27.5q-35 0 -71 9t-64.5 31.5t-46 61.5t-17.5 98zM182 233q0 -61 36 -92.5t97 -31.5q43 0 79 19t61.5 50t41 67t21.5 68l74 373q16 88 -14.5 149.5t-118.5 61.5q-55 0 -98.5 -24.5t-69.5 -88.5q-10 -27 -31.5 -103.5t-40.5 -172.5 q-16 -86 -26.5 -156.5t-10.5 -118.5zM238 1176l303 268h80l188 -264l-57 -50l-187 199l-276 -199z" />
            <glyph unicode="&#xe3;" horiz-adv-x="782" d="M51 188q0 29 4 70t10.5 87t14.5 94t16 91q23 117 48.5 207t64.5 153.5t95 96.5t138 33q68 0 118 -27.5t73 -72.5h4q0 6 2 17t5 25.5t5 26.5t4 19h125q-8 -41 -23.5 -121t-35 -178.5t-40 -206t-38.5 -204.5t-33.5 -177t-23.5 -121h-127q4 14 10 47t8 47l-4 2 q-43 -53 -91 -80.5t-130 -27.5q-35 0 -71 9t-64.5 31.5t-46 61.5t-17.5 98zM182 233q0 -61 36 -92.5t97 -31.5q43 0 79 19t61.5 50t41 67t21.5 68l74 373q16 88 -14.5 149.5t-118.5 61.5q-55 0 -98.5 -24.5t-69.5 -88.5q-10 -27 -31.5 -103.5t-40.5 -172.5 q-16 -86 -26.5 -156.5t-10.5 -118.5zM252 1225q35 57 87 96t101 39q31 0 57.5 -12.5t51 -25.5t49.5 -25.5t53 -12.5q29 0 56.5 18.5t58.5 59.5l65 -43q-41 -78 -93 -108.5t-95 -30.5q-31 0 -58.5 11t-52 25.5t-48 25.5t-48.5 11q-55 0 -117 -71z" />
            <glyph unicode="&#xe4;" horiz-adv-x="782" d="M51 188q0 29 4 70t10.5 87t14.5 94t16 91q23 117 48.5 207t64.5 153.5t95 96.5t138 33q68 0 118 -27.5t73 -72.5h4q0 6 2 17t5 25.5t5 26.5t4 19h125q-8 -41 -23.5 -121t-35 -178.5t-40 -206t-38.5 -204.5t-33.5 -177t-23.5 -121h-127q4 14 10 47t8 47l-4 2 q-43 -53 -91 -80.5t-130 -27.5q-35 0 -71 9t-64.5 31.5t-46 61.5t-17.5 98zM182 233q0 -61 36 -92.5t97 -31.5q43 0 79 19t61.5 50t41 67t21.5 68l74 373q16 88 -14.5 149.5t-118.5 61.5q-55 0 -98.5 -24.5t-69.5 -88.5q-10 -27 -31.5 -103.5t-40.5 -172.5 q-16 -86 -26.5 -156.5t-10.5 -118.5zM311 1202l27 131h115l-27 -131h-115zM621 1202l24 131h113l-27 -131h-110z" />
            <glyph unicode="&#xe5;" horiz-adv-x="782" d="M51 188q0 29 4 70t10.5 87t14.5 94t16 91q23 117 48.5 207t64.5 153.5t95 96.5t138 33q68 0 118 -27.5t73 -72.5h4q0 6 2 17t5 25.5t5 26.5t4 19h125q-8 -41 -23.5 -121t-35 -178.5t-40 -206t-38.5 -204.5t-33.5 -177t-23.5 -121h-127q4 14 10 47t8 47l-4 2 q-43 -53 -91 -80.5t-130 -27.5q-35 0 -71 9t-64.5 31.5t-46 61.5t-17.5 98zM182 233q0 -61 36 -92.5t97 -31.5q43 0 79 19t61.5 50t41 67t21.5 68l74 373q16 88 -14.5 149.5t-118.5 61.5q-55 0 -98.5 -24.5t-69.5 -88.5q-10 -27 -31.5 -103.5t-40.5 -172.5 q-16 -86 -26.5 -156.5t-10.5 -118.5zM381 1262q0 43 18.5 80.5t48 66.5t67.5 45t79 16q63 0 103 -40.5t40 -100.5q0 -43 -17.5 -81t-47 -67.5t-67.5 -46t-81 -16.5q-63 0 -103 41t-40 103zM453 1274q0 -37 23.5 -61.5t62.5 -24.5q49 0 87 37t38 86q0 37 -23.5 61.5 t-60.5 24.5q-47 0 -87 -37t-40 -86z" />
            <glyph unicode="&#xe6;" horiz-adv-x="1153" d="M14 188q0 59 15.5 130t56.5 131.5t112.5 101.5t182.5 41q35 0 74 -3t84 -14q6 41 15 80t17 80q2 16 4.5 29.5t2.5 28.5q0 51 -34 80.5t-106 29.5q-57 0 -108 -26.5t-68 -83.5q-29 10 -55.5 19t-54.5 19q29 84 105.5 136.5t199.5 52.5q63 0 129.5 -24.5t93.5 -77.5 q49 51 105.5 76.5t134.5 25.5q123 0 187 -57.5t64 -155.5q0 -96 -32.5 -166t-88 -116t-129 -68.5t-153.5 -22.5q-51 0 -125 12q-8 -43 -16.5 -93t-8.5 -91q0 -31 6.5 -60.5t22 -52t41 -36t66.5 -13.5q76 0 124 45t62 119q33 -6 64.5 -11t64.5 -9q-29 -121 -108.5 -188.5 t-223.5 -67.5q-98 0 -149 40t-72 103q-39 -51 -80 -79.5t-79 -43t-70.5 -17.5t-55.5 -3q-61 0 -103 15t-66.5 43t-36 63.5t-11.5 78.5zM141 233q0 -53 32 -90t106 -37q76 0 132 47.5t70 129.5q10 47 18.5 95t16.5 95q-41 8 -75.5 11t-65.5 3q-115 0 -174.5 -65.5 t-59.5 -188.5zM664 555q27 -4 53 -8t55 -4q49 0 97.5 11t86 39t61 74t23.5 113q0 53 -35.5 87t-101.5 34q-47 0 -83 -18.5t-64.5 -59.5t-51 -106.5t-40.5 -161.5z" />
            <glyph unicode="&#xe7;" horiz-adv-x="686" d="M35 -387l37 61q31 -16 59.5 -20t52.5 -4q45 0 75 24.5t30 65.5q0 33 -23.5 53.5t-64.5 20.5h-13l-26 26q2 8 10 25.5t18.5 38t20.5 43t20 41.5q-102 10 -144 64t-46 120q-2 25 2 62.5t10 81.5t14.5 89.5t16.5 86.5q10 53 21.5 108t23.5 104.5t24.5 89.5t26.5 64 q39 74 102.5 118t184.5 44q66 0 115 -21.5t78.5 -60.5t41 -90t0.5 -109l-133 -18v2q23 80 -12 132t-108 52q-49 0 -90.5 -21.5t-63.5 -74.5q-16 -41 -41 -130t-51 -212q-14 -80 -26.5 -153.5t-8.5 -110.5q8 -49 39 -78t90 -29q86 0 130 45t60 138l121 -23 q-16 -119 -89 -192.5t-222 -79.5q-14 -29 -29.5 -62t-19.5 -45q41 -4 66.5 -15t41 -29.5t20.5 -40t5 -44.5q0 -29 -11.5 -58.5t-36 -54t-60 -41t-85.5 -16.5q-29 0 -73.5 5t-79.5 28z" />
            <glyph unicode="&#xe8;" horiz-adv-x="724" d="M53 252q0 57 8.5 118.5t18.5 121.5q18 100 42.5 195t67.5 170t110 120t171 45q121 0 185.5 -57.5t64.5 -157.5q0 -96 -33 -167t-88 -118t-128 -70.5t-153 -23.5q-51 0 -120 12q-10 -41 -17.5 -88t-7.5 -88q0 -63 26.5 -112.5t106.5 -49.5q74 0 121 45.5t61 118.5l132 -20 q-29 -119 -108 -189.5t-220 -70.5q-72 0 -118 21.5t-72.5 58t-38 85t-11.5 101.5zM217 551q25 -4 56.5 -8t56.5 -4q49 0 96 13t85 43t61.5 77t23.5 114q0 53 -36.5 88t-102.5 35q-90 0 -145.5 -84t-94.5 -274zM305 1440l111 67l159 -346l-61 -39z" />
            <glyph unicode="&#xe9;" horiz-adv-x="724" d="M53 252q0 57 8.5 118.5t18.5 121.5q18 100 42.5 195t67.5 170t110 120t171 45q121 0 185.5 -57.5t64.5 -157.5q0 -96 -33 -167t-88 -118t-128 -70.5t-153 -23.5q-51 0 -120 12q-10 -41 -17.5 -88t-7.5 -88q0 -63 26.5 -112.5t106.5 -49.5q74 0 121 45.5t61 118.5l132 -20 q-29 -119 -108 -189.5t-220 -70.5q-72 0 -118 21.5t-72.5 58t-38 85t-11.5 101.5zM217 551q25 -4 56.5 -8t56.5 -4q49 0 96 13t85 43t61.5 77t23.5 114q0 53 -36.5 88t-102.5 35q-90 0 -145.5 -84t-94.5 -274zM432 1167l203 326l110 -43l-247 -311z" />
            <glyph unicode="&#xea;" horiz-adv-x="724" d="M53 252q0 57 8.5 118.5t18.5 121.5q18 100 42.5 195t67.5 170t110 120t171 45q121 0 185.5 -57.5t64.5 -157.5q0 -96 -33 -167t-88 -118t-128 -70.5t-153 -23.5q-51 0 -120 12q-10 -41 -17.5 -88t-7.5 -88q0 -63 26.5 -112.5t106.5 -49.5q74 0 121 45.5t61 118.5l132 -20 q-29 -119 -108 -189.5t-220 -70.5q-72 0 -118 21.5t-72.5 58t-38 85t-11.5 101.5zM215 1176l303 268h80l188 -264l-57 -50l-186 199l-277 -199zM217 551q25 -4 56.5 -8t56.5 -4q49 0 96 13t85 43t61.5 77t23.5 114q0 53 -36.5 88t-102.5 35q-90 0 -145.5 -84t-94.5 -274z " />
            <glyph unicode="&#xeb;" horiz-adv-x="724" d="M53 252q0 57 8.5 118.5t18.5 121.5q18 100 42.5 195t67.5 170t110 120t171 45q121 0 185.5 -57.5t64.5 -157.5q0 -96 -33 -167t-88 -118t-128 -70.5t-153 -23.5q-51 0 -120 12q-10 -41 -17.5 -88t-7.5 -88q0 -63 26.5 -112.5t106.5 -49.5q74 0 121 45.5t61 118.5l132 -20 q-29 -119 -108 -189.5t-220 -70.5q-72 0 -118 21.5t-72.5 58t-38 85t-11.5 101.5zM217 551q25 -4 56.5 -8t56.5 -4q49 0 96 13t85 43t61.5 77t23.5 114q0 53 -36.5 88t-102.5 35q-90 0 -145.5 -84t-94.5 -274zM307 1202l27 131h115l-27 -131h-115zM616 1202l25 131h113 l-27 -131h-111z" />
            <glyph unicode="&#xec;" horiz-adv-x="397" d="M82 0l194 1008h130l-197 -1008h-127zM145 1440l111 67l160 -346l-62 -39z" />
            <glyph unicode="&#xed;" horiz-adv-x="333" d="M18 0l195 1008h129l-197 -1008h-127zM256 1167l203 326l110 -43l-247 -311z" />
            <glyph unicode="&#xee;" horiz-adv-x="491" d="M92 0l195 1008h129l-197 -1008h-127zM96 1176l303 268h80l189 -264l-58 -50l-186 199l-277 -199z" />
            <glyph unicode="&#xef;" horiz-adv-x="389" d="M47 0l195 1008h129l-197 -1008h-127zM131 1202l27 131h114l-26 -131h-115zM440 1202l25 131h113l-27 -131h-111z" />
            <glyph unicode="&#xf0;" horiz-adv-x="765" d="M63 205q0 27 3.5 62.5t8.5 75.5t12 82t13 79q23 113 47.5 193.5t45.5 121.5q45 78 108.5 119t157.5 41q18 0 43.5 -5t51.5 -16.5t48.5 -30t34.5 -46.5h4q16 86 22.5 139t6.5 96v35.5t-4 34.5l-172 -109q-10 14 -17.5 28.5t-17.5 31.5l186 116q-31 61 -91 92t-138 41 q10 27 17 52.5t18 50.5q66 -10 111.5 -22.5t80.5 -33t60.5 -48t48.5 -66.5q39 25 75.5 49.5t77.5 48.5l33 -59l-164 -105q4 -20 7 -41.5t3 -48.5q0 -84 -14 -211.5t-53 -328.5q-10 -55 -18.5 -100.5t-22.5 -116.5q-41 -217 -125 -318.5t-250 -101.5q-66 0 -111 20.5 t-73.5 52t-41 70.5t-12.5 76zM184 227q0 -53 35 -91t109 -38q115 0 166 113q12 25 28.5 81t32.5 125.5t28.5 142.5t16.5 130v33.5t-2 32.5q-8 51 -45 81.5t-90 30.5q-49 2 -99.5 -27.5t-70.5 -90.5q-37 -82 -80 -291q-29 -143 -29 -232z" />
            <glyph unicode="&#xf1;" horiz-adv-x="741" d="M-4 0q49 252 98 502t96 504h125q-4 -29 -11 -56.5t-11 -56.5h6q51 68 110.5 96.5t120.5 28.5q55 0 93.5 -15.5t61 -43t31.5 -63.5t9 -77q0 -23 -3 -47t-7 -49l-140 -723h-126l137 700q4 18 6 36t2 34q0 51 -26.5 88t-100.5 37q-55 0 -95 -25.5t-65.5 -65.5t-42 -88 t-24.5 -95l-121 -621h-123zM219 1225q35 57 87 96t102 39q31 0 57.5 -12.5t51 -25.5t49 -25.5t52.5 -12.5q29 0 56.5 18.5t58.5 59.5l66 -43q-41 -78 -93.5 -108.5t-95.5 -30.5q-31 0 -58.5 11t-52 25.5t-48 25.5t-48.5 11q-55 0 -116 -71z" />
            <glyph unicode="&#xf2;" horiz-adv-x="729" d="M47 205q0 53 12.5 134t26.5 155q27 129 49.5 225t61.5 162q82 139 266 139q63 0 110.5 -18.5t78 -49t45 -69.5t14.5 -78q0 -68 -15.5 -159t-33.5 -183q-25 -129 -52.5 -220t-68.5 -147.5t-101.5 -83t-152.5 -26.5q-66 0 -111 20.5t-73.5 52t-42 70.5t-13.5 76zM168 227 q0 -53 35 -91t108 -38q59 0 105.5 34t66.5 97q12 41 32 114t36 152.5t28.5 155.5t12.5 125q0 61 -39 97t-98 36q-49 0 -92.5 -21.5t-71.5 -74.5q-16 -33 -42 -128t-50 -218q-14 -74 -22.5 -134.5t-8.5 -105.5zM289 1440l110 67l160 -346l-61 -39z" />
            <glyph unicode="&#xf3;" horiz-adv-x="729" d="M47 205q0 53 12.5 134t26.5 155q27 129 49.5 225t61.5 162q82 139 266 139q63 0 110.5 -18.5t78 -49t45 -69.5t14.5 -78q0 -68 -15.5 -159t-33.5 -183q-25 -129 -52.5 -220t-68.5 -147.5t-101.5 -83t-152.5 -26.5q-66 0 -111 20.5t-73.5 52t-42 70.5t-13.5 76zM168 227 q0 -53 35 -91t108 -38q59 0 105.5 34t66.5 97q12 41 32 114t36 152.5t28.5 155.5t12.5 125q0 61 -39 97t-98 36q-49 0 -92.5 -21.5t-71.5 -74.5q-16 -33 -42 -128t-50 -218q-14 -74 -22.5 -134.5t-8.5 -105.5zM416 1167l202 326l111 -43l-248 -311z" />
            <glyph unicode="&#xf4;" horiz-adv-x="729" d="M47 205q0 53 12.5 134t26.5 155q27 129 49.5 225t61.5 162q82 139 266 139q63 0 110.5 -18.5t78 -49t45 -69.5t14.5 -78q0 -68 -15.5 -159t-33.5 -183q-25 -129 -52.5 -220t-68.5 -147.5t-101.5 -83t-152.5 -26.5q-66 0 -111 20.5t-73.5 52t-42 70.5t-13.5 76zM168 227 q0 -53 35 -91t108 -38q59 0 105.5 34t66.5 97q12 41 32 114t36 152.5t28.5 155.5t12.5 125q0 61 -39 97t-98 36q-49 0 -92.5 -21.5t-71.5 -74.5q-16 -33 -42 -128t-50 -218q-14 -74 -22.5 -134.5t-8.5 -105.5zM217 1176l303 268h80l188 -264l-57 -50l-186 199l-277 -199z " />
            <glyph unicode="&#xf5;" horiz-adv-x="729" d="M47 205q0 53 12.5 134t26.5 155q27 129 49.5 225t61.5 162q82 139 266 139q63 0 110.5 -18.5t78 -49t45 -69.5t14.5 -78q0 -68 -15.5 -159t-33.5 -183q-25 -129 -52.5 -220t-68.5 -147.5t-101.5 -83t-152.5 -26.5q-66 0 -111 20.5t-73.5 52t-42 70.5t-13.5 76zM168 227 q0 -53 35 -91t108 -38q59 0 105.5 34t66.5 97q12 41 32 114t36 152.5t28.5 155.5t12.5 125q0 61 -39 97t-98 36q-49 0 -92.5 -21.5t-71.5 -74.5q-16 -33 -42 -128t-50 -218q-14 -74 -22.5 -134.5t-8.5 -105.5zM201 1225q35 57 87 96t101 39q31 0 57.5 -12.5t51 -25.5 t49 -25.5t53.5 -12.5t56.5 18.5t58.5 59.5l65 -43q-41 -78 -93 -108.5t-95 -30.5q-31 0 -58.5 11t-52 25.5t-48 25.5t-48.5 11q-55 0 -117 -71z" />
            <glyph unicode="&#xf6;" horiz-adv-x="729" d="M47 205q0 53 12.5 134t26.5 155q27 129 49.5 225t61.5 162q82 139 266 139q63 0 110.5 -18.5t78 -49t45 -69.5t14.5 -78q0 -68 -15.5 -159t-33.5 -183q-25 -129 -52.5 -220t-68.5 -147.5t-101.5 -83t-152.5 -26.5q-66 0 -111 20.5t-73.5 52t-42 70.5t-13.5 76zM168 227 q0 -53 35 -91t108 -38q59 0 105.5 34t66.5 97q12 41 32 114t36 152.5t28.5 155.5t12.5 125q0 61 -39 97t-98 36q-49 0 -92.5 -21.5t-71.5 -74.5q-16 -33 -42 -128t-50 -218q-14 -74 -22.5 -134.5t-8.5 -105.5zM285 1202l26 131h115l-27 -131h-114zM594 1202l24 131h113 l-26 -131h-111z" />
            <glyph unicode="&#xf7;" d="M49 551l21 102h698l-18 -102h-701zM256 266q2 41 36 74t75 33q35 0 55 -22.5t18 -57.5q-2 -41 -35.5 -73t-72.5 -32q-35 0 -55.5 22.5t-20.5 55.5zM381 901q0 41 34 73t74 32q35 0 55.5 -22.5t18.5 -55.5q-2 -41 -35.5 -73t-72.5 -32q-35 0 -55.5 22.5t-18.5 55.5z" />
            <glyph unicode="&#xf8;" horiz-adv-x="729" d="M4 10l66 94q-12 25 -17.5 50.5t-5.5 50.5q0 53 12.5 134t26.5 155q27 129 49.5 225t61.5 162q82 139 266 139q70 0 119 -21.5t77 -56.5l62 86l55 -33l-80 -112q14 -35 15 -78q0 -68 -15.5 -159t-33.5 -183q-25 -129 -52.5 -220t-68.5 -147.5t-101.5 -83t-152.5 -26.5 q-63 0 -107.5 18.5t-73.5 48.5l-53 -73q-12 8 -25.5 15t-23.5 15zM168 242l414 587q-16 37 -50 58.5t-77 21.5q-49 0 -92.5 -21.5t-71.5 -74.5q-16 -33 -42 -128t-50 -218q-27 -135 -31 -225zM182 162q33 -63 129 -64q59 0 105.5 34t66.5 97q12 37 28.5 99.5t32 134.5 t29 143.5t17.5 126.5z" />
            <glyph unicode="&#xf9;" horiz-adv-x="745" d="M43 184q0 25 3 49.5t7 49.5l140 723h126l-137 -701q-6 -31 -6 -63q0 -53 26.5 -92t98.5 -39q55 0 95 25.5t65.5 65.5t41 88t25.5 95l121 621h123q-49 -254 -98 -504t-96 -502h-125q4 29 11 55.5t11 55.5h-6q-51 -66 -110.5 -94.5t-120.5 -28.5q-57 0 -94.5 15t-60 43 t-31.5 62.5t-9 75.5zM303 1440l111 67l159 -346l-61 -39z" />
            <glyph unicode="&#xfa;" horiz-adv-x="745" d="M43 184q0 25 3 49.5t7 49.5l140 723h126l-137 -701q-6 -31 -6 -63q0 -53 26.5 -92t98.5 -39q55 0 95 25.5t65.5 65.5t41 88t25.5 95l121 621h123q-49 -254 -98 -504t-96 -502h-125q4 29 11 55.5t11 55.5h-6q-51 -66 -110.5 -94.5t-120.5 -28.5q-57 0 -94.5 15t-60 43 t-31.5 62.5t-9 75.5zM471 1167l203 326l110 -43l-247 -311z" />
            <glyph unicode="&#xfb;" horiz-adv-x="745" d="M43 184q0 25 3 49.5t7 49.5l140 723h126l-137 -701q-6 -31 -6 -63q0 -53 26.5 -92t98.5 -39q55 0 95 25.5t65.5 65.5t41 88t25.5 95l121 621h123q-49 -254 -98 -504t-96 -502h-125q4 29 11 55.5t11 55.5h-6q-51 -66 -110.5 -94.5t-120.5 -28.5q-57 0 -94.5 15t-60 43 t-31.5 62.5t-9 75.5zM213 1176l303 268h80l188 -264l-57 -50l-186 199l-277 -199z" />
            <glyph unicode="&#xfc;" horiz-adv-x="745" d="M43 184q0 25 3 49.5t7 49.5l140 723h126l-137 -701q-6 -31 -6 -63q0 -53 26.5 -92t98.5 -39q55 0 95 25.5t65.5 65.5t41 88t25.5 95l121 621h123q-49 -254 -98 -504t-96 -502h-125q4 29 11 55.5t11 55.5h-6q-51 -66 -110.5 -94.5t-120.5 -28.5q-57 0 -94.5 15t-60 43 t-31.5 62.5t-9 75.5zM303 1202l27 131h114l-26 -131h-115zM612 1202l25 131h113l-27 -131h-111z" />
            <glyph unicode="&#xfd;" horiz-adv-x="667" d="M-121 -301q55 8 97 24.5t77 48t64.5 82t62.5 126.5l-74 1028h127l29 -521q2 -37 3 -82t1 -91t-1 -92t-3 -85h6q39 78 84 183.5t91 221t89 236.5t80 230h133q-59 -162 -115.5 -305.5t-114.5 -278.5t-118.5 -265t-126.5 -261q-33 -68 -68.5 -122.5t-80.5 -94t-103.5 -63.5 t-136.5 -28zM412 1167l202 326l111 -43l-248 -311z" />
            <glyph unicode="&#xfe;" horiz-adv-x="731" d="M-92 -399l356 1822h127l-98 -497l4 -2q43 47 89 73.5t126 26.5q31 0 66.5 -7t65.5 -29.5t50.5 -63.5t20.5 -107q0 -27 -3 -67.5t-9.5 -87t-13.5 -91.5t-13 -77q-25 -115 -47.5 -208t-59.5 -159t-95 -101.5t-150 -35.5q-76 0 -123 33.5t-66 70.5h-4l-96 -493h-127z M174 328q-20 -104 19.5 -165t132.5 -61q49 0 82.5 29t59.5 83t44 130t37 172q16 82 24.5 148.5t8.5 107.5q0 66 -37.5 97.5t-98.5 31.5q-45 0 -78.5 -16.5t-57 -43t-38 -60t-20.5 -66.5z" />
            <glyph unicode="&#xff;" horiz-adv-x="667" d="M-121 -301q55 8 97 24.5t77 48t64.5 82t62.5 126.5l-74 1028h127l29 -521q2 -37 3 -82t1 -91t-1 -92t-3 -85h6q39 78 84 183.5t91 221t89 236.5t80 230h133q-59 -162 -115.5 -305.5t-114.5 -278.5t-118.5 -265t-126.5 -261q-33 -68 -68.5 -122.5t-80.5 -94t-103.5 -63.5 t-136.5 -28zM248 1202l26 131h115l-27 -131h-114zM557 1202l25 131h112l-26 -131h-111z" />
            <glyph unicode="&#x152;" horiz-adv-x="1157" d="M72 248q0 53 12 112l145 760q29 152 120 235t235 83q33 0 65.5 -5.5t57.5 -11.5q0 2 1 2t1 2h606l-25 -116h-471l-100 -525h411l-22 -114h-412q-29 -139 -55.5 -277.5t-52.5 -277.5h471l-21 -115h-573q-53 -12 -119 -12q-143 0 -208.5 70.5t-65.5 189.5zM195 268 q0 -74 36.5 -120t126.5 -46q63 0 107 21q57 293 113.5 581.5t111.5 581.5q-18 16 -50 24.5t-67 8.5q-49 0 -86.5 -16.5t-64.5 -44t-43.5 -65.5t-24.5 -79q-39 -190 -75.5 -376.5t-73.5 -377.5q-4 -25 -7 -47t-3 -45z" />
            <glyph unicode="&#x153;" horiz-adv-x="1196" d="M45 205q0 53 9 134t24 155q27 129 51.5 225t63.5 162q82 139 266 139q92 0 146 -39t77 -92q41 59 104.5 96t153.5 37q123 0 186.5 -58.5t63.5 -156.5q0 -96 -33 -168t-88 -119t-128 -69.5t-153 -22.5q-23 0 -54.5 3t-65.5 9q-8 -41 -15.5 -86t-7.5 -86q0 -31 5 -61.5 t18.5 -53t39 -37t68.5 -14.5q76 0 123 44t62 118q33 -4 64.5 -9t64.5 -11q-29 -119 -108 -187.5t-220 -68.5q-174 0 -219 123q-43 -66 -103.5 -95.5t-156.5 -29.5q-66 0 -111 20.5t-73.5 52t-41 70.5t-12.5 76zM164 227q0 -53 34.5 -91t108.5 -38q59 0 102.5 33t65.5 98 q14 41 32.5 114t35 152.5t29 155.5t12.5 125q0 61 -37 97t-96 36q-49 2 -92.5 -20.5t-71.5 -75.5q-16 -33 -42 -128t-50 -218q-14 -74 -22.5 -134.5t-8.5 -105.5zM686 551q27 -4 57.5 -8t59.5 -4q49 0 95 13t83 42t59.5 75t22.5 113q0 53 -35.5 87t-101.5 34 q-92 0 -146.5 -81t-93.5 -271z" />
            <glyph unicode="&#x178;" horiz-adv-x="743" d="M219 1427h125q12 -102 25.5 -206.5t26 -194.5t21.5 -160.5t13 -105.5h6l340 667h137l-446 -823l-117 -604h-125l117 604zM356 1526l27 129h113l-25 -129h-115zM666 1526l24 129h111l-23 -129h-112z" />
            <glyph unicode="&#x2c6;" horiz-adv-x="733" d="M227 1176l303 268h80l189 -264l-58 -50l-186 199l-276 -199z" />
            <glyph unicode="&#x2dc;" horiz-adv-x="741" d="M240 1225q35 57 87 96t101 39q31 0 57.5 -12.5t51 -25.5t49 -25.5t53.5 -12.5t56.5 18.5t58.5 59.5l65 -43q-41 -78 -93 -108.5t-95 -30.5q-31 0 -58.5 11t-52 25.5t-48 25.5t-48.5 11q-55 0 -117 -71z" />
            <glyph unicode="&#x2000;" horiz-adv-x="905" />
            <glyph unicode="&#x2001;" horiz-adv-x="1810" />
            <glyph unicode="&#x2002;" horiz-adv-x="905" />
            <glyph unicode="&#x2003;" horiz-adv-x="1810" />
            <glyph unicode="&#x2004;" horiz-adv-x="603" />
            <glyph unicode="&#x2005;" horiz-adv-x="452" />
            <glyph unicode="&#x2006;" horiz-adv-x="301" />
            <glyph unicode="&#x2007;" horiz-adv-x="301" />
            <glyph unicode="&#x2008;" horiz-adv-x="226" />
            <glyph unicode="&#x2009;" horiz-adv-x="362" />
            <glyph unicode="&#x200a;" horiz-adv-x="100" />
            <glyph unicode="&#x2010;" horiz-adv-x="684" d="M121 530l22 113h506l-22 -113h-506z" />
            <glyph unicode="&#x2011;" horiz-adv-x="684" d="M121 530l22 113h506l-22 -113h-506z" />
            <glyph unicode="&#x2012;" horiz-adv-x="684" d="M121 530l22 113h506l-22 -113h-506z" />
            <glyph unicode="&#x2013;" horiz-adv-x="1024" d="M51 483l25 121h942l-25 -121h-942z" />
            <glyph unicode="&#x2014;" horiz-adv-x="2048" d="M51 481l25 121h1966l-25 -121h-1966z" />
            <glyph unicode="&#x2018;" horiz-adv-x="397" d="M244 1069l30 154l121 213h74l-86 -209h35l-31 -158h-143z" />
            <glyph unicode="&#x2019;" horiz-adv-x="397" d="M244 1071l86 209h-35q6 39 14 78t17 78h143q-8 -39 -16.5 -77t-14.5 -77l-123 -211h-71z" />
            <glyph unicode="&#x201a;" horiz-adv-x="335" d="M-37 -219l82 209h-35l31 155h143l-30 -151l-121 -213h-70z" />
            <glyph unicode="&#x201c;" horiz-adv-x="536" d="M211 1069q0 6 5 28.5t10 48t9.5 48.5t6.5 29l120 213h74q-6 -12 -18 -42t-25.5 -63t-26 -62.5t-16.5 -41.5h35l-31 -158h-143zM424 1069l31 154l120 213h74q-6 -12 -18.5 -42t-25.5 -63t-25.5 -62.5t-16.5 -41.5h35l-31 -158h-143z" />
            <glyph unicode="&#x201d;" horiz-adv-x="536" d="M211 1071l86 209h-35l31 156h143q-8 -39 -16 -77t-14 -77l-123 -211h-72zM424 1071l86 209h-35q6 39 14.5 78t16.5 78h143q-8 -39 -16 -77t-15 -77l-122 -211h-72z" />
            <glyph unicode="&#x201e;" horiz-adv-x="552" d="M-37 -219l86 209h-35l31 155h143q-8 -39 -16 -76.5t-14 -76.5l-123 -211h-72zM176 -219l86 209h-35q6 39 14.5 77.5t16.5 77.5h143q-8 -39 -16 -76.5t-14 -76.5l-123 -211h-72z" />
            <glyph unicode="&#x2022;" horiz-adv-x="780" d="M166 543q0 47 18.5 89t49 72.5t72.5 49t89 18.5t89 -18.5t73 -49t49.5 -72.5t18.5 -89t-18.5 -89t-49.5 -73t-73 -49.5t-89 -18.5t-89 18.5t-72.5 49.5t-49 73t-18.5 89z" />
            <glyph unicode="&#x2026;" horiz-adv-x="1179" d="M14 0l29 150h141l-26 -150h-144zM430 0l27 150h143l-29 -150h-141zM852 0l29 150h143l-29 -150h-143z" />
            <glyph unicode="&#x202f;" horiz-adv-x="362" />
            <glyph unicode="&#x2039;" horiz-adv-x="516" d="M72 475l293 381h127l-297 -389l147 -373h-123z" />
            <glyph unicode="&#x203a;" horiz-adv-x="501" d="M18 94q74 98 149 193.5t148 193.5l-147 375h121q37 -96 73.5 -190.5t75.5 -190.5l-295 -381h-125z" />
            <glyph unicode="&#x205f;" horiz-adv-x="452" />
            <glyph unicode="&#x20ac;" d="M55 573q4 20 8.5 40t8.5 42h73l27 136h-74l17 81h73q6 27 11.5 55.5t9.5 54.5l7 45.5t5 29.5q14 76 39 145.5t67 121.5t106.5 83t156.5 31q147 0 213.5 -74t66.5 -193l-122 -28q0 84 -38 131t-122 47q-111 0 -161 -65.5t-73 -174.5q-4 -23 -14 -79t-27 -130h322l-14 -81 h-324q-8 -35 -14.5 -68t-12.5 -68h324q-4 -23 -8 -42t-8 -40h-324l-47 -243q-4 -23 -5 -37t-1 -31q0 -76 36.5 -120t118.5 -44q86 0 143.5 46t80.5 145l120 -37q-35 -135 -123 -200.5t-227 -65.5q-145 0 -210.5 66.5t-65.5 185.5q0 25 3 49t7 51q4 25 16.5 89.5t28.5 145.5 h-74z" />
            <glyph unicode="&#x2122;" horiz-adv-x="1306" d="M66 1329v96h444v-96h-172v-700h-100v700h-172zM586 627v796h98l213 -520l207 520h96v-796h-100v522h-6l-160 -385h-82l-162 393h-6v-530h-98z" />
            <glyph unicode="&#x25fc;" horiz-adv-x="1003" d="M0 0v1004h1004v-1004h-1004z" />
            </font>
</defs>
</svg>
