<?xml version="1.0" standalone="no"?>
<!DOCTYPE svg PUBLIC "-//W3C//DTD SVG 1.1//EN" "http://www.w3.org/Graphics/SVG/1.1/DTD/svg11.dtd" >
<svg xmlns="http://www.w3.org/2000/svg">
    <metadata></metadata>
    <defs>
        <font id="pf_din_text_comp_promedium" horiz-adv-x="829" >
            <font-face units-per-em="2048" ascent="1536" descent="-512" />
            <missing-glyph horiz-adv-x="419" />
            <glyph unicode="&#xfb01;" horiz-adv-x="903" d="M27 840v172h96v170q0 82 27.5 142t73.5 99t107.5 57.5t129.5 18.5q94 0 171 -23.5t150 -82.5l-116 -170q-49 41 -100.5 53t-86.5 12q-41 0 -66.5 -11t-41 -29.5t-20.5 -41t-5 -43.5v-151h467v-1012h-221v840h-246v-840h-223v840h-96z" />
            <glyph unicode="&#xfb02;" horiz-adv-x="956" d="M27 840v172h96v170q0 82 23.5 142t66.5 100t101.5 59.5t127.5 19.5q55 0 154.5 -11t216.5 -58l-2 -1133q0 -59 17.5 -85t64.5 -26h25v-202h-41q-74 0 -127.5 13t-89 46t-53 87t-17.5 134v1006q-35 10 -60.5 14t-52.5 4q-41 0 -66.5 -11t-40 -30.5t-19.5 -44t-5 -49.5 v-145h160v-172h-160v-840h-223v840h-96z" />
            <glyph unicode="&#xfb03;" horiz-adv-x="1368" d="M27 840v172h96v90q0 190 89 279t249 89q109 0 207 -47q47 47 113.5 70t144.5 23q102 0 185 -36t140 -98l-129 -161q-37 39 -85 61.5t-95 22.5q-41 0 -66.5 -11.5t-40 -30t-20.5 -41t-6 -42.5v-168h467v-1012h-221v840h-246v-840h-221v840h-244v-840h-221v840h-96z M344 1012h244v200q0 10 2 17q-59 33 -113 33q-49 0 -76.5 -16.5t-40 -43t-14.5 -57.5t-2 -60v-73z" />
            <glyph unicode="&#xfb04;" horiz-adv-x="1419" d="M27 840v172h96v90q0 186 89 277t249 91q109 0 207 -47q45 47 108.5 70t136.5 23q33 0 76 -3.5t91 -10.5t98.5 -19.5t97.5 -32.5l-2 -1149q0 -59 17.5 -85t64.5 -26h24v-202h-41q-74 0 -127 13t-89 46t-53 87t-17 134v1018q-35 10 -60.5 14.5t-52.5 4.5q-41 0 -66.5 -11.5 t-40 -31t-19.5 -44t-5 -51.5v-155h160v-172h-160v-840h-223v840h-242v-840h-221v840h-96zM344 1012h242v223q-27 16 -59.5 20.5t-49.5 4.5q-49 0 -76.5 -16.5t-40 -42t-14.5 -57.5t-2 -61v-71z" />
            <glyph horiz-adv-x="0" />
            <glyph horiz-adv-x="682" />
            <glyph unicode=" "  horiz-adv-x="419" />
            <glyph unicode="&#x09;" horiz-adv-x="419" />
            <glyph unicode="&#xa0;" horiz-adv-x="419" />
            <glyph unicode="!" horiz-adv-x="516" d="M147 1425h220l-17 -1036h-184zM152 0v223h213v-223h-213z" />
            <glyph unicode="&#x22;" horiz-adv-x="573" d="M80 1004v421h156v-421h-156zM340 1004v421h158v-421h-158z" />
            <glyph unicode="#" d="M10 442v152h144l47 256h-115v151h141l78 429h156l-80 -429h162l78 429h153l-80 -429h119v-151h-145l-45 -256h118v-152h-147l-80 -442h-154l80 442h-161l-78 -442h-156l82 442h-117zM307 594h162l47 256h-162z" />
            <glyph unicode="$" d="M63 334l222 43q2 -66 22.5 -115t73.5 -61v436q-100 43 -160.5 87t-93.5 93t-43 105.5t-10 124.5q0 160 73.5 266t233.5 123v149h76v-147q90 -4 150.5 -37t96 -82t50 -106.5t14.5 -110.5l-217 -51q0 68 -20.5 114.5t-73.5 57.5v-379q100 -45 161.5 -88t95.5 -93.5 t44 -112.5t10 -144q0 -90 -15.5 -165t-52 -129.5t-96 -86t-147.5 -35.5v-170h-76v170q-84 4 -144.5 32.5t-98.5 74.5t-56.5 106.5t-18.5 130.5zM293 1049q0 -53 13 -91t75 -75v338q-55 -16 -71.5 -68.5t-16.5 -103.5zM457 201q33 6 51 25.5t27.5 47t12.5 60t3 69.5 q0 82 -18.5 122t-75.5 75v-399z" />
            <glyph unicode="%" horiz-adv-x="1290" d="M55 754v493q0 90 62.5 139.5t148.5 49.5q90 0 150.5 -49.5t60.5 -139.5v-493q0 -90 -61.5 -138.5t-149.5 -48.5t-149.5 48.5t-61.5 138.5zM213 762q0 -18 13.5 -33.5t39.5 -15.5q23 0 36 15t13 34v477q0 18 -13 33.5t-38 15.5t-38 -15.5t-13 -33.5v-477zM254 -35 l643 1497h135l-643 -1497h-135zM811 180v494q0 90 62.5 139t148.5 49q90 0 150.5 -49t60.5 -139v-494q0 -90 -61.5 -138t-149.5 -48t-149.5 48t-61.5 138zM969 188q0 -18 13 -33.5t40 -15.5q23 0 36 15.5t13 33.5v478q0 18 -13.5 33.5t-37.5 15.5q-25 0 -38 -15.5t-13 -33.5 v-478z" />
            <glyph unicode="&#x26;" horiz-adv-x="983" d="M84 362q0 123 51 218.5t144 183.5l-37 65q-31 57 -55.5 132t-24.5 155q0 68 20.5 126t58.5 101t92 68t120 25q113 0 192.5 -44t126.5 -149l-182 -92q-18 47 -51 68.5t-72 21.5q-57 0 -78.5 -41t-21.5 -86q0 -47 23.5 -108.5t62.5 -133.5l227 -403q12 37 18.5 82t8.5 94 h192q-2 -92 -25.5 -193.5t-64.5 -181.5l156 -270h-244l-53 92q-63 -66 -133 -85t-144 -19q-68 0 -124 26.5t-97 75.5t-63.5 119t-22.5 153zM291 371q0 -76 35.5 -131.5t101.5 -55.5q41 0 80 19.5t65 50.5l-192 332q-43 -53 -66.5 -104.5t-23.5 -110.5z" />
            <glyph unicode="'" horiz-adv-x="380" d="M117 1004v421h157v-421h-157z" />
            <glyph unicode="(" horiz-adv-x="518" d="M94 627q0 127 21.5 244.5t59.5 223t88 202t108 180.5l127 -62q-49 -86 -87 -182t-65 -196.5t-41 -203t-14 -198.5q0 -104 14 -211t41 -208t63.5 -196.5t84.5 -177.5l-111 -71q-123 176 -206 390t-83 466z" />
            <glyph unicode=")" horiz-adv-x="518" d="M94 1415l125 62q57 -84 107.5 -180.5t88.5 -202t60.5 -223t22.5 -244.5q0 -252 -84 -466t-207 -390l-109 71q45 82 83 177.5t64.5 196.5t41 207.5t14.5 211.5q0 96 -14.5 198.5t-41 203t-65.5 196.5t-86 182z" />
            <glyph unicode="*" horiz-adv-x="763" d="M49 1122l49 142l217 -90l-20 249h154l-21 -247l215 88l51 -142l-231 -61l160 -195l-125 -86l-125 209l-129 -211l-123 88l155 195z" />
            <glyph unicode="+" d="M29 518v176h299v324h172v-324h299v-176h-299v-321h-172v321h-299z" />
            <glyph unicode="," horiz-adv-x="438" d="M98 -281l60 269h-54v258h230v-252l-113 -275h-123z" />
            <glyph unicode="-" horiz-adv-x="747" d="M100 479v193h570v-193h-570z" />
            <glyph unicode="." horiz-adv-x="432" d="M100 0v248h230v-248h-230z" />
            <glyph unicode="/" horiz-adv-x="559" d="M6 -86l381 1571h166l-381 -1571h-166z" />
            <glyph unicode="0" d="M109 289v844q0 72 24.5 129t66.5 96t98 59.5t122 20.5q137 0 223 -80t86 -225v-844q0 -72 -24.5 -128.5t-66.5 -95t-98.5 -58t-119.5 -19.5q-66 0 -122 19.5t-98 58t-66.5 95t-24.5 128.5zM326 281q0 -41 26.5 -64.5t67.5 -23.5q39 0 64.5 23.5t25.5 64.5v860 q0 41 -25.5 64.5t-64.5 23.5q-41 0 -67.5 -23.5t-26.5 -64.5v-860z" />
            <glyph unicode="1" d="M209 1022v238l207 165h207v-1425h-220v1178z" />
            <glyph unicode="2" d="M94 1055q0 182 88 282.5t236 100.5q170 0 243.5 -91.5t73.5 -244.5q2 -94 -19.5 -168t-64.5 -158l-289 -567h359v-209h-615v193q92 174 181.5 347t179.5 347q29 53 36 105t7 110q0 18 -3 40.5t-13.5 41t-28.5 32t-49 13.5q-47 -2 -76 -45t-29 -154z" />
            <glyph unicode="3" d="M84 352l219 27q-10 -102 19.5 -143t80.5 -41q37 0 69 25.5t32 94.5v193q0 72 -33 102.5t-92 30.5h-62v188h72q59 0 90 29t31 96v158q0 41 -18.5 78t-71.5 37q-51 0 -81 -42t-30 -141l-217 29q4 166 94 265.5t244 99.5q84 0 141.5 -27t92 -71t50 -100t15.5 -114v-112 q0 -41 -3 -81t-14.5 -75t-35 -64.5t-64.5 -50.5v-10q72 -33 94.5 -95.5t22.5 -139.5l-2 -164q0 -170 -89 -258t-239 -88q-174 0 -249.5 95t-65.5 269z" />
            <glyph unicode="4" d="M47 213v186l303 1026h215l-295 -1007h195v323h215v-323h90v-205h-90v-213h-215v213h-418z" />
            <glyph unicode="5" d="M96 336l213 35v-29q0 -80 24.5 -113.5t78.5 -33.5q37 0 64.5 24.5t31.5 93.5v338q0 88 -88 88q-33 0 -62.5 -17t-46.5 -58h-184v761h594v-202h-393v-344q2 0 3 -1t5 -1q27 29 68.5 42t80.5 13q131 0 187.5 -73t56.5 -183v-295q0 -203 -78.5 -298t-242.5 -95 q-162 0 -237 92t-75 256z" />
            <glyph unicode="6" d="M111 283v182q0 84 9 150.5t32 125.5l262 684h231l-231 -606l8 -8q37 25 90 25q100 0 160.5 -65.5t60.5 -207.5v-250q0 -70 -19.5 -129t-58.5 -103t-98 -68.5t-139 -24.5q-141 0 -224 79.5t-83 215.5zM328 279q0 -41 26.5 -62.5t65.5 -21.5q41 0 67.5 21.5t26.5 62.5v292 q0 41 -26.5 62.5t-65.5 21.5q-47 0 -70.5 -30.5t-23.5 -71.5v-274z" />
            <glyph unicode="7" d="M104 1069v356h629v-186l-360 -1239h-217l348 1223h-205v-154h-195z" />
            <glyph unicode="8" d="M104 322v102q0 49 3.5 96t14.5 89t33.5 76t61.5 58q-35 14 -56.5 42t-33.5 60t-16.5 63.5t-4.5 54.5v163q0 141 85 226.5t225 85.5q150 0 229.5 -85t79.5 -247v-105q0 -78 -22.5 -147.5t-86.5 -103.5q0 -2 2 -2q39 -25 60.5 -55.5t32 -67.5t13.5 -81t3 -95v-123 q0 -88 -23.5 -151.5t-65.5 -105.5t-98.5 -61.5t-121.5 -19.5q-82 0 -141.5 24.5t-97.5 69.5t-56.5 106.5t-18.5 133.5zM322 281q0 -39 27.5 -63.5t66.5 -24.5q41 0 66.5 24.5t25.5 63.5v270q0 43 -19.5 78t-72.5 35t-73.5 -35t-20.5 -78v-270zM322 920q0 -39 27.5 -62.5 t66.5 -23.5q41 0 66.5 23.5t25.5 62.5v204q0 45 -21.5 76t-70.5 31q-37 0 -65.5 -23.5t-28.5 -62.5v-225z" />
            <glyph unicode="9" d="M104 864v248q0 70 19.5 129t58.5 103.5t98.5 69t141.5 24.5q152 0 229.5 -80t77.5 -215v-182q0 -162 -41 -277l-262 -684h-233l231 606l-8 8q-37 -25 -90 -24q-100 0 -161 60.5t-61 213.5zM324 854q0 -41 26.5 -63.5t67.5 -22.5q47 0 69.5 31.5t22.5 72.5v275 q0 41 -25.5 62.5t-66.5 21.5q-39 0 -66.5 -21.5t-27.5 -62.5v-293z" />
            <glyph unicode=":" horiz-adv-x="432" d="M100 0v248h230v-248h-230zM100 571v248h230v-248h-230z" />
            <glyph unicode=";" horiz-adv-x="438" d="M98 -281l60 269h-54v258h230v-252l-113 -275h-123zM104 571v248h230v-248h-230z" />
            <glyph unicode="&#x3c;" d="M31 537v147l766 383v-203l-555 -254l553 -252v-204z" />
            <glyph unicode="=" d="M29 352v178h770v-178h-770zM29 692v178h770v-178h-770z" />
            <glyph unicode="&#x3e;" d="M33 864v203l766 -383v-147l-762 -383v204l551 252z" />
            <glyph unicode="?" horiz-adv-x="806" d="M63 1073q4 182 100.5 273.5t250.5 91.5q180 0 261 -94.5t81 -270.5q0 -53 -4 -92t-13.5 -70.5t-24 -61.5t-34.5 -67l-98 -172q-16 -27 -25.5 -55.5t-9.5 -69.5v-108h-217v164q0 45 14 85t37 76q49 82 78.5 132.5t45 87t19.5 68.5t4 79q0 23 -6 50.5t-19.5 51t-37 40 t-59.5 16.5q-49 0 -87 -40t-38 -138zM332 0v223h211v-223h-211z" />
            <glyph unicode="@" horiz-adv-x="1601" d="M123 688q0 168 46 309.5t135 243.5t220 160.5t299 58.5q166 0 290 -52t206 -144.5t122 -216t40 -265.5q0 -139 -31 -235t-83 -156.5t-118.5 -87.5t-140.5 -27q-16 0 -42 6.5t-54.5 20.5t-53 36.5t-36.5 53.5h-4q-33 -49 -90.5 -75.5t-118.5 -26.5q-57 0 -95.5 20.5 t-62 54t-32.5 77.5t-9 92q0 49 13.5 96t44 84t77.5 59.5t115 22.5h106v82q0 39 -18.5 60.5t-65.5 21.5q-27 0 -52 -17.5t-36 -62.5l-164 49q27 94 96.5 146t170.5 52q119 0 185.5 -54t66.5 -189v-350q0 -49 25.5 -75t53.5 -26q35 0 68 13.5t59.5 52.5t42 106.5t15.5 175.5 q0 119 -33 215.5t-95.5 165t-152.5 105.5t-203 37q-141 0 -244.5 -49.5t-169 -134.5t-97 -196.5t-31.5 -236.5q0 -147 35.5 -265t103.5 -200t168 -125t229 -43q96 0 174 18.5t172 71.5l66 -143q-94 -45 -194.5 -72.5t-206.5 -27.5q-162 0 -293 48t-224.5 145.5t-143.5 244.5 t-50 348zM690 547q0 -43 22.5 -67.5t65.5 -24.5q41 0 64.5 28.5t23.5 75.5v103h-73q-41 0 -72 -25t-31 -90z" />
            <glyph unicode="A" horiz-adv-x="864" d="M23 0q72 358 143.5 712.5t142.5 712.5h246l289 -1425h-226l-55 297h-262q-14 -74 -27.5 -148.5t-25.5 -148.5h-225zM334 504h194l-92 592h-10q-20 -147 -43 -294t-49 -298z" />
            <glyph unicode="B" horiz-adv-x="880" d="M106 0v1425h312q188 0 273 -99t85 -288q0 -98 -33.5 -171.5t-117.5 -110.5v-11q94 -31 128.5 -116.5t34.5 -196.5q0 -223 -95 -327.5t-292 -104.5h-295zM328 207h88q53 0 84.5 19.5t49 52t23 78t5.5 94.5q0 100 -37 149t-129 49h-84v-442zM328 850h71q86 0 126 47t40 137 q0 98 -39 141.5t-129 43.5h-69v-369z" />
            <glyph unicode="C" horiz-adv-x="831" d="M94 338v711q0 80 17.5 150.5t58.5 123.5t107.5 84t162.5 31q88 0 151.5 -24.5t105.5 -69t61.5 -104.5t19.5 -132l-215 -55q0 78 -29.5 127t-95.5 49q-39 0 -63.5 -16.5t-37.5 -42t-18.5 -55.5t-5.5 -56v-723q0 -20 4.5 -45t17.5 -46.5t36.5 -35.5t60.5 -14q123 0 125 176 q55 -10 110.5 -17.5t110.5 -15.5q-4 -162 -89 -256t-251 -94q-176 0 -260 89t-84 261z" />
            <glyph unicode="D" horiz-adv-x="890" d="M106 0v1425h355q127 0 200.5 -44t102.5 -148q23 -76 23.5 -208t0.5 -310q0 -176 -2 -303t-26 -201q-39 -121 -124 -166t-194 -45h-336zM328 209h94q82 0 112.5 43t30.5 125v674q0 78 -29.5 122t-113.5 44h-94v-1008z" />
            <glyph unicode="E" horiz-adv-x="778" d="M106 0v1425h633v-208h-411v-388h358v-211h-358v-409h411v-209h-633z" />
            <glyph unicode="F" horiz-adv-x="778" d="M106 0v1425h633v-208h-411v-388h358v-211h-358v-618h-222z" />
            <glyph unicode="G" horiz-adv-x="874" d="M104 338v711q0 80 18.5 150.5t60.5 123.5t107.5 84t160.5 31q174 0 255.5 -90.5t81.5 -235.5v-16l-215 -43q0 78 -29.5 127t-94.5 49q-39 0 -64 -16.5t-38 -42t-18 -55.5t-5 -56v-723q0 -23 6 -43q6 -37 29.5 -67.5t82.5 -30.5t95 30.5t36 83.5v281h-131v192h351v-454 q0 -168 -95 -254t-249 -86q-176 0 -260.5 89t-84.5 261z" />
            <glyph unicode="H" horiz-adv-x="907" d="M106 0v1425h220v-596h256v596h219v-1425h-219v623h-256v-623h-220z" />
            <glyph unicode="I" horiz-adv-x="444" d="M111 0v1425h223v-1425h-223z" />
            <glyph unicode="J" horiz-adv-x="751" d="M-10 150l164 126q23 -35 60.5 -58t70.5 -23q68 0 97.5 46t29.5 105v1079h221v-1071q0 -176 -88 -271t-258 -95q-92 0 -169 40t-128 122z" />
            <glyph unicode="K" horiz-adv-x="880" d="M106 0v1425h220v-575h10l268 575h230q-72 -145 -144 -288.5t-143 -288.5l327 -848h-225l-229 614q-23 -49 -46.5 -99t-47.5 -99v-416h-220z" />
            <glyph unicode="L" horiz-adv-x="735" d="M106 0v1425h222v-1216h395v-209h-617z" />
            <glyph unicode="M" horiz-adv-x="1173" d="M100 0v1425h213l156 -405l113 -309h10l115 317l153 397h213v-1425h-221v821h-8l-90 -254l-101 -256h-133l-102 264l-88 250h-11v-825h-219z" />
            <glyph unicode="N" horiz-adv-x="954" d="M100 0v1425h199l172 -424q20 -53 40.5 -104t43.5 -104l72 -197q4 0 5 1t5 1v827h217v-1425h-195l-172 422q-41 104 -80.5 204.5t-78.5 202.5h-9v-829h-219z" />
            <glyph unicode="O" horiz-adv-x="880" d="M94 342v717q0 84 19.5 153.5t60.5 119.5t107.5 78t158.5 28q98 0 165 -26t107 -75t57 -118.5t17 -157.5v-696q0 -186 -84 -281.5t-264 -95.5t-262 91t-82 263zM315 338q0 -55 28 -99t95 -44q68 0 96.5 46t28.5 111v725q0 59 -25.5 106.5t-97.5 47.5q-39 0 -63.5 -17.5 t-37.5 -43t-18.5 -57.5t-5.5 -58v-717z" />
            <glyph unicode="P" horiz-adv-x="843" d="M106 0v1425h316q197 0 288 -102t91 -330q0 -100 -18.5 -182t-63.5 -140.5t-118 -91t-183 -32.5h-90v-547h-222zM328 758h78q102 0 142 58t40 175q0 104 -38 165t-140 61h-82v-459z" />
            <glyph unicode="Q" horiz-adv-x="880" d="M96 342v717q0 84 19.5 153.5t60.5 119.5t107.5 78t158.5 28q98 0 165 -26t107 -75t57 -118.5t17 -157.5v-696q0 -113 -30 -189l121 -96l-105 -127l-115 92q-39 -33 -95 -45t-122 -12q-180 0 -263 91t-83 263zM317 338q0 -55 28 -100t95 -45q23 0 35 6l-72 59l99 123 l63 -51v712v35t-2 37q-4 51 -32.5 84t-88.5 33q-63 0 -90.5 -42t-32.5 -97q-2 -29 -2 -54.5v-50.5v-649z" />
            <glyph unicode="R" horiz-adv-x="880" d="M106 0v1425h326q174 0 272.5 -97t98.5 -316q0 -135 -38 -228.5t-134 -146.5l211 -637h-226l-184 590h-104v-590h-222zM328 799h90q86 0 127 50t41 161q0 98 -40 152.5t-132 54.5h-86v-418z" />
            <glyph unicode="S" horiz-adv-x="841" d="M72 334l219 43q4 -80 30.5 -130t104.5 -50q45 0 71.5 17t40 46t16.5 65.5t3 77.5q0 51 -6 86t-23.5 59.5t-49.5 43t-83 41.5q-102 43 -164.5 88t-95.5 95t-43 106.5t-10 124.5q0 86 20.5 157.5t63.5 123.5t109.5 81t158.5 29q100 0 166 -32t104.5 -81t55 -108.5 t16.5 -114.5l-219 -51q0 78 -26.5 127t-104.5 49q-41 0 -64.5 -16.5t-38 -43t-18.5 -57.5t-4 -61q0 -37 4 -65t23.5 -52.5t58.5 -49t107 -51.5q94 -37 150 -78.5t85 -92t38 -112.5t9 -142q0 -96 -17.5 -173t-58.5 -131.5t-109.5 -84t-168.5 -29.5q-92 0 -158.5 26.5 t-109.5 73.5t-62.5 110.5t-19.5 135.5z" />
            <glyph unicode="T" horiz-adv-x="696" d="M6 1219v206h682v-206h-229v-1219h-223v1219h-230z" />
            <glyph unicode="U" horiz-adv-x="886" d="M98 342v1081h221v-1085q0 -55 28 -99t95 -44q68 0 96.5 46t28.5 111v1071h224v-1058q0 -186 -83 -281.5t-264 -95.5q-180 0 -263 91t-83 263z" />
            <glyph unicode="V" horiz-adv-x="862" d="M29 1425h235l96 -585l66 -449h10l66 449l98 585h234l-273 -1425h-264z" />
            <glyph unicode="W" horiz-adv-x="1251" d="M31 1425h241q16 -135 30.5 -266t29.5 -266q2 -18 8 -72.5t12 -115t11.5 -114.5t7.5 -73h8q14 80 26.5 159t24.5 159l105 589h188l102 -591q12 -80 25.5 -161t28.5 -161h8l33 324l57 589h244l-207 -1425h-230l-112 618q-10 59 -20.5 120t-20.5 120h-8l-43 -244 q-29 -154 -57.5 -307t-57.5 -307h-227z" />
            <glyph unicode="X" horiz-adv-x="847" d="M12 0l289 745q-68 170 -134.5 339t-133.5 341h248q35 -109 69.5 -214t69.5 -214l8 2l135 426h250l-276 -680q74 -188 148.5 -373.5t148.5 -371.5h-248l-162 489h-4l-162 -489h-246z" />
            <glyph unicode="Y" horiz-adv-x="808" d="M16 1425h234l88 -309l65 -246h9l67 252l80 303h234l-277 -835v-590h-221v590z" />
            <glyph unicode="Z" horiz-adv-x="698" d="M45 0v201l379 1018h-363v206h596v-196l-378 -1020h376v-209h-610z" />
            <glyph unicode="[" horiz-adv-x="481" d="M127 -209v1636h324v-149h-129v-1335h129v-152h-324z" />
            <glyph unicode="\" horiz-adv-x="512" d="M10 1462h166l320 -1513h-164z" />
            <glyph unicode="]" horiz-adv-x="481" d="M31 -59h129v1337h-129v149h321v-1638h-321v152z" />
            <glyph unicode="^" d="M14 659q82 193 163 381.5t165 380.5h147l332 -766h-200l-117 293l-90 230l-101 -265q-25 -61 -50 -125.5t-48 -128.5h-201z" />
            <glyph unicode="_" horiz-adv-x="1024" d="M0 -143h1024v-156h-1024v156z" />
            <glyph unicode="`" horiz-adv-x="759" d="M205 1456l182 82l172 -362l-117 -64z" />
            <glyph unicode="a" horiz-adv-x="788" d="M57 295q0 59 15.5 116.5t50.5 101.5t92 71.5t143 27.5h129v111q0 45 -21.5 70.5t-80.5 25.5q-31 0 -61.5 -20.5t-40.5 -73.5l-201 61q27 113 107.5 176.5t209.5 63.5q154 0 233 -69.5t79 -233.5v-723h-224v78l-6 2q-33 -47 -82 -69.5t-104 -22.5q-68 0 -114 24.5 t-73.5 66.5t-39 97t-11.5 119zM274 307q0 -53 28 -81.5t75 -28.5q53 0 81.5 33.5t28.5 91.5v124h-88q-47 0 -86 -30.5t-39 -108.5z" />
            <glyph unicode="b" horiz-adv-x="788" d="M76 0v1487h221v-553h8q29 47 83 69.5t93 22.5q53 0 89 -11t60.5 -31.5t39 -48.5t26.5 -58q16 -47 22.5 -119t6.5 -152v-92q0 -74 -3 -143.5t-7 -122.5q-8 -80 -32 -130t-56.5 -79t-72.5 -40t-81 -11q-59 0 -101 20.5t-71 69.5q-2 0 -3 -1t-3 -1v-76h-219zM295 393 q0 -37 2 -71q0 -51 23.5 -86t74.5 -35q33 0 51.5 14t28.5 35q14 27 18.5 89t4.5 157q0 94 -2 162.5t-19 103.5q-10 25 -28.5 38t-53.5 13q-59 0 -84 -53q-14 -25 -14 -60q-1 -31 -1 -67v-36.5v-38.5q0 -41 -1 -89v-76z" />
            <glyph unicode="c" horiz-adv-x="733" d="M68 498q0 49 2 101t6 99t10 88t16 66q31 78 101.5 127t189.5 49q154 0 226.5 -84t72.5 -231q-53 -6 -109.5 -12.5t-109.5 -14.5q0 72 -23.5 104.5t-62.5 32.5q-61 0 -84 -61q-6 -20 -11 -82t-5 -143v-74q0 -59 1 -115.5t11 -85.5q10 -33 30.5 -52.5t57.5 -19.5 q86 0 86 132q55 -10 110.5 -16.5t110.5 -16.5q-2 -143 -80.5 -222t-230.5 -79q-70 0 -121 16t-87 45t-57.5 65t-31.5 76q-6 25 -10 62t-5 79t-2 86t-1 81z" />
            <glyph unicode="d" horiz-adv-x="798" d="M66 500q0 92 5 183t19 151q8 37 23.5 71.5t42 61t66.5 43t100 16.5q43 0 87 -17.5t74 -54.5h9v533h221v-1487h-219v76q-2 0 -3.5 1t-3.5 1q-29 -49 -72 -69.5t-102 -20.5q-41 0 -80.5 11t-72.5 40t-56.5 79t-31.5 130q-4 45 -5 113.5t-1 138.5zM293 496q0 -94 4 -157 t16 -89q10 -23 28.5 -36t51.5 -13q51 0 75 34.5t24 86.5q2 33 2 69.5v73.5v53q-1 34 -1 66v31.5v29.5q0 29 -1 53q0 49 -23 82t-76 33t-76 -49q-16 -33 -20 -101.5t-4 -166.5z" />
            <glyph unicode="e" horiz-adv-x="770" d="M68 500q0 98 7 196.5t27 151.5q29 82 100.5 131t190.5 49q152 0 229.5 -84t77.5 -237v-252h-413q0 -57 1 -110.5t9 -82.5q20 -69 88 -69h2q82 0 92 116l221 -35q-8 -135 -88 -210.5t-227 -75.5q-72 0 -123 17.5t-87 46t-56.5 65.5t-30.5 73q-6 25 -10 62t-6 79t-3 86 t-1 83zM289 606h188v86q0 49 -17.5 88t-72.5 39q-59 0 -82 -59q-8 -18 -11 -58t-5 -96z" />
            <glyph unicode="f" horiz-adv-x="524" d="M25 834v178h96v215q0 133 72.5 196.5t181.5 63.5h117v-203h-66q-39 0 -60.5 -24.5t-21.5 -63.5v-184h152v-178h-152v-834h-223v834h-96z" />
            <glyph unicode="g" horiz-adv-x="802" d="M66 420v88q0 72 3 137.5t7 118.5q16 141 83.5 200.5t159.5 59.5q59 0 101.5 -20.5t71.5 -69.5q2 0 3 1t3 1v76h219v-1069q0 -158 -73 -253.5t-247 -95.5q-143 0 -223 72t-86 207q53 8 108.5 16.5t108.5 18.5q4 -109 96 -109q49 0 72 35t23 82v170h-7q-29 -47 -84 -68.5 t-94 -21.5q-59 0 -99 15.5t-65.5 42t-40 62.5t-22.5 79q-10 41 -13 101t-5 124zM295 516q0 -92 3 -157.5t17 -100.5q23 -51 82 -51q53 0 78 41q23 38 23 83v7v205v75.5t-2 71.5q0 51 -24 86t-75 35h-8q-27 0 -43 -13q-18 -14 -29 -36q-14 -27 -18 -89.5t-4 -156.5z" />
            <glyph unicode="h" horiz-adv-x="800" d="M82 0v1487h221v-565h8q31 43 84.5 72.5t110.5 29.5q61 0 103 -20.5t66.5 -56.5t35 -85t10.5 -104v-758h-223v700q0 109 -97 109q-45 0 -72.5 -29.5t-27.5 -85.5v-694h-219z" />
            <glyph unicode="i" horiz-adv-x="417" d="M96 0v1012h223v-1012h-223zM96 1210v215h223v-215h-223z" />
            <glyph unicode="j" horiz-adv-x="411" d="M-33 -195h33q59 0 77.5 33t18.5 111v1065h223v-1120q0 -141 -74.5 -219t-236.5 -78h-41v208zM96 1210v215h223v-215h-223z" />
            <glyph unicode="k" horiz-adv-x="819" d="M84 0v1485h219v-836h10l213 363h258l-254 -394l279 -618h-254q-45 104 -88 207.5t-88 208.5q-18 -35 -36.5 -68t-39.5 -67v-281h-219z" />
            <glyph unicode="l" horiz-adv-x="454" d="M86 268v1219h223v-1186q0 -59 17.5 -85t64.5 -26h25v-202h-41q-74 0 -128 13t-90 46t-53.5 87t-17.5 134z" />
            <glyph unicode="m" horiz-adv-x="1222" d="M92 0v1014h221v-92l9 -2q31 43 76.5 73.5t103.5 30.5q78 0 125 -31.5t69 -85.5q43 53 99.5 85t117.5 32t103.5 -19.5t68 -54.5t37 -82t11.5 -102v-766h-224v700q0 53 -23.5 81t-64.5 28t-68.5 -28.5t-29.5 -78.5v-702h-223v700q0 53 -23.5 81t-64.5 28t-70 -32t-29 -87 v-690h-221z" />
            <glyph unicode="n" horiz-adv-x="798" d="M78 0v1012h221v-90h8q31 43 82 72.5t109 29.5q61 0 103 -19.5t67.5 -55.5t37 -83t11.5 -102v-764h-221v700q0 109 -93 109q-47 0 -75.5 -32t-28.5 -87v-690h-221z" />
            <glyph unicode="o" horiz-adv-x="782" d="M68 427v71q0 49 2 101t6 99t10 88t16 66q29 78 102.5 127t192.5 49q82 0 138.5 -21.5t93.5 -58.5t54 -86t22 -106q8 -59 9 -131t1 -131v-54q0 -47 -3 -94t-7 -92q-10 -84 -44 -137.5t-80 -82t-99.5 -38.5t-104.5 -10q-72 0 -124 19.5t-88 52t-55.5 74.5t-27.5 89 q-4 27 -7 60.5t-5 70.5t-2 75zM287 463q0 -55 1 -106.5t9 -82.5q10 -35 32.5 -58t65.5 -23q33 0 56.5 19t31.5 48q2 8 5.5 31.5t5.5 57.5t3 73t1 78q0 72 -2 139.5t-11 101.5q-4 23 -14 37q-23 45 -76 45q-49 0 -73 -37q-14 -25 -21.5 -53t-10.5 -65t-3 -83v-106v-16z" />
            <glyph unicode="p" horiz-adv-x="784" d="M70 -391v1405h217v-76l6 -4q29 51 73 71.5t101 20.5q41 0 81 -11t72.5 -40t56 -80t32.5 -131q4 -45 6 -112.5t2 -137.5q0 -90 -5 -183t-20 -153q-8 -37 -23.5 -70.5t-42 -60.5t-67.5 -43t-98 -16q-43 0 -87 15t-77 54h-6v-448h-221zM289 369q0 -35 1 -65t9 -46 q23 -57 88 -57q55 0 78 47q14 33 19 102.5t5 167.5q0 92 -4 155.5t-18 90.5q-17 47 -80 47q-49 0 -73.5 -34t-24.5 -87v-321z" />
            <glyph unicode="q" horiz-adv-x="800" d="M68 463v43q0 72 3 137.5t7 118.5q8 80 32.5 130t58.5 79.5t73 41t80 11.5q59 0 101 -20.5t71 -71.5l6 4v76h219v-1405h-221v471h-9q-29 -47 -83 -69.5t-93 -22.5q-53 0 -89 12t-60.5 32.5t-39.5 48t-26 60.5q-18 57 -24 147.5t-6 176.5zM297 516q0 -92 3 -162.5 t17 -105.5q23 -49 82 -49q45 0 72 31.5t27 76.5q1 31 1 67v37.5v38.5q0 39 1 80v13v75.5t-2 69.5q0 53 -24 87t-75 34q-63 0 -80 -47q-14 -27 -18 -90.5t-4 -155.5z" />
            <glyph unicode="r" horiz-adv-x="587" d="M102 0v1014h224v-113h4q39 78 92 101.5t127 23.5h20v-235q-16 2 -30.5 3t-28.5 1q-88 0 -136 -42t-48 -149v-604h-224z" />
            <glyph unicode="s" horiz-adv-x="743" d="M57 276l219 33v-8q0 -50 24 -80q26 -33 73 -33q49 0 73.5 28t24.5 77q0 63 -22.5 89t-83.5 48q-68 25 -123.5 50.5t-93 60t-58 82t-20.5 114.5q0 123 78.5 207t232.5 84q160 0 232.5 -80t72.5 -215l-217 -28v8q1 49 -21 79q-24 32 -69 33q-53 0 -71.5 -30.5t-18.5 -61.5 q0 -41 19.5 -66.5t90.5 -50.5q76 -25 130.5 -51t89 -63t51 -87t16.5 -120q0 -66 -16.5 -121t-54 -97t-97 -65.5t-145.5 -23.5q-150 0 -231 73.5t-85 214.5z" />
            <glyph unicode="t" horiz-adv-x="520" d="M27 840v174h100v256h213v-256h123v-174h-123v-527q0 -57 18.5 -82.5t75.5 -25.5h27v-205h-99q-70 0 -114.5 21.5t-72.5 56.5t-39 78t-11 86v598h-98z" />
            <glyph unicode="u" horiz-adv-x="800" d="M80 250v764h223v-703q0 -59 23.5 -84.5t68.5 -25.5q41 0 73 31.5t32 86.5v695h219v-1014h-221v90q-2 0 -3 1t-6 1q-31 -45 -82 -73.5t-108 -28.5q-63 0 -105 19.5t-68 54t-36 83t-10 103.5z" />
            <glyph unicode="v" horiz-adv-x="751" d="M10 1012h242q18 -102 36.5 -202.5t35.5 -203.5q12 -78 24 -153.5t27 -153.5h10l49 305l68 408h239l-239 -1012h-254q-59 256 -118.5 506t-119.5 506z" />
            <glyph unicode="w" horiz-adv-x="1159" d="M20 1012h234l53 -363l49 -325h9l49 327l57 361h217l57 -359l58 -331h8l45 331l51 359h230l-209 -1012h-240l-51 262l-55 313h-9l-53 -307l-53 -268h-238z" />
            <glyph unicode="x" horiz-adv-x="755" d="M10 0q59 129 122 258t122 258l-234 496h248l111 -299h4q29 76 54.5 150.5t54.5 148.5h243l-233 -496q61 -129 121.5 -258t119.5 -258h-243l-119 317h-6l-123 -317h-242z" />
            <glyph unicode="y" horiz-adv-x="735" d="M8 1012h236l63 -375l55 -295h9l55 295l74 375h227l-293 -1168q-29 -113 -91 -176t-181 -63h-78v194h45q45 0 73.5 30t49.5 116l14 63z" />
            <glyph unicode="z" horiz-adv-x="671" d="M53 0v201l318 614h-293v197h543v-187l-324 -618h324v-207h-568z" />
            <glyph unicode="{" horiz-adv-x="501" d="M31 547v135q66 8 95.5 66.5t29.5 154.5v289q0 109 58 172t144 63h115v-153h-43q-35 0 -56.5 -38t-21.5 -97v-267q0 -109 -40 -170t-85 -81v-11q43 -16 84 -78.5t41 -173.5v-286q0 -61 21.5 -95t56.5 -34h43v-154h-115q-86 0 -144 63.5t-58 172.5v301q0 100 -30 156.5 t-95 64.5z" />
            <glyph unicode="|" horiz-adv-x="481" d="M156 -332v1813h174v-1813h-174z" />
            <glyph unicode="}" horiz-adv-x="501" d="M33 -57h43q35 0 56.5 33.5t21.5 95.5v286q0 111 41 173.5t84 78.5v11q-45 20 -85 81.5t-40 169.5v267q0 59 -21.5 97t-56.5 38h-43v153h117q86 0 143 -63.5t57 -171.5v-289q0 -96 30 -154.5t95 -66.5v-135q-66 -8 -95.5 -64.5t-29.5 -156.5v-301q0 -109 -57 -172.5 t-143 -63.5h-117v154z" />
            <glyph unicode="~" d="M16 508q43 92 101.5 146.5t144.5 54.5q45 0 84 -16.5t75 -35t68.5 -34t65.5 -15.5q37 0 64.5 22.5t66.5 71.5l121 -71q-47 -98 -104.5 -150.5t-129.5 -52.5q-41 0 -79.5 15.5t-75.5 35t-74 34.5t-72 15q-39 0 -68.5 -19.5t-72.5 -74.5z" />
            <glyph unicode="&#xa1;" horiz-adv-x="516" d="M150 -408l18 1037h182l19 -1037h-219zM152 795v225h213v-225h-213z" />
            <glyph unicode="&#xa2;" d="M100 498q0 49 2 101t6.5 99t10.5 88t16 66q27 66 81 113t146 59v209h109v-207q129 -12 191.5 -95t62.5 -218q-53 -6 -109.5 -12.5t-109.5 -14.5q0 72 -23.5 104.5t-62.5 32.5q-61 0 -84 -61q-6 -20 -11.5 -82t-5.5 -143v-74q0 -59 1.5 -115.5t11.5 -85.5 q10 -33 30.5 -52.5t57.5 -19.5q86 0 86 132q55 -10 110.5 -16.5t110.5 -16.5q-2 -129 -67.5 -206t-188.5 -91v-232h-109v232q-113 10 -169 68.5t-74 129.5q-6 25 -10.5 62t-5.5 79t-2 86t-1 81z" />
            <glyph unicode="&#xa3;" d="M61 0v186q29 49 48.5 91t33 87.5t22.5 97.5t15 122h-117v172h105q-10 51 -23.5 92t-26 81t-21.5 82t-9 93q0 76 24.5 137.5t68.5 105.5t105.5 67.5t135.5 23.5q162 0 254 -89t92 -247l-215 -49q0 78 -32 125t-97 47q-47 0 -81 -33t-34 -88q0 -37 9.5 -74t22.5 -78 t26.5 -89t23.5 -107h199v-172h-193q0 -123 -23.5 -210t-64.5 -173h428v-201h-676z" />
            <glyph unicode="&#xa4;" horiz-adv-x="1030" d="M76 391l121 119q-47 84 -47 170q0 90 49 174q-29 31 -59.5 60.5t-59.5 58.5q63 66 129 129l117 -119q82 49 176 49q88 0 172 -47l119 123q37 -35 64.5 -64.5t64.5 -64.5l-121 -119q49 -84 49 -174q0 -88 -51 -174l121 -119l-129 -131l-119 121q-84 -49 -174 -49 q-94 0 -176 49l-119 -121zM311 678q0 -37 15.5 -70t40 -57.5t57.5 -38.5t70 -14q39 0 73.5 15t60 41t41 60.5t15.5 73.5q0 78 -55 130t-131 52q-80 0 -133.5 -56t-53.5 -136z" />
            <glyph unicode="&#xa5;" d="M35 1425h227l80 -284q16 -72 33.5 -141.5t36.5 -139.5h10q18 72 34.5 141.5t35.5 141.5q18 72 36.5 141.5t38.5 140.5h226l-234 -723h170v-118h-203q-2 -10 -3 -22.5t-1 -22.5v-60h207v-121h-207v-358h-215v358h-201v121h201v60q0 10 -1 22t-3 23h-197v118h162z" />
            <glyph unicode="&#xa6;" horiz-adv-x="481" d="M156 -340v840h174v-840h-174zM156 635v838h174v-838h-174z" />
            <glyph unicode="&#xa7;" horiz-adv-x="866" d="M72 2l123 137q66 -59 114.5 -79.5t96.5 -20.5q74 0 110.5 33.5t36.5 87.5q0 106 -199 215q-66 37 -117 70.5t-84.5 71.5t-51 84t-17.5 108q0 68 36 127t95 94q-86 88 -86 203q0 68 24.5 123t67.5 96t103.5 63.5t132.5 22.5q98 0 175 -33t154 -100l-124 -144 q-66 59 -114 74.5t-91 15.5q-53 0 -86 -31.5t-33 -74.5q0 -53 46 -93t120 -83q59 -37 114.5 -74t97.5 -80t67.5 -94.5t25.5 -114.5q0 -74 -30.5 -127t-90.5 -92q41 -51 59.5 -106.5t18.5 -112.5q0 -70 -25.5 -126t-72.5 -97t-115 -63.5t-150 -22.5q-86 0 -176 39t-155 104z M285 717q0 -33 24.5 -63.5t62.5 -58.5t83 -52.5t84 -44.5q31 12 48 41.5t17 60.5q0 57 -57.5 103.5t-188.5 109.5q-33 -10 -53 -35.5t-20 -60.5z" />
            <glyph unicode="&#xa8;" horiz-adv-x="724" d="M100 1163v215h193v-215h-193zM436 1163v215h193v-215h-193z" />
            <glyph unicode="&#xa9;" horiz-adv-x="1439" d="M88 698q0 156 40 287t119 227.5t195.5 150.5t268.5 54q150 0 265.5 -54t195 -150.5t120.5 -227.5t41 -287q0 -154 -41 -283.5t-120.5 -226t-195 -150.5t-265.5 -54q-154 0 -269.5 54t-194.5 150.5t-119 226.5t-40 283zM233 698q0 -121 32 -226t92.5 -184t149.5 -125 t204 -46q119 0 209 46t149 125t89 184.5t30 225.5q0 121 -31 228.5t-91 187.5t-149 126t-206 46q-121 0 -211 -46t-149.5 -126t-88.5 -187.5t-29 -228.5zM481 483v404q0 111 66 171t168 60q98 0 165.5 -61.5t67.5 -159.5l-137 -35q-2 53 -26.5 85t-69.5 32 q-47 0 -69.5 -26.5t-22.5 -61.5v-418q0 -35 25.5 -59.5t64.5 -24.5q88 0 94 117l141 -29q-4 -111 -66.5 -169t-166.5 -58q-98 0 -166 58.5t-68 174.5z" />
            <glyph unicode="&#xaa;" horiz-adv-x="542" d="M31 772q0 39 11 78t35.5 68.5t65.5 48t103 18.5h78v59q0 51 -58 52q-16 0 -35.5 -11.5t-25.5 -46.5l-160 45q23 80 81 125t150 45q111 0 166.5 -48t55.5 -158v-474h-174v41q-49 -49 -121 -49q-49 0 -83 16.5t-53.5 45t-27.5 65.5t-8 80zM195 780q0 -35 17 -49t46 -14 q35 0 50.5 19.5t15.5 51.5v70h-50q-31 0 -55 -17.5t-24 -60.5z" />
            <glyph unicode="&#xab;" horiz-adv-x="997" d="M92 492l230 395h210l-225 -395l225 -398h-210zM467 492l229 395h211l-225 -395l225 -398h-211z" />
            <glyph unicode="&#xac;" d="M29 518v176h768v-497h-174v321h-594z" />
            <glyph unicode="&#xad;" horiz-adv-x="747" d="M100 479v193h570v-193h-570z" />
            <glyph unicode="&#xae;" horiz-adv-x="995" d="M84 1004q0 102 26.5 189t79 150.5t129 99.5t179.5 36q98 0 174 -36t128 -99.5t79.5 -150.5t27.5 -189q0 -100 -27.5 -186.5t-79.5 -150t-128 -99.5t-174 -36q-102 0 -179 36t-129.5 99.5t-79 149.5t-26.5 187zM188 1008q0 -82 20.5 -151t59.5 -118t96.5 -76.5 t133.5 -27.5q80 0 137 28.5t94 79t54.5 119t17.5 146.5t-19.5 146.5t-57.5 119.5t-95 80.5t-131 29.5q-80 0 -137.5 -29.5t-96.5 -80.5t-57.5 -120t-18.5 -146zM350 719v559h152q156 0 155 -174q0 -45 -13 -84t-54 -64l88 -237h-117l-74 217h-30v-217h-107zM457 1032h39 q31 0 43 20.5t12 51.5q0 37 -13.5 57.5t-48.5 20.5h-32v-150z" />
            <glyph unicode="&#xaf;" horiz-adv-x="761" d="M160 1182v182h504v-182h-504z" />
            <glyph unicode="&#xb0;" horiz-adv-x="649" d="M92 1198q0 49 18.5 93t51.5 76t76 51.5t92 19.5q51 0 94 -19.5t74.5 -51.5t50 -76t18.5 -93t-18.5 -92t-51 -76t-75.5 -51t-92 -18t-92 18t-76 51t-51.5 76t-18.5 92zM225 1198q0 -45 30 -75.5t75 -30.5t74.5 30.5t29.5 75.5q0 47 -29.5 77t-74.5 30t-75 -30t-30 -77z " />
            <glyph unicode="&#xb1;" d="M29 0v168h770v-168h-770zM29 553v172h299v313h172v-313h299v-172h-299v-313h-172v313h-299z" />
            <glyph unicode="&#xb2;" horiz-adv-x="540" d="M45 1374q2 119 61.5 182.5t163.5 63.5q113 0 165 -55.5t52 -151.5q0 -49 -14 -96t-45 -100q-12 -23 -36.5 -66t-51.5 -90t-51.5 -90t-36.5 -66h223v-147h-418v127l234 403q16 29 23.5 59.5t7.5 63.5q0 23 -10.5 43.5t-43.5 20.5q-31 0 -47 -29t-16 -94z" />
            <glyph unicode="&#xb3;" horiz-adv-x="540" d="M53 1389q4 104 63.5 166.5t164.5 62.5q84 0 129 -31t63 -82q10 -29 12 -69.5t2 -73.5q0 -45 -10 -89t-61 -73q47 -20 59 -61t12 -107q0 -57 -6 -108q-10 -86 -62 -130t-145 -44q-106 0 -160.5 57t-54.5 158v10l160 18q4 -45 14.5 -67.5t47.5 -22.5q25 0 36 17.5t11 31.5 v113q0 68 -72 68h-53v129h57q29 0 48.5 13t19.5 48v94q0 20 -11.5 36.5t-37.5 16.5q-68 0 -68 -104q-41 4 -79 10t-79 13z" />
            <glyph unicode="&#xb4;" horiz-adv-x="759" d="M270 1176l174 362l183 -82l-238 -344z" />
            <glyph unicode="&#xb6;" horiz-adv-x="882" d="M20 1032q0 76 17.5 147.5t55.5 128t99.5 91.5t151.5 35h479v-195h-92v-1382h-174v1382h-102v-1382h-179v790q-117 20 -186.5 113.5t-69.5 271.5z" />
            <glyph unicode="&#xb7;" horiz-adv-x="432" d="M100 430v248h230v-248h-230z" />
            <glyph unicode="&#xb8;" horiz-adv-x="882" d="M205 -385l35 92q41 -18 68.5 -23.5t51.5 -5.5q29 0 50.5 18.5t21.5 47.5q0 70 -92 68l-51 38l61 205l101 -2l-45 -145q51 -6 83.5 -23.5t52 -42t26.5 -52.5t7 -50q0 -23 -9 -51.5t-30.5 -53t-57.5 -42t-87 -17.5q-16 0 -72.5 5t-113.5 34z" />
            <glyph unicode="&#xb9;" horiz-adv-x="444" d="M66 1341v168l137 101h149v-852h-162v676z" />
            <glyph unicode="&#xba;" horiz-adv-x="538" d="M39 901q0 66 5 133.5t17 98.5q23 55 74 87.5t137 32.5q92 0 141.5 -33.5t67.5 -84.5q6 -16 10.5 -45t6.5 -63t3 -68.5t1 -63.5q0 -92 -6 -150q-6 -53 -30 -88.5t-55.5 -57t-68.5 -30t-72 -8.5q-104 0 -156.5 45t-62.5 96q-10 31 -11 90.5t-1 108.5zM209 879q0 -35 1 -67 t5 -52q10 -43 57 -43q23 0 34 12t16 23q6 16 8 45.5t2 72.5v31v43t-1 49.5t-4 46t-10 33.5q-12 25 -49 25q-39 0 -49 -39q-4 -16 -7 -66.5t-3 -113.5z" />
            <glyph unicode="&#xbb;" horiz-adv-x="997" d="M94 94l225 398l-225 395h213l228 -395l-228 -398h-213zM469 94l227 398l-227 395h213l227 -395l-227 -398h-213z" />
            <glyph unicode="&#xbc;" horiz-adv-x="1290" d="M90 1157v168l137 100h150v-852h-162v676zM231 -35l643 1497h136l-643 -1497h-136zM721 121v125l186 606h154l-180 -594h110v203h152v-203h57v-137h-57v-121h-152v121h-270z" />
            <glyph unicode="&#xbd;" horiz-adv-x="1290" d="M80 1157v168l137 100h150v-852h-162v676zM225 -35l643 1497h136l-644 -1497h-135zM766 616q2 119 61.5 182.5t163.5 63.5q113 0 165 -55t52 -152q0 -49 -14 -96t-45 -100q-12 -23 -37 -66t-51.5 -90t-51 -90t-36.5 -66h223v-147h-418v127l234 403q16 29 23 60t7 63 q0 23 -10 43.5t-43 20.5q-31 0 -47 -29t-16 -94z" />
            <glyph unicode="&#xbe;" horiz-adv-x="1290" d="M49 1204q4 104 63.5 167t163.5 63q84 0 129.5 -31t63.5 -82q10 -29 12 -70t2 -73q0 -45 -10 -89.5t-61 -72.5q47 -20 59 -61t12 -107q0 -57 -6 -109q-10 -86 -62.5 -130t-144.5 -44q-106 0 -160.5 57.5t-54.5 157.5v11l160 18q4 -45 14.5 -67.5t46.5 -22.5 q25 0 36.5 17.5t11.5 31.5v113q0 68 -72 67h-53v129h57q29 0 48.5 13.5t19.5 48.5v94q0 20 -11.5 36.5t-38.5 16.5q-68 0 -67 -104q-41 4 -79 10t-79 12zM270 -35l643 1497h136l-643 -1497h-136zM760 121v125l186 606h154l-180 -594h110v203h152v-203h57v-137h-57v-121h-152 v121h-270z" />
            <glyph unicode="&#xbf;" horiz-adv-x="806" d="M78 -55q0 51 4 90t13 70.5t23.5 62.5t35.5 65q20 33 42.5 69t43 74t34 77t13.5 79v109h217v-164q0 -45 -14.5 -86t-36.5 -78q-49 -82 -79 -132t-45.5 -87t-19.5 -68.5t-4 -76.5q0 -23 6 -49.5t19.5 -51t37 -41t60.5 -16.5q49 0 87 40t38 138l217 -24 q-4 -182 -100.5 -273.5t-249.5 -91.5q-180 0 -261 94.5t-81 270.5zM291 793v225h211v-225h-211z" />
            <glyph unicode="&#xc0;" horiz-adv-x="864" d="M23 0q72 358 143.5 712.5t142.5 712.5h246l289 -1425h-226l-55 297h-262q-14 -74 -27.5 -148.5t-25.5 -148.5h-225zM72 1673l131 154l315 -248l-80 -109zM334 504h194l-92 592h-10q-20 -147 -43 -294t-49 -298z" />
            <glyph unicode="&#xc1;" horiz-adv-x="864" d="M23 0q72 358 143.5 712.5t142.5 712.5h246l289 -1425h-226l-55 297h-262q-14 -74 -27.5 -148.5t-25.5 -148.5h-225zM334 504h194l-92 592h-10q-20 -147 -43 -294t-49 -298zM340 1577l315 248l131 -154l-366 -201z" />
            <glyph unicode="&#xc2;" horiz-adv-x="864" d="M23 0q72 358 143.5 712.5t142.5 712.5h246l289 -1425h-226l-55 297h-262q-14 -74 -27.5 -148.5t-25.5 -148.5h-225zM102 1561l271 270h129l258 -268l-88 -80l-240 157l-242 -157zM334 504h194l-92 592h-10q-20 -147 -43 -294t-49 -298z" />
            <glyph unicode="&#xc3;" horiz-adv-x="864" d="M23 0q72 358 143.5 712.5t142.5 712.5h246l289 -1425h-226l-55 297h-262q-14 -74 -27.5 -148.5t-25.5 -148.5h-225zM109 1585q37 82 94 128t114 46q31 0 60 -11t56.5 -25.5t53 -25.5t50.5 -11q29 0 53 16t59 61q27 -16 52.5 -31.5t54.5 -31.5q-45 -94 -96.5 -136 t-104.5 -42q-35 0 -64.5 11t-57 25.5t-53.5 25.5t-50 11q-25 0 -53.5 -18t-59.5 -59zM334 504h194l-92 592h-10q-20 -147 -43 -294t-49 -298z" />
            <glyph unicode="&#xc4;" horiz-adv-x="864" d="M23 0q72 358 143.5 712.5t142.5 712.5h246l289 -1425h-226l-55 297h-262q-14 -74 -27.5 -148.5t-25.5 -148.5h-225zM168 1516v217h192v-217h-192zM334 504h194l-92 592h-10q-20 -147 -43 -294t-49 -298zM504 1516v217h192v-217h-192z" />
            <glyph unicode="&#xc5;" horiz-adv-x="864" d="M23 0q72 358 143.5 712.5t142.5 712.5h246l289 -1425h-226l-55 297h-262q-14 -74 -27.5 -148.5t-25.5 -148.5h-225zM240 1626q0 82 56 139.5t140 57.5t139.5 -57.5t55.5 -139.5t-55.5 -139t-139.5 -57t-140 57t-56 139zM334 504h194l-92 592h-10q-20 -147 -43 -294 t-49 -298zM354 1624q0 -35 23.5 -57.5t58.5 -22.5q33 0 56.5 22.5t23.5 57.5q0 33 -23.5 56.5t-56.5 23.5q-35 0 -58.5 -23.5t-23.5 -56.5z" />
            <glyph unicode="&#xc6;" horiz-adv-x="1296" d="M12 0l457 1425h778v-208h-411v-388h358v-211h-358v-403h411v-215h-631v340h-270l-104 -340h-230zM406 551h210v663h-10z" />
            <glyph unicode="&#xc7;" horiz-adv-x="831" d="M94 338v711q0 80 17.5 150.5t58.5 123.5t107.5 84t162.5 31q88 0 151.5 -24.5t105.5 -69t61.5 -104.5t19.5 -132l-215 -55q0 78 -29.5 127t-95.5 49q-39 0 -63.5 -16.5t-37.5 -42t-18.5 -55.5t-5.5 -56v-723q0 -20 4.5 -45t17.5 -46.5t36.5 -35.5t60.5 -14q123 0 125 176 q55 -10 110.5 -17.5t110.5 -15.5q-4 -150 -76.5 -242t-216.5 -106l-24 -82q51 -6 84 -23.5t52 -42t26.5 -52.5t7.5 -50q0 -23 -9.5 -51.5t-31 -53t-57 -42t-87.5 -17.5q-16 0 -72.5 5t-113.5 34l35 92q41 -18 68.5 -23.5t52.5 -5.5q29 0 50 18.5t21 47.5q0 70 -92 68l-51 38 l41 140q-147 12 -219 100t-72 248z" />
            <glyph unicode="&#xc8;" horiz-adv-x="778" d="M104 1673l132 154l315 -248l-80 -109zM106 0v1425h633v-208h-411v-388h358v-211h-358v-409h411v-209h-633z" />
            <glyph unicode="&#xc9;" horiz-adv-x="778" d="M106 0v1425h633v-208h-411v-388h358v-211h-358v-409h411v-209h-633zM260 1577l315 248l132 -154l-367 -201z" />
            <glyph unicode="&#xca;" horiz-adv-x="778" d="M90 1561l270 270h129l259 -268l-89 -80l-239 157l-242 -157zM106 0v1425h633v-208h-411v-388h358v-211h-358v-409h411v-209h-633z" />
            <glyph unicode="&#xcb;" horiz-adv-x="778" d="M106 0v1425h633v-208h-411v-388h358v-211h-358v-409h411v-209h-633zM158 1516v217h192v-217h-192zM494 1516v217h192v-217h-192z" />
            <glyph unicode="&#xcc;" horiz-adv-x="444" d="M-125 1673l131 154l316 -248l-80 -109zM111 0v1425h223v-1425h-223z" />
            <glyph unicode="&#xcd;" horiz-adv-x="444" d="M111 0v1425h223v-1425h-223zM119 1577l315 248l131 -154l-366 -201z" />
            <glyph unicode="&#xce;" horiz-adv-x="444" d="M-104 1561l270 270h129l258 -268l-88 -80l-240 157l-241 -157zM111 0v1425h223v-1425h-223z" />
            <glyph unicode="&#xcf;" horiz-adv-x="444" d="M-41 1516v217h193v-217h-193zM111 0v1425h223v-1425h-223zM295 1516v217h192v-217h-192z" />
            <glyph unicode="&#xd0;" horiz-adv-x="890" d="M10 645v154h96v626h355q127 0 200.5 -44t102.5 -148q23 -76 23.5 -208t0.5 -310q0 -176 -2 -303t-26 -201q-39 -121 -124 -166t-194 -45h-336v645h-96zM328 209h94q82 0 112.5 43t30.5 125v674q0 78 -29.5 122t-113.5 44h-94v-418h110v-154h-110v-436z" />
            <glyph unicode="&#xd1;" horiz-adv-x="954" d="M100 0v1425h199l172 -424q20 -53 40.5 -104t43.5 -104l72 -197q4 0 5 1t5 1v827h217v-1425h-195l-172 422q-41 104 -80.5 204.5t-78.5 202.5h-9v-829h-219zM156 1569q37 82 94 128t115 46q31 0 59.5 -11.5t56 -25.5t53 -25.5t50.5 -11.5q29 0 53 16.5t59 61.5 q27 -16 52.5 -31.5t54.5 -32.5q-45 -94 -96.5 -136t-104.5 -42q-35 0 -64.5 11.5t-57 25.5t-53.5 25.5t-50 11.5q-25 0 -53.5 -18.5t-59.5 -59.5z" />
            <glyph unicode="&#xd2;" horiz-adv-x="880" d="M94 342v717q0 84 19.5 153.5t60.5 119.5t107.5 78t158.5 28q98 0 165 -26t107 -75t57 -118.5t17 -157.5v-696q0 -186 -84 -281.5t-264 -95.5t-262 91t-82 263zM139 1673l131 154l316 -248l-80 -109zM315 338q0 -55 28 -99t95 -44q68 0 96.5 46t28.5 111v725 q0 59 -25.5 106.5t-97.5 47.5q-39 0 -63.5 -17.5t-37.5 -43t-18.5 -57.5t-5.5 -58v-717z" />
            <glyph unicode="&#xd3;" horiz-adv-x="880" d="M94 342v717q0 84 19.5 153.5t60.5 119.5t107.5 78t158.5 28q98 0 165 -26t107 -75t57 -118.5t17 -157.5v-696q0 -186 -84 -281.5t-264 -95.5t-262 91t-82 263zM307 1577l316 248l131 -154l-367 -201zM315 338q0 -55 28 -99t95 -44q68 0 96.5 46t28.5 111v725 q0 59 -25.5 106.5t-97.5 47.5q-39 0 -63.5 -17.5t-37.5 -43t-18.5 -57.5t-5.5 -58v-717z" />
            <glyph unicode="&#xd4;" horiz-adv-x="880" d="M94 342v717q0 84 19.5 153.5t60.5 119.5t107.5 78t158.5 28q98 0 165 -26t107 -75t57 -118.5t17 -157.5v-696q0 -186 -84 -281.5t-264 -95.5t-262 91t-82 263zM111 1561l270 270h129l258 -268l-88 -80l-240 157l-241 -157zM315 338q0 -55 28 -99t95 -44q68 0 96.5 46 t28.5 111v725q0 59 -25.5 106.5t-97.5 47.5q-39 0 -63.5 -17.5t-37.5 -43t-18.5 -57.5t-5.5 -58v-717z" />
            <glyph unicode="&#xd5;" horiz-adv-x="880" d="M94 342v717q0 84 19.5 153.5t60.5 119.5t107.5 78t158.5 28q98 0 165 -26t107 -75t57 -118.5t17 -157.5v-696q0 -186 -84 -281.5t-264 -95.5t-262 91t-82 263zM121 1595q37 82 94 128t115 46q31 0 59.5 -11t56 -25.5t53 -25.5t50.5 -11q29 0 53.5 16.5t59.5 61.5 q27 -16 52 -32t54 -32q-45 -94 -96 -136t-105 -42q-35 0 -64.5 11t-57 25.5t-53 26t-50.5 11.5t-53.5 -18.5t-59.5 -59.5zM315 338q0 -55 28 -99t95 -44q68 0 96.5 46t28.5 111v725q0 59 -25.5 106.5t-97.5 47.5q-39 0 -63.5 -17.5t-37.5 -43t-18.5 -57.5t-5.5 -58v-717z " />
            <glyph unicode="&#xd6;" horiz-adv-x="880" d="M94 342v717q0 84 19.5 153.5t60.5 119.5t107.5 78t158.5 28q98 0 165 -26t107 -75t57 -118.5t17 -157.5v-696q0 -186 -84 -281.5t-264 -95.5t-262 91t-82 263zM174 1516v217h193v-217h-193zM315 338q0 -55 28 -99t95 -44q68 0 96.5 46t28.5 111v725q0 59 -25.5 106.5 t-97.5 47.5q-39 0 -63.5 -17.5t-37.5 -43t-18.5 -57.5t-5.5 -58v-717zM510 1516v217h192v-217h-192z" />
            <glyph unicode="&#xd7;" d="M25 344l268 264l-258 262l125 123l258 -264l270 266l119 -125l-266 -262l254 -264l-123 -123l-258 262l-271 -262z" />
            <glyph unicode="&#xd8;" horiz-adv-x="880" d="M82 25l51 114q-39 80 -39 203v717q0 84 19.5 153.5t60.5 119.5t107.5 78t158.5 28q86 0 145.5 -19.5t100.5 -54.5l35 74l80 -41l-53 -117q39 -86 38 -219v-696q0 -186 -84 -281.5t-264 -95.5q-164 0 -248 78l-36 -80zM315 338q0 -55 28 -99t95 -44q68 0 96.5 46t28.5 111 v527zM315 541l248 546q-2 55 -28.5 99.5t-94.5 44.5q-39 0 -63.5 -17.5t-37.5 -43t-18.5 -57.5t-5.5 -58v-514z" />
            <glyph unicode="&#xd9;" horiz-adv-x="886" d="M98 342v1081h221v-1085q0 -55 28 -99t95 -44q68 0 96.5 46t28.5 111v1071h224v-1058q0 -186 -83 -281.5t-264 -95.5q-180 0 -263 91t-83 263zM129 1673l131 154l315 -248l-79 -109z" />
            <glyph unicode="&#xda;" horiz-adv-x="886" d="M98 342v1081h221v-1085q0 -55 28 -99t95 -44q68 0 96.5 46t28.5 111v1071h224v-1058q0 -186 -83 -281.5t-264 -95.5q-180 0 -263 91t-83 263zM305 1577l316 248l131 -154l-367 -201z" />
            <glyph unicode="&#xdb;" horiz-adv-x="886" d="M98 342v1081h221v-1085q0 -55 28 -99t95 -44q68 0 96.5 46t28.5 111v1071h224v-1058q0 -186 -83 -281.5t-264 -95.5q-180 0 -263 91t-83 263zM113 1561l270 270h129l258 -268l-88 -80l-240 157l-241 -157z" />
            <glyph unicode="&#xdc;" horiz-adv-x="886" d="M98 342v1081h221v-1085q0 -55 28 -99t95 -44q68 0 96.5 46t28.5 111v1071h224v-1058q0 -186 -83 -281.5t-264 -95.5q-180 0 -263 91t-83 263zM180 1516v217h193v-217h-193zM516 1516v217h193v-217h-193z" />
            <glyph unicode="&#xdd;" horiz-adv-x="808" d="M16 1425h234l88 -309l65 -246h9l67 252l80 303h234l-277 -835v-590h-221v590zM303 1577l315 248l132 -154l-367 -201z" />
            <glyph unicode="&#xde;" horiz-adv-x="843" d="M104 1425h220v-262h98q197 0 288 -102.5t91 -329.5q0 -100 -18.5 -182t-63.5 -140.5t-118 -91t-183 -32.5h-90v-285h-222zM328 496h78q102 0 142 58t40 177q0 102 -38 162.5t-140 60.5h-82v-458z" />
            <glyph unicode="&#xdf;" horiz-adv-x="823" d="M88 0v1176q0 141 83 226t235 85q147 0 230 -77t83 -224v-99q0 -66 -22.5 -120t-82.5 -82v-8q66 -31 95.5 -87.5t29.5 -123.5v-318q0 -59 -6 -122.5t-30.5 -117t-70.5 -87t-126 -33.5q-45 0 -94 6v180q104 0 104 109v393q0 33 -19.5 50t-43.5 17h-17v197h10 q29 0 43.5 21.5t14.5 76.5v138q0 47 -25.5 74.5t-70.5 27.5t-72 -27.5t-27 -68.5v-1182h-221z" />
            <glyph unicode="&#xe0;" horiz-adv-x="788" d="M57 295q0 59 15.5 116.5t50.5 101.5t92 71.5t143 27.5h129v111q0 45 -21.5 70.5t-80.5 25.5q-31 0 -61.5 -20.5t-40.5 -73.5l-201 61q27 113 107.5 176.5t209.5 63.5q154 0 233 -69.5t79 -233.5v-723h-224v78l-6 2q-33 -47 -82 -69.5t-104 -22.5q-68 0 -114 24.5 t-73.5 66.5t-39 97t-11.5 119zM147 1456l183 82l172 -362l-117 -64zM274 307q0 -53 28 -81.5t75 -28.5q53 0 81.5 33.5t28.5 91.5v124h-88q-47 0 -86 -30.5t-39 -108.5z" />
            <glyph unicode="&#xe1;" horiz-adv-x="788" d="M57 295q0 59 15.5 116.5t50.5 101.5t92 71.5t143 27.5h129v111q0 45 -21.5 70.5t-80.5 25.5q-31 0 -61.5 -20.5t-40.5 -73.5l-201 61q27 113 107.5 176.5t209.5 63.5q154 0 233 -69.5t79 -233.5v-723h-224v78l-6 2q-33 -47 -82 -69.5t-104 -22.5q-68 0 -114 24.5 t-73.5 66.5t-39 97t-11.5 119zM274 307q0 -53 28 -81.5t75 -28.5q53 0 81.5 33.5t28.5 91.5v124h-88q-47 0 -86 -30.5t-39 -108.5zM311 1176l174 362l183 -82l-238 -344z" />
            <glyph unicode="&#xe2;" horiz-adv-x="788" d="M57 295q0 59 15.5 116.5t50.5 101.5t92 71.5t143 27.5h129v111q0 45 -21.5 70.5t-80.5 25.5q-31 0 -61.5 -20.5t-40.5 -73.5l-201 61q27 113 107.5 176.5t209.5 63.5q154 0 233 -69.5t79 -233.5v-723h-224v78l-6 2q-33 -47 -82 -69.5t-104 -22.5q-68 0 -114 24.5 t-73.5 66.5t-39 97t-11.5 119zM80 1169l270 306h129l258 -304l-88 -79l-239 192l-242 -192zM274 307q0 -53 28 -81.5t75 -28.5q53 0 81.5 33.5t28.5 91.5v124h-88q-47 0 -86 -30.5t-39 -108.5z" />
            <glyph unicode="&#xe3;" horiz-adv-x="788" d="M57 295q0 59 15.5 116.5t50.5 101.5t92 71.5t143 27.5h129v111q0 45 -21.5 70.5t-80.5 25.5q-31 0 -61.5 -20.5t-40.5 -73.5l-201 61q27 113 107.5 176.5t209.5 63.5q154 0 233 -69.5t79 -233.5v-723h-224v78l-6 2q-33 -47 -82 -69.5t-104 -22.5q-68 0 -114 24.5 t-73.5 66.5t-39 97t-11.5 119zM80 1214q37 82 94 128.5t115 46.5q31 0 59.5 -11.5t56 -26t53 -25.5t50.5 -11q29 0 53.5 16.5t59.5 61.5q27 -16 52 -31.5t54 -32.5q-45 -94 -96 -136t-105 -42q-35 0 -64.5 11.5t-57 25.5t-53 25.5t-50.5 11.5t-53.5 -18.5t-59.5 -59.5z M274 307q0 -53 28 -81.5t75 -28.5q53 0 81.5 33.5t28.5 91.5v124h-88q-47 0 -86 -30.5t-39 -108.5z" />
            <glyph unicode="&#xe4;" horiz-adv-x="788" d="M57 295q0 59 15.5 116.5t50.5 101.5t92 71.5t143 27.5h129v111q0 45 -21.5 70.5t-80.5 25.5q-31 0 -61.5 -20.5t-40.5 -73.5l-201 61q27 113 107.5 176.5t209.5 63.5q154 0 233 -69.5t79 -233.5v-723h-224v78l-6 2q-33 -47 -82 -69.5t-104 -22.5q-68 0 -114 24.5 t-73.5 66.5t-39 97t-11.5 119zM141 1163v215h193v-215h-193zM274 307q0 -53 28 -81.5t75 -28.5q53 0 81.5 33.5t28.5 91.5v124h-88q-47 0 -86 -30.5t-39 -108.5zM477 1163v215h193v-215h-193z" />
            <glyph unicode="&#xe5;" horiz-adv-x="788" d="M57 295q0 59 15.5 116.5t50.5 101.5t92 71.5t143 27.5h129v111q0 45 -21.5 70.5t-80.5 25.5q-31 0 -61.5 -20.5t-40.5 -73.5l-201 61q27 113 107.5 176.5t209.5 63.5q154 0 233 -69.5t79 -233.5v-723h-224v78l-6 2q-33 -47 -82 -69.5t-104 -22.5q-68 0 -114 24.5 t-73.5 66.5t-39 97t-11.5 119zM229 1282q0 82 56.5 139.5t140.5 57.5t139.5 -57.5t55.5 -139.5t-55.5 -139.5t-139.5 -57.5t-140.5 57.5t-56.5 139.5zM274 307q0 -53 28 -81.5t75 -28.5q53 0 81.5 33.5t28.5 91.5v124h-88q-47 0 -86 -30.5t-39 -108.5zM344 1280 q0 -35 23.5 -57.5t58.5 -22.5q33 0 56.5 22.5t23.5 57.5q0 33 -23.5 56.5t-56.5 23.5q-35 0 -58.5 -23.5t-23.5 -56.5z" />
            <glyph unicode="&#xe6;" horiz-adv-x="1171" d="M51 293q0 59 16.5 115.5t52.5 101.5t93 71.5t139 26.5h125v115q0 45 -23.5 70.5t-76.5 25.5q-35 0 -62.5 -19.5t-40.5 -72.5q-51 16 -100 30.5t-98 28.5q29 117 112.5 178.5t206.5 61.5q76 0 125 -19.5t78 -54.5q76 76 207 76q147 0 230 -84t83 -237v-250h-416 q0 -53 1.5 -104.5t7.5 -86.5t29.5 -54t62.5 -19q43 0 66.5 29.5t29.5 78.5q53 -10 108.5 -20.5t110.5 -20.5q-14 -123 -90.5 -197.5t-230.5 -74.5q-92 0 -157 31.5t-97 89.5q-31 -39 -62.5 -62.5t-61.5 -37t-57.5 -17.5t-50.5 -4q-78 0 -128 24.5t-78.5 65.5t-41 97 t-12.5 118zM268 307q0 -51 28 -80.5t79 -29.5q49 0 75.5 34.5t26.5 90.5v127h-86q-47 0 -85 -32t-38 -110zM702 610h193v54q0 45 -6 86q-4 29 -28.5 49t-59.5 20q-41 0 -65.5 -22.5t-26.5 -63.5z" />
            <glyph unicode="&#xe7;" horiz-adv-x="733" d="M68 498q0 49 2 101t6 99t10 88t16 66q31 78 101.5 127t189.5 49q154 0 226.5 -84t72.5 -231q-53 -6 -109.5 -12.5t-109.5 -14.5q0 72 -23.5 104.5t-62.5 32.5q-61 0 -84 -61q-6 -20 -11 -82t-5 -143v-74q0 -59 1 -115.5t11 -85.5q10 -33 30.5 -52.5t57.5 -19.5 q86 0 86 132q55 -10 110.5 -16.5t110.5 -16.5q-2 -133 -69.5 -210t-196.5 -89l-25 -82q51 -6 84 -23.5t52.5 -42t26.5 -52.5t7 -50q0 -23 -9 -51.5t-30.5 -53t-57.5 -42t-87 -17.5q-16 0 -72.5 5t-113.5 34l35 92q41 -18 68.5 -23.5t51.5 -5.5q29 0 50.5 18.5t21.5 47.5 q0 70 -92 68l-51 38l41 142q-111 10 -167.5 68.5t-74.5 129.5q-6 25 -10 62t-5 79t-2 86t-1 81z" />
            <glyph unicode="&#xe8;" horiz-adv-x="770" d="M68 500q0 98 7 196.5t27 151.5q29 82 100.5 131t190.5 49q152 0 229.5 -84t77.5 -237v-252h-413q0 -57 1 -110.5t9 -82.5q20 -70 90 -69q82 0 92 116l221 -35q-8 -135 -88 -210.5t-227 -75.5q-72 0 -123 17.5t-87 46t-56.5 65.5t-30.5 73q-6 25 -10 62t-6 79t-3 86t-1 83 zM147 1456l183 82l172 -362l-117 -64zM289 606h188v86q0 49 -17.5 88t-72.5 39q-59 0 -82 -59q-8 -18 -11 -58t-5 -96z" />
            <glyph unicode="&#xe9;" horiz-adv-x="770" d="M68 500q0 98 7 196.5t27 151.5q29 82 100.5 131t190.5 49q152 0 229.5 -84t77.5 -237v-252h-413q0 -57 1 -110.5t9 -82.5q20 -70 90 -69q82 0 92 116l221 -35q-8 -135 -88 -210.5t-227 -75.5q-72 0 -123 17.5t-87 46t-56.5 65.5t-30.5 73q-6 25 -10 62t-6 79t-3 86t-1 83 zM289 606h188v86q0 49 -17.5 88t-72.5 39q-59 0 -82 -59q-8 -18 -11 -58t-5 -96zM289 1176l174 362l182 -82l-237 -344z" />
            <glyph unicode="&#xea;" horiz-adv-x="770" d="M59 1169l271 306h129l258 -304l-88 -79l-240 192l-242 -192zM68 500q0 98 7 196.5t27 151.5q29 82 100.5 131t190.5 49q152 0 229.5 -84t77.5 -237v-252h-413q0 -57 1 -110.5t9 -82.5q20 -70 90 -69q82 0 92 116l221 -35q-8 -135 -88 -210.5t-227 -75.5q-72 0 -123 17.5 t-87 46t-56.5 65.5t-30.5 73q-6 25 -10 62t-6 79t-3 86t-1 83zM289 606h188v86q0 49 -17.5 88t-72.5 39q-59 0 -82 -59q-8 -18 -11 -58t-5 -96z" />
            <glyph unicode="&#xeb;" horiz-adv-x="770" d="M68 500q0 98 7 196.5t27 151.5q29 82 100.5 131t190.5 49q152 0 229.5 -84t77.5 -237v-252h-413q0 -57 1 -110.5t9 -82.5q20 -70 90 -69q82 0 92 116l221 -35q-8 -135 -88 -210.5t-227 -75.5q-72 0 -123 17.5t-87 46t-56.5 65.5t-30.5 73q-6 25 -10 62t-6 79t-3 86t-1 83 zM119 1163v215h192v-215h-192zM289 606h188v86q0 49 -17.5 88t-72.5 39q-59 0 -82 -59q-8 -18 -11 -58t-5 -96zM455 1163v215h192v-215h-192z" />
            <glyph unicode="&#xec;" horiz-adv-x="417" d="M-55 1456l182 82l172 -362l-117 -64zM96 0v1012h223v-1012h-223z" />
            <glyph unicode="&#xed;" horiz-adv-x="438" d="M96 0v1012h223v-1012h-223zM143 1176l174 362l183 -82l-238 -344z" />
            <glyph unicode="&#xee;" horiz-adv-x="534" d="M-61 1169l270 306h129l258 -304l-88 -79l-240 192l-241 -192zM154 0v1012h223v-1012h-223z" />
            <glyph unicode="&#xef;" horiz-adv-x="487" d="M-20 1163v215h192v-215h-192zM131 0v1012h223v-1012h-223zM315 1163v215h193v-215h-193z" />
            <glyph unicode="&#xf0;" horiz-adv-x="790" d="M68 496q0 100 9 180t27 131q27 72 91.5 122t169.5 50q37 0 83 -13.5t80 -47.5h2q0 66 -4 121t-26 108l-117 -86l-61 82l122 88q-35 47 -103.5 69.5t-133.5 30.5l26 164q82 -6 140.5 -19.5t101.5 -34t73 -44t52 -49.5l123 90l61 -78q-33 -25 -64.5 -49.5t-64.5 -46.5 q16 -33 27.5 -74t19 -98.5t10.5 -131t3 -169.5v-263v-63.5t-2 -71.5t-4 -71.5t-4 -63.5q-10 -84 -42 -137t-78 -83t-100.5 -41t-109.5 -11q-131 0 -198.5 59t-90.5 145q-6 23 -10 59t-5 78t-2 86t-1 83zM287 415.5q0 -32.5 1 -62t4 -54.5t7 -39q12 -31 33.5 -50.5 t62.5 -19.5q33 0 58.5 23t29.5 53q6 23 10.5 87.5t4.5 135.5q0 70 -1 121.5t-10 81.5q-22 82 -92 82q-31 0 -54.5 -14.5t-35.5 -46.5q-10 -29 -13 -77t-5 -155v-65.5z" />
            <glyph unicode="&#xf1;" horiz-adv-x="798" d="M68 1227q37 82 94 128t114 46q31 0 60 -11.5t56.5 -25.5t53 -25.5t50.5 -11.5q29 0 53 16.5t59 61.5q27 -16 52.5 -31.5t54.5 -32.5q-45 -94 -96.5 -136t-104.5 -42q-35 0 -64.5 11.5t-57 25.5t-53.5 25.5t-50 11.5q-25 0 -53.5 -18.5t-59.5 -59.5zM78 0v1012h221v-90h8 q31 43 82 72.5t109 29.5q61 0 103 -19.5t67.5 -55.5t37 -83t11.5 -102v-764h-221v700q0 109 -93 109q-47 0 -75.5 -32t-28.5 -87v-690h-221z" />
            <glyph unicode="&#xf2;" horiz-adv-x="782" d="M68 427v71q0 49 2 101t6 99t10 88t16 66q29 78 102.5 127t192.5 49q82 0 138.5 -21.5t93.5 -58.5t54 -86t22 -106q8 -59 9 -131t1 -131v-54q0 -47 -3 -94t-7 -92q-10 -84 -44 -137.5t-80 -82t-99.5 -38.5t-104.5 -10q-72 0 -124 19.5t-88 52t-55.5 74.5t-27.5 89 q-4 27 -7 60.5t-5 70.5t-2 75zM139 1456l183 82l172 -362l-117 -64zM287 463q0 -55 1 -106.5t9 -82.5q10 -35 32.5 -58t65.5 -23q33 0 56.5 19t31.5 48q2 8 5.5 31.5t5.5 57.5t3 73t1 78q0 72 -2 139.5t-11 101.5q-4 23 -14 37q-23 45 -76 45q-49 0 -73 -37 q-14 -25 -21.5 -53t-10.5 -65t-3 -83v-106v-16z" />
            <glyph unicode="&#xf3;" horiz-adv-x="782" d="M68 427v71q0 49 2 101t6 99t10 88t16 66q29 78 102.5 127t192.5 49q82 0 138.5 -21.5t93.5 -58.5t54 -86t22 -106q8 -59 9 -131t1 -131v-54q0 -47 -3 -94t-7 -92q-10 -84 -44 -137.5t-80 -82t-99.5 -38.5t-104.5 -10q-72 0 -124 19.5t-88 52t-55.5 74.5t-27.5 89 q-4 27 -7 60.5t-5 70.5t-2 75zM270 1176l174 362l183 -82l-238 -344zM287 463q0 -55 1 -106.5t9 -82.5q10 -35 32.5 -58t65.5 -23q33 0 56.5 19t31.5 48q2 8 5.5 31.5t5.5 57.5t3 73t1 78q0 72 -2 139.5t-11 101.5q-4 23 -14 37q-23 45 -76 45q-49 0 -73 -37 q-14 -25 -21.5 -53t-10.5 -65t-3 -83v-106v-16z" />
            <glyph unicode="&#xf4;" horiz-adv-x="782" d="M61 1169l271 306h129l258 -304l-88 -79l-240 192l-241 -192zM68 427v71q0 49 2 101t6 99t10 88t16 66q29 78 102.5 127t192.5 49q82 0 138.5 -21.5t93.5 -58.5t54 -86t22 -106q8 -59 9 -131t1 -131v-54q0 -47 -3 -94t-7 -92q-10 -84 -44 -137.5t-80 -82t-99.5 -38.5 t-104.5 -10q-72 0 -124 19.5t-88 52t-55.5 74.5t-27.5 89q-4 27 -7 60.5t-5 70.5t-2 75zM287 463q0 -55 1 -106.5t9 -82.5q10 -35 32.5 -58t65.5 -23q33 0 56.5 19t31.5 48q2 8 5.5 31.5t5.5 57.5t3 73t1 78q0 72 -2 139.5t-11 101.5q-4 23 -14 37q-23 45 -76 45 q-49 0 -73 -37q-14 -25 -21.5 -53t-10.5 -65t-3 -83v-106v-16z" />
            <glyph unicode="&#xf5;" horiz-adv-x="782" d="M68 427v71q0 49 2 101t6 99t10 88t16 66q29 78 102.5 127t192.5 49q82 0 138.5 -21.5t93.5 -58.5t54 -86t22 -106q8 -59 9 -131t1 -131v-54q0 -47 -3 -94t-7 -92q-10 -84 -44 -137.5t-80 -82t-99.5 -38.5t-104.5 -10q-72 0 -124 19.5t-88 52t-55.5 74.5t-27.5 89 q-4 27 -7 60.5t-5 70.5t-2 75zM72 1227q37 82 94 128t115 46q31 0 59.5 -11.5t56 -25.5t53 -25.5t50.5 -11.5q29 0 53 16.5t59 61.5q27 -16 52.5 -31.5t54.5 -32.5q-45 -94 -96.5 -136t-104.5 -42q-35 0 -64.5 11.5t-57 25.5t-53.5 25.5t-50 11.5q-25 0 -53.5 -18.5 t-59.5 -59.5zM287 463q0 -55 1 -106.5t9 -82.5q10 -35 32.5 -58t65.5 -23q33 0 56.5 19t31.5 48q2 8 5.5 31.5t5.5 57.5t3 73t1 78q0 72 -2 139.5t-11 101.5q-4 23 -14 37q-23 45 -76 45q-49 0 -73 -37q-14 -25 -21.5 -53t-10.5 -65t-3 -83v-106v-16z" />
            <glyph unicode="&#xf6;" horiz-adv-x="782" d="M68 427v71q0 49 2 101t6 99t10 88t16 66q29 78 102.5 127t192.5 49q82 0 138.5 -21.5t93.5 -58.5t54 -86t22 -106q8 -59 9 -131t1 -131v-54q0 -47 -3 -94t-7 -92q-10 -84 -44 -137.5t-80 -82t-99.5 -38.5t-104.5 -10q-72 0 -124 19.5t-88 52t-55.5 74.5t-27.5 89 q-4 27 -7 60.5t-5 70.5t-2 75zM133 1163v215h193v-215h-193zM287 463q0 -55 1 -106.5t9 -82.5q10 -35 32.5 -58t65.5 -23q33 0 56.5 19t31.5 48q2 8 5.5 31.5t5.5 57.5t3 73t1 78q0 72 -2 139.5t-11 101.5q-4 23 -14 37q-23 45 -76 45q-49 0 -73 -37q-14 -25 -21.5 -53 t-10.5 -65t-3 -83v-106v-16zM469 1163v215h193v-215h-193z" />
            <glyph unicode="&#xf7;" d="M29 512v174h770v-174h-770zM287 260q0 53 39 93t92 40t91 -40t38 -93t-38 -92t-91 -39t-92 39t-39 92zM287 940q0 53 39 92t92 39t91 -39t38 -92t-38 -93t-91 -40t-92 40t-39 93z" />
            <glyph unicode="&#xf8;" horiz-adv-x="782" d="M68 427v71q0 49 2 101t6 99t10 88t16 66q29 78 102.5 127t192.5 49q106 0 178 -39l43 90l64 -32l-49 -103q35 -37 51 -85t21 -103q8 -59 9 -131t1 -131v-54q0 -47 -3 -94t-7 -92q-10 -84 -44 -137.5t-80 -82t-99.5 -38.5t-104.5 -10q-115 0 -187 49l-36 -76l-58 33l43 92 q-23 29 -37 64.5t-20 72.5q-4 27 -7 60.5t-5 70.5t-2 75zM287 387q47 98 93 193.5t93 193.5q-2 2 -2 4q-23 45 -76 45q-49 0 -73 -37q-14 -25 -21.5 -53t-10.5 -65t-3 -83v-106v-16v-76zM301 260q10 -29 31.5 -48t62.5 -19q33 0 56.5 19t31.5 48q2 8 5.5 31.5t5.5 57.5t3 73 t1 78v83t-4 76z" />
            <glyph unicode="&#xf9;" horiz-adv-x="800" d="M80 250v764h223v-703q0 -59 23.5 -84.5t68.5 -25.5q41 0 73 31.5t32 86.5v695h219v-1014h-221v90q-2 0 -3 1t-6 1q-31 -45 -82 -73.5t-108 -28.5q-63 0 -105 19.5t-68 54t-36 83t-10 103.5zM152 1456l182 82l172 -362l-117 -64z" />
            <glyph unicode="&#xfa;" horiz-adv-x="800" d="M80 250v764h223v-703q0 -59 23.5 -84.5t68.5 -25.5q41 0 73 31.5t32 86.5v695h219v-1014h-221v90q-2 0 -3 1t-6 1q-31 -45 -82 -73.5t-108 -28.5q-63 0 -105 19.5t-68 54t-36 83t-10 103.5zM342 1176l174 362l182 -82l-237 -344z" />
            <glyph unicode="&#xfb;" horiz-adv-x="800" d="M68 1169l270 306h129l258 -304l-88 -79l-240 192l-241 -192zM80 250v764h223v-703q0 -59 23.5 -84.5t68.5 -25.5q41 0 73 31.5t32 86.5v695h219v-1014h-221v90q-2 0 -3 1t-6 1q-31 -45 -82 -73.5t-108 -28.5q-63 0 -105 19.5t-68 54t-36 83t-10 103.5z" />
            <glyph unicode="&#xfc;" horiz-adv-x="800" d="M80 250v764h223v-703q0 -59 23.5 -84.5t68.5 -25.5q41 0 73 31.5t32 86.5v695h219v-1014h-221v90q-2 0 -3 1t-6 1q-31 -45 -82 -73.5t-108 -28.5q-63 0 -105 19.5t-68 54t-36 83t-10 103.5zM133 1163v215h193v-215h-193zM469 1163v215h193v-215h-193z" />
            <glyph unicode="&#xfd;" horiz-adv-x="735" d="M8 1012h236l63 -375l55 -295h9l55 295l74 375h227l-293 -1168q-29 -113 -91 -176t-181 -63h-78v194h45q45 0 73.5 30t49.5 116l14 63zM276 1176l175 362l182 -82l-238 -344z" />
            <glyph unicode="&#xfe;" horiz-adv-x="784" d="M70 -391v1814h217v-485l6 -4q29 51 73 71.5t101 20.5q41 0 81 -11t72.5 -40t56 -80t32.5 -131q4 -45 6 -112.5t2 -137.5q0 -49 -1 -99t-5 -97.5t-10.5 -88.5t-14.5 -71q-10 -33 -25.5 -64t-42 -54.5t-64.5 -37.5t-93 -14q-43 0 -87 15t-77 54h-6v-448h-221zM289 369 q0 -35 1 -65t9 -46q23 -57 88 -57q55 0 78 47q14 33 19 102.5t5 167.5q0 92 -4 155.5t-18 90.5q-17 47 -80 47q-49 0 -73.5 -34t-24.5 -87v-321z" />
            <glyph unicode="&#xff;" horiz-adv-x="735" d="M8 1012h236l63 -375l55 -295h9l55 295l74 375h227l-293 -1168q-29 -113 -91 -176t-181 -63h-78v194h45q45 0 73.5 30t49.5 116l14 63zM96 1163v215h193v-215h-193zM432 1163v215h193v-215h-193z" />
            <glyph unicode="&#x152;" horiz-adv-x="1200" d="M90 342v717q0 84 20.5 153.5t62.5 119.5t107.5 78t155.5 28q63 0 117 -13h606v-208h-422v-388h369v-211h-369v-405h422v-213h-608q-53 -12 -115 -12q-170 0 -258 91t-88 263zM311 344q0 -55 28 -100t95 -45q35 0 59.5 14t34.5 47v905q-10 31 -33.5 45.5t-58.5 14.5 q-39 0 -63.5 -17.5t-37.5 -43t-18.5 -56.5t-5.5 -57v-707z" />
            <glyph unicode="&#x153;" horiz-adv-x="1200" d="M68 498q0 49 2 101t6 99t10 88t16 66q31 78 102.5 127t190.5 49q74 0 131.5 -22.5t87.5 -61.5q74 84 217 84q154 0 232 -84t78 -237v-252h-414q0 -53 1 -109.5t11 -85.5q18 -68 90 -67q43 0 64.5 29.5t28.5 78.5q53 -10 108 -19.5t111 -19.5q-14 -123 -89 -198.5 t-229 -75.5q-74 0 -126 19.5t-89 60.5q-47 -49 -109.5 -65.5t-121.5 -16.5q-68 0 -117 17t-84 45t-56.5 65t-31.5 77q-6 25 -10 63t-6 79t-3 85t-1 81zM287 463q0 -55 1 -106.5t9 -82.5q10 -35 32.5 -58t65.5 -23q33 0 56.5 19t31.5 48q2 8 5.5 31.5t5.5 57.5t3 73t1 78 q0 90 -2 157.5t-25 120.5q-23 45 -76 45q-49 0 -73 -37q-25 -25 -29 -100.5t-6 -206.5v-16zM729 606h189v117q-4 39 -24 67.5t-67 28.5q-29 0 -49 -13t-35 -46q-8 -18 -10 -58t-4 -96z" />
            <glyph unicode="&#x178;" horiz-adv-x="808" d="M16 1425h234l88 -309l65 -246h9l67 252l80 303h234l-277 -835v-590h-221v590zM143 1516v217h193v-217h-193zM479 1516v217h193v-217h-193z" />
            <glyph unicode="&#x2c6;" horiz-adv-x="765" d="M72 1169l270 306h129l258 -304l-88 -79l-240 192l-241 -192z" />
            <glyph unicode="&#x2dc;" horiz-adv-x="741" d="M47 1227q37 82 94.5 128t114.5 46q31 0 59.5 -11.5t56 -25.5t53.5 -25.5t50 -11.5q29 0 53.5 16.5t59.5 61.5q27 -16 52.5 -31.5t53.5 -32.5q-45 -94 -96 -136t-104 -42q-35 0 -65 11.5t-57.5 25.5t-53 25.5t-50.5 11.5t-53.5 -18.5t-58.5 -59.5z" />
            <glyph unicode="&#x2000;" horiz-adv-x="915" />
            <glyph unicode="&#x2001;" horiz-adv-x="1831" />
            <glyph unicode="&#x2002;" horiz-adv-x="915" />
            <glyph unicode="&#x2003;" horiz-adv-x="1831" />
            <glyph unicode="&#x2004;" horiz-adv-x="610" />
            <glyph unicode="&#x2005;" horiz-adv-x="457" />
            <glyph unicode="&#x2006;" horiz-adv-x="305" />
            <glyph unicode="&#x2007;" horiz-adv-x="305" />
            <glyph unicode="&#x2008;" horiz-adv-x="228" />
            <glyph unicode="&#x2009;" horiz-adv-x="366" />
            <glyph unicode="&#x200a;" horiz-adv-x="101" />
            <glyph unicode="&#x2010;" horiz-adv-x="747" d="M100 479v193h570v-193h-570z" />
            <glyph unicode="&#x2011;" horiz-adv-x="747" d="M100 479v193h570v-193h-570z" />
            <glyph unicode="&#x2012;" horiz-adv-x="747" d="M100 479v193h570v-193h-570z" />
            <glyph unicode="&#x2013;" horiz-adv-x="1024" d="M41 461v188h942v-188h-942z" />
            <glyph unicode="&#x2014;" horiz-adv-x="2048" d="M41 461v188h1966v-188h-1966z" />
            <glyph unicode="&#x2018;" horiz-adv-x="536" d="M145 924v252l113 272h123l-59 -268h51v-256h-228z" />
            <glyph unicode="&#x2019;" horiz-adv-x="487" d="M135 926l58 266h-52v258h230v-252l-113 -272h-123z" />
            <glyph unicode="&#x201a;" horiz-adv-x="438" d="M98 -281l60 269h-54v258h230v-252l-113 -275h-123z" />
            <glyph unicode="&#x201c;" horiz-adv-x="706" d="M92 924v252l115 272h123l-60 -268h52v-256h-230zM387 924v252l113 272h123l-58 -268h51v-256h-229z" />
            <glyph unicode="&#x201d;" horiz-adv-x="706" d="M94 926l60 266h-54v258h230v-252l-113 -272h-123zM389 926l57 266h-51v258h230v-252l-113 -272h-123z" />
            <glyph unicode="&#x201e;" horiz-adv-x="720" d="M94 -279l60 269h-54v256h230v-252l-113 -273h-123zM389 -279l57 269h-51v256h230v-252l-113 -273h-123z" />
            <glyph unicode="&#x2022;" horiz-adv-x="909" d="M180 553q0 59 22.5 112.5t61.5 92.5t92.5 61.5t112.5 22.5t112.5 -22.5t93.5 -61.5t62.5 -92.5t22.5 -112.5t-22.5 -112.5t-62.5 -92.5t-93.5 -61.5t-112.5 -22.5t-112.5 22.5t-92.5 61.5t-61.5 92.5t-22.5 112.5z" />
            <glyph unicode="&#x2026;" horiz-adv-x="1439" d="M100 0v248h230v-248h-230zM608 0v248h228v-248h-228zM1116 0v248h227v-248h-227z" />
            <glyph unicode="&#x202f;" horiz-adv-x="366" />
            <glyph unicode="&#x2039;" horiz-adv-x="630" d="M96 492l230 395h211l-226 -395l226 -398h-211z" />
            <glyph unicode="&#x203a;" horiz-adv-x="630" d="M94 94l225 398l-225 395h213l228 -395l-228 -398h-213z" />
            <glyph unicode="&#x205f;" horiz-adv-x="457" />
            <glyph unicode="&#x20ac;" d="M39 545v121h76v102h-76v123h76v158q0 80 18.5 151.5t60.5 123.5t107.5 83t159.5 31q174 0 257 -91.5t81 -234.5l-215 -37q-4 72 -35 113t-90 41q-37 0 -61.5 -16.5t-39 -41t-19.5 -54.5t-5 -56v-170h276v-123h-276v-102h276v-121h-276v-209q0 -23 4 -47.5t17.5 -46 t37 -34.5t60.5 -13q117 0 125 157l221 -30q-6 -154 -92 -244t-246 -90q-178 0 -262 89t-84 263v205h-76z" />
            <glyph unicode="&#x2122;" horiz-adv-x="1433" d="M84 1282v143h498v-143h-172v-668h-154v668h-172zM662 612v811h141q29 -61 54.5 -122.5t51.5 -122.5l80 -177q18 43 36.5 87.5t39.5 87.5l104 247h144v-811h-152v445h-6q-16 -45 -32.5 -90t-35.5 -90q-10 -29 -24 -60t-27 -59h-100q-14 31 -27.5 61.5t-25.5 61.5 q-18 45 -35 89t-35 87h-6v-445h-145z" />
            <glyph unicode="&#x25fc;" horiz-adv-x="1013" d="M0 0v1014h1014v-1014h-1014z" />
            </font>
</defs>
</svg>
