<?xml version="1.0" standalone="no"?>
<!DOCTYPE svg PUBLIC "-//W3C//DTD SVG 1.1//EN" "http://www.w3.org/Graphics/SVG/1.1/DTD/svg11.dtd" >
<svg xmlns="http://www.w3.org/2000/svg">
    <metadata></metadata>
    <defs>
        <font id="pf_din_text_comp_proMdIt" horiz-adv-x="829" >
            <font-face units-per-em="2048" ascent="1536" descent="-512" />
            <missing-glyph horiz-adv-x="419" />
            <glyph unicode="&#xfb01;" horiz-adv-x="884" d="M-23 -311l224 1151h-95l35 172h92l35 170q33 166 135.5 241.5t237.5 75.5q86 0 162 -23.5t129 -80.5l-121 -166q-39 35 -83 47t-89 12q-41 0 -68.5 -11t-45 -29.5t-28 -41t-14.5 -43.5l-30 -151h456l-194 -1012h-217l161 840h-241l-221 -1151h-220z" />
            <glyph unicode="&#xfb02;" horiz-adv-x="931" d="M-20 -313l221 1153h-95l35 172h92l33 170q33 166 123 243.5t234 77.5q16 0 55 -2t91 -10t110.5 -23.5t113.5 -40.5l-219 -1122q-2 -12 -3 -22.5t-1 -20.5q0 -37 20.5 -54.5t77.5 -23.5l-45 -196h-30q-127 0 -190.5 53t-63.5 154q0 25 5 55.5t13 68.5l186 955 q-33 10 -64.5 14t-51.5 4q-41 0 -66.5 -11t-42 -30.5t-25 -44t-14.5 -49.5l-26 -145h157l-35 -172h-157l-219 -1153h-219z" />
            <glyph unicode="&#xfb03;" horiz-adv-x="1341" d="M-20 -311l221 1151h-95l35 174h95l26 141q31 164 133.5 239.5t237.5 75.5q106 0 207 -47q104 93 258 93q86 0 165.5 -29t129.5 -76l-119 -164q-39 33 -85 46.5t-91 13.5q-80 0 -114 -39t-44 -88l-31 -166h457l-197 -1014h-217l162 840h-240l-221 -1151h-217l221 1151 h-239l-219 -1151h-219zM453 1014h239l29 160q4 10 8 30.5t10 36.5q-29 12 -58 17.5t-56 5.5q-39 0 -66 -12.5t-44 -31t-25.5 -42t-12.5 -43.5z" />
            <glyph unicode="&#xfb04;" horiz-adv-x="1388" d="M-18 -311q53 289 108 575.5t111 575.5h-95l33 172h94l27 137q33 166 114 243.5t240 77.5q59 0 118 -12t99 -35q53 47 120 70t141 23q37 0 134 -12.5t224 -65.5l-221 -1133q-2 -12 -3 -22.5t-1 -20.5q0 -37 20.5 -54.5t77.5 -23.5l-45 -196h-31q-127 0 -190.5 53 t-63.5 154q0 25 5.5 55.5t13.5 68.5l188 965q-33 10 -60.5 15.5t-47.5 5.5q-78 0 -112 -42t-44 -96l-31 -155h158l-35 -172h-156l-221 -1151h-217l221 1151h-237l-221 -1151h-215zM451 1012h237l33 164q2 10 5 24t9 37q-29 10 -63.5 16.5t-61.5 6.5q-59 0 -86.5 -26 t-38.5 -71z" />
            <glyph horiz-adv-x="0" />
            <glyph horiz-adv-x="682" />
            <glyph unicode=" "  horiz-adv-x="419" />
            <glyph unicode="&#x09;" horiz-adv-x="419" />
            <glyph unicode="&#xa0;" horiz-adv-x="419" />
            <glyph unicode="!" horiz-adv-x="516" d="M70 0l43 223h213l-43 -223h-213zM160 389l182 1036h219l-219 -1036h-182z" />
            <glyph unicode="&#x22;" horiz-adv-x="573" d="M190 1004l84 421h156l-84 -421h-156zM453 1004l82 421h157l-84 -421h-155z" />
            <glyph unicode="#" d="M-37 0l166 442h-115l29 152h141l101 256h-117l29 151h141l162 429h155l-161 -429h159q10 25 33 86.5t48.5 129t48 128t32.5 85.5h156l-164 -429h119l-29 -151h-145l-97 -256h117l-29 -152h-145q-10 -27 -33.5 -89t-50.5 -131.5t-50.5 -132t-31.5 -89.5h-153l165 442h-161 q-10 -27 -34 -89t-49.5 -131.5t-49 -132t-31.5 -89.5h-156zM340 594h160l100 256h-162z" />
            <glyph unicode="$" d="M37 258q0 45 12 98q55 4 111.5 10.5t111.5 12.5q-10 -41 -10 -74q0 -35 15.5 -62.5t58.5 -35.5l84 430h-2q-141 63 -189.5 138t-48.5 159q0 223 101.5 357t293.5 145q6 37 14.5 74.5t14.5 74.5h76l-29 -149q70 -6 119 -30t80 -59.5t44 -80.5t13 -95q0 -29 -3 -58.5 t-13 -57.5l-221 -19q4 18 8 38t4 38q0 33 -17.5 61.5t-56.5 38.5q-18 -92 -36.5 -184t-34.5 -184q133 -59 189 -126t56 -163q0 -121 -22.5 -223.5t-71.5 -178t-128 -118.5t-191 -47q-8 -41 -15.5 -84t-17.5 -84h-76q10 43 17.5 85t15.5 85q-133 10 -194.5 87t-61.5 181z M406 985q0 -29 13 -54.5t48 -47.5l65 329q-39 -10 -63.5 -36.5t-38.5 -60.5t-19 -68.5t-5 -61.5zM412 209q41 10 68.5 36.5t45 65.5t24.5 85t7 93q0 39 -16.5 64t-51.5 47z" />
            <glyph unicode="%" horiz-adv-x="1269" d="M133 735v17.5t2 17.5q8 47 18.5 104.5t22.5 121t25.5 127t25.5 122.5q20 88 76.5 137.5t149.5 49.5q102 0 148 -49.5t46 -135.5q0 -27 -6 -53l-88 -442q-39 -186 -227 -187q-86 0 -139.5 47t-53.5 123zM180 -35l934 1497h135l-934 -1497h-135zM289 754q0 -16 12 -29.5 t37 -13.5q29 0 40 15t15 36l92 473v8q0 16 -10 30.5t-37 14.5t-39 -15.5t-16 -31.5q-23 -121 -46.5 -238.5t-47.5 -238.5v-10zM786 162v17t2 18q8 47 18.5 104t23 120.5t25.5 127t26 123.5q20 88 76.5 137t148.5 49q102 0 148 -49t46 -135q0 -27 -6 -53l-88 -443 q-39 -186 -227 -186q-86 0 -139.5 47t-53.5 123zM942 180q0 -16 12.5 -29.5t36.5 -13.5q29 0 40 15.5t16 35.5l92 474v8q0 16 -10.5 30.5t-36.5 14.5q-27 0 -39.5 -15.5t-16.5 -31.5q-23 -121 -46 -239t-48 -239v-10z" />
            <glyph unicode="&#x26;" horiz-adv-x="983" d="M57 287q0 76 20.5 142.5t58.5 125.5t90.5 111.5t115.5 99.5q-23 70 -43 143.5t-20 159.5q0 78 24.5 144.5t69.5 115.5t108.5 78t141.5 29q104 0 180 -47.5t108 -147.5q-47 -23 -92 -45t-90 -45q-10 43 -41 66.5t-72 23.5q-35 0 -58 -15.5t-37.5 -38t-21.5 -51t-7 -53.5 q0 -33 10 -89t33 -122l147 -407q20 37 35.5 87t25.5 93h191q-20 -92 -62.5 -196.5t-99.5 -184.5q25 -66 50.5 -132t51.5 -132h-233l-37 92q-78 -66 -149.5 -85t-143.5 -19q-119 0 -186.5 79.5t-67.5 219.5zM272 315q0 -57 27 -96t80 -39q41 0 85 20.5t77 53.5l-129 332 q-72 -66 -106 -132.5t-34 -138.5z" />
            <glyph unicode="'" horiz-adv-x="380" d="M227 1004l84 421h158l-84 -421h-158z" />
            <glyph unicode="(" horiz-adv-x="518" d="M109 373q0 154 37.5 307.5t102 296.5t148.5 270t178 230l113 -62q-182 -248 -284.5 -522.5t-102.5 -566.5q0 -133 20.5 -256t57.5 -228l-123 -71q-66 131 -106.5 280.5t-40.5 321.5z" />
            <glyph unicode=")" horiz-adv-x="518" d="M-16 -158q84 113 154.5 242t120.5 267t79 282.5t29 288.5q0 131 -20.5 257t-61.5 236l139 62q59 -123 98 -270.5t39 -317.5q0 -158 -37 -311.5t-102.5 -297t-153.5 -272.5t-188 -237z" />
            <glyph unicode="*" horiz-adv-x="763" d="M184 1122l78 142l199 -90l28 249h154l-70 -247l232 88l24 -142l-243 -61l121 -195l-140 -86l-86 209l-170 -211l-106 88l194 195z" />
            <glyph unicode="+" d="M47 518l33 176h299l63 324h172l-63 -324h299l-33 -176h-299l-63 -321h-172l63 321h-299z" />
            <glyph unicode="," horiz-adv-x="438" d="M-39 -281l111 269h-52l52 258h227l-49 -252l-166 -275h-123z" />
            <glyph unicode="-" horiz-adv-x="747" d="M111 479l39 193h567l-37 -193h-569z" />
            <glyph unicode="." horiz-adv-x="432" d="M18 0l50 248h227l-47 -248h-230z" />
            <glyph unicode="/" horiz-adv-x="559" d="M-117 -86l686 1571h164l-686 -1571h-164z" />
            <glyph unicode="0" d="M91 200.5q-9 65.5 5 143.5q4 27 15.5 88.5t27 142t31.5 170t31.5 168t28 140t16.5 86.5q29 145 119 222t223 77q76 0 133 -27t93 -75t47 -113.5t-3 -143.5l-160 -798q-27 -135 -107.5 -214t-221.5 -79q-84 0 -142.5 26.5t-92.5 73.5t-43 112.5zM305 326q-10 -53 5.5 -89 t68.5 -36q90 0 108 102q29 150 57.5 295t51 260t36.5 186l15 72q10 53 -17.5 81t-64.5 28q-43 0 -68.5 -24.5t-33.5 -65.5z" />
            <glyph unicode="1" d="M322 0l229 1178l-227 -156l47 238l239 165h207l-276 -1425h-219z" />
            <glyph unicode="2" d="M25 0l36 195l494 694q47 63 69.5 127.5t22.5 113.5q0 39 -19.5 69t-66.5 30q-18 0 -39.5 -10.5t-40 -33t-33 -59t-20.5 -88.5l-209 31q27 184 127 276.5t248 92.5q135 0 206.5 -70t71.5 -199q0 -115 -43 -206t-110 -187l-400 -567h357l-41 -209h-610z" />
            <glyph unicode="3" d="M48 182.5q-13 65.5 5 153.5l223 29q-25 -94 1 -131t75 -37q43 0 71 23.5t38 82.5l39 207q25 131 -99 131h-61l37 188h72q59 0 95 29t48 96l31 146q4 18 4 40.5t-8.5 42t-26 32t-49.5 12.5q-45 0 -84 -36t-51 -142l-211 30q29 186 129 272.5t241 86.5q84 0 141.5 -28 t90 -73t43 -102t0.5 -119l-19 -102q-8 -41 -19 -81t-29.5 -75t-48.5 -64.5t-75 -50.5l-2 -10q66 -29 77 -93.5t-3 -141.5l-33 -176q-12 -74 -37.5 -134.5t-68.5 -105.5t-105.5 -69.5t-148.5 -24.5q-76 0 -135.5 21.5t-96.5 64.5t-50 108.5z" />
            <glyph unicode="4" d="M16 213l35 186l490 1026h215l-475 -1007h182l63 336h215l-65 -336h90l-39 -205h-90l-41 -213h-215l41 213h-406z" />
            <glyph unicode="5" d="M89 182.5q-13 65.5 5 153.5l223 29q-25 -94 1 -131t75 -37q43 0 71 29.5t38 76.5l59 305q14 76 -15.5 103.5t-68.5 27.5q-27 0 -60.5 -17t-60.5 -58h-184l150 761h593l-38 -202h-396l-65 -344q2 0 3 -1t3 -1q33 29 77 42t83 13q55 0 98 -17.5t69.5 -56.5t35 -100.5 t-6.5 -149.5l-47 -286q-12 -74 -37.5 -134.5t-68.5 -105.5t-105.5 -69.5t-148.5 -24.5q-76 0 -135.5 21.5t-96.5 64.5t-50 108.5z" />
            <glyph unicode="6" d="M90 219q0 31 8 103.5t33 177.5q23 88 49.5 154.5t67.5 138.5l360 632h236q-68 -117 -121 -210t-95 -167.5t-74 -132t-58 -102.5l6 -8q23 16 51.5 23.5t54.5 7.5q72 0 118 -44t46 -149q0 -43 -7 -90t-20 -111q-8 -43 -19 -94t-28 -106q-33 -117 -113.5 -185.5 t-228.5 -68.5q-113 0 -189.5 58t-76.5 173zM311 283q-4 -37 14.5 -62.5t63.5 -25.5q55 0 75.5 28.5t33.5 75.5q23 86 35 152.5t22 109.5q10 51 -17.5 73.5t-66.5 22.5t-64.5 -21.5t-37.5 -55.5q-4 -16 -7.5 -32t-7.5 -32q-20 -98 -29.5 -148.5t-13.5 -84.5z" />
            <glyph unicode="7" d="M74 0l585 1223h-204l-31 -154h-195l70 356h629l-37 -186l-600 -1239h-217z" />
            <glyph unicode="8" d="M90 225q0 35 6 83t19 116q8 49 20 100t30.5 96.5t48.5 78t73 44.5q-59 47 -65.5 119t9.5 160q18 96 39 158.5t44.5 104.5t51 66.5t62.5 43.5q74 43 168 43q160 0 227 -97q14 -20 23.5 -46.5t12.5 -66.5t-3 -95.5t-20 -131.5q-16 -78 -52 -147.5t-104 -103.5q-2 -2 0 -2 q33 -25 48 -55.5t17.5 -79t-9 -118t-31.5 -169.5q-16 -78 -44 -142.5t-65 -105.5q-47 -53 -107.5 -71.5t-132.5 -18.5q-111 0 -165 35.5t-82 97.5q-10 20 -14.5 44.5t-4.5 59.5zM299 281q-8 -39 11.5 -67t70.5 -28q39 0 65.5 28t34.5 67l54 270q8 43 -5.5 78t-64.5 35 q-59 0 -82 -35t-31 -78zM424 920q-8 -39 14.5 -62.5t61.5 -23.5t68.5 23.5t37.5 62.5l39 204q10 45 -8.5 78t-69.5 33q-37 0 -64.5 -25.5t-35.5 -64.5z" />
            <glyph unicode="9" d="M111 0q68 117 121 210t95 168t73.5 132t58.5 102l-6 9q-23 -16 -51.5 -23.5t-55.5 -7.5q-72 0 -118 44t-46 148q0 43 7.5 90.5t19.5 110.5q8 43 19.5 94t27.5 107q33 117 114 185.5t228 68.5q113 0 189.5 -58.5t76.5 -173.5q0 -31 -8 -103.5t-33 -176.5 q-23 -88 -49 -154.5t-67 -138.5l-361 -633h-235zM399 864q-10 -51 17.5 -73.5t66.5 -22.5t64.5 21.5t38.5 56.5q4 16 7 31.5t7 31.5q20 98 29.5 148.5t13.5 85.5q4 37 -14.5 62.5t-63.5 25.5q-55 0 -75.5 -28.5t-32.5 -76.5q-23 -86 -35 -152.5t-23 -109.5z" />
            <glyph unicode=":" horiz-adv-x="432" d="M18 0l50 248h227l-47 -248h-230zM129 571l49 248h228l-48 -248h-229z" />
            <glyph unicode=";" horiz-adv-x="438" d="M-39 -281l111 269h-52l52 258h227l-49 -252l-166 -275h-123zM133 571l49 248h228l-48 -248h-229z" />
            <glyph unicode="&#x3c;" d="M53 537l29 147l840 383l-41 -215l-607 -254l504 -252l-37 -192z" />
            <glyph unicode="=" d="M14 352l35 178h770l-35 -178h-770zM82 692l33 178h770l-33 -178h-770z" />
            <glyph unicode="&#x3e;" d="M-16 154l39 219l602 252l-506 254l39 188l692 -383l-29 -147z" />
            <glyph unicode="?" horiz-adv-x="784" d="M164 1075q27 193 121 278t258 85q143 0 230 -77t87 -224q0 -68 -10 -117t-26.5 -89t-40 -75t-54.5 -74q-66 -84 -101.5 -135t-57 -92t-33 -81t-25.5 -97h-217q18 92 40.5 173t78.5 152q61 82 103 134.5t67.5 93.5t36 79t10.5 87q0 47 -23.5 86t-83.5 39q-25 0 -49 -7.5 t-44.5 -27t-36 -53t-19.5 -84.5zM227 0l43 223h211l-43 -223h-211z" />
            <glyph unicode="@" horiz-adv-x="1601" d="M160 483q0 205 58 383t167 310.5t263.5 207t348.5 74.5q147 0 254 -41t175.5 -113.5t102.5 -172t34 -216.5q0 -178 -42 -302t-108.5 -200.5t-147.5 -110.5t-159 -34q-12 0 -39 4t-56.5 16.5t-55 33t-33.5 55.5h-4q-29 -41 -80.5 -71t-106.5 -30q-80 0 -136 43t-56 136 q0 53 14 143t33 174q14 68 31.5 127t46 105.5t72.5 73t112 26.5q33 0 70.5 -16.5t62.5 -55.5l2 2l12 62h185l-111 -574q0 -10 -1 -17t-1 -13q0 -35 19.5 -50.5t52.5 -15.5q51 0 99 35t84 98.5t57.5 153.5t21.5 198q0 184 -108.5 291t-305.5 107q-168 0 -293 -67.5 t-208 -180.5t-123.5 -256t-40.5 -293q0 -219 105 -341t327 -122q49 0 91 4t85 14.5t87 28t97 43.5q10 -35 21.5 -69.5t23.5 -69.5q-102 -43 -204.5 -70.5t-206.5 -27.5q-279 0 -433.5 141t-154.5 440zM731 516q0 -65 68 -65q29 0 50 16t32 43l16 70q16 78 25.5 135t19.5 104 q4 16 4 23.5v13.5q0 31 -16.5 50.5t-42.5 19.5q-35 0 -56.5 -15.5t-39.5 -70.5l-37 -166q-14 -70 -18.5 -104.5t-4.5 -53.5z" />
            <glyph unicode="A" horiz-adv-x="864" d="M-59 0l563 1425h246l14 -1425h-223l2 297h-262l-111 -297h-229zM354 506h195l6 280l16 310h-10l-104 -312z" />
            <glyph unicode="B" horiz-adv-x="880" d="M25 0l276 1425h289q160 0 236.5 -72.5t76.5 -215.5q0 -164 -56 -256t-165 -127q0 -4 -1 -5t-1 -6q68 -23 93.5 -77t25.5 -127q0 -264 -119 -401.5t-324 -137.5h-331zM281 205h61q70 0 117 23.5t75.5 63.5t41 95t12.5 121q0 141 -146 141h-73q-23 -113 -44.5 -223.5 t-43.5 -220.5zM408 848h71q98 0 153.5 64.5t55.5 181.5q0 66 -35 94.5t-106 28.5h-66z" />
            <glyph unicode="C" horiz-adv-x="841" d="M70 246q0 25 2 52.5t8 55.5l135 695q14 80 41 150.5t72 123.5t113.5 84t168.5 31q150 0 223.5 -67.5t81.5 -174.5q0 -27 -1 -52.5t-7 -53.5l-221 -37q6 33 6 57q0 55 -26.5 87t-75.5 32q-39 0 -65.5 -16.5t-44 -42t-28 -55.5t-16.5 -56l-141 -729q-4 -23 -5 -45.5t6 -41 t25.5 -29.5t53.5 -11q57 0 107 38t65 134q53 -10 106.5 -20.5t106.5 -20.5q-25 -158 -114 -252t-263 -94q-154 0 -232.5 67.5t-80.5 190.5z" />
            <glyph unicode="D" horiz-adv-x="890" d="M25 0l276 1425h315q127 0 208 -49t91 -153q1 -14 1 -30q0 -67 -14 -173q-17 -131 -50 -305q-33 -176 -58.5 -305t-66.5 -213q-59 -115 -143 -156t-195 -41h-364zM285 209h96q84 0 123 43t55 125q25 121 48.5 243.5t42 223t30.5 164t12 67.5q3 19 3 36q1 41 -17 65 q-24 36 -100 36h-97z" />
            <glyph unicode="E" horiz-adv-x="778" d="M25 0l276 1425h633l-41 -208h-412l-75 -388h358l-41 -211h-358l-80 -411h411l-39 -207h-632z" />
            <glyph unicode="F" horiz-adv-x="778" d="M25 0l276 1425h633l-41 -208h-412l-75 -388h358l-41 -211h-358l-119 -618h-221z" />
            <glyph unicode="G" horiz-adv-x="874" d="M74 240q0 94 45 311t108 539q35 162 127.5 255t266.5 93q158 0 230.5 -82t72.5 -211q0 -18 -2 -36.5t-7 -39.5q-55 -8 -106 -15t-107 -18q2 10 3 31q0 72 -28 117t-85 45q-45 0 -72.5 -16.5t-45 -44t-27 -64.5t-17.5 -76q-35 -178 -57.5 -297t-38 -197.5t-23.5 -129 t-16 -91.5q-3 -15 -3 -29q0 -30 16 -54q22 -33 91 -33q129 0 154 129l53 264h-131l37 192h350l-88 -454q-18 -96 -54 -161t-87 -104.5t-113.5 -57t-134.5 -17.5q-66 0 -122 16t-98 48t-66.5 79t-24.5 109z" />
            <glyph unicode="H" horiz-adv-x="907" d="M25 0l276 1425h221l-116 -596h253l117 596h219l-276 -1425h-219l118 623h-253l-119 -623h-221z" />
            <glyph unicode="I" horiz-adv-x="444" d="M29 0l276 1425h223l-276 -1425h-223z" />
            <glyph unicode="J" horiz-adv-x="753" d="M-51 154l180 118q16 -35 51 -55t70 -20q63 0 98 34.5t45 87.5l215 1106h221l-215 -1097q-66 -340 -383 -340q-92 0 -164.5 40t-117.5 126z" />
            <glyph unicode="K" horiz-adv-x="880" d="M25 0l276 1425h221l-104 -542h10l360 542h242l-405 -591l170 -834h-220l-112 614l-137 -198l-80 -416h-221z" />
            <glyph unicode="L" horiz-adv-x="735" d="M25 0l276 1425h221l-237 -1214h395l-39 -211h-616z" />
            <glyph unicode="M" horiz-adv-x="1173" d="M18 0l277 1425h207l71 -417l60 -301h8l172 309l236 409h219l-277 -1425h-221l160 819h-10l-140 -252l-149 -256h-133l-52 264l-40 246h-9l-159 -821h-220z" />
            <glyph unicode="N" horiz-adv-x="954" d="M18 0l277 1425h199l116 -585q2 -16 9.5 -58.5t15.5 -90.5l15 -90t9 -60l9 2l163 882h218l-277 -1425h-194l-119 592l-49 264h-9l-163 -856h-220z" />
            <glyph unicode="O" horiz-adv-x="851" d="M49 279q0 27 3 54t7 56l138 711q33 168 120.5 253t247.5 85q156 0 238 -81t82 -216q0 -49 -13 -107l-133 -704q-29 -160 -114.5 -251t-249.5 -91q-170 0 -248 81t-78 210zM268 311q0 -47 27 -77.5t84 -30.5t91 34.5t46 96.5l137 706q6 33 6 66q0 51 -24.5 82t-81.5 35 q-59 0 -91 -35t-44 -92l-142 -717q-4 -16 -6 -33.5t-2 -34.5z" />
            <glyph unicode="P" horiz-adv-x="843" d="M25 0l276 1425h305q156 0 238 -69.5t82 -229.5q0 -129 -28 -236.5t-86 -183t-147.5 -117.5t-211.5 -42h-103l-104 -547h-221zM391 758h80q113 0 174.5 78.5t61.5 232.5q0 72 -36 110t-116 38h-74z" />
            <glyph unicode="Q" horiz-adv-x="880" d="M80 279q0 27 3 54t7 56l137 711q33 168 121 253t248 85q156 0 237.5 -81t81.5 -216q0 -49 -12 -107l-133 -704q-14 -84 -47 -152l98 -98l-129 -135l-92 90q-78 -47 -194 -47q-170 0 -248 81t-78 210zM299 311q0 -47 36 -76.5t93 -29.5h6l-57 57l129 135l45 -45l133 688 q6 33 6 66q0 51 -24.5 82t-81.5 35q-59 0 -91 -35t-44 -92l-142 -717q-4 -16 -6 -33.5t-2 -34.5z" />
            <glyph unicode="R" horiz-adv-x="880" d="M25 0l276 1425h305q154 0 237 -73.5t83 -239.5q0 -193 -65.5 -305.5t-188.5 -169.5l88 -637h-225l-72 590h-105l-112 -590h-221zM399 797h90q92 0 156 68.5t64 203.5q0 147 -154 148h-74z" />
            <glyph unicode="S" horiz-adv-x="841" d="M45 258q0 49 12 98l224 23q-10 -41 -11 -74q0 -41 22.5 -72.5t86.5 -31.5q53 0 89 25.5t57.5 66.5t29.5 92t8 104t-28.5 82t-100.5 62q-74 33 -121 67.5t-74.5 71.5t-39 77t-11.5 85q0 115 28 208t82 158.5t132 101.5t180 36q82 0 140.5 -21.5t95.5 -57.5t53 -84t16 -104 q0 -29 -3 -58.5t-13 -57.5l-221 -19q10 45 10 78q0 43 -23.5 76t-86.5 33q-49 0 -81 -27t-50.5 -63.5t-25.5 -77.5t-7 -70q0 -43 31.5 -78t125.5 -76q127 -55 173.5 -118.5t46.5 -155.5q0 -123 -23 -226.5t-75 -180t-135 -119.5t-202 -43q-162 0 -236.5 76.5t-74.5 193.5z " />
            <glyph unicode="T" horiz-adv-x="696" d="M156 0l235 1217h-231l41 208h682l-41 -208h-232l-235 -1217h-219z" />
            <glyph unicode="U" horiz-adv-x="886" d="M82 340l209 1085h221q-4 -23 -19.5 -102.5t-37 -189t-46 -233.5t-46 -234.5t-38 -193.5t-20.5 -112q-4 -24 -5 -46q0 -38 14 -66q20 -46 92 -45q51 0 88.5 28.5t52.5 102.5l213 1091h223l-213 -1095q-35 -184 -131 -263t-254 -79q-172 0 -253 95q-59 69 -59 172 q0 40 9 85z" />
            <glyph unicode="V" horiz-adv-x="862" d="M213 0l10 1425h232l-23 -628q0 -27 -2 -82.5t-5 -117.5t-7 -119.5t-8 -90.5h12l147 418l219 620h240l-549 -1425h-266z" />
            <glyph unicode="W" horiz-adv-x="1251" d="M162 0l74 1425h233q-2 -27 -8 -98.5t-15.5 -167.5t-18.5 -201.5t-18.5 -199.5t-15.5 -163t-8 -87h10l117 328l215 589h186l-16 -589l-14 -334h10l98 336l172 587h246q-123 -358 -241.5 -712.5t-239.5 -712.5h-226l9 618l6 242h-8q-23 -61 -45.5 -122.5t-45.5 -123.5 q-59 -154 -116.5 -307t-114.5 -307h-225z" />
            <glyph unicode="X" horiz-adv-x="847" d="M-70 0l432 745l-135 680h242l57 -417q66 100 119 205.5t107 211.5h264l-408 -680l152 -745h-242l-69 479h-5q-63 -121 -125.5 -239.5t-128.5 -239.5h-260z" />
            <glyph unicode="Y" horiz-adv-x="808" d="M211 0l115 582q-29 211 -57.5 421.5t-57.5 421.5h227q10 -111 18.5 -191.5t12.5 -146.5q6 -66 7 -126t3 -113h13q63 145 127.5 288.5t128.5 288.5h239l-442 -843l-113 -582h-221z" />
            <glyph unicode="Z" horiz-adv-x="698" d="M-39 0l39 205l573 1012h-358l41 208h596l-41 -198l-571 -1020h372l-39 -207h-612z" />
            <glyph unicode="[" horiz-adv-x="481" d="M4 -209l318 1636h323l-29 -149h-129l-260 -1335h129l-28 -152h-324z" />
            <glyph unicode="\" horiz-adv-x="512" d="M186 1462h164l39 -1513h-164z" />
            <glyph unicode="]" horiz-adv-x="481" d="M-90 -211l27 152h129l258 1337h-129l30 149h322l-318 -1638h-319z" />
            <glyph unicode="^" d="M59 659l476 762h147l184 -766h-192l-101 523l-305 -519h-209z" />
            <glyph unicode="_" horiz-adv-x="1024" d="M-139 -299l30 156h1022l-30 -156h-1022z" />
            <glyph unicode="`" horiz-adv-x="759" d="M385 1468l166 97l178 -396l-104 -61z" />
            <glyph unicode="a" horiz-adv-x="819" d="M43 182q2 78 15.5 174.5t29.5 186.5q23 113 49.5 203t64.5 151t94 94t136 33q47 0 92 -23.5t64 -66.5q4 0 6 2q4 18 8 37.5t8 38.5h221l-196 -1012h-219l14 78q-2 0 -3 1t-3 1q-78 -92 -184 -92q-84 0 -140.5 43t-56.5 151zM274 295q0 -41 17.5 -70.5t64.5 -29.5 q43 0 73 31.5t46 103.5q16 82 32.5 163.5t31.5 163.5q6 31 6 58.5t-8.5 49t-26.5 34t-51 12.5q-47 0 -74 -39q-29 -47 -45 -111.5t-37 -162.5q-12 -61 -19.5 -112.5t-9.5 -90.5z" />
            <glyph unicode="b" horiz-adv-x="790" d="M-4 0q72 375 143.5 743.5t143.5 743.5h223l-109 -551h9q41 49 90 68.5t88 19.5q102 0 150 -50t48 -143v-16q0 -59 -12 -145q-14 -98 -37 -217q-10 -68 -26.5 -127.5t-34.5 -110.5q-23 -68 -54.5 -112t-68.5 -69.5t-77 -35.5t-79 -10q-59 0 -96 20.5t-59 69.5l-7 -4 l-16 -74h-219zM272 290q-1 -6 0 -11q0 -17 6 -33q8 -20 25.5 -32.5t52.5 -12.5q29 0 48.5 11t31.5 28q41 53 82 252q8 39 15.5 81.5t11.5 80.5t5 69v12q0 22 -3 35q-12 45 -74 45q-35 0 -65.5 -25.5t-49.5 -84.5q-8 -23 -14 -54q-16 -78 -31.5 -156.5t-31.5 -156.5 q-7 -24 -9 -48z" />
            <glyph unicode="c" horiz-adv-x="737" d="M47 203q-1 10 -1 22q0 17 2 37q3 34 8 74.5t11.5 82.5t12.5 81q8 49 18.5 99t22.5 97t25.5 87t29.5 69q41 78 112.5 127t194.5 49q70 0 125.5 -20.5t91.5 -60.5q38 -40 52 -97q7 -29 7 -62q0 -32 -7 -69l-228 -27q7 32 7 56q0 30 -11 46q-20 30 -59 29q-35 0 -55.5 -17.5 t-34.5 -43.5q-16 -29 -32.5 -100.5t-39.5 -176.5q-15 -78 -25 -137q-9 -50 -9 -79q0 -6 1 -11q4 -33 22.5 -49t55.5 -16q86 0 111 126l217 -32q-31 -141 -114.5 -220t-235.5 -79q-74 0 -125.5 18.5t-84 48t-48 68.5t-17.5 80z" />
            <glyph unicode="d" horiz-adv-x="788" d="M29 193q0 16 1 32.5t3 36.5q4 47 15 121t26 145q16 92 36.5 175t47.5 143q14 35 35.5 67.5t52 57t71.5 40t99 15.5q43 0 91 -19.5t73 -56.5h6l104 537h219l-284 -1487h-219l14 76q-2 0 -3 1t-3 1q-41 -49 -87.5 -69.5t-103.5 -20.5q-37 0 -71.5 8t-62.5 31.5t-44 63.5 t-16 102zM266 281q0 -35 19.5 -57.5t60.5 -22.5q55 0 82 37.5t43 111.5q10 49 16.5 77t12.5 62q6 29 13 65t12 69.5t9.5 59.5t4.5 36q0 37 -16.5 61.5t-53.5 28.5q-10 1 -19 1q-34 0 -54 -18q-26 -22 -46 -63q-12 -35 -27.5 -104.5t-29.5 -145.5q-12 -70 -19.5 -122 t-7.5 -76z" />
            <glyph unicode="e" horiz-adv-x="784" d="M49 281q0 55 7 112.5t18 110.5q18 96 42.5 190t67.5 168t113 120t176 46q133 0 209 -63.5t76 -173.5q0 -100 -33 -172t-88 -118t-128 -67.5t-153 -21.5q-37 0 -75 6q-6 -31 -11.5 -68t-5.5 -63q0 -41 16.5 -67.5t59.5 -26.5q90 0 113 112l225 -29q-16 -63 -42 -116.5 t-68 -91t-101 -59t-141 -21.5q-84 0 -137.5 23.5t-84 64.5t-43 93t-12.5 112zM313 596q16 -2 29.5 -3t30.5 -1q70 4 119 40t49 120q0 33 -20.5 54t-57.5 21q-59 0 -93 -55t-57 -176z" />
            <glyph unicode="f" horiz-adv-x="561" d="M-154 -309l39 198q15 -1 28 -1q113 0 132 92l164 854h-109q10 45 18.5 89t16.5 87h109l35 176q12 63 31.5 117.5t56 96.5t93 66.5t142.5 28.5q23 0 49.5 -2t50.5 -6q-10 -49 -19 -99.5t-21 -97.5q-19 2 -36 2q-57 0 -83 -22q-33 -27 -41 -74l-35 -186h151q-8 -43 -16 -87 t-18 -89h-152l-162 -840q-12 -66 -32.5 -122t-57.5 -98t-95 -66.5t-144 -24.5q-47 0 -95 8z" />
            <glyph unicode="g" horiz-adv-x="790" d="M-27 -158l217 49v-12q0 -27 15.5 -57.5t68.5 -30.5q45 0 72 27.5t35 68.5l39 189h-8q-41 -47 -90.5 -66.5t-88.5 -19.5q-102 0 -150 50t-48 142q0 59 10 150.5t33 204.5q14 66 29.5 129t31.5 116q23 72 54.5 119t68.5 75t77 39t81 11q55 0 96 -20.5t64 -69.5q2 0 3 1t3 1 l16 76h221l-217 -1106q-12 -68 -36.5 -126t-65.5 -100t-101.5 -67t-148.5 -25q-135 0 -208 69t-73 183zM268 356q-5 -32 -5 -58q0 -31 7 -54q12 -45 74 -45q53 0 84 49t45 112q16 78 31.5 153t32.5 161q4 23 5 47v5q0 21 -8 40q-8 20 -25 33.5t-48 13.5q-55 0 -80 -41 q-23 -25 -41 -89.5t-39 -160.5q-23 -98 -33 -166z" />
            <glyph unicode="h" horiz-adv-x="800" d="M0 0l289 1487h221l-115 -572l8 -2q45 57 100.5 84t106.5 27q61 0 99.5 -19.5t56.5 -52t22 -73.5q1 -17 1 -34q0 -25 -3 -52q0 -10 -14 -86t-35.5 -190t-47 -250t-50.5 -267h-223q23 115 47 237.5t43.5 227t33 175.5t13.5 79q1 7 1 14q0 29 -14 51q-18 26 -63 27 q-55 0 -86 -40t-41 -95l-131 -676h-219z" />
            <glyph unicode="i" horiz-adv-x="407" d="M10 0l197 1012h221l-197 -1012h-221zM244 1210l43 215h221l-41 -215h-223z" />
            <glyph unicode="j" horiz-adv-x="411" d="M-197 -397l39 209q10 -2 31 -2q37 0 59.5 11t36 32.5t21.5 51t16 64.5l205 1045h223l-219 -1114q-14 -68 -39.5 -124.5t-65.5 -96t-96.5 -61t-132.5 -21.5q-41 0 -78 6zM248 1210l43 215h223l-43 -215h-223z" />
            <glyph unicode="k" horiz-adv-x="825" d="M8 0l289 1485h219l-162 -817l8 -2l279 346h268l-342 -400l162 -612h-242l-94 422l-110 -139l-56 -283h-219z" />
            <glyph unicode="l" horiz-adv-x="454" d="M49 195q0 25 5 55.5t14 68.5l225 1168h223l-231 -1182q-2 -12 -3 -22.5t-1 -20.5q0 -37 20.5 -54.5t77.5 -23.5l-45 -196h-31q-127 0 -190.5 53t-63.5 154z" />
            <glyph unicode="m" horiz-adv-x="1222" d="M10 0l197 1014h221l-18 -92l8 -2q41 45 91 74.5t107 29.5q84 0 122 -33t50 -86q53 53 116 86t124 33q57 0 93 -17.5t55.5 -46t24.5 -68.5q3 -22 3 -46q0 -19 -2 -39q0 -10 -13 -83t-34.5 -186.5t-49.5 -254t-54 -283.5h-224q23 119 47.5 243t44 228t33 174t13.5 78 q1 10 1 18q0 68 -71 68q-39 0 -73 -26.5t-46 -75.5l-135 -707h-223q25 119 49.5 245t43.5 229.5t32.5 172t13.5 74.5v12q0 76 -72 76q-41 0 -75.5 -32t-44.5 -87l-134 -690h-221z" />
            <glyph unicode="n" horiz-adv-x="798" d="M-2 0q47 256 96 506t99 506h221l-21 -99h8q43 57 98.5 84t108.5 27q104 0 143.5 -53t39.5 -129q0 -33 -13 -90q-4 -16 -13 -68.5t-23.5 -124.5t-30 -156t-30.5 -162.5t-27.5 -143t-18.5 -97.5h-221q23 119 42 217t36.5 181t31 153t23.5 129q4 20 5 31.5t1 21.5 q0 35 -19.5 56.5t-60.5 21.5q-55 0 -86 -40t-41 -95l-129 -676h-219z" />
            <glyph unicode="o" horiz-adv-x="782" d="M55 279q6 104 29 219q23 113 47.5 211t58.5 159q45 78 122 119t171 41q74 0 127.5 -20.5t88 -55t51 -79t16.5 -91.5q0 -31 -4 -71.5t-10.5 -84.5t-13.5 -87t-13 -78q-25 -125 -53.5 -215t-73.5 -147.5t-109.5 -85t-158.5 -27.5q-86 0 -140.5 27.5t-84 69.5t-40 94 t-10.5 102zM272 281q0 -37 20.5 -62.5t63.5 -25.5q35 0 59.5 19t37.5 48q8 18 24.5 83t31.5 140.5t27.5 145t12.5 98.5q0 41 -18.5 69.5t-57.5 28.5q-37 0 -62.5 -16t-43.5 -59t-48 -175q-4 -23 -10 -51t-12 -59t-12 -60.5t-9 -52.5q-2 -20 -3 -37.5t-1 -33.5z" />
            <glyph unicode="p" horiz-adv-x="792" d="M-92 -395l274 1409h219l-14 -76l6 -4q39 51 85 71.5t106 20.5q41 0 76.5 -10t61.5 -34t40 -63.5t14 -99.5q0 -20 -4 -65t-12 -104.5t-19.5 -127t-26 -133t-30.5 -124t-35 -97.5q-16 -35 -37.5 -67.5t-51.5 -57.5t-72 -40t-97 -15q-43 0 -92 18.5t-72 56.5h-8l-90 -458 h-221zM268 279q4 -35 22.5 -54.5t53.5 -19.5q41 0 67.5 20.5t43.5 59.5q12 35 27.5 104.5t29.5 145.5q29 143 29 196q0 35 -19.5 57.5t-62.5 22.5q-55 0 -83 -43t-40 -104l-27 -142l-35 -172q-6 -43 -6 -71z" />
            <glyph unicode="q" horiz-adv-x="796" d="M45 197q2 78 20.5 208t53.5 263q25 100 57.5 168.5t72.5 109.5t87 59.5t98 18.5q57 0 95 -19.5t61 -68.5l6 2l16 74h222l-275 -1407h-223l96 471h-6q-41 -49 -92 -68.5t-90 -19.5q-106 0 -154 56q-45 52 -45 138v15zM276 276q0 -77 78 -77h4q41 0 72 35q33 38 47 104 l68 336q6 23 6 47t-8 43.5t-24.5 33t-47.5 13.5q-61 0 -89 -47t-48 -150q-6 -27 -16.5 -70.5t-19.5 -93t-15.5 -96.5t-6.5 -78z" />
            <glyph unicode="r" horiz-adv-x="587" d="M20 0l197 1014h223l-26 -131h4q47 82 103.5 113.5t129.5 31.5h17.5t17.5 -2l-47 -235q-14 2 -28.5 3t-28.5 1q-86 0 -144.5 -50.5t-81.5 -158.5l-112 -586h-224z" />
            <glyph unicode="s" horiz-adv-x="743" d="M29 209q0 33 6 67l217 29q-6 -25 -6 -41q0 -33 19.5 -53.5t62.5 -20.5q66 0 94.5 44.5t28.5 101.5q0 37 -20.5 57.5t-65.5 36.5q-55 20 -99.5 43t-76 50.5t-48 65.5t-16.5 91q0 76 24.5 139.5t70.5 109.5t112.5 72.5t152.5 26.5q141 0 205 -59.5t64 -157.5 q0 -18 -2 -36.5t-7 -39.5l-219 -26q6 20 6 36q0 31 -19 54.5t-62 23.5q-35 0 -56.5 -13t-33 -31.5t-15.5 -39t-4 -34.5q0 -27 20.5 -46.5t73.5 -40.5q57 -20 100.5 -41.5t73 -51t45 -68.5t15.5 -95q0 -78 -21.5 -146.5t-66.5 -118.5t-116 -79.5t-169 -29.5q-133 0 -200.5 58 t-67.5 163z" />
            <glyph unicode="t" horiz-adv-x="516" d="M80 184q0 31 6 68l115 588h-99l33 172h101l51 268h213l-51 -268h122l-32 -172h-123l-101 -514q-2 -12 -3 -22.5t-1 -20.5q0 -35 21.5 -55.5t81.5 -24.5q-10 -51 -19.5 -102.5t-19.5 -102.5q-10 0 -19.5 -1t-19.5 -1q-141 0 -198.5 51t-57.5 137z" />
            <glyph unicode="u" horiz-adv-x="800" d="M46 132q-1 18 -1 37q0 25 2 50q0 10 14.5 86t36 189.5t48 250t51.5 269.5h221q-23 -115 -47.5 -239t-44 -228.5t-32.5 -175t-13 -78.5q-1 -7 -1 -14q0 -27 14 -49q17 -26 64 -27q49 0 82 40t43 95l131 676h222l-197 -1014h-223l22 98h-8q-45 -57 -100.5 -83.5 t-106.5 -26.5q-61 0 -99 19.5t-56.5 51t-21.5 73.5z" />
            <glyph unicode="v" horiz-adv-x="755" d="M102 1012h238q-4 -102 -5 -202.5t-3 -203.5q-2 -66 -4 -136.5t-13 -174.5h11q72 160 138 345t126 372h244q-90 -260 -197 -503t-238 -509h-254z" />
            <glyph unicode="w" horiz-adv-x="1202" d="M109 1012h241q-4 -104 -7 -207t-7 -207q-2 -35 -3 -65.5t-2 -64.5t-4 -71t-8 -84h11q66 158 131 341.5t117 357.5h235l-20 -363q-4 -100 -9.5 -180t-15.5 -156h10q68 170 127.5 334t122.5 365h244q-90 -272 -193.5 -515t-232.5 -497h-246l6 238q6 96 8 188t13 190h-11 q-33 -104 -64.5 -196t-70.5 -187q-25 -57 -48 -115.5t-50 -117.5h-248q-8 256 -14 506t-12 506z" />
            <glyph unicode="x" horiz-adv-x="759" d="M-74 0l346 516q-35 125 -69.5 248t-69.5 248h242l55 -305h4l168 305h256l-336 -496l152 -516h-242l-55 322l-195 -322h-256z" />
            <glyph unicode="y" horiz-adv-x="737" d="M-115 -219q53 6 93 20.5t72 40t58.5 64.5t57.5 98l-60 1008h230v-379q0 -33 -1 -77t-3 -92t-6 -94t-9 -83h9q33 70 66.5 155.5t67.5 180t65.5 193.5t60.5 196h233q-109 -309 -224.5 -580.5t-236.5 -505.5q-41 -76 -85 -137t-99 -105t-126 -69t-161 -27z" />
            <glyph unicode="z" horiz-adv-x="671" d="M-33 0l37 201l438 614h-295l39 197h543l-35 -187l-444 -618h323l-38 -207h-568z" />
            <glyph unicode="{" horiz-adv-x="501" d="M55 561l27 135q68 8 108.5 66.5t61.5 155.5l55 286q10 49 27.5 90t49.5 70t79 45t115 16h86l-29 -151h-33q-47 0 -72.5 -30t-35.5 -83l-54 -274q-10 -53 -29.5 -96t-44 -74t-50 -52.5t-50.5 -31.5l-2 -10q41 -16 68.5 -79t7.5 -173l-57 -310q-14 -70 7 -94t56 -24h33 l-31 -154h-78q-98 0 -154.5 62.5t-31.5 195.5l53 293q20 100 2 156.5t-84 64.5z" />
            <glyph unicode="|" horiz-adv-x="481" d="M156 -330v1825h174v-1825h-174z" />
            <glyph unicode="}" horiz-adv-x="501" d="M-82 -209l29 152h30q41 0 68 30.5t41 104.5l51 264q10 53 29.5 95t44.5 74t50.5 52.5t49.5 30.5l2 10q-41 16 -69.5 80t-5.5 172l57 289q14 76 -7.5 102.5t-56.5 26.5h-32l30 153h78q98 0 154.5 -62t32.5 -196l-54 -280q-20 -102 -1.5 -158.5t83.5 -62.5l-26 -138 q-68 -8 -109 -66t-61 -153l-58 -299q-10 -49 -27.5 -90t-48 -69.5t-80 -45t-120.5 -16.5h-74z" />
            <glyph unicode="~" d="M53 518q59 90 126 140.5t151 50.5q45 0 78.5 -16.5t63.5 -35t57.5 -34t58.5 -15.5q35 0 66.5 17.5t74.5 68.5l113 -71q-59 -100 -125 -145.5t-137 -45.5q-41 0 -74 15.5t-64.5 33t-62.5 32.5t-66 15q-39 0 -70.5 -15t-84.5 -71z" />
            <glyph unicode="&#xa1;" horiz-adv-x="516" d="M6 -414l219 1037h185l-185 -1037h-219zM242 788l45 226h213l-43 -226h-215z" />
            <glyph unicode="&#xa2;" horiz-adv-x="813" d="M76 203q-2 25 1 59.5t8 74.5t11 82t13 81q8 49 18 99t22.5 97t25.5 87t30 69q37 72 99.5 119t166.5 55l41 207h106l-40 -211q111 -18 169 -96t33 -207l-227 -27q16 72 -4.5 101.5t-59.5 29.5q-35 0 -55 -17.5t-35 -43.5q-16 -29 -32.5 -100.5t-38.5 -176.5 q-14 -78 -24.5 -137t-8.5 -90q4 -33 22.5 -49t55.5 -16q86 0 110 126l217 -32q-29 -135 -107.5 -213t-217.5 -84l-43 -230h-107l45 236q-102 16 -146 75.5t-48 131.5z" />
            <glyph unicode="&#xa3;" d="M-33 0l33 186q74 90 123 180.5t74 217.5h-117l33 172h106q0 72 -9 138.5t-9 131.5q0 94 28.5 171t79.5 130t121 83t150 30q154 0 232.5 -77t78.5 -200q0 -51 -12 -108q-55 -4 -110.5 -8.5t-109.5 -8.5q6 33 7 70q0 20 -5.5 40.5t-17.5 37t-32.5 28t-49.5 11.5 q-72 0 -104.5 -52.5t-32.5 -125.5q0 -53 9 -124t9 -143q0 -6 -1 -12t-1 -12h199l-33 -172h-192q-12 -66 -28.5 -117t-35 -96t-42 -85t-50.5 -81h422q-10 -53 -19.5 -103.5t-19.5 -101.5h-674z" />
            <glyph unicode="&#xa4;" horiz-adv-x="1030" d="M76 391l121 119q-47 84 -47 170q0 90 49 174q-29 31 -59.5 60.5t-59.5 58.5q63 66 129 129l117 -119q82 49 176 49q88 0 172 -47l119 123q37 -35 64.5 -64.5t64.5 -64.5l-121 -119q49 -84 49 -174q0 -88 -51 -174l121 -119l-129 -131l-119 121q-84 -49 -174 -49 q-94 0 -176 49l-119 -121l-75 75t-52 54zM311 686q0 -37 13.5 -71.5t38 -60.5t58.5 -41t73 -15q78 0 133 55q27 27 42 61.5t15 73.5q0 78 -53 130t-131 52t-133.5 -53t-55.5 -131z" />
            <glyph unicode="&#xa5;" d="M94 358q4 31 11.5 61t11.5 60h200q6 27 11.5 52.5t9.5 52.5h-201q6 29 12.5 59.5t10.5 58.5h162l-93 723h222q6 -78 11 -152.5t9 -152.5q4 -70 8 -144.5t4 -154.5h13l112 264l148 340h231l-375 -723h170q-4 -29 -10 -59.5t-12 -58.5h-203q-8 -27 -13 -52.5t-12 -52.5h207 q-4 -31 -11 -60.5t-11 -60.5h-209l-70 -358h-213l70 358h-201z" />
            <glyph unicode="&#xa6;" horiz-adv-x="481" d="M156 -340v840h174v-840h-174zM156 635v838h174v-838h-174z" />
            <glyph unicode="&#xa7;" horiz-adv-x="866" d="M6 0q35 35 63.5 67.5t61.5 67.5q53 -59 105.5 -78.5t93.5 -19.5q74 0 125 33.5t51 111.5q0 47 -40 97.5t-128 111.5q-47 33 -85 62.5t-64.5 60.5t-40 65.5t-13.5 77.5q0 92 48 163t141 114q-33 39 -46.5 80t-13.5 88q0 72 27.5 133t77 106t118 71t152.5 26q98 0 170 -34 t135 -99l-139 -144q-53 59 -99.5 74.5t-89.5 15.5q-66 0 -103.5 -35.5t-37.5 -91.5q0 -35 27.5 -66.5t68.5 -64t90.5 -67.5t90.5 -75t68.5 -87t27.5 -102q0 -92 -45 -162t-123 -115q43 -80 43 -164q0 -78 -27.5 -144.5t-80 -114.5t-125 -75.5t-162.5 -27.5q-43 0 -89 10 t-89.5 28.5t-80 45t-63.5 57.5zM342 705q0 -31 19.5 -61t50 -55.5t67.5 -49t72 -43.5q45 16 67.5 55t22.5 74q0 47 -47.5 92t-151.5 102q-37 -12 -68.5 -45t-31.5 -69z" />
            <glyph unicode="&#xa8;" horiz-adv-x="724" d="M244 1163l41 215h192l-43 -215h-190zM580 1163l41 215h192l-41 -215h-192z" />
            <glyph unicode="&#xa9;" horiz-adv-x="1439" d="M88 698q0 156 40 287t119 227.5t195.5 150.5t268.5 54q150 0 265.5 -54t195 -150.5t120.5 -227.5t41 -287q0 -154 -41 -283.5t-120.5 -226t-195 -150.5t-265.5 -54q-154 0 -269.5 54t-194.5 150.5t-119 226.5t-40 283zM233 698q0 -121 32 -226t92.5 -184t149.5 -125 t204 -46q119 0 209 46t149 125t89 184.5t30 225.5q0 121 -31 228.5t-91 187.5t-149 126t-206 46q-121 0 -211 -46t-149.5 -126t-88.5 -187.5t-29 -228.5zM481 483v404q0 111 66 171t168 60q98 0 165.5 -61.5t67.5 -159.5l-137 -35q-2 53 -26.5 85t-69.5 32 q-47 0 -69.5 -26.5t-22.5 -61.5v-418q0 -35 25.5 -59.5t64.5 -24.5q88 0 94 117l141 -29q-4 -111 -66.5 -169t-166.5 -58q-98 0 -166 58.5t-68 174.5z" />
            <glyph unicode="&#xaa;" horiz-adv-x="565" d="M113 700q0 53 10 115t20 119q14 74 32 132t45.5 100t66.5 63.5t98 21.5q31 0 59.5 -13t44.5 -36l11 43h170l-133 -672h-170l8 37h-4q-20 -23 -50 -35t-61 -12q-63 0 -105 31t-42 106zM293 770q0 -23 7 -40t36 -17q55 0 74 90l45 207q8 33 2 61.5t-45 28.5 q-23 0 -39.5 -16.5t-26.5 -41.5q-6 -18 -15 -55t-17.5 -77t-14.5 -78.5t-6 -61.5z" />
            <glyph unicode="&#xab;" horiz-adv-x="997" d="M106 492l304 395h213l-316 -402l148 -391h-199zM481 492l305 395h211l-313 -402l145 -391h-198z" />
            <glyph unicode="&#xac;" d="M47 518l33 176h768l-96 -497h-174l63 321h-594z" />
            <glyph unicode="&#xad;" horiz-adv-x="747" d="M111 479l39 193h567l-37 -193h-569z" />
            <glyph unicode="&#xae;" horiz-adv-x="995" d="M92 981q0 100 25.5 186t78 148.5t128 97.5t178.5 35q96 0 171 -35t126 -97.5t77.5 -148.5t26.5 -186q0 -98 -26.5 -183t-77.5 -147.5t-126 -97.5t-171 -35q-102 0 -178 35t-128.5 97.5t-78 147.5t-25.5 183zM199 985q0 -80 19.5 -147.5t58 -116.5t95 -76t130.5 -27 q76 0 132 29t92 78t53.5 115.5t17.5 144.5q0 76 -19.5 143.5t-56.5 118.5t-92 80t-127 29q-78 0 -135.5 -29t-94 -80t-55 -118.5t-18.5 -143.5zM350 707v555h154q154 0 153 -170q0 -47 -13 -86t-54 -64q4 -14 16 -48t26.5 -71t27 -69.5t18.5 -46.5h-115l-71 217h-35v-217 h-107zM457 1016h39q35 0 47 20.5t12 55.5q0 37 -13.5 57t-52.5 20h-32v-153z" />
            <glyph unicode="&#xaf;" horiz-adv-x="761" d="M301 1182l35 182h504l-37 -182h-502z" />
            <glyph unicode="&#xb0;" horiz-adv-x="649" d="M92 1198q0 49 18.5 93t51.5 76t76 51.5t92 19.5t92 -19.5t75.5 -51.5t51 -76t18.5 -93t-18.5 -92t-51 -76t-75.5 -51t-92 -18t-92 18t-76 51t-51.5 76t-18.5 92zM225 1198q0 -45 30 -75.5t75 -30.5t74.5 30.5t29.5 75.5q0 47 -29.5 77t-74.5 30t-75 -30t-30 -77z" />
            <glyph unicode="&#xb1;" d="M-53 0l33 168h770l-33 -168h-770zM53 553l33 172h299l61 313h172l-61 -313h299l-33 -172h-299l-59 -313h-172l59 313h-299z" />
            <glyph unicode="&#xb2;" horiz-adv-x="530" d="M92 758l25 127l311 399q25 33 39 70t18 59q2 23 -8 40t-41 17t-51 -26.5t-31 -93.5l-155 22q23 119 88 181.5t170 62.5q96 0 146 -47t46 -135q-4 -53 -28.5 -106.5t-67.5 -113.5l-240 -307h226l-29 -149h-418z" />
            <glyph unicode="&#xb3;" horiz-adv-x="530" d="M115 922v26.5t4 26.5l164 16q-6 -29 -7 -45q0 -23 11.5 -36t42.5 -13q23 0 36 18.5t17 36.5l20 111q12 68 -61 67h-49l24 130h58q29 0 53.5 19t34.5 67l12 65q4 18 -3 38.5t-44 20.5q-29 0 -52.5 -25.5t-27.5 -80.5q-39 4 -77 10t-78 12q20 109 82.5 168.5t173.5 59.5 q98 0 141 -46t43 -118q0 -14 -3 -49t-9 -58q-12 -45 -35 -82.5t-66 -60.5q29 -14 40 -34.5t11 -51.5q0 -41 -9 -96t-19 -94q-23 -88 -83.5 -131t-148.5 -43q-94 0 -145 46t-51 126z" />
            <glyph unicode="&#xb4;" horiz-adv-x="759" d="M416 1176l243 362l168 -82l-303 -344z" />
            <glyph unicode="&#xb6;" horiz-adv-x="882" d="M125 907q0 82 24.5 175.5t74.5 171t129 129t188 51.5h479l-39 -195h-92l-268 -1382h-175l269 1382h-103l-268 -1382h-178l153 790h-12q-96 10 -139 84t-43 176z" />
            <glyph unicode="&#xb7;" horiz-adv-x="432" d="M111 434l47 248h229l-49 -248h-227z" />
            <glyph unicode="&#xb8;" horiz-adv-x="882" d="M27 -385l51 96q37 -18 64.5 -22t52.5 -4q39 0 61.5 22.5t22.5 52.5q0 51 -72 52h-8l-43 38l100 201h100l-71 -143q84 -10 111.5 -52t27.5 -85q0 -25 -9 -57.5t-34 -63.5t-67 -52.5t-107 -21.5q-8 0 -27.5 1t-45 5t-53.5 11.5t-54 21.5z" />
            <glyph unicode="&#xb9;" horiz-adv-x="436" d="M199 1341l30 168l160 101h150l-166 -852h-164l133 676q-10 -6 -29.5 -18.5t-42 -28t-43 -27.5t-28.5 -19z" />
            <glyph unicode="&#xba;" horiz-adv-x="540" d="M111 748q0 39 4 77.5t12 79.5q12 59 25.5 117.5t33.5 97.5q35 66 86.5 99.5t133.5 33.5q104 0 154 -51t50 -117q0 -41 -7 -101t-17 -107q-16 -80 -37 -139.5t-51.5 -98.5t-75.5 -57.5t-111 -18.5q-59 0 -97 16.5t-61.5 42t-32.5 58.5t-9 68zM274 760q0 -23 11.5 -36 t33.5 -13q25 0 40.5 12t25.5 34.5t16.5 53.5t14.5 68q10 49 19 103t9 83q0 20 -13.5 31.5t-31.5 11.5t-34.5 -9t-26.5 -32q-8 -16 -16.5 -48t-18.5 -79q-4 -18 -9 -42t-9 -49.5t-7.5 -49t-3.5 -39.5z" />
            <glyph unicode="&#xbb;" horiz-adv-x="997" d="M25 96l319 402l-154 389h199l154 -395l-305 -396h-213zM401 96l316 402l-152 389h199l154 -395l-306 -396h-211z" />
            <glyph unicode="&#xbc;" horiz-adv-x="1269" d="M182 -35l934 1497h135l-934 -1497h-135zM260 1157l31 168l160 100h149l-166 -852h-164l133 676q-10 -6 -29.5 -18t-42 -27.5t-43 -28t-28.5 -18.5zM705 121l24 127l305 604h156l-297 -592h108l41 201h154l-41 -201h59l-26 -139h-60l-24 -121h-152l25 121h-272z" />
            <glyph unicode="&#xbd;" horiz-adv-x="1269" d="M141 -35l934 1497h135l-934 -1497h-135zM236 1157l30 168l160 100h149l-165 -852h-164l133 676q-10 -6 -29.5 -18t-42 -27.5t-43 -28t-28.5 -18.5zM733 0l25 127l311 399q25 33 39 70t18 59q2 23 -8 40.5t-41 17.5t-51 -27t-31 -94l-155 22q23 119 88 181.5t170 62.5 q96 0 146 -47t46 -135q-4 -53 -28.5 -106.5t-67.5 -112.5l-240 -307h226l-29 -150h-418z" />
            <glyph unicode="&#xbe;" horiz-adv-x="1269" d="M139 737v26.5t4 27.5l164 16q-6 -29 -6 -45q0 -23 11.5 -36t41.5 -13q23 0 36 18.5t18 36.5l20 111q12 68 -61 67h-50l25 129h57q29 0 53.5 19.5t34.5 66.5l13 66q4 18 -3.5 38.5t-43.5 20.5q-29 0 -52.5 -25.5t-27.5 -80.5q-39 4 -77 10t-79 12q20 109 82.5 168.5 t173.5 59.5q98 0 141 -46.5t43 -117.5q0 -14 -3 -49t-9 -58q-12 -45 -34.5 -83t-65.5 -60q29 -14 40 -34.5t11 -51.5q0 -41 -9 -96.5t-20 -94.5q-23 -88 -83 -131t-148 -43q-94 0 -145.5 46t-51.5 126zM225 -35l934 1497h135l-934 -1497h-135zM735 121l25 127l305 604h156 l-297 -592h108l41 201h154l-41 -201h59l-26 -139h-60l-24 -121h-152l25 121h-273z" />
            <glyph unicode="&#xbf;" horiz-adv-x="784" d="M25 -121q0 125 38.5 206t92.5 146q63 82 101 134.5t59.5 93.5t32.5 81t24 97h217q-20 -88 -41 -170t-78 -156q-59 -76 -100 -128t-66.5 -94t-38 -82t-12.5 -89q0 -47 24.5 -85t81.5 -38q25 0 49.5 7.5t45 25.5t36 51t19.5 86l211 -26q-27 -190 -121 -275.5t-258 -85.5 q-143 0 -230 77t-87 224zM403 791l43 223h211l-43 -223h-211z" />
            <glyph unicode="&#xc0;" horiz-adv-x="864" d="M-59 0l563 1425h246l14 -1425h-223l2 297h-262l-111 -297h-229zM283 1669l112 158l310 -244l-70 -108zM354 506h195l6 280l16 310h-10l-104 -312z" />
            <glyph unicode="&#xc1;" horiz-adv-x="864" d="M-59 0l563 1425h246l14 -1425h-223l2 297h-262l-111 -297h-229zM354 506h195l6 280l16 310h-10l-104 -312zM553 1577l367 248l98 -154l-406 -201z" />
            <glyph unicode="&#xc2;" horiz-adv-x="864" d="M-59 0l563 1425h246l14 -1425h-223l2 297h-262l-111 -297h-229zM295 1563l321 270h129l207 -266l-92 -82l-205 166l-280 -166zM354 506h195l6 280l16 310h-10l-104 -312z" />
            <glyph unicode="&#xc3;" horiz-adv-x="864" d="M-59 0l563 1425h246l14 -1425h-223l2 297h-262l-111 -297h-229zM307 1583q51 86 111.5 128t118.5 42q31 0 59.5 -11t54 -24.5t49 -25t45.5 -11.5q29 0 54.5 12.5t66.5 59.5l107 -65q-53 -100 -112.5 -136t-112.5 -36q-35 0 -63 11t-52.5 24.5t-48 24.5t-47.5 11 q-25 0 -54.5 -16.5t-68.5 -57.5zM354 506h195l6 280l16 310h-10l-104 -312z" />
            <glyph unicode="&#xc4;" horiz-adv-x="864" d="M-59 0l563 1425h246l14 -1425h-223l2 297h-262l-111 -297h-229zM354 506h195l6 280l16 310h-10l-104 -312zM375 1509l41 217h192l-41 -217h-192zM713 1509l41 217h190l-41 -217h-190z" />
            <glyph unicode="&#xc5;" horiz-adv-x="864" d="M-59 0l563 1425h246l14 -1425h-223l2 297h-262l-111 -297h-229zM354 506h195l6 280l16 310h-10l-104 -312zM459 1589q0 47 18.5 89t49 75t72.5 51.5t91 18.5q74 0 122 -45t48 -113q0 -47 -17.5 -90t-48 -75t-72.5 -51t-91 -19q-74 0 -123 46t-49 113zM578 1610 q0 -29 20 -47.5t49 -18.5q37 0 65.5 26.5t28.5 67.5q0 29 -19 47.5t-48 18.5q-37 0 -66.5 -28.5t-29.5 -65.5z" />
            <glyph unicode="&#xc6;" horiz-adv-x="1296" d="M-31 0l635 1425h799l-29 -208h-411l-56 -388h359l-29 -211h-358l-56 -401h412l-29 -217h-635l47 340h-270l-149 -340h-230zM438 551h209l94 663h-8z" />
            <glyph unicode="&#xc7;" horiz-adv-x="841" d="M70 246q0 25 2 52.5t8 55.5l135 695q14 80 41 150.5t72 123.5t113.5 84t168.5 31q150 0 223.5 -67.5t81.5 -174.5q0 -27 -1 -52.5t-7 -53.5l-221 -37q6 33 6 57q0 55 -26.5 87t-75.5 32q-39 0 -65.5 -16.5t-44 -42t-28 -55.5t-16.5 -56l-141 -729q-4 -23 -5 -45.5t6 -41 t25.5 -29.5t53.5 -11q57 0 107 38t65 134q53 -10 106.5 -20.5t106.5 -20.5q-25 -156 -111 -249t-258 -97q-10 -20 -19.5 -40t-19.5 -40q84 -10 112 -52t28 -85q0 -25 -9.5 -57.5t-34 -63.5t-66.5 -52.5t-108 -21.5q-8 0 -27.5 1t-45 5t-53 11.5t-54.5 21.5l51 96 q37 -18 65 -22t52 -4q39 0 61.5 22.5t22.5 52.5q0 51 -72 52h-8l-43 38q16 37 34.5 73t37.5 71q-111 18 -167 82.5t-58 169.5z" />
            <glyph unicode="&#xc8;" horiz-adv-x="778" d="M25 0l276 1425h633l-41 -208h-412l-75 -388h358l-41 -211h-358l-80 -411h411l-39 -207h-632zM330 1669l112 158l310 -244l-70 -108z" />
            <glyph unicode="&#xc9;" horiz-adv-x="778" d="M25 0l276 1425h633l-41 -208h-412l-75 -388h358l-41 -211h-358l-80 -411h411l-39 -207h-632zM489 1577l367 248l98 -154l-405 -201z" />
            <glyph unicode="&#xca;" horiz-adv-x="778" d="M25 0l276 1425h633l-41 -208h-412l-75 -388h358l-41 -211h-358l-80 -411h411l-39 -207h-632zM287 1563l321 270h129l207 -266l-92 -82l-205 166l-280 -166z" />
            <glyph unicode="&#xcb;" horiz-adv-x="778" d="M25 0l276 1425h633l-41 -208h-412l-75 -388h358l-41 -211h-358l-80 -411h411l-39 -207h-632zM356 1509l41 217h193l-41 -217h-193zM694 1509l41 217h191l-41 -217h-191z" />
            <glyph unicode="&#xcc;" horiz-adv-x="444" d="M29 0l276 1425h223l-276 -1425h-223zM84 1669l113 158l309 -244l-70 -108z" />
            <glyph unicode="&#xcd;" horiz-adv-x="444" d="M29 0l276 1425h223l-276 -1425h-223zM385 1577l367 248l98 -154l-406 -201z" />
            <glyph unicode="&#xce;" horiz-adv-x="444" d="M29 0l276 1425h223l-276 -1425h-223zM98 1563l322 270h129l207 -266l-92 -82l-205 166l-281 -166z" />
            <glyph unicode="&#xcf;" horiz-adv-x="444" d="M29 0l276 1425h223l-276 -1425h-223zM166 1509l41 217h192l-41 -217h-192zM504 1509l41 217h190l-41 -217h-190z" />
            <glyph unicode="&#xd0;" horiz-adv-x="890" d="M25 0l125 645h-93l29 150h92l123 630h315q127 0 208 -49t91 -153q4 -72 -13 -203t-50 -305q-33 -176 -58.5 -305t-66.5 -213q-59 -115 -143 -156t-195 -41h-364zM285 209h96q84 0 123 43t55 125q25 121 48.5 243.5t42 223t30.5 164t12 67.5q10 66 -14.5 101.5t-99.5 35.5 h-97l-82 -417h115l-29 -150h-116z" />
            <glyph unicode="&#xd1;" horiz-adv-x="954" d="M18 0l277 1425h199l116 -585q2 -16 9.5 -58.5t15.5 -90.5l15 -90t9 -60l9 2l163 882h218l-277 -1425h-194l-119 592l-49 264h-9l-163 -856h-220zM354 1573q51 86 111.5 128t118.5 42q31 0 59.5 -11.5t54 -24.5t49 -24.5t46.5 -11.5q29 0 54 12.5t66 59.5l107 -66 q-53 -100 -112.5 -136t-112.5 -36q-35 0 -62.5 11.5t-52.5 24.5t-48.5 24.5t-47.5 11.5q-25 0 -54.5 -16.5t-68.5 -57.5z" />
            <glyph unicode="&#xd2;" horiz-adv-x="851" d="M49 279q0 27 3 54t7 56l138 711q33 168 120.5 253t247.5 85q156 0 238 -81t82 -216q0 -49 -13 -107l-133 -704q-29 -160 -114.5 -251t-249.5 -91q-170 0 -248 81t-78 210zM268 311q0 -47 27 -77.5t84 -30.5t91 34.5t46 96.5l137 706q6 33 6 66q0 51 -24.5 82t-81.5 35 q-59 0 -91 -35t-44 -92l-142 -717q-4 -16 -6 -33.5t-2 -34.5zM326 1669l112 158l310 -244l-70 -108z" />
            <glyph unicode="&#xd3;" horiz-adv-x="851" d="M49 279q0 27 3 54t7 56l138 711q33 168 120.5 253t247.5 85q156 0 238 -81t82 -216q0 -49 -13 -107l-133 -704q-29 -160 -114.5 -251t-249.5 -91q-170 0 -248 81t-78 210zM268 311q0 -47 27 -77.5t84 -30.5t91 34.5t46 96.5l137 706q6 33 6 66q0 51 -24.5 82t-81.5 35 q-59 0 -91 -35t-44 -92l-142 -717q-4 -16 -6 -33.5t-2 -34.5zM516 1577l367 248l98 -154l-406 -201z" />
            <glyph unicode="&#xd4;" horiz-adv-x="851" d="M49 279q0 27 3 54t7 56l138 711q33 168 120.5 253t247.5 85q156 0 238 -81t82 -216q0 -49 -13 -107l-133 -704q-29 -160 -114.5 -251t-249.5 -91q-170 0 -248 81t-78 210zM268 311q0 -47 27 -77.5t84 -30.5t91 34.5t46 96.5l137 706q6 33 6 66q0 51 -24.5 82t-81.5 35 q-59 0 -91 -35t-44 -92l-142 -717q-4 -16 -6 -33.5t-2 -34.5zM279 1563l321 270h129l207 -266l-92 -82l-205 166l-281 -166z" />
            <glyph unicode="&#xd5;" horiz-adv-x="851" d="M49 279q0 27 3 54t7 56l138 711q33 168 120.5 253t247.5 85q156 0 238 -81t82 -216q0 -49 -13 -107l-133 -704q-29 -160 -114.5 -251t-249.5 -91q-170 0 -248 81t-78 210zM268 311q0 -47 27 -77.5t84 -30.5t91 34.5t46 96.5l137 706q6 33 6 66q0 51 -24.5 82t-81.5 35 q-59 0 -91 -35t-44 -92l-142 -717q-4 -16 -6 -33.5t-2 -34.5zM293 1583q51 86 111.5 128t117.5 42q31 0 59.5 -11t54.5 -24.5t49.5 -25t45.5 -11.5q29 0 54.5 12.5t66.5 59.5l106 -65q-53 -100 -112.5 -136t-112.5 -36q-35 0 -62.5 11t-52 24.5t-48 24.5t-48.5 11 t-54.5 -16.5t-68.5 -57.5z" />
            <glyph unicode="&#xd6;" horiz-adv-x="851" d="M49 279q0 27 3 54t7 56l138 711q33 168 120.5 253t247.5 85q156 0 238 -81t82 -216q0 -49 -13 -107l-133 -704q-29 -160 -114.5 -251t-249.5 -91q-170 0 -248 81t-78 210zM268 311q0 -47 27 -77.5t84 -30.5t91 34.5t46 96.5l137 706q6 33 6 66q0 51 -24.5 82t-81.5 35 q-59 0 -91 -35t-44 -92l-142 -717q-4 -16 -6 -33.5t-2 -34.5zM354 1509l41 217h193l-41 -217h-193zM692 1509l41 217h191l-41 -217h-191z" />
            <glyph unicode="&#xd7;" d="M8 344l322 264l-207 262l137 113l207 -262l321 264l103 -135l-320 -262l205 -264l-137 -113l-209 262l-319 -264z" />
            <glyph unicode="&#xd8;" horiz-adv-x="880" d="M27 25l75 118q-25 57 -24 136q0 27 3 54t7 56l137 711q33 168 121 253t248 85q94 0 161.5 -31t106.5 -88l78 121l72 -43l-109 -168q10 -45 10 -88q0 -49 -12 -107l-133 -704q-29 -160 -115 -251t-250 -91q-90 0 -151.5 22.5t-101.5 63.5l-58 -88zM297 301q4 -45 31 -71.5 t80 -26.5q57 0 90.5 34.5t46.5 96.5l96 493zM326 489l356 549v2q6 33 6 66q0 51 -24.5 82t-81.5 35q-59 0 -91 -35t-45 -92z" />
            <glyph unicode="&#xd9;" horiz-adv-x="886" d="M82 340l209 1085h221q-4 -23 -19.5 -102.5t-37 -189t-46 -233.5t-46 -234.5t-38 -193.5t-20.5 -112q-12 -66 8.5 -111.5t92.5 -45.5q51 0 88.5 28.5t52.5 102.5l213 1091h223l-213 -1095q-35 -184 -131 -263t-254 -79q-172 0 -253 95t-50 257zM348 1669l113 158l309 -244 l-70 -108z" />
            <glyph unicode="&#xda;" horiz-adv-x="886" d="M82 340l209 1085h221q-4 -23 -19.5 -102.5t-37 -189t-46 -233.5t-46 -234.5t-38 -193.5t-20.5 -112q-12 -66 8.5 -111.5t92.5 -45.5q51 0 88.5 28.5t52.5 102.5l213 1091h223l-213 -1095q-35 -184 -131 -263t-254 -79q-172 0 -253 95t-50 257zM561 1577l367 248l98 -154 l-405 -201z" />
            <glyph unicode="&#xdb;" horiz-adv-x="886" d="M82 340l209 1085h221q-4 -23 -19.5 -102.5t-37 -189t-46 -233.5t-46 -234.5t-38 -193.5t-20.5 -112q-12 -66 8.5 -111.5t92.5 -45.5q51 0 88.5 28.5t52.5 102.5l213 1091h223l-213 -1095q-35 -184 -131 -263t-254 -79q-172 0 -253 95t-50 257zM326 1563l321 270h129 l207 -266l-92 -82l-205 166l-280 -166z" />
            <glyph unicode="&#xdc;" horiz-adv-x="886" d="M82 340l209 1085h221q-4 -23 -19.5 -102.5t-37 -189t-46 -233.5t-46 -234.5t-38 -193.5t-20.5 -112q-12 -66 8.5 -111.5t92.5 -45.5q51 0 88.5 28.5t52.5 102.5l213 1091h223l-213 -1095q-35 -184 -131 -263t-254 -79q-172 0 -253 95t-50 257zM389 1509l41 217h193 l-41 -217h-193zM727 1509l41 217h190l-40 -217h-191z" />
            <glyph unicode="&#xdd;" horiz-adv-x="808" d="M211 0l115 582q-29 211 -57.5 421.5t-57.5 421.5h227q10 -111 18.5 -191.5t12.5 -146.5q6 -66 7 -126t3 -113h13q63 145 127.5 288.5t128.5 288.5h239l-442 -843l-113 -582h-221zM481 1577l367 248l98 -154l-405 -201z" />
            <glyph unicode="&#xde;" horiz-adv-x="843" d="M25 0l274 1425h219l-51 -262h94q315 0 316 -282q0 -119 -25 -226.5t-81 -189.5t-148.5 -131t-229.5 -49h-92l-55 -285h-221zM340 496h78q59 0 103 24.5t74 67.5t45 100t15 125q0 66 -32.5 103.5t-110.5 37.5h-82z" />
            <glyph unicode="&#xdf;" horiz-adv-x="823" d="M6 0l217 1118q10 76 37 143.5t72 118t110.5 79t151.5 28.5q129 0 201.5 -64.5t72.5 -177.5v-17t-2 -25.5t-6 -44.5t-12 -71q-10 -66 -45 -119.5t-98 -82.5q0 -4 -1.5 -5t-1.5 -3q57 -31 77 -89.5t5 -119.5q-12 -66 -25.5 -150t-39.5 -213q-12 -68 -34.5 -126t-59.5 -101 t-91.5 -67.5t-130.5 -24.5q-16 0 -36.5 2t-38.5 6l30 180q96 0 121 80q6 23 11.5 46.5t9.5 45.5l61 316q4 23 5 28.5t1 9.5q0 33 -21.5 56.5t-70.5 23.5l35 181q53 0 78.5 29.5t36.5 90.5l15 92.5t3 24.5q0 35 -18.5 57.5t-59.5 22.5q-43 0 -71.5 -25.5t-38.5 -70.5 l-228 -1182h-221z" />
            <glyph unicode="&#xe0;" horiz-adv-x="819" d="M43 182q2 78 15.5 174.5t29.5 186.5q23 113 49.5 203t64.5 151t94 94t136 33q47 0 92 -23.5t64 -66.5q4 0 6 2q4 18 8 37.5t8 38.5h221l-196 -1012h-219l14 78q-2 0 -3 1t-3 1q-78 -92 -184 -92q-84 0 -140.5 43t-56.5 151zM274 295q0 -41 17.5 -70.5t64.5 -29.5 q43 0 73 31.5t46 103.5q16 82 32.5 163.5t31.5 163.5q6 31 6 58.5t-8.5 49t-26.5 34t-51 12.5q-47 0 -74 -39q-29 -47 -45 -111.5t-37 -162.5q-12 -61 -19.5 -112.5t-9.5 -90.5zM295 1468l166 97l178 -396l-104 -61z" />
            <glyph unicode="&#xe1;" horiz-adv-x="819" d="M43 182q2 78 15.5 174.5t29.5 186.5q23 113 49.5 203t64.5 151t94 94t136 33q47 0 92 -23.5t64 -66.5q4 0 6 2q4 18 8 37.5t8 38.5h221l-196 -1012h-219l14 78q-2 0 -3 1t-3 1q-78 -92 -184 -92q-84 0 -140.5 43t-56.5 151zM274 295q0 -41 17.5 -70.5t64.5 -29.5 q43 0 73 31.5t46 103.5q16 82 32.5 163.5t31.5 163.5q6 31 6 58.5t-8.5 49t-26.5 34t-51 12.5q-47 0 -74 -39q-29 -47 -45 -111.5t-37 -162.5q-12 -61 -19.5 -112.5t-9.5 -90.5zM465 1176l244 362l168 -82l-304 -344z" />
            <glyph unicode="&#xe2;" horiz-adv-x="819" d="M43 182q2 78 15.5 174.5t29.5 186.5q23 113 49.5 203t64.5 151t94 94t136 33q47 0 92 -23.5t64 -66.5q4 0 6 2q4 18 8 37.5t8 38.5h221l-196 -1012h-219l14 78q-2 0 -3 1t-3 1q-78 -92 -184 -92q-84 0 -140.5 43t-56.5 151zM229 1169l330 306h129l203 -314l-96 -65 l-199 202l-291 -206zM274 295q0 -41 17.5 -70.5t64.5 -29.5q43 0 73 31.5t46 103.5q16 82 32.5 163.5t31.5 163.5q6 31 6 58.5t-8.5 49t-26.5 34t-51 12.5q-47 0 -74 -39q-29 -47 -45 -111.5t-37 -162.5q-12 -61 -19.5 -112.5t-9.5 -90.5z" />
            <glyph unicode="&#xe3;" horiz-adv-x="819" d="M43 182q2 78 15.5 174.5t29.5 186.5q23 113 49.5 203t64.5 151t94 94t136 33q47 0 92 -23.5t64 -66.5q4 0 6 2q4 18 8 37.5t8 38.5h221l-196 -1012h-219l14 78q-2 0 -3 1t-3 1q-78 -92 -184 -92q-84 0 -140.5 43t-56.5 151zM250 1225q51 86 111.5 128t117.5 42 q31 0 59.5 -11.5t54 -24.5t49.5 -24.5t46 -11.5q29 0 54.5 12.5t66.5 59.5l106 -66q-53 -100 -112.5 -136t-112.5 -36q-35 0 -62.5 11.5t-52 24.5t-48 24.5t-48.5 11.5t-54.5 -16.5t-68.5 -57.5zM274 295q0 -41 17.5 -70.5t64.5 -29.5q43 0 73 31.5t46 103.5 q16 82 32.5 163.5t31.5 163.5q6 31 6 58.5t-8.5 49t-26.5 34t-51 12.5q-47 0 -74 -39q-29 -47 -45 -111.5t-37 -162.5q-12 -61 -19.5 -112.5t-9.5 -90.5z" />
            <glyph unicode="&#xe4;" horiz-adv-x="819" d="M43 182q2 78 15.5 174.5t29.5 186.5q23 113 49.5 203t64.5 151t94 94t136 33q47 0 92 -23.5t64 -66.5q4 0 6 2q4 18 8 37.5t8 38.5h221l-196 -1012h-219l14 78q-2 0 -3 1t-3 1q-78 -92 -184 -92q-84 0 -140.5 43t-56.5 151zM274 295q0 -41 17.5 -70.5t64.5 -29.5 q43 0 73 31.5t46 103.5q16 82 32.5 163.5t31.5 163.5q6 31 6 58.5t-8.5 49t-26.5 34t-51 12.5q-47 0 -74 -39q-29 -47 -45 -111.5t-37 -162.5q-12 -61 -19.5 -112.5t-9.5 -90.5zM297 1163l41 215h192l-43 -215h-190zM633 1163l41 215h192l-41 -215h-192z" />
            <glyph unicode="&#xe5;" horiz-adv-x="819" d="M43 182q2 78 15.5 174.5t29.5 186.5q23 113 49.5 203t64.5 151t94 94t136 33q47 0 92 -23.5t64 -66.5q4 0 6 2q4 18 8 37.5t8 38.5h221l-196 -1012h-219l14 78q-2 0 -3 1t-3 1q-78 -92 -184 -92q-84 0 -140.5 43t-56.5 151zM274 295q0 -41 17.5 -70.5t64.5 -29.5 q43 0 73 31.5t46 103.5q16 82 32.5 163.5t31.5 163.5q6 31 6 58.5t-8.5 49t-26.5 34t-51 12.5q-47 0 -74 -39q-29 -47 -45 -111.5t-37 -162.5q-12 -61 -19.5 -112.5t-9.5 -90.5zM383 1245q0 47 18.5 89t49 75t72.5 51.5t91 18.5q74 0 122 -45t48 -113q0 -47 -17 -90t-48 -75 t-73 -51.5t-91 -19.5q-74 0 -123 46.5t-49 113.5zM502 1266q0 -29 20.5 -47.5t48.5 -18.5q37 0 66 26.5t29 67.5q0 29 -19.5 47.5t-48.5 18.5q-37 0 -66.5 -28.5t-29.5 -65.5z" />
            <glyph unicode="&#xe6;" horiz-adv-x="1210" d="M20 195q0 55 13.5 127.5t55.5 137t122 108.5t215 44q20 0 43 -2t47 -6l23 119q2 10 2 29q0 31 -19.5 49t-62.5 18q-31 0 -68 -17.5t-53 -74.5l-188 59q43 117 135 178.5t225 61.5q59 0 111.5 -17.5t80.5 -54.5q86 74 228 74q133 0 207.5 -64.5t74.5 -175.5 q0 -98 -33.5 -169.5t-91 -117.5t-131 -67.5t-155.5 -21.5q-41 0 -84 6q-8 -31 -13.5 -63.5t-5.5 -61.5q0 -41 15.5 -69.5t62.5 -28.5q92 0 117 110l221 -26q-35 -139 -121 -215t-245 -76q-94 0 -151.5 32.5t-86.5 94.5q-37 -47 -78 -73t-79 -38t-70.5 -14t-53.5 -2 q-59 0 -99 16t-64.5 44t-35 66t-10.5 81zM248 279q0 -82 88 -82q47 0 81 34.5t44 90.5l20 120q-14 2 -30.5 4.5t-32.5 2.5q-90 0 -130 -45.5t-40 -124.5zM750 596q14 -2 26 -3t27 -1q74 0 126 36t52 122q0 33 -18.5 52t-57.5 19q-63 0 -98 -52t-57 -173z" />
            <glyph unicode="&#xe7;" horiz-adv-x="737" d="M47 203q-2 25 1 59.5t8 74.5t11.5 82t12.5 81q8 49 18.5 99t22.5 97t25.5 87t29.5 69q41 78 112.5 127t194.5 49q70 0 125.5 -20.5t92 -60.5t51 -97t0.5 -131l-228 -27q16 72 -4 101.5t-59 29.5q-35 0 -55.5 -17.5t-34.5 -43.5q-16 -29 -32.5 -100.5t-39.5 -176.5 q-14 -78 -24.5 -137t-8.5 -90q4 -33 22.5 -49t55.5 -16q86 0 111 126l217 -32q-29 -137 -108 -214t-220 -83l-39 -82q84 -10 111.5 -52t27.5 -85q0 -25 -9 -57.5t-33.5 -63.5t-66.5 -52.5t-108 -21.5q-8 0 -27.5 1t-45 5t-53 11.5t-54.5 21.5l51 96q37 -18 64.5 -22t52.5 -4 q39 0 61.5 22.5t22.5 52.5q0 51 -72 52h-8l-43 38q16 37 34.5 73t37.5 71q-53 8 -91 28.5t-61.5 48t-35 61.5t-13.5 71z" />
            <glyph unicode="&#xe8;" horiz-adv-x="784" d="M49 281q0 55 7 112.5t18 110.5q18 96 42.5 190t67.5 168t113 120t176 46q133 0 209 -63.5t76 -173.5q0 -100 -33 -172t-88 -118t-128 -67.5t-153 -21.5q-37 0 -75 6q-6 -31 -11.5 -68t-5.5 -63q0 -41 16.5 -67.5t59.5 -26.5q90 0 113 112l225 -29q-16 -63 -42 -116.5 t-68 -91t-101 -59t-141 -21.5q-84 0 -137.5 23.5t-84 64.5t-43 93t-12.5 112zM283 1468l166 97l178 -396l-105 -61zM313 596q16 -2 29.5 -3t30.5 -1q70 4 119 40t49 120q0 33 -20.5 54t-57.5 21q-59 0 -93 -55t-57 -176z" />
            <glyph unicode="&#xe9;" horiz-adv-x="784" d="M49 281q0 55 7 112.5t18 110.5q18 96 42.5 190t67.5 168t113 120t176 46q133 0 209 -63.5t76 -173.5q0 -100 -33 -172t-88 -118t-128 -67.5t-153 -21.5q-37 0 -75 6q-6 -31 -11.5 -68t-5.5 -63q0 -41 16.5 -67.5t59.5 -26.5q90 0 113 112l225 -29q-16 -63 -42 -116.5 t-68 -91t-101 -59t-141 -21.5q-84 0 -137.5 23.5t-84 64.5t-43 93t-12.5 112zM313 596q16 -2 29.5 -3t30.5 -1q70 4 119 40t49 120q0 33 -20.5 54t-57.5 21q-59 0 -93 -55t-57 -176zM424 1176l244 362l168 -82l-304 -344z" />
            <glyph unicode="&#xea;" horiz-adv-x="784" d="M49 281q0 55 7 112.5t18 110.5q18 96 42.5 190t67.5 168t113 120t176 46q133 0 209 -63.5t76 -173.5q0 -100 -33 -172t-88 -118t-128 -67.5t-153 -21.5q-37 0 -75 6q-6 -31 -11.5 -68t-5.5 -63q0 -41 16.5 -67.5t59.5 -26.5q90 0 113 112l225 -29q-16 -63 -42 -116.5 t-68 -91t-101 -59t-141 -21.5q-84 0 -137.5 23.5t-84 64.5t-43 93t-12.5 112zM190 1169l330 306h129l203 -314l-96 -65l-199 202l-291 -206zM313 596q16 -2 29.5 -3t30.5 -1q70 4 119 40t49 120q0 33 -20.5 54t-57.5 21q-59 0 -93 -55t-57 -176z" />
            <glyph unicode="&#xeb;" horiz-adv-x="784" d="M49 281q0 55 7 112.5t18 110.5q18 96 42.5 190t67.5 168t113 120t176 46q133 0 209 -63.5t76 -173.5q0 -100 -33 -172t-88 -118t-128 -67.5t-153 -21.5q-37 0 -75 6q-6 -31 -11.5 -68t-5.5 -63q0 -41 16.5 -67.5t59.5 -26.5q90 0 113 112l225 -29q-16 -63 -42 -116.5 t-68 -91t-101 -59t-141 -21.5q-84 0 -137.5 23.5t-84 64.5t-43 93t-12.5 112zM268 1163l41 215h193l-43 -215h-191zM313 596q16 -2 29.5 -3t30.5 -1q70 4 119 40t49 120q0 33 -20.5 54t-57.5 21q-59 0 -93 -55t-57 -176zM604 1163l41 215h193l-41 -215h-193z" />
            <glyph unicode="&#xec;" horiz-adv-x="497" d="M100 0l197 1012h221l-196 -1012h-222zM145 1468l166 97l178 -396l-104 -61z" />
            <glyph unicode="&#xed;" horiz-adv-x="438" d="M10 0l197 1012h221l-197 -1012h-221zM283 1176l243 362l168 -82l-303 -344z" />
            <glyph unicode="&#xee;" horiz-adv-x="581" d="M92 0l197 1012h221l-197 -1012h-221zM98 1169l330 306h129l203 -314l-96 -65l-199 202l-291 -206z" />
            <glyph unicode="&#xef;" horiz-adv-x="499" d="M55 0l197 1012h221l-197 -1012h-221zM127 1163l41 215h192l-43 -215h-190zM463 1163l41 215h192l-41 -215h-192z" />
            <glyph unicode="&#xf0;" horiz-adv-x="806" d="M63 268q2 49 11.5 111.5t19.5 122.5q20 106 47 191t49 126q83 160 261 160q14 0 36.5 -4t47 -13.5t47 -25.5t36.5 -41h3q10 51 15 98t5 88q0 16 -1 30.5t-3 29.5l-133 -88q-12 20 -23.5 39.5t-23.5 37.5l153 101q-33 47 -85 69.5t-119 30.5l47 162q76 -4 133 -21.5 t96 -40t61.5 -47t32.5 -45.5l144 93q12 -18 23 -38t24 -40l-152 -99q12 -49 12 -125q0 -88 -18 -244.5t-70 -416.5q-23 -111 -51.5 -200t-73.5 -151.5t-109.5 -96t-156.5 -33.5q-125 0 -199.5 63.5t-82.5 155.5q-2 16 -2.5 30.5t-0.5 30.5zM281 295q0 -41 16 -71.5t65 -30.5 q43 0 66 24.5t35 54.5q10 27 24.5 83.5t28.5 119t23.5 121.5t9.5 94t-21.5 59.5t-56.5 24.5q-33 0 -58.5 -14.5t-43.5 -50.5q-10 -23 -26.5 -82.5t-33.5 -137.5q-10 -47 -18 -99t-10 -95z" />
            <glyph unicode="&#xf1;" horiz-adv-x="798" d="M-2 0q47 256 96 506t99 506h221l-21 -99h8q43 57 98.5 84t108.5 27q104 0 143.5 -53t39.5 -129q0 -33 -13 -90q-4 -16 -13 -68.5t-23.5 -124.5t-30 -156t-30.5 -162.5t-27.5 -143t-18.5 -97.5h-221q23 119 42 217t36.5 181t31 153t23.5 129q4 20 5 31.5t1 21.5 q0 35 -19.5 56.5t-60.5 21.5q-55 0 -86 -40t-41 -95l-129 -676h-219zM209 1225q51 86 111.5 128t117.5 42q31 0 59.5 -11.5t54.5 -24.5t49.5 -24.5t45.5 -11.5q29 0 54.5 12.5t66.5 59.5l106 -66q-53 -100 -112.5 -136t-112.5 -36q-35 0 -62.5 11.5t-52 24.5t-48 24.5 t-48.5 11.5t-54.5 -16.5t-68.5 -57.5z" />
            <glyph unicode="&#xf2;" horiz-adv-x="782" d="M55 279q6 104 29 219q23 113 47.5 211t58.5 159q45 78 122 119t171 41q74 0 127.5 -20.5t88 -55t51 -79t16.5 -91.5q0 -31 -4 -71.5t-10.5 -84.5t-13.5 -87t-13 -78q-25 -125 -53.5 -215t-73.5 -147.5t-109.5 -85t-158.5 -27.5q-86 0 -140.5 27.5t-84 69.5t-40 94 t-10.5 102zM248 1468l166 97l178 -396l-105 -61zM272 281q0 -37 20.5 -62.5t63.5 -25.5q35 0 59.5 19t37.5 48q8 18 24.5 83t31.5 140.5t27.5 145t12.5 98.5q0 41 -18.5 69.5t-57.5 28.5q-37 0 -62.5 -16t-43.5 -59t-48 -175q-4 -23 -10 -51t-12 -59t-12 -60.5t-9 -52.5 q-2 -20 -3 -37.5t-1 -33.5z" />
            <glyph unicode="&#xf3;" horiz-adv-x="782" d="M55 279q6 104 29 219q23 113 47.5 211t58.5 159q45 78 122 119t171 41q74 0 127.5 -20.5t88 -55t51 -79t16.5 -91.5q0 -31 -4 -71.5t-10.5 -84.5t-13.5 -87t-13 -78q-25 -125 -53.5 -215t-73.5 -147.5t-109.5 -85t-158.5 -27.5q-86 0 -140.5 27.5t-84 69.5t-40 94 t-10.5 102zM272 281q0 -37 20.5 -62.5t63.5 -25.5q35 0 59.5 19t37.5 48q8 18 24.5 83t31.5 140.5t27.5 145t12.5 98.5q0 41 -18.5 69.5t-57.5 28.5q-37 0 -62.5 -16t-43.5 -59t-48 -175q-4 -23 -10 -51t-12 -59t-12 -60.5t-9 -52.5q-2 -20 -3 -37.5t-1 -33.5zM403 1176 l244 362l168 -82l-303 -344z" />
            <glyph unicode="&#xf4;" horiz-adv-x="782" d="M55 279q6 104 29 219q23 113 47.5 211t58.5 159q45 78 122 119t171 41q74 0 127.5 -20.5t88 -55t51 -79t16.5 -91.5q0 -31 -4 -71.5t-10.5 -84.5t-13.5 -87t-13 -78q-25 -125 -53.5 -215t-73.5 -147.5t-109.5 -85t-158.5 -27.5q-86 0 -140.5 27.5t-84 69.5t-40 94 t-10.5 102zM190 1169l330 306h129l203 -314l-96 -65l-199 202l-291 -206zM272 281q0 -37 20.5 -62.5t63.5 -25.5q35 0 59.5 19t37.5 48q8 18 24.5 83t31.5 140.5t27.5 145t12.5 98.5q0 41 -18.5 69.5t-57.5 28.5q-37 0 -62.5 -16t-43.5 -59t-48 -175q-4 -23 -10 -51t-12 -59 t-12 -60.5t-9 -52.5q-2 -20 -3 -37.5t-1 -33.5z" />
            <glyph unicode="&#xf5;" horiz-adv-x="782" d="M55 279q6 104 29 219q23 113 47.5 211t58.5 159q45 78 122 119t171 41q74 0 127.5 -20.5t88 -55t51 -79t16.5 -91.5q0 -31 -4 -71.5t-10.5 -84.5t-13.5 -87t-13 -78q-25 -125 -53.5 -215t-73.5 -147.5t-109.5 -85t-158.5 -27.5q-86 0 -140.5 27.5t-84 69.5t-40 94 t-10.5 102zM182 1225q51 86 111.5 128t118.5 42q31 0 59.5 -11.5t54 -24.5t49 -24.5t46.5 -11.5q29 0 54 12.5t66 59.5l107 -66q-53 -100 -112.5 -136t-112.5 -36q-35 0 -63 11.5t-52.5 24.5t-48 24.5t-47.5 11.5q-25 0 -54.5 -16.5t-68.5 -57.5zM272 281q0 -37 20.5 -62.5 t63.5 -25.5q35 0 59.5 19t37.5 48q8 18 24.5 83t31.5 140.5t27.5 145t12.5 98.5q0 41 -18.5 69.5t-57.5 28.5q-37 0 -62.5 -16t-43.5 -59t-48 -175q-4 -23 -10 -51t-12 -59t-12 -60.5t-9 -52.5q-2 -20 -3 -37.5t-1 -33.5z" />
            <glyph unicode="&#xf6;" horiz-adv-x="782" d="M55 279q6 104 29 219q23 113 47.5 211t58.5 159q45 78 122 119t171 41q74 0 127.5 -20.5t88 -55t51 -79t16.5 -91.5q0 -31 -4 -71.5t-10.5 -84.5t-13.5 -87t-13 -78q-25 -125 -53.5 -215t-73.5 -147.5t-109.5 -85t-158.5 -27.5q-86 0 -140.5 27.5t-84 69.5t-40 94 t-10.5 102zM246 1163l41 215h192l-43 -215h-190zM272 281q0 -37 20.5 -62.5t63.5 -25.5q35 0 59.5 19t37.5 48q8 18 24.5 83t31.5 140.5t27.5 145t12.5 98.5q0 41 -18.5 69.5t-57.5 28.5q-37 0 -62.5 -16t-43.5 -59t-48 -175q-4 -23 -10 -51t-12 -59t-12 -60.5t-9 -52.5 q-2 -20 -3 -37.5t-1 -33.5zM582 1163l41 215h192l-41 -215h-192z" />
            <glyph unicode="&#xf7;" d="M47 512l33 174h768l-33 -174h-768zM254 236q0 31 13.5 58.5t35 50t50 35.5t59.5 13q47 0 76.5 -30.5t29.5 -77.5q0 -31 -13 -59.5t-36 -50t-51.5 -34t-59.5 -12.5q-47 0 -75.5 30.5t-28.5 76.5zM385 915q0 31 13.5 58.5t36 49t50 35t58.5 13.5q47 0 76.5 -30.5 t29.5 -77.5q0 -31 -13 -58.5t-35.5 -49t-51.5 -35t-57 -13.5q-47 0 -77 30.5t-30 77.5z" />
            <glyph unicode="&#xf8;" horiz-adv-x="782" d="M23 -6q18 27 36.5 52.5t34.5 51.5q-23 41 -31 88t-8 93q6 104 29 219q23 113 47.5 211t58.5 159q45 78 122 119t171 41q66 0 115 -16.5t84 -44.5l70 102l57 -35q-20 -31 -40.5 -60.5t-41.5 -58.5q39 -59 39 -133q0 -31 -4 -71.5t-10.5 -84.5t-13.5 -87t-13 -78 q-25 -125 -53.5 -215t-73.5 -147.5t-109.5 -85t-158.5 -27.5q-68 0 -115 16t-78 45q-16 -23 -30.5 -44t-28.5 -44q-14 8 -27.5 16.5t-27.5 18.5zM274 250q16 -57 82 -57q35 0 59.5 19t37.5 48q6 14 17 56t23.5 96.5t24 114t19.5 108.5q-66 -98 -131.5 -192.5t-131.5 -192.5z M279 371l266 391q-8 29 -25.5 46t-46.5 17q-37 0 -62.5 -16t-43.5 -59t-48 -175q-10 -41 -22 -99t-18 -105z" />
            <glyph unicode="&#xf9;" horiz-adv-x="800" d="M46 132q-3 42 1 87q0 10 14.5 86t36 189.5t48 250t51.5 269.5h221q-23 -115 -47.5 -239t-44 -228.5t-32.5 -175t-13 -78.5q-4 -37 13 -63.5t64 -26.5q49 0 82 40t43 95l131 676h222l-197 -1014h-223l22 98h-8q-45 -57 -100.5 -83.5t-106.5 -26.5q-61 0 -99 19.5t-56.5 51 t-21.5 73.5zM270 1468l166 97l178 -396l-104 -61z" />
            <glyph unicode="&#xfa;" horiz-adv-x="800" d="M46 132q-3 42 1 87q0 10 14.5 86t36 189.5t48 250t51.5 269.5h221q-23 -115 -47.5 -239t-44 -228.5t-32.5 -175t-13 -78.5q-4 -37 13 -63.5t64 -26.5q49 0 82 40t43 95l131 676h222l-197 -1014h-223l22 98h-8q-45 -57 -100.5 -83.5t-106.5 -26.5q-61 0 -99 19.5t-56.5 51 t-21.5 73.5zM467 1176l244 362l168 -82l-304 -344z" />
            <glyph unicode="&#xfb;" horiz-adv-x="800" d="M46 132q-3 42 1 87q0 10 14.5 86t36 189.5t48 250t51.5 269.5h221q-23 -115 -47.5 -239t-44 -228.5t-32.5 -175t-13 -78.5q-4 -37 13 -63.5t64 -26.5q49 0 82 40t43 95l131 676h222l-197 -1014h-223l22 98h-8q-45 -57 -100.5 -83.5t-106.5 -26.5q-61 0 -99 19.5t-56.5 51 t-21.5 73.5zM199 1169l329 306h129l203 -314l-96 -65l-199 202l-291 -206z" />
            <glyph unicode="&#xfc;" horiz-adv-x="800" d="M46 132q-3 42 1 87q0 10 14.5 86t36 189.5t48 250t51.5 269.5h221q-23 -115 -47.5 -239t-44 -228.5t-32.5 -175t-13 -78.5q-4 -37 13 -63.5t64 -26.5q49 0 82 40t43 95l131 676h222l-197 -1014h-223l22 98h-8q-45 -57 -100.5 -83.5t-106.5 -26.5q-61 0 -99 19.5t-56.5 51 t-21.5 73.5zM276 1163l41 215h193l-43 -215h-191zM612 1163l41 215h193l-41 -215h-193z" />
            <glyph unicode="&#xfd;" horiz-adv-x="737" d="M-115 -219q53 6 93 20.5t72 40t58.5 64.5t57.5 98l-60 1008h230v-379q0 -33 -1 -77t-3 -92t-6 -94t-9 -83h9q33 70 66.5 155.5t67.5 180t65.5 193.5t60.5 196h233q-109 -309 -224.5 -580.5t-236.5 -505.5q-41 -76 -85 -137t-99 -105t-126 -69t-161 -27zM410 1176l243 362 l168 -82l-303 -344z" />
            <glyph unicode="&#xfe;" horiz-adv-x="784" d="M-92 -395l356 1820h219q0 -6 -8 -42.5t-18.5 -89t-21.5 -112t-21.5 -111.5t-18.5 -89t-8 -43l6 -4q39 51 85 71.5t106 20.5q41 0 76.5 -10t61.5 -34t40 -63.5t14 -99.5q0 -20 -4 -65t-12 -104.5t-19.5 -127t-26 -133t-30.5 -124t-35 -97.5q-16 -35 -37.5 -67.5 t-51.5 -57.5t-72 -40t-97 -15q-43 0 -92 18.5t-72 56.5h-8l-90 -458h-221zM268 279q4 -35 22.5 -54.5t53.5 -19.5q41 0 67.5 20.5t43.5 59.5q12 35 27.5 104.5t29.5 145.5q29 143 29 196q0 35 -19.5 57.5t-62.5 22.5q-55 0 -83 -43t-40 -104l-27 -142l-35 -172 q-6 -43 -6 -71z" />
            <glyph unicode="&#xff;" horiz-adv-x="737" d="M-115 -219q53 6 93 20.5t72 40t58.5 64.5t57.5 98l-60 1008h230v-379q0 -33 -1 -77t-3 -92t-6 -94t-9 -83h9q33 70 66.5 155.5t67.5 180t65.5 193.5t60.5 196h233q-109 -309 -224.5 -580.5t-236.5 -505.5q-41 -76 -85 -137t-99 -105t-126 -69t-161 -27zM225 1163l41 215 h193l-43 -215h-191zM561 1163l41 215h193l-41 -215h-193z" />
            <glyph unicode="&#x152;" horiz-adv-x="1193" d="M78 279q0 27 3 53t7 55l137 713q33 168 128.5 253t246.5 85q61 0 111 -13h637q-10 -53 -20.5 -104t-20.5 -104h-412q-18 -98 -36.5 -193.5t-39.5 -194.5h359l-41 -211h-359l-78 -405h412l-41 -213h-571q-53 -12 -119 -12q-37 0 -64 8q-127 16 -183 93t-56 190zM297 309 q0 -47 23.5 -77.5t78.5 -30.5q33 0 57.5 12t39.5 43l174 891q-2 39 -25.5 57.5t-60.5 18.5q-92 0 -125 -86q-8 -20 -13.5 -41t-9.5 -43l-125 -629q-6 -29 -10 -58.5t-4 -56.5z" />
            <glyph unicode="&#x153;" horiz-adv-x="1226" d="M49 238q0 53 9.5 122.5t21.5 137.5q23 113 47.5 211t58.5 159q45 80 121 120t172 40q74 0 128.5 -25.5t82.5 -68.5q39 41 96.5 67.5t128.5 26.5q59 0 111.5 -15.5t90.5 -46t60.5 -74.5t22.5 -101q0 -100 -31.5 -171t-87 -117t-127 -68.5t-151.5 -22.5q-37 0 -80 6 q-6 -31 -11 -69t-5 -66q0 -41 17 -65.5t58 -24.5q90 0 113 112l225 -29q-16 -63 -41.5 -116.5t-67.5 -91t-101.5 -59t-141.5 -21.5q-150 0 -209 90q-41 -47 -102.5 -69.5t-141.5 -22.5q-72 0 -122 24.5t-82.5 61.5t-47 81t-14.5 85zM267 297.5q-1 -27.5 5.5 -51t24.5 -38.5 t55 -15q41 0 63.5 22.5t33.5 56.5q10 29 26.5 94.5t31.5 138.5t25.5 139.5t10.5 100.5q0 37 -21.5 58.5t-52.5 21.5q-37 0 -62.5 -16t-44.5 -59q-10 -23 -22 -67t-27 -108q-4 -23 -10 -51t-12 -59t-11.5 -60.5t-7.5 -52.5q-4 -27 -5 -54.5zM756 596q12 -2 24.5 -2h22.5 q37 0 68.5 7t55 24.5t38 47t14.5 75.5q0 31 -20.5 52t-57.5 21q-59 0 -91 -52t-54 -173z" />
            <glyph unicode="&#x178;" horiz-adv-x="808" d="M211 0l115 582q-29 211 -57.5 421.5t-57.5 421.5h227q10 -111 18.5 -191.5t12.5 -146.5q6 -66 7 -126t3 -113h13q63 145 127.5 288.5t128.5 288.5h239l-442 -843l-113 -582h-221zM334 1509l41 217h192l-41 -217h-192zM672 1509l41 217h190l-41 -217h-190z" />
            <glyph unicode="&#x2c6;" horiz-adv-x="774" d="M223 1169l330 306h129l203 -314l-97 -65l-198 202l-291 -206z" />
            <glyph unicode="&#x2dc;" horiz-adv-x="741" d="M201 1225q51 86 111.5 128t117.5 42q31 0 59.5 -11.5t54 -24.5t49 -24.5t46.5 -11.5q29 0 54.5 12.5t66.5 59.5l106 -66q-53 -100 -112.5 -136t-112.5 -36q-35 0 -62.5 11.5t-52 24.5t-48 24.5t-48.5 11.5t-54.5 -16.5t-68.5 -57.5z" />
            <glyph unicode="&#x2000;" horiz-adv-x="916" />
            <glyph unicode="&#x2001;" horiz-adv-x="1833" />
            <glyph unicode="&#x2002;" horiz-adv-x="916" />
            <glyph unicode="&#x2003;" horiz-adv-x="1833" />
            <glyph unicode="&#x2004;" horiz-adv-x="611" />
            <glyph unicode="&#x2005;" horiz-adv-x="458" />
            <glyph unicode="&#x2006;" horiz-adv-x="305" />
            <glyph unicode="&#x2007;" horiz-adv-x="305" />
            <glyph unicode="&#x2008;" horiz-adv-x="229" />
            <glyph unicode="&#x2009;" horiz-adv-x="366" />
            <glyph unicode="&#x200a;" horiz-adv-x="101" />
            <glyph unicode="&#x2010;" horiz-adv-x="747" d="M111 479l39 193h567l-37 -193h-569z" />
            <glyph unicode="&#x2011;" horiz-adv-x="747" d="M111 479l39 193h567l-37 -193h-569z" />
            <glyph unicode="&#x2012;" horiz-adv-x="747" d="M111 479l39 193h567l-37 -193h-569z" />
            <glyph unicode="&#x2013;" horiz-adv-x="1024" d="M47 461l37 188h942l-37 -188h-942z" />
            <glyph unicode="&#x2014;" horiz-adv-x="2048" d="M41 461l37 188h1966l-37 -188h-1966z" />
            <glyph unicode="&#x2018;" horiz-adv-x="536" d="M240 924l51 252l166 272h123l-111 -268h51l-51 -256h-229z" />
            <glyph unicode="&#x2019;" horiz-adv-x="536" d="M240 926l112 266h-51l49 258h230l-50 -252l-165 -272h-125z" />
            <glyph unicode="&#x201a;" horiz-adv-x="438" d="M-39 -281l111 269h-52l52 258h227l-49 -252l-166 -275h-123z" />
            <glyph unicode="&#x201c;" horiz-adv-x="706" d="M188 924l52 252l166 272h122l-110 -268h51l-51 -256h-230zM483 924l52 252l163 272h123l-110 -268h51l-49 -256h-230z" />
            <glyph unicode="&#x201d;" horiz-adv-x="706" d="M190 926l111 266h-51l51 258h227l-49 -252l-166 -272h-123zM485 926l111 266h-51l49 258h229l-49 -252l-166 -272h-123z" />
            <glyph unicode="&#x201e;" horiz-adv-x="731" d="M-39 -279l111 269h-52l52 258h227l-49 -252l-166 -275h-123zM262 -279l111 269h-51l51 258h227l-49 -252l-166 -275h-123z" />
            <glyph unicode="&#x2022;" horiz-adv-x="909" d="M180 559q0 59 22.5 112.5t61.5 92.5t92.5 61.5t112.5 22.5t112.5 -22.5t93.5 -61.5t62.5 -92.5t22.5 -112.5t-22.5 -112.5t-62.5 -92.5t-93.5 -61.5t-112.5 -22.5t-112.5 22.5t-92.5 61.5t-61.5 92.5t-22.5 112.5z" />
            <glyph unicode="&#x2026;" horiz-adv-x="1439" d="M18 0l50 248h227l-47 -248h-230zM526 0l47 248h228l-47 -248h-228zM1034 0l47 248h228l-47 -248h-228z" />
            <glyph unicode="&#x202f;" horiz-adv-x="366" />
            <glyph unicode="&#x2039;" horiz-adv-x="661" d="M90 492l305 395h211l-317 -404l153 -389h-198z" />
            <glyph unicode="&#x203a;" horiz-adv-x="626" d="M25 96l319 402l-154 389h199l154 -395l-305 -396h-213z" />
            <glyph unicode="&#x205f;" horiz-adv-x="458" />
            <glyph unicode="&#x20ac;" d="M57 545l25 123h74l20 100h-76l25 123h74l30 158q14 80 43 151.5t75 123.5t113.5 83t164.5 31q88 0 150.5 -24.5t99 -67.5t50 -102.5t3.5 -129.5l-223 -43q10 72 -15.5 115t-85.5 43q-37 0 -63.5 -16.5t-45 -41t-28.5 -54.5t-16 -56l-33 -170h282l-24 -123h-281l-20 -100 h282l-24 -123h-283l-39 -209q-10 -59 6.5 -100t88.5 -41q55 0 95 38.5t58 116.5l213 -37q-29 -152 -121 -238.5t-260 -86.5q-186 0 -258 97t-37 271l35 189h-74z" />
            <glyph unicode="&#x2122;" horiz-adv-x="1433" d="M84 1282v143h498v-143h-172v-668h-154v668h-172zM662 612v811h141q29 -61 54.5 -122.5t51.5 -122.5l80 -177q18 43 36.5 87.5t39.5 87.5l104 247h144v-811h-152v443h-6q-29 -74 -58.5 -149t-60.5 -148h-100q-14 31 -27.5 61.5t-25.5 61.5q-18 45 -35 89t-35 87h-6v-445 h-145z" />
            <glyph unicode="&#x25fc;" horiz-adv-x="1013" d="M0 0v1014h1014v-1014h-1014z" />
            </font>
</defs>
</svg>
