<?xml version="1.0" encoding="UTF-8" standalone="no"?>
<!DOCTYPE svg PUBLIC "-//W3C//DTD SVG 1.1//EN" "http://www.w3.org/Graphics/SVG/1.1/DTD/svg11.dtd">
<svg>
<metadata>
Created by FontForge 20090622 at Thu Aug  6 12:55:07 2015
 By deploy user
Copyright Â© 1994, 2001 Adobe Systems Incorporated.  All Rights Reserved.
</metadata>
<defs>
<font id="ITCGaramondStd-Bk" horiz-adv-x="533">
  <font-face font-family="ITC Garamond Std Book" font-weight="400" font-stretch="normal" units-per-em="1000" panose-1="2 2 6 2 6 5 6 2 3 4" ascent="703" descent="-297" x-height="441" cap-height="623" bbox="-164 -250 1064 861" underline-thickness="50" underline-position="-50" unicode-range="U+0020-U+FB02"/>
<missing-glyph horiz-adv-x="500" d="M0 0v700h500v-700h-500zM250 395l170 255h-340zM280 350l170 -255v510zM80 50h340l-170 255zM50 605v-510l170 255z"/>
    <glyph glyph-name="fi" unicode="fi" horiz-adv-x="596" d="M351 397h-136q-22 0 -27 -6.5t-5 -36.5v-252q0 -23 1 -34.5t5 -22.5t13 -15.5t24 -4.5q29 -2 29 -16q0 -13 -15 -13q-14 0 -52.5 2t-60.5 2t-56 -2t-46 -2q-16 0 -16 12q0 15 29 17q33 1 40 16.5t7 72.5v247q0 25 -4 30.5t-24 5.5q-37 0 -37 13q0 3 0.5 5.5t2.5 4.5 t3.5 3t5 2.5t5.5 2t7 2t8 2.5q6 2 10.5 4.5t7.5 4.5t5.5 6.5t3.5 7t2.5 9t2 9t1.5 11t1 11.5q10 87 67 143.5t158 56.5q44 0 82 -14.5t57 -31.5t19 -28q0 -15 -18 -36.5t-37 -21.5q-11 0 -23.5 8.5t-18 14t-21.5 23.5q-42 46 -79 46q-29 0 -48 -14.5t-27.5 -43t-11 -55 t-2.5 -65.5q0 -23 4.5 -31t21.5 -8h111q64 0 119 12q9 2 27 9t23 7q10 0 10 -18v-57v-289q0 -31 1.5 -44t11.5 -23t31 -11q28 -2 28 -15t-15 -13q-18 0 -53 2t-51 2q-18 0 -54 -2t-53 -2q-16 0 -16 12q0 15 28 17q31 1 37.5 16t6.5 65v228q0 44 -8.5 53.5t-41.5 9.5z"/>
    <glyph glyph-name="fl" unicode="fl" horiz-adv-x="596" d="M86 114v247q0 25 -4 30.5t-24 5.5q-37 0 -37 13q0 7 5.5 11.5t10 6t16.5 4.5q8 2 13.5 6t8.5 6.5t5.5 10.5t3 10.5t2 15t1.5 14.5q10 86 68 143t145 57q60 0 106 -31q32 8 59 22q18 9 24 9q7 0 8.5 -4t1.5 -17v-572q0 -44 7 -60t38 -18q28 -2 28 -15t-16 -13 q-15 0 -49.5 2t-52.5 2q-21 0 -57.5 -2t-50.5 -2q-17 0 -17 12q0 15 25 17h3q31 1 37.5 17t6.5 72v451q-13 0 -25.5 8t-17.5 13.5t-20 23.5q-37 46 -70 46q-29 0 -47.5 -17t-25.5 -49.5t-9 -55t-2 -57.5q0 -28 6 -33.5t33 -5.5h73q12 0 14.5 -4t2.5 -15q0 -15 -5 -18.5 t-23 -3.5h-65q-25 0 -30.5 -4.5t-5.5 -25.5v-265q0 -32 1.5 -44.5t11 -22.5t30.5 -10q29 -2 29 -16q0 -13 -15 -13q-14 0 -52.5 2t-60.5 2t-56 -2t-46 -2q-16 0 -16 12q0 15 29 17q33 1 40 16.5t7 72.5z"/>
    <glyph glyph-name=".notdef" horiz-adv-x="500" d="M0 0v700h500v-700h-500zM250 395l170 255h-340zM280 350l170 -255v510zM80 50h340l-170 255zM50 605v-510l170 255z"/>
    <glyph glyph-name=".null" horiz-adv-x="0"/>
    <glyph glyph-name="nonmarkingreturn" horiz-adv-x="333"/>
    <glyph glyph-name="space" unicode=" " horiz-adv-x="321"/>
    <glyph glyph-name="exclam" unicode="!" horiz-adv-x="251" d="M124 178h-1q-11 0 -17 40q-1 4 -1 6q-5 56 -12 110q-20 182 -24 240q0 29 15 50t45 21q25 0 39.5 -18t14.5 -49q-10 -123 -26 -240q-7 -48 -14 -114q-6 -41 -15 -45q-2 -1 -4 -1zM125 -13h-1q-22 0 -38.5 16.5t-16.5 41.5q0 26 17 42.5t41 16.5t39.5 -16.5t15.5 -42.5 q0 -25 -16.5 -41.5t-40.5 -16.5z"/>
    <glyph glyph-name="quotedbl" unicode="&quot;" horiz-adv-x="338" d="M91 638h1q38 0 38 -53q0 -13 -2 -31q-14 -134 -20 -202q-4 -33 -17 -33t-17 33q-6 68 -20 202q-2 18 -2 31q0 53 39 53zM244 638h1q38 0 38 -53q0 -13 -2 -31q-14 -134 -20 -202q-4 -33 -17 -33q-14 0 -16 33l-9.5 99.5t-10.5 102.5q-2 18 -2 31q0 53 38 53z"/>
    <glyph glyph-name="numbersign" unicode="#" d="M376 528l34 93q4 12 6.5 15t12.5 3q18 0 18 -7q0 -2 -2.5 -8t-2.5 -7l-30 -84q0 -1 -3 -7.5t-3 -9.5q0 -6 19 -6h80q18 -2 19 -6q0 -3 -13 -40q-2 -8 -5 -10t-10 -2h-102q-8 0 -10 -2.5t-7 -15.5l-26 -70l-4 -16q0 -6 18 -6h79q19 0 19 -7q0 -2 -2 -7.5t-5 -15t-5 -16.5 q-5 -12 -15 -12h-103q-9 0 -11 -2.5t-6 -15.5l-37 -104q-4 -12 -8 -14.5t-16 -2.5q-14 0 -14 6q0 1 5 16l33 94q0 2 3 8t3 8q0 7 -19 7h-85q-7 0 -9.5 -3t-7.5 -15l-37 -104q-4 -12 -7 -15t-13 -3q-16 0 -16 7q0 4 4 16l33 94q5 15 5 16q0 5 -3 6t-14 1h-80q-18 0 -18 6 t13 41q5 11 14 11h105q6 0 8 2.5t6 14.5l26 70q5 10 5 16q0 7 -19 7h-80q-18 0 -18 6q0 8 13 41q4 11 15 11h102q8 0 10.5 2.5t6.5 15.5l33 93q4 12 7.5 15t14.5 3q15 0 15 -6q0 -1 -5 -16l-30 -84q0 -1 -3 -8t-3 -9q0 -6 19 -6h86q8 0 10.5 2.5t6.5 15.5zM213 341h86 q8 0 10 2.5t6 14.5l25 71q5 15 5 16q0 6 -18 6h-87q-5 0 -7 -1.5t-3.5 -4.5t-4.5 -11l-27 -71q-4 -12 -4 -15q0 -7 19 -7z"/>
    <glyph glyph-name="dollar" unicode="$" horiz-adv-x="522" d="M343 571l-15 -203q128 -61 128 -170q0 -62 -42 -112.5t-112 -68.5l-7 -101q-1 -12 -4 -15t-16 -3q-12 0 -15.5 3t-2.5 14l7 97q-8 -2 -25 -2q-16 0 -34 3l-8 -97q-1 -12 -4 -15t-16 -3q-11 0 -14.5 3t-2.5 14l8 104q-44 11 -76 30q-14 7 -16 33q-5 60 -2 93q2 24 17 24 q5 0 8.5 -3t6.5 -10.5t4.5 -13.5l4.5 -18t5 -19q12 -51 51 -74l18 249q-109 52 -109 147q0 60 37 103.5t95 59.5l6 81q1 12 4 15t16 3q12 0 15.5 -3t2.5 -14l-5 -75q8 1 24 1q15 0 35 -3l5 76q1 12 4 15t16 3q12 0 15.5 -3t2.5 -14l-6 -82q22 -5 49 -16q12 -6 16 -14t5 -23 q0 -9 0.5 -34t0.5 -37q0 -17 -14 -17q-5 0 -8.5 2.5t-7 10l-5.5 11.5t-6 16q-14 35 -34 52zM291 385l16 206q-15 5 -37 5q-14 0 -22 -1l-14 -185q31 -15 57 -25zM198 432l11 152q-56 -20 -56 -78q0 -45 45 -74zM226 294l-18 -248q20 -4 34 -4q16 0 24 2l18 224l-17.5 8.5 t-21.5 9.5zM320 247l-15 -192q69 28 69 95q0 63 -54 97z"/>
    <glyph glyph-name="percent" unicode="%" horiz-adv-x="754" d="M167 289h-1q-66 0 -107.5 54t-41.5 121t42.5 121t107.5 54q68 0 109.5 -52.5t41.5 -122.5t-41 -122.5t-110 -52.5zM168 313h1q73 0 73 151t-75 151q-23 0 -39 -16t-23.5 -41.5t-10 -48t-2.5 -45.5t2.5 -45.5t10 -48t23.5 -41.5t40 -16zM588 -13h-1q-66 0 -108 54t-42 121 t43 121t108 54q67 0 108.5 -52.5t41.5 -122.5t-40.5 -122.5t-109.5 -52.5zM588 11h1q74 0 74 151t-75 151q-23 0 -39 -16t-23.5 -41.5t-10 -48t-2.5 -45.5t2.5 -45.5t10 -48t23.5 -41.5t39 -16zM135 -14v1q0 3 13 24l422 620q7 10 19 10h20q11 0 11 -5q0 -4 -13 -25 l-422 -620q-7 -10 -19 -10h-20q-11 0 -11 5z"/>
    <glyph glyph-name="ampersand" unicode="&amp;" horiz-adv-x="727" d="M143 494v1q0 61 53.5 102t129.5 41q69 0 120 -31t51 -93q0 -46 -28 -71t-112 -63q-16 -8 -16 -13q0 -4 15 -19l104 -114q14 -17 22 -17q11 0 40.5 45t29.5 59q0 22 -33 26t-33 14q0 16 26 16q8 0 40 -2t45 -2q14 0 50.5 2t43.5 2q19 0 19 -14q0 -15 -25 -17 q-45 -2 -77 -32q-28 -27 -81 -98q-17 -22 -17 -30q0 -7 17 -26q5 -5 66 -78q43 -51 88 -54q37 -2 37 -17t-29 -15q-22 0 -64 2t-63 2q-20 0 -61 -2t-62 -2q-20 0 -21 15q0 11 30 15t30 21q0 12 -20 35.5t-26 23.5q-2 0 -7.5 -4.5t-11 -10l-6.5 -6.5q-49 -48 -95 -74 t-109 -26q-78 0 -130.5 48t-52.5 118q0 36 12.5 64.5t35.5 48t38.5 28t38.5 19.5l14.5 7l18.5 8.5t16.5 8t13.5 8.5t5 6q0 3 -17.5 23.5t-35 54t-17.5 67.5zM328 612h-1q-40 0 -67 -21.5t-27 -61.5q0 -26 19.5 -59t40 -53t26.5 -20q4 0 14 3.5t26 12t30 21t24 34t10 46.5 q0 42 -27 70t-68 28zM120 188v-1q0 -56 41 -96.5t96 -40.5q52 0 100.5 33t48.5 54q0 3 -147 162q-2 3 -7 8t-6.5 7t-5 4t-6.5 2q-10 0 -35.5 -14t-52 -47t-26.5 -71z"/>
    <glyph glyph-name="quotesingle" unicode="'" horiz-adv-x="205" d="M99 638h1q38 0 38 -53q0 -13 -2 -31q-14 -134 -20 -202q-4 -33 -17 -33q-14 0 -16 33q-15 143 -20 202q-2 18 -2 31q0 53 38 53z"/>
    <glyph glyph-name="parenleft" unicode="(" horiz-adv-x="367" d="M36 288v1q0 79 28 149t68 115t85 78.5t78.5 48.5t48.5 15q13 0 13 -10q0 -4 -6.5 -8.5t-17 -10t-13.5 -7.5q-184 -99 -184 -371t184 -372q3 -2 13.5 -7.5t17 -10t6.5 -8.5q0 -11 -13 -11q-15 0 -48.5 15t-78.5 48.5t-85 79.5t-68 116.5t-28 149.5z"/>
    <glyph glyph-name="parenright" unicode=")" horiz-adv-x="367" d="M326 287v-1q0 -79 -28 -149t-68 -115.5t-85 -79t-78.5 -48.5t-48.5 -15q-13 0 -13 10q0 4 5.5 8.5t18 10.5t13.5 7q184 100 184 372t-184 371q-2 1 -8 4.5t-10.5 5.5t-9 5.5t-7 6t-2.5 5.5q0 10 13 10q15 0 48.5 -15t78.5 -48.5t85 -79t68 -116t28 -149.5z"/>
    <glyph glyph-name="asterisk" unicode="*" horiz-adv-x="362" d="M181 287h-1q-18 0 -29 11.5t-11 29.5t17.5 58t17.5 49q0 11 -10 11q-13 0 -45 -44q-36 -44 -61 -44q-16 0 -27 12t-11 26q0 39 70 47q62 5 68 15q2 3 2 6q0 15 -52 20h-8q-7 1 -10 1q-70 8 -70 48q0 16 11 27t28 11q26 0 58 -44l6.5 -9.5t7 -9.5l6.5 -8t6.5 -7.5t6 -5.5 t7 -4t6.5 -1q11 0 11 11q0 7 -17.5 48.5t-17.5 61.5q0 17 11.5 27.5t29.5 10.5q19 0 30.5 -10.5t11.5 -28.5q0 -20 -17.5 -61t-17.5 -48q0 -11 9 -11q14 0 41 40q3 3 4 5q32 44 58 44q16 0 28.5 -12t12.5 -28q0 -38 -69 -46q-6 -1 -15 -1.5t-14.5 -1.5t-12.5 -2t-11.5 -2 t-8.5 -3t-6 -4.5t-2 -6.5q0 -15 64 -21h6q70 -8 70 -47q0 -15 -12.5 -26.5t-28.5 -11.5q-26 0 -58 44t-45 44q-10 0 -10 -12q0 -9 17 -49.5t17 -57.5q0 -18 -11.5 -29t-29.5 -11z"/>
    <glyph glyph-name="plus" unicode="+" horiz-adv-x="569" d="M249 289v217h71v-217h216v-72h-216v-217h-71v217h-217v72h217z"/>
    <glyph glyph-name="comma" unicode="," horiz-adv-x="274" d="M134 95h1q33 0 52 -28t19 -62q0 -72 -62 -144q-42 -48 -64 -48q-12 0 -12 11q0 4 4.5 9.5t17 18.5t19.5 21q43 48 43 87q0 16 -8 22t-26 8q-43 5 -43 48q0 21 14.5 39t44.5 18z"/>
    <glyph glyph-name="hyphen" unicode="-" horiz-adv-x="306" d="M50 259h224q11 0 11 -6q0 -5 -15 -50q-3 -11 -13 -11h-224q-11 0 -11 6q0 5 15 50q4 11 13 11z"/>
    <glyph glyph-name="period" unicode="." horiz-adv-x="274" d="M79 45v1q0 25 16.5 41t41.5 16q26 0 41.5 -16t15.5 -42q0 -27 -15 -42.5t-43 -15.5q-25 0 -41 17t-16 41z"/>
    <glyph glyph-name="slash" unicode="/" horiz-adv-x="413" d="M15 -116h-31q-11 0 -11 5l12 27l371 767q5 12 17 12h34q10 0 10 -5t-12 -27l-370 -767q-5 -12 -20 -12z"/>
    <glyph glyph-name="zero" unicode="0" d="M31 311v1q0 43 8.5 87.5t27.5 88.5t46 78t67 55t87 21q58 0 105 -31.5t74 -81.5t41.5 -106t14.5 -111t-14 -110.5t-41 -106t-74 -82.5t-106 -32t-106.5 32t-74.5 82.5t-41 106t-14 109.5zM142 314v-1q0 -297 125 -297q124 0 124 296t-126 296q-123 0 -123 -294z"/>
    <glyph glyph-name="one" unicode="1" d="M230 115v422q0 24 -14 24q-2 0 -59 -20q-53 -20 -56 -20q-15 0 -15 14q0 10 8.5 15t31.5 13q65 22 170 67q25 9 29 9q13 0 13 -15v-503q0 -55 9.5 -71t53.5 -17q49 0 49 -18q0 -19 -23 -19q-8 0 -60.5 2t-88.5 2q-30 0 -85 -2t-63 -2q-23 0 -23 18q0 12 10 15t46 4 q47 1 57 15.5t10 66.5z"/>
    <glyph glyph-name="two" unicode="2" d="M470 476v-1q0 -34 -11 -63.5t-39 -61.5t-44.5 -47t-58.5 -50q-9 -8 -14 -12l-40 -34.5l-47 -41l-39 -35.5q-27 -22 -27 -32q0 -5 19 -5h193q41 0 57 10t23 45q10 26 22 26q10 0 12 -5t2 -22q-1 -21 -1.5 -64t-0.5 -65q0 -20 -21 -20h-54q-17 0 -64.5 1t-72.5 1 q-70 0 -188 -2q-20 0 -27 2t-7 12q0 17 33 50l124 141q33 37 51 59t46 61t42 75t14 69q0 54 -34.5 91t-92.5 37q-85 0 -135 -85q-1 -2 -4.5 -6.5l-5 -6.5t-5 -4t-7.5 -2q-12 0 -12 14q0 12 13 32.5t36.5 44t67 40.5t95.5 17q86 0 144 -46t58 -117z"/>
    <glyph glyph-name="three" unicode="3" d="M492 210v-1q0 -64 -36 -121.5t-89.5 -94.5t-111.5 -58.5t-105 -21.5q-22 0 -45 4.5t-45.5 21t-22.5 42.5q0 21 15.5 34t34.5 13q35 0 59 -41q13 -20 23 -27.5t27 -7.5q59 0 122.5 58.5t63.5 147.5q0 72 -43 118.5t-113 46.5q-54 0 -110 -32q-20 -10 -27 -10 q-6 0 -10.5 4.5t-4.5 10.5q0 9 14 19q25 19 55 38q92 59 118 83q47 43 47 86q0 36 -26.5 56.5t-60.5 20.5q-56 0 -100 -49l-10.5 -13.5t-10.5 -12t-9 -3.5q-13 0 -13 15q0 6 6 17t21 26t35.5 28.5t54 22.5t72.5 9q58 0 105.5 -27.5t47.5 -81.5q0 -20 -8.5 -37t-25.5 -31.5 t-30 -23t-34 -20.5q-36 -19 -63 -31q-18 -9 -18 -10q0 -3 4 -3q1 0 10.5 2t24 4.5t25.5 2.5q83 0 135 -49t52 -124z"/>
    <glyph glyph-name="four" unicode="4" d="M496 200h-71q-12 0 -15.5 -3t-3.5 -14v-94q0 -37 10.5 -48t50.5 -11q28 -2 28 -18t-28 -16q-12 0 -44.5 2t-57.5 2q-41 0 -84 -2t-53 -2q-20 0 -20 15q0 8 5 12t11.5 4.5t22.5 1.5q35 1 44.5 14t9.5 47v85q0 18 -5 21.5t-27 3.5h-206q-5 0 -12 -0.5t-10 -0.5 q-10 0 -14 3.5t-4 14.5q0 14 3 20.5t17 24.5l332 431q13 17 25 17h27q12 0 12 -8q0 -4 -8 -14l-335 -414q-21 -26 -21 -29q0 -5 14 -5h188q17 0 20.5 5.5t3.5 28.5v161q0 11 2 14.5t14 7.5q6 2 25.5 10l35.5 14.5t20 6.5q8 0 8 -22v-202q0 -14 2 -18t11 -5h78q11 0 11 -24 q0 -11 -2 -14t-10 -3z"/>
    <glyph glyph-name="five" unicode="5" d="M479 215v-1q0 -69 -46 -126t-118 -96q-60 -33 -135 -50.5t-105 -17.5q-22 0 -22 14q0 13 31 17q39 4 89.5 19t85.5 33q49 26 82.5 73t33.5 99q0 104 -117 138q-74 22 -176 29q-26 3 -26 13q0 8 7 22l64 206q7 23 13.5 28t31.5 8q27 3 90.5 11l113.5 14t63 7q12 1 12 -8 q0 -11 -17 -68q-3 -8 -8.5 -10.5t-28.5 -5.5l-208 -24q-32 -4 -40 -9t-15 -28q-16 -51 -16 -57q0 -3 0.5 -4.5t2.5 -3t3.5 -2.5t4.5 -1.5t5 -1t6 -1t6 -0.5q168 -18 227 -50q50 -24 78 -68.5t28 -97.5z"/>
    <glyph glyph-name="six" unicode="6" d="M500 215v-1q0 -95 -62 -163.5t-159 -68.5q-77 0 -135.5 47t-86 113.5t-27.5 137.5q0 102 65.5 202t178.5 173q57 36 119 61.5t84 25.5q21 0 21 -13t-45 -27q-37 -11 -76 -31.5t-82.5 -57.5t-77.5 -83t-56 -113t-22 -143q0 -40 8 -83t24.5 -84.5t46 -67.5t67.5 -26 q47 0 78.5 45.5t31.5 122.5q0 84 -32.5 140t-82.5 61q-26 1 -46 -14.5t-22 -15.5q-7 2 -7 12q0 18 34.5 40t81.5 22q78 0 128.5 -62t50.5 -149z"/>
    <glyph glyph-name="seven" unicode="7" d="M502 612v-1q0 -2 -2 -6.5t-4.5 -9.5l-3.5 -7l-197 -433l-85 -191q-9 -21 -18 -21h-28q-8 0 -8 6q6 16 11 27l227 507q9 23 9 25q0 13 -21 13h-279q-23 0 -37.5 -4.5t-16.5 -4.5q-11 0 -11 19q-1 21 -4 74q0 11 3 15t14 4q32 0 104 -1t108 -1q35 0 106 1t104 1 q29 0 29 -12z"/>
    <glyph glyph-name="eight" unicode="8" d="M276 642h1q49 0 94 -14.5t78 -50.5t33 -86q0 -26 -8.5 -45.5t-26.5 -33.5t-32.5 -22t-41.5 -20q-9 -5 -25 -13q42 -13 71 -31q89 -54 89 -140q0 -78 -64 -141t-186 -63q-106 0 -170 54.5t-64 120.5q0 30 10.5 53t33.5 40.5t38.5 25.5t46.5 22q22 8 30 12q-39 15 -58 28 q-77 51 -77 128q0 27 12.5 56t38 57t72 45.5t105.5 17.5zM296 376h1q6 0 21 6.5t33.5 19t32.5 37t14 55.5q0 52 -37.5 85.5t-93.5 33.5q-62 0 -93.5 -35.5t-31.5 -72.5q0 -76 90 -110q46 -19 64 -19zM263 11h1q74 0 109.5 43.5t35.5 89.5q0 80 -89 119q-11 6 -47.5 18 t-45.5 12q-2 0 -13 -4.5t-28 -15.5t-33 -26.5t-27.5 -41.5t-11.5 -57q0 -20 7 -41.5t22 -44t46.5 -37t73.5 -14.5z"/>
    <glyph glyph-name="nine" unicode="9" d="M29 412v1q0 94 67.5 161.5t166.5 67.5q98 0 169 -73t71 -193q0 -218 -267 -390q-54 -37 -109 -62.5t-70 -25.5t-15 15q0 11 37 27l6 3q75 34 142.5 92t117 146t49.5 180q0 97 -42.5 171.5t-104.5 74.5q-52 0 -81.5 -44.5t-29.5 -109.5q0 -38 11.5 -78t40 -73t67.5 -36 q14 0 27.5 4.5t21 8.5t10.5 3q8 -2 8 -10q0 -15 -33.5 -32.5t-75.5 -17.5q-79 0 -131.5 54.5t-52.5 135.5z"/>
    <glyph glyph-name="colon" unicode=":" horiz-adv-x="274" d="M136 274h-1q-25 0 -40.5 17t-15.5 42q0 24 15 41t44 17q24 0 40 -16t16 -42q0 -27 -15 -43t-43 -16zM136 -13h-1q-25 0 -40.5 16.5t-15.5 41.5q0 24 15 41t44 17q24 0 40 -15.5t16 -42.5q0 -26 -15 -42t-43 -16z"/>
    <glyph glyph-name="semicolon" unicode=";" horiz-adv-x="274" d="M134 271h-1q-26 0 -42 17t-16 42q0 24 15.5 41t45.5 17q23 0 38.5 -16.5t15.5 -42.5t-14.5 -42t-41.5 -16zM134 95h1q33 0 52 -28t19 -62q0 -72 -62 -144q-42 -48 -64 -48q-12 0 -12 11q0 4 4.5 9.5t17 18.5t19.5 21q43 48 43 87q0 16 -8 22t-26 8q-43 5 -43 48 q0 21 14.5 39t44.5 18z"/>
    <glyph glyph-name="less" unicode="&lt;" horiz-adv-x="569" d="M538 66v-74l-508 228v66l508 228v-74l-417 -187z"/>
    <glyph glyph-name="equal" unicode="=" horiz-adv-x="569" d="M536 389v-72h-504v72h504zM536 189v-72h-504v72h504z"/>
    <glyph glyph-name="greater" unicode="&gt;" horiz-adv-x="569" d="M30 66l418 187l-418 187v74l508 -228v-66l-508 -228v74z"/>
    <glyph glyph-name="question" unicode="?" horiz-adv-x="343" d="M33 598v1q0 21 11 29q22 17 88 17q74 0 130.5 -50t56.5 -121q0 -46 -20 -79t-58 -65q-14 -12 -43.5 -34t-40.5 -31q-16 -13 -22 -24t-7 -33q-2 -32 -15 -32q-17 0 -20 30q-1 10 -7 47.5t-7 51.5q0 19 14 32.5t42 30.5q55 36 84 70.5t29 81.5q0 40 -25 64.5t-51 24.5 q-32 0 -61 -43q-30 -42 -48 -42q-30 0 -30 74zM109 -13h-1q-26 0 -41 17t-15 41q0 23 15 40t44 17q27 0 40 -16.5t13 -41.5q0 -57 -55 -57z"/>
    <glyph glyph-name="at" unicode="@" horiz-adv-x="725" d="M563 482l-61 -243q-4 -15 -4 -27q0 -41 37 -41q53 0 88 63t35 135q0 100 -76 176.5t-202 76.5q-117 0 -197.5 -88t-80.5 -226q0 -123 81.5 -204t211.5 -81q41 0 77 7.5t54.5 15.5t53.5 25l15 -32q-115 -54 -204 -54q-92 0 -165 30t-115.5 78t-64.5 103t-22 111 q0 154 103.5 252t252.5 98q140 0 230.5 -81.5t90.5 -205.5q0 -83 -50 -157.5t-131 -74.5q-42 0 -65.5 26.5t-22.5 42.5h-2q-12 -20 -43.5 -44t-68.5 -25q-43 0 -68.5 29.5t-25.5 91.5q0 29 12 67t34.5 76.5t61 65t84.5 26.5q21 0 36 -9t20 -16.5t14 -24.5l10 38h67zM297 262 v-1q0 -39 17 -59t41 -20q35 0 70.5 55.5t44.5 150.5q0 62 -42 62t-86.5 -54.5t-44.5 -133.5z"/>
    <glyph glyph-name="A" unicode="A" horiz-adv-x="665" d="M358 217h-148q-17 0 -23 -5t-16 -32l-13 -33t-17.5 -48.5t-6.5 -32.5q0 -32 62 -38h4q25 -2 25 -17t-26 -15q-7 0 -40 2t-45 2t-53.5 -2t-48.5 -2q-22 0 -22 15q0 13 31 18q30 1 44 15.5t36 74.5l175 454q3 6 17 43q7 24 34 24q25 0 32 -20l210 -513q0 -1 5 -11t6 -12.5 t5.5 -11.5t7 -12t7.5 -10t9 -9.5t9.5 -6.5t11.5 -5.5t13 -1.5q29 0 29 -17q0 -14 -20 -14q-19 0 -66.5 2t-73.5 2q-17 0 -61.5 -2t-62.5 -2q-23 0 -23 14q0 18 34 18q57 0 57 27q0 15 -40 111q-2 5 -5 13.5t-4.5 11.5t-3.5 8.5t-4 6.5t-3.5 4.5t-4.5 3.5t-5 1.5t-7.5 1.5h-9 h-11.5zM223 256h125q27 0 27 8q0 3 -3.5 12t-3.5 11q-62 155 -65 163q-11 28 -15 28q-5 0 -16 -29l-65 -172q-4 -10 -4 -15q0 -6 20 -6z"/>
    <glyph glyph-name="B" unicode="B" horiz-adv-x="674" d="M125 117v391q0 52 -6.5 69t-37.5 17q-9 0 -25 -2.5t-22 -1.5q-9 2 -9 11q0 19 43 24q89 12 222 12q140 0 203 -24q46 -17 75 -50t29 -78q0 -54 -41 -88t-99 -45v-2q27 -2 47 -9q56 -18 93.5 -59.5t37.5 -103.5q0 -40 -21 -78t-61 -65q-57 -39 -168 -39q-29 0 -107.5 2 t-114.5 2q-30 0 -65 -2t-42 -2q-21 0 -21 18q0 9 6.5 11.5t22.5 2.5q44 0 52.5 15t8.5 74zM236 539v-138q0 -29 7.5 -36t38.5 -7q74 0 111 9q35 9 58 39.5t23 73.5q0 60 -42.5 93t-111.5 33q-58 0 -71 -12.5t-13 -54.5zM236 285v-158q0 -63 19.5 -82t93.5 -19q78 0 118 39 q44 42 44 107q0 86 -66 126q-32 20 -67.5 25t-108.5 5q-22 0 -27.5 -7.5t-5.5 -35.5z"/>
    <glyph glyph-name="C" unicode="C" horiz-adv-x="633" d="M597 157l-5 -82q-2 -24 -6.5 -31t-26.5 -17q-90 -40 -183 -40q-146 0 -242.5 98t-96.5 230q0 139 105.5 231t251.5 92q84 0 162 -26q12 -5 17.5 -11.5t7 -13t3.5 -24.5q1 -6 3 -22.5t3 -29t1 -18.5q0 -18 -17 -18q-8 0 -15 7.5t-18 26t-19 28.5q-50 66 -134 66 q-108 0 -167.5 -83.5t-59.5 -201.5q0 -126 67.5 -211.5t161.5 -85.5q87 0 139 87q6 9 17 31t18 30.5t16 8.5q19 0 17 -21z"/>
    <glyph glyph-name="D" unicode="D" horiz-adv-x="757" d="M119 118v397q0 28 -1 40t-8.5 21t-23.5 9q-10 0 -27.5 -4.5t-20.5 -4.5q-16 0 -16 15q0 16 48 26q94 20 249 20q189 0 293 -93q51 -44 77 -104t26 -122q0 -33 -7.5 -69.5t-31.5 -83.5t-62 -83t-106.5 -61t-158.5 -25q-31 0 -107 2t-106 2q-12 0 -43.5 -2t-43.5 -2 q-21 0 -21 17q0 15 30 15q43 0 52 14.5t9 75.5zM230 538v-412q0 -60 18.5 -80.5t77.5 -20.5q123 0 194 83q69 84 69 198q0 136 -77.5 217.5t-198.5 81.5q-58 0 -71 -13t-12 -54z"/>
    <glyph glyph-name="E" unicode="E" horiz-adv-x="586" d="M116 118v385q0 58 -8.5 72t-51.5 15q-30 0 -30 15q0 18 21 18q27 0 87 -2t87 -2q49 0 143 2q24 0 71 0.5t71 0.5q14 0 17 -6t3 -29q0 -15 -0.5 -45t-0.5 -46q0 -27 -15 -27q-12 0 -20 16l-9 17.5l-8 15.5q-14 28 -28.5 41t-45 20t-85.5 7q-66 0 -77 -8q-10 -7 -10 -40 v-142q0 -33 9 -38.5t61 -5.5q67 0 83 6.5t23 41.5q1 2 2.5 10.5t2.5 12.5t3.5 9.5t6 8t8.5 2.5q16 0 16 -19q0 -13 -1.5 -41.5t-1.5 -42.5q0 -16 1.5 -45.5t1.5 -44.5q0 -23 -16 -23q-5 0 -8 2.5t-5.5 8t-4 10t-3.5 12.5l-3 12q-8 29 -31 36t-97 7q-30 0 -38.5 -5t-8.5 -29 v-163q0 -57 23.5 -71t89.5 -14q69 0 105 17t59 71q14 33 23 37q4 2 8 2q12 0 13 -10q2 -7 0 -29q-1 -10 -6 -46.5t-7 -56.5q-1 -12 -4 -15t-12 -3h-334q-31 0 -77 -2t-61 -2q-21 0 -21 18q0 15 30 15q43 1 51.5 15t8.5 74z"/>
    <glyph glyph-name="F" unicode="F" horiz-adv-x="546" d="M227 282v-167q0 -59 9 -73t55 -14q27 0 27 -16t-21 -16q-13 0 -53 2t-75 2q-19 0 -61 -2t-61 -2q-21 0 -21 16t30 16q43 0 51.5 14t8.5 74v389q0 57 -8.5 70.5t-51.5 14.5q-30 0 -30 17q0 16 21 16q23 0 69.5 -2t69.5 -2q38 0 153.5 2t168.5 2q11 0 13.5 -6t2.5 -27 q0 -18 0.5 -52t0.5 -42q0 -27 -17 -27q-8 0 -13.5 6.5t-13.5 24t-12 25.5q-19 39 -53.5 50t-106.5 11q-59 0 -70.5 -8t-11.5 -44v-140q0 -31 9 -36.5t60 -5.5q65 0 83 6.5t24 40.5q7 43 23 43t16 -19q0 -13 -2 -41.5t-2 -42.5q0 -15 2 -45t2 -44q0 -24 -17 -24q-5 0 -8 2.5 t-5.5 8t-3.5 9.5t-3 13t-3 12q-9 29 -31.5 36t-97.5 7q-30 0 -38 -5t-8 -27z"/>
    <glyph glyph-name="G" unicode="G" horiz-adv-x="748" d="M643 208v-113v-28q-1 -10 -5 -15t-17 -12q-89 -53 -220 -53q-92 0 -164.5 29.5t-114 77t-63 101t-21.5 106.5q0 76 34.5 140.5t90.5 107t125 66t140 23.5q90 0 164 -27q19 -7 23 -18.5t4 -33.5l3 -61q2 -26 -21 -26q-5 0 -9.5 2t-8.5 7.5t-7.5 11l-9.5 15.5l-11 18 q-44 76 -147 76q-55 0 -99.5 -20t-70.5 -51t-43.5 -71t-24 -76t-6.5 -71q0 -52 14.5 -101.5t43 -92.5t79 -69.5t116.5 -26.5q70 0 100 24q17 15 17 74v86q0 42 -12 53t-57 11q-28 2 -28 16q0 17 30 17q16 0 52.5 -2t63.5 -2q25 0 64 2t53 2q24 0 24 -16q0 -9 -7 -12t-33 -6 q-27 -2 -34 -12t-7 -50z"/>
    <glyph glyph-name="H" unicode="H" horiz-adv-x="767" d="M505 312h-244q-24 0 -29.5 -5t-5.5 -29v-164q0 -55 8.5 -70t48.5 -16q29 -2 29 -16q0 -16 -24 -16q-14 0 -52 2t-59 2q-22 0 -67.5 -2t-62.5 -2q-21 0 -21 16t29 16q43 0 51.5 14t8.5 73v388q0 59 -8.5 72.5t-51.5 14.5q-29 0 -29 16q0 17 21 17q15 0 57.5 -2t64.5 -2 q27 0 67 2t54 2q22 0 22 -17q0 -16 -28 -16q-42 -1 -50 -15t-8 -72v-125q0 -20 5 -23.5t30 -3.5h245q23 0 28 5.5t5 30.5v115q-1 60 -8.5 73t-48.5 14q-2 0 -5 0.5t-5 1t-4.5 1t-4 1t-4 2t-3.5 3t-1.5 3.5t-0.5 5q0 17 22 17q14 0 53 -2t65 -2q32 0 72 2t53 2q21 0 21 -17 q0 -16 -30 -16q-43 0 -51.5 -14t-8.5 -73v-388q0 -59 9 -73t54 -14q27 0 27 -16t-21 -16q-15 0 -57.5 2t-70.5 2q-22 0 -59.5 -2t-54.5 -2q-23 0 -23 17q0 14 27 16q41 1 49.5 13.5t8.5 61.5v174q0 25 -4.5 29.5t-29.5 4.5z"/>
    <glyph glyph-name="I" unicode="I" horiz-adv-x="355" d="M229 503v-388q0 -58 9.5 -72.5t54.5 -14.5q27 0 27 -16t-21 -16q-12 0 -50 2t-70 2q-33 0 -74 -2t-55 -2q-21 0 -21 16t29 16q43 0 51.5 14t8.5 73v388q0 59 -8.5 72.5t-51.5 14.5q-29 0 -29 16q0 17 21 17q14 0 56.5 -2t69.5 -2q28 0 68.5 2t54.5 2q21 0 21 -17 q0 -16 -30 -16q-43 -1 -52 -14.5t-9 -72.5z"/>
    <glyph glyph-name="J" unicode="J" horiz-adv-x="348" d="M240 504v-373q0 -81 -12 -126t-57 -97q-37 -41 -88.5 -74t-96.5 -33q-32 0 -55 17t-23 44q0 22 18 36.5t39 14.5q34 0 54 -34q1 -2 3.5 -5t3.5 -4.5t3 -4t4 -3.5t4 -2.5t4.5 -2t5.5 -0.5q16 0 33.5 15.5t26.5 34.5q22 36 22 153v14v429q0 59 -8.5 72.5t-51.5 14.5 q-30 0 -30 16q0 17 21 17q16 0 59 -2t71 -2q23 0 62.5 2t57.5 2q21 0 21 -17q0 -16 -31 -16q-43 -1 -51.5 -14.5t-8.5 -71.5z"/>
    <glyph glyph-name="K" unicode="K" horiz-adv-x="696" d="M116 116v387q0 59 -8.5 72.5t-51.5 14.5q-30 0 -30 16q0 17 21 17q15 0 54.5 -2t68.5 -2q23 0 64 2t56 2q23 0 23 -17q0 -14 -29 -16q-41 -1 -49 -14t-8 -65v-168q0 -25 8 -25q3 0 27 24l157 163q45 49 45 63q0 10 -6.5 15t-13 6t-19.5 2q-23 2 -23 16q0 16 22 16 q16 0 53 -2t59 -2q24 0 57 2t46 2q21 0 21 -16t-34 -18q-26 -1 -41 -3.5t-41.5 -17.5t-56.5 -45l-100 -102l-8.5 -8.5t-10.5 -11.5t-4 -9q0 -2 17 -27l180 -240q46 -60 66.5 -78t43.5 -19q32 0 32 -15q0 -17 -27 -17q-21 0 -65 2t-65 2q-26 0 -66 -2t-55 -2q-21 0 -21 14 q0 13 28 15q41 2 41 24q0 15 -32 56l-133 178q-1 1 -6 7.5t-8.5 10.5t-8.5 8t-8 4q-7 0 -28.5 -22t-21.5 -35v-149q0 -47 8 -62t35 -17q13 -1 17 -1t12 -1.5t10.5 -5t2.5 -8.5q0 -16 -24 -16q-17 0 -57.5 2t-65.5 2q-26 0 -64.5 -2t-53.5 -2q-21 0 -21 16t30 16 q43 0 51.5 14t8.5 74z"/>
    <glyph glyph-name="L" unicode="L" horiz-adv-x="513" d="M115 116v387q0 59 -8.5 72.5t-51.5 14.5q-29 0 -29 16q0 17 21 17q14 0 51 -2t65 -2t73 2t60 2q21 0 21 -17q0 -16 -30 -16q-43 -1 -52 -14.5t-9 -71.5v-371q0 -59 15.5 -79.5t74.5 -20.5q63 0 93.5 24.5t51.5 72.5q14 34 28 34q16 0 14 -24q0 -18 -5 -54.5t-5 -53.5 q0 -2 -0.5 -7.5t-0.5 -7t-0.5 -5.5t-1.5 -5.5t-2 -4t-3 -3t-4.5 -1.5t-6 -1.5t-7.5 -0.5q-44 0 -151.5 2t-150.5 2q-19 0 -58 -2t-59 -2q-22 0 -22 17q0 16 30 16q43 1 51 14.5t8 72.5z"/>
    <glyph glyph-name="M" unicode="M" horiz-adv-x="833" d="M525 11v1q0 14 33 17h5q20 0 31.5 5t16.5 18t6 23t1 31q0 61 -1 204.5t-1 205.5q0 18 -3 18q-1 0 -14 -27l-197 -468q-8 -20 -15 -23q-3 -1 -8 -1q-11 0 -15.5 5.5t-9.5 19.5l-177 459q-9 24 -11 24q-3 0 -5 -25q-2 -51 -12.5 -197t-10.5 -195q0 -44 14 -60.5t51 -17.5 q32 -2 32 -17t-24 -15q-14 0 -46.5 2t-45.5 2q-14 0 -47.5 -2t-46.5 -2q-20 0 -20 15q0 5 2 8t8.5 5t10 2.5t13.5 1.5q19 1 30.5 5t17 15t7.5 22.5t3 35.5q4 72 14.5 228.5t12.5 196.5t-6 48.5t-46 9.5q-28 2 -28 19q0 7 5 10.5t11 4t19 0.5q11 0 39 -1t40 -1q10 0 35.5 1 t34.5 1q13 0 22 -26l141 -356q3 -6 9.5 -24t10.5 -27t6 -9t6 9l11 26l11 26l158 364q7 17 28 17q11 0 35 -1t34 -1q9 0 34.5 1t39.5 1q33 0 33 -15q0 -12 -9 -15t-35 -4t-31.5 -14t-5.5 -64l3 -402q0 -53 10 -66.5t46 -15.5q27 -2 27 -16q0 -15 -24 -15q-18 0 -56 2t-57 2 q-21 0 -64 -2t-64 -2q-22 0 -22 15z"/>
    <glyph glyph-name="N" unicode="N" horiz-adv-x="719" d="M113 112v401q0 51 -8.5 63.5t-50.5 12.5q-31 0 -31 16q0 18 32 18q9 0 38 -1t46 -1q15 0 39.5 1t29.5 1q18 0 41 -31l305 -401q16 -21 26 -33v16v335q0 54 -9 67t-54 14q-28 0 -28 15q0 18 22 18q13 0 42.5 -2t47.5 -2q16 0 44 2t40 2q24 0 24 -19q0 -14 -33 -16 q-40 -1 -49 -15t-9 -64v-501q0 -14 -3 -17t-18 -3q-27 0 -40 22l-50 65l-335 442q-3 3 -10.5 13t-9.5 12v-25v-405q0 -56 10.5 -69t60.5 -14q22 -2 22 -15q0 -18 -23 -18q-12 0 -44.5 2t-51.5 2q-16 0 -44.5 -2t-40.5 -2q-21 0 -21 18q0 10 6.5 12t25.5 3q42 0 51.5 13.5 t9.5 69.5z"/>
    <glyph glyph-name="O" unicode="O" horiz-adv-x="789" d="M38 314v1q0 135 107.5 229t246.5 94q156 0 255.5 -93t99.5 -230q0 -141 -102.5 -234.5t-250.5 -93.5q-141 0 -248.5 95.5t-107.5 231.5zM622 301v1q0 129 -71 215.5t-161 86.5q-96 0 -161.5 -76.5t-65.5 -205.5q0 -125 68.5 -212.5t167.5 -87.5q85 0 154 77t69 202z"/>
    <glyph glyph-name="P" unicode="P" horiz-adv-x="596" d="M226 264v-149q0 -59 9 -73t54 -14q27 0 27 -16t-20 -16q-13 0 -53.5 2t-72.5 2q-26 0 -68 -2t-56 -2q-21 0 -21 16t30 16q43 0 51.5 14t8.5 73v388q0 60 -8.5 73t-51.5 14q-29 0 -29 16q0 17 21 17q16 0 59.5 -2t69.5 -2q23 0 80 2t91 2q55 0 96.5 -16t62.5 -37.5 t33.5 -49t15 -44t2.5 -29.5q0 -81 -59.5 -132.5t-141.5 -51.5q-24 0 -72 16q-33 12 -43 12q-7 0 -10.5 -3.5t-4 -8t-0.5 -15.5zM226 517v-148q0 -26 2 -33.5t13 -13.5q31 -19 73 -19q54 0 89 41t35 99q0 13 -1.5 26.5t-10 37.5t-22.5 42t-43.5 31.5t-69.5 13.5 q-43 0 -54 -15.5t-11 -61.5z"/>
    <glyph glyph-name="Q" unicode="Q" horiz-adv-x="790" d="M37 312v1q0 141 109.5 233t252.5 92q152 0 251 -96t99 -233q0 -116 -78 -203.5t-192 -111.5q-19 -5 -32 -6q4 -16 6 -25q11 -56 69 -89t125 -33q22 0 43 3.5t33.5 7.5t14.5 4q17 0 17 -16q0 -20 -49 -32t-97 -12q-108 0 -197 48.5t-89 112.5q0 17 5 30q-28 6 -54 15 q-101 36 -169 117.5t-68 192.5zM398 16h1q89 0 156 74.5t67 204.5q0 136 -67.5 222.5t-170.5 86.5q-90 0 -155.5 -79t-65.5 -195q0 -74 26 -144t81.5 -120t127.5 -50z"/>
    <glyph glyph-name="R" unicode="R" horiz-adv-x="626" d="M227 254v-147q0 -51 9 -64.5t52 -14.5q26 -2 26 -16q0 -10 -7 -13t-24 -3t-55 2t-55 2q-18 0 -63.5 -2t-62.5 -2q-21 0 -21 16t30 16q43 0 51.5 14t8.5 73v387q0 60 -8.5 73.5t-51.5 14.5q-30 0 -30 15q0 18 22 18q13 0 49 -2t62 -2q33 0 94.5 2t95.5 2q86 0 142.5 -42 t56.5 -115q0 -49 -26.5 -83.5t-69.5 -52.5q-24 -12 -60 -17q16 -2 28.5 -13t16.5 -18l16 -29l79 -154q23 -47 38 -59t35 -12q30 -2 30 -17t-24 -15q-9 0 -32.5 1t-33.5 1t-34.5 -1t-32.5 -1q-4 0 -7.5 1t-5.5 1.5t-5 3.5l-4 4t-3.5 5l-3.5 5.5t-3.5 7t-3.5 7.5l-93 198 q-25 49 -38 57.5t-61 8.5q-16 0 -19.5 -7t-3.5 -34zM227 520v-173q0 -22 28 -22q29 0 55 5t54.5 18t45.5 40.5t17 67.5q0 62 -34.5 99t-95.5 37q-49 0 -59.5 -12t-10.5 -60z"/>
    <glyph glyph-name="S" unicode="S" horiz-adv-x="513" d="M472 189v-1q0 -80 -67 -140.5t-180 -60.5q-92 0 -164 38q-18 10 -18 43q0 34 2 90q2 30 22 30q6 0 10 -4t7 -12.5t5 -15.5t4.5 -19.5t3.5 -18.5q11 -48 45.5 -75.5t88.5 -27.5q57 0 98 33t41 85t-32.5 85t-94.5 59q-9 3 -26 10.5t-23 10.5q-64 27 -101.5 65t-37.5 99 q0 59 37 101t84 58.5t94 16.5q81 0 145 -21q12 -5 15 -12t3 -23q0 -13 1.5 -39t2.5 -39q0 -22 -18 -22q-13 0 -24 27q-29 100 -123 100q-48 0 -82.5 -25.5t-34.5 -71.5q0 -13 3 -24.5t10 -21.5t13.5 -18t20 -16.5t21 -14t25 -13.5t25 -11t27 -11.5t25.5 -10.5 q66 -29 106.5 -70.5t40.5 -111.5z"/>
    <glyph glyph-name="T" unicode="T" horiz-adv-x="601" d="M246 115v440q0 20 -4.5 25.5t-17.5 5.5q-81 0 -113.5 -13t-64.5 -66q-1 -2 -5.5 -9t-6.5 -9t-5.5 -6.5t-7.5 -6t-8 -1.5q-15 0 -15 16q0 11 6 26q24 82 37 122q6 24 20 24q11 0 17 -15q3 -9 5 -13t12.5 -8.5t28.5 -4.5h371q33 0 44.5 3.5t17.5 18.5l5.5 8.5t5.5 7t5 3.5 t7 2q14 0 16 -23q0 -4 -0.5 -10t-0.5 -8q-1 -20 -2 -60t-2 -60q0 -25 -19 -25q-12 0 -19 22q-18 54 -34 69.5t-67 15.5h-60q-26 0 -30.5 -6.5t-4.5 -40.5v-424q0 -60 9 -73.5t54 -13.5q28 0 28 -16t-21 -16q-14 0 -53.5 2t-69.5 2q-23 0 -67.5 -2t-59.5 -2q-21 0 -21 16 t30 16q43 0 51.5 14t8.5 73z"/>
    <glyph glyph-name="U" unicode="U" horiz-adv-x="709" d="M225 504v-286q0 -102 21 -136q19 -31 60.5 -46t87.5 -15q104 0 152 53q15 17 23 39.5t9 39t1 47.5v286q0 66 -11.5 84.5t-56.5 19.5q-28 0 -28 16q0 17 25 17q12 0 42 -2t47 -2q15 0 43 2t38 2q24 0 24 -16q0 -2 -0.5 -4.5t-2 -4t-3 -2.5t-4 -2t-4.5 -1.5t-5 -1t-5 -1 t-5.5 -1t-4.5 -0.5q-8 0 -14.5 -1.5t-11 -3t-8.5 -5.5t-6.5 -6t-4 -8t-2.5 -9t-2 -11.5t-1 -12t-0.5 -14.5t-0.5 -15v-301q0 -39 -2.5 -61t-15.5 -51t-39 -51q-60 -52 -191 -52q-124 0 -190 46q-41 29 -53 67.5t-12 108.5v295q0 58 -8.5 71.5t-51.5 14.5q-30 0 -30 16 q0 17 21 17q16 0 56.5 -2t66.5 -2q24 0 67.5 2t58.5 2q22 0 22 -17q0 -16 -31 -16q-43 0 -51.5 -14t-8.5 -72z"/>
    <glyph glyph-name="V" unicode="V" horiz-adv-x="651" d="M268 608v-1q0 -15 -24 -17q-45 -4 -45 -20q0 -11 12 -42l118 -286l15 -37l17.5 -42t8.5 -15q3 0 40 94l110 270q14 39 14 50q0 10 -4 15.5t-14 8t-15.5 3t-20.5 1.5q-29 2 -29 15q0 18 26 18q12 0 41.5 -2t45.5 -2q14 0 42.5 2t40.5 2q18 0 18 -16q0 -7 -5.5 -11 t-12.5 -5.5t-22 -2.5q-22 -1 -37 -23.5t-35 -73.5l-192 -472q-4 -10 -6 -14.5t-8 -10t-15 -5.5q-15 0 -21 6.5t-12 23.5l-206 501q-19 47 -34 58q-11 9 -26 10q-22 2 -31.5 5t-9.5 13q0 17 26 17q13 0 57 -2t65 -2q18 0 57 2t49 2q22 0 22 -15z"/>
    <glyph glyph-name="W" unicode="W" horiz-adv-x="927" d="M484 254l-113 -229q-19 -38 -31 -38q-13 0 -29 39l-230 498q-18 40 -29.5 53.5t-31.5 14.5q-12 0 -17.5 0.5t-10.5 4.5t-5 12q0 14 23 14q17 0 53 -2t54 -2t50.5 2t48.5 2q24 0 24 -16q0 -15 -24 -15q-32 -2 -32 -21q0 -10 15 -45l160 -350q19 -37 23 -37q6 0 20 27 l45 92q12 26 12 37q0 12 -18 51l-85 188q-26 56 -52 58q-28 0 -28 15q0 16 22 16q15 0 47.5 -2t48.5 -2t47.5 2t47.5 2q22 0 22 -17q0 -13 -25 -15q-28 -2 -28 -22q0 -15 46 -112q17 -38 22 -38q6 0 22 37q1 3 14.5 32t23 52t9.5 31q0 19 -30 21q-19 4 -19 15q0 16 21 16 q10 0 32.5 -2t33.5 -2q12 0 34.5 2t32.5 2q17 0 17 -16q0 -15 -27 -15q-9 0 -16.5 -2.5t-14 -8l-10.5 -9t-10 -13t-8 -13t-8 -15.5l-7 -14l-42 -82q-24 -48 -24 -62q0 -11 16 -46l64 -141q16 -40 21 -40t21 41l131 313q19 49 19 63q0 27 -40 29q-25 0 -25 15q0 16 21 16 q11 0 35.5 -2t36.5 -2t36 2t36 2q23 0 23 -17q0 -7 -4.5 -10t-9 -3.5t-15.5 -1.5q-24 -1 -36 -16t-31 -59l-206 -491q-15 -38 -29 -38q-11 0 -26 32l-102 235h-2z"/>
    <glyph glyph-name="X" unicode="X" horiz-adv-x="669" d="M382 11v1q0 13 35 15q16 1 24 2.5t13.5 6t5.5 13.5q0 17 -27 53q-17 21 -46.5 62.5l-50 70.5t-22.5 29t-19.5 -23.5l-47 -63.5l-40.5 -55q-37 -51 -37 -70q0 -15 11.5 -19t39.5 -6q32 0 32 -17q0 -14 -23 -14q-7 0 -52 2t-59 2q-9 0 -53.5 -2t-52.5 -2q-22 0 -22 14 q0 11 8.5 14t37.5 5q32 2 58 21.5t70 79.5l104 140q15 18 15 29q0 9 -17 32l-120 165q-48 67 -65 79.5t-55 14.5q-31 2 -31 17q0 16 25 16q12 0 46 -2t60 -2q41 0 93.5 2t71.5 2q20 0 20 -16t-27 -16q-27 -1 -38 -4.5t-11 -16.5q0 -10 21 -38l43.5 -60l47 -64.5t19.5 -23.5 t91 121q31 41 31 62q0 10 -6.5 15t-15 6.5t-29.5 2.5q-23 2 -23 16q0 16 25 16q17 0 56.5 -2t63.5 -2q17 0 47.5 2t42.5 2q22 0 22 -18q0 -9 -6 -11t-25 -4q-45 -2 -78 -26t-92 -104l-59 -81q-16 -24 -16 -31q0 -8 16 -30l171 -237q22 -30 36 -41t36 -12q27 -3 27 -18 q0 -14 -17 -14q-7 0 -64.5 2t-82.5 2q-23 0 -58 -2t-48 -2q-30 0 -30 15z"/>
    <glyph glyph-name="Y" unicode="Y" horiz-adv-x="673" d="M282 107v119q0 29 -4.5 42t-22.5 39l-134 203q-36 53 -52 65.5t-53 13.5q-10 1 -14.5 1.5t-8.5 4.5t-4 11q0 17 25 17q11 0 45.5 -2t65.5 -2q30 0 79 2t68 2q21 0 21 -15q0 -18 -34 -18q-39 -2 -39 -21q0 -6 4 -15.5t12.5 -23.5l15.5 -25t19 -28t17 -25q6 -10 20 -31 l23 -35l20 -30t17.5 -24t9.5 -8q6 0 88 129l17 25.5l18 27.5l13 21.5t11 22t3 14.5q0 17 -13.5 21.5t-38.5 4.5q-28 0 -28 14q0 19 30 19q12 0 42.5 -2t48.5 -2q19 0 48 2t42 2q25 0 25 -17q0 -5 -2 -8t-8.5 -5t-10.5 -2.5t-14 -1.5q-11 0 -21 -3t-20 -10.5t-16.5 -13 t-16 -17.5t-13 -17l-13.5 -19t-11 -16l-125 -191q-16 -25 -20 -38.5t-3 -44.5v-110q0 -54 9 -67.5t54 -13.5q28 0 28 -16t-21 -16q-18 0 -61.5 2t-60.5 2q-18 0 -63 -2t-62 -2q-21 0 -21 16t30 16q42 0 51 13t9 66z"/>
    <glyph glyph-name="Z" unicode="Z" horiz-adv-x="615" d="M220 38h1h167q71 0 107 23t47 88q5 18 8 23t12 5q12 0 15.5 -7t3.5 -24t-0.5 -57.5t-0.5 -62.5q0 -19 -6 -23t-33 -4q-25 0 -98.5 0.5t-132.5 0.5q-62 0 -143 -0.5t-108 -0.5q-23 0 -23 13q0 6 7 16l360 522q14 23 14 29q0 7 -29 7h-138q-76 0 -114 -50q-8 -10 -17.5 -26 t-16 -23.5t-15.5 -7.5q-15 0 -15 15q0 4 6 28l30 111q8 31 21 31q10 0 18 -18q4 -16 12.5 -20t41.5 -4h174h173q22 0 22 -8q0 -6 -22 -36l-345 -504q-14 -23 -14 -27q0 -9 31 -9z"/>
    <glyph glyph-name="bracketleft" unicode="[" horiz-adv-x="274" d="M61 -86v750q0 19 6.5 25t24.5 6q12 0 36 -1t35 -1q12 0 34 1t32 1q27 0 27 -17q0 -18 -28 -18q-8 0 -24.5 0.5t-25.5 0.5q-23 0 -27.5 -8t-4.5 -45v-637q0 -37 4.5 -45t27.5 -9q9 0 25.5 0.5t24.5 0.5q28 0 28 -18q0 -17 -27 -17q-10 0 -32 1t-34 1q-11 0 -35 -1t-36 -1 q-18 0 -24.5 6t-6.5 25z"/>
    <glyph glyph-name="backslash" unicode="\" horiz-adv-x="506" d="M475 -116h-31q-15 0 -20 12l-370 767q-1 3 -4.5 9.5t-5.5 11t-2 6.5q0 5 11 5h34q11 0 16 -12l371 -767q1 -3 4.5 -9.5t5.5 -11t2 -6.5q0 -5 -11 -5z"/>
    <glyph glyph-name="bracketright" unicode="]" horiz-adv-x="274" d="M209 664v-750q0 -19 -6.5 -25t-24.5 -6q-12 0 -36 1t-35 1q-12 0 -34 -1t-32 -1q-27 0 -27 17q0 18 28 18q8 0 24.5 -0.5t25.5 -0.5q23 1 27.5 9t4.5 45v637q0 37 -4.5 45t-27.5 8q-9 0 -25.5 -0.5t-24.5 -0.5q-28 0 -28 18q0 17 27 17q10 0 32 -1t34 -1q11 0 35 1t36 1 q18 0 24.5 -6t6.5 -25z"/>
    <glyph glyph-name="asciicircum" unicode="^" horiz-adv-x="569" d="M250 618h69l222 -400h-76l-181 321l-180 -321h-76z"/>
    <glyph glyph-name="underscore" unicode="_" horiz-adv-x="500" d="M0 -125v50h500v-50h-500z"/>
    <glyph glyph-name="grave" unicode="`" horiz-adv-x="384" d="M268 525v-1q0 -8 -9 -8q-5 0 -36 14l-140 67q-1 1 -8 4t-9.5 4t-8.5 4.5t-8.5 5.5t-7 6t-6.5 7.5t-3.5 8t-1.5 9.5q0 13 9.5 22.5t23.5 9.5q17 0 60 -33l126 -99q19 -16 19 -21z"/>
    <glyph glyph-name="a" unicode="a" horiz-adv-x="497" d="M294 300v45q0 20 -1.5 31t-6.5 24t-17 19t-31 6q-38 0 -61 -19.5t-41 -58.5q-17 -33 -38 -42q-30 -11 -43 -11q-20 0 -20 19q0 45 68 92.5t161 47.5q74 0 108 -29q14 -12 17 -26.5t3 -52.5v-224q0 -73 33 -73q17 0 29 12q13 13 17 13q7 0 7 -15q0 -18 -37 -42t-70 -24 q-9 0 -16.5 3t-13 6t-11.5 10t-8.5 10.5l-8.5 12.5t-7 11q-9 13 -13 13q-2 0 -9 -5.5l-20 -15t-24 -16.5q-55 -34 -107 -34q-42 0 -70.5 23.5t-28.5 61.5q0 25 12 46t38 39.5t43 28t52 26.5q27 11 78 36q27 13 32 20t5 32zM133 101v-1q0 -26 17.5 -41t43.5 -15q46 0 80 37 q10 10 14.5 21.5t5 19.5t0.5 25v59q0 25 -4 25q-5 0 -23 -9l-69 -36q-65 -37 -65 -85z"/>
    <glyph glyph-name="b" unicode="b" horiz-adv-x="576" d="M168 672v-252q0 -15 5 -15q4 0 20 8q83 40 143 40q91 0 151 -62.5t60 -153.5q0 -110 -80.5 -180t-188.5 -70q-57 0 -109 25q-40 20 -44 20q-3 0 -5.5 -1t-4.5 -2.5t-4 -5t-3.5 -5.5t-4 -6.5t-3.5 -6.5q-2 -3 -5 -9.5t-5 -10t-6 -6.5t-8 -3q-6 0 -10.5 5t-4.5 12 q0 3 2 14.5t2 14.5q5 23 5 70v478q0 19 -2 29.5t-9.5 16t-14 7t-22.5 2.5q-10 1 -13.5 2t-6.5 3.5t-3 7.5q0 11 24 15q66 10 107 31q19 11 27 11t9.5 -4t1.5 -19zM440 213v1q0 80 -44.5 136.5t-116.5 56.5q-61 0 -97 -33q-10 -9 -12 -17t-2 -32v-217q0 -11 0.5 -19.5t6 -24 t16 -25.5t31.5 -18t51 -8q79 0 123 59.5t44 140.5z"/>
    <glyph glyph-name="c" unicode="c" horiz-adv-x="468" d="M33 211v1q0 101 80 171t185 70q78 0 125 -31q13 -7 15 -27v-7.5v-9.5v-7v-26q-2 -28 -18 -28q-9 0 -18 9t-23 29.5t-23 31.5q-33 39 -68 39q-57 0 -103.5 -53.5t-46.5 -132.5q0 -82 50.5 -142t124.5 -60q62 0 102 37q19 14 21 14q10 0 10 -12q0 -10 -19.5 -30t-64 -40 t-97.5 -20q-95 0 -163.5 64.5t-68.5 159.5z"/>
    <glyph glyph-name="d" unicode="d" horiz-adv-x="579" d="M501 674v-577q0 -14 0.5 -20.5t1.5 -14.5t4.5 -11t9.5 -3q10 0 28 15.5t21 15.5q8 0 8 -9q0 -34 -19 -41q-7 -2 -32.5 -8.5t-35.5 -9.5q-60 -20 -63 -20q-10 0 -13 29q-3 30 -10 30q-3 0 -10.5 -4.5t-20 -13t-20.5 -13.5q-52 -32 -101 -32q-94 0 -155 69.5t-61 162.5 q0 102 75.5 168t158.5 66q56 0 109 -20q14 -6 19 -6q8 0 8 21v130q0 31 -9.5 38.5t-37.5 9.5q-21 3 -21 13q0 12 28 15q67 10 104 30q18 11 24 11q7 0 8.5 -4t1.5 -17zM137 235v-1q0 -70 41.5 -131t115.5 -61q64 0 98 38q11 11 11 44v180q0 64 -20 86q-30 32 -84 32 q-64 0 -113 -52.5t-49 -134.5z"/>
    <glyph glyph-name="e" unicode="e" horiz-adv-x="510" d="M458 265h-281q-27 0 -33 -4t-6 -24q0 -80 49.5 -137t130.5 -57q63 0 110 37q29 24 32 24q11 0 11 -11q0 -15 -39 -48q-67 -58 -164 -58q-104 0 -170 68t-66 162q0 111 79.5 173.5t178.5 62.5q88 0 138 -48t50 -114q0 -26 -20 -26zM145 313v-1q0 -9 6.5 -12t24.5 -3 q48 0 72 1q69 0 101 12q31 9 31 38q0 13 -6.5 29.5t-30.5 33.5t-62 17q-59 0 -97.5 -40.5t-38.5 -74.5z"/>
    <glyph glyph-name="f" unicode="f" horiz-adv-x="325" d="M184 367v-265q0 -32 1.5 -44.5t12 -22.5t32.5 -10q29 -2 29 -16q0 -13 -15 -13q-14 0 -53 2t-63 2q-22 0 -56 -2t-46 -2q-16 0 -16 12q0 15 29 17q33 1 40 16.5t7 72.5v247q0 25 -4 30.5t-24 5.5q-37 0 -37 13q0 14 32 22q8 2 13.5 5.5t8.5 7t5 10.5t2.5 11t1.5 14.5 t2 14.5q14 93 66 138q31 27 71.5 44.5t76.5 17.5q29 0 60.5 -11.5t31.5 -30.5q0 -17 -17 -48q-11 -19 -22 -19q-17 0 -38 27q-18 23 -31 34t-30 11q-67 0 -70 -127v-61q0 -22 6 -27t33 -5h76q11 0 14 -4t3 -15q0 -15 -5 -18.5t-24 -3.5h-67q-25 0 -30.5 -4.5t-5.5 -25.5z "/>
    <glyph glyph-name="g" unicode="g" horiz-adv-x="544" d="M61 288v1q0 73 62 118.5t144 45.5q58 0 112 -25q28 -13 56 -13h62q23 0 30 -4.5t8 -23.5q1 -13 -2.5 -16t-18.5 -3q-29 0 -44 1q-22 0 -22 -9l7 -18q12 -24 12 -57q0 -19 -11 -43t-33 -50t-66 -43.5t-100 -17.5q-36 -1 -64.5 -13t-28.5 -28t19.5 -23.5t41.5 -7.5 q19 0 63 0.5t63 0.5q72 0 118.5 -27.5t47.5 -80.5q0 -59 -47.5 -101.5t-110.5 -60t-130 -17.5q-83 0 -145.5 29.5t-62.5 79.5q0 32 22.5 51.5t61.5 36.5q31 12 31 22q0 5 -38 41t-38 47q0 7 7.5 11.5t32.5 13.5q78 26 78 35q0 2 -4 5t-13.5 8t-15.5 9q-84 46 -84 126z M262 159h1q51 0 76.5 39.5t25.5 91.5q0 53 -25.5 95.5t-72.5 42.5q-49 0 -75.5 -41.5t-26.5 -91.5q0 -53 24.5 -94.5t72.5 -41.5zM253 -198h1q66 0 115 24q58 28 58 78q0 72 -112 72q-35 0 -77.5 1.5t-55.5 1.5q-68 -39 -68 -82q0 -39 38.5 -67t100.5 -28z"/>
    <glyph glyph-name="h" unicode="h" horiz-adv-x="587" d="M92 114v429q0 55 -7 67t-44 14q-21 3 -21 14t28 14q55 7 101 30q21 13 31 13q7 0 8.5 -4t1.5 -16v-276q0 -12 6 -12t17 8q62 58 143 58q38 0 66 -11t43.5 -28t24.5 -42t11.5 -47t2.5 -50v-173q0 -45 6.5 -60.5t37.5 -16.5q28 -2 28 -16q0 -13 -15 -13t-51.5 2t-49.5 2 q-15 0 -52.5 -2t-51.5 -2q-16 0 -16 13t28 15q25 1 31.5 16t6.5 59v164q0 69 -14 95q-26 46 -88 46q-55 0 -89 -39q-16 -19 -20.5 -36t-4.5 -48v-184q0 -23 1 -33.5t4.5 -21t11.5 -14t23 -4.5q25 -2 25 -14q0 -14 -16 -14q-14 0 -48 2t-47 2q-16 0 -56 -2t-55 -2 q-17 0 -17 12q0 15 30 17q32 1 39 17t7 72z"/>
    <glyph glyph-name="i" unicode="i" horiz-adv-x="283" d="M149 531h-1q-23 0 -40.5 16t-17.5 42q0 24 16 41.5t45 17.5q23 0 40 -16.5t17 -40.5q0 -26 -16.5 -43t-42.5 -17zM100 106v182q0 45 -6.5 57.5t-33.5 13.5q-10 0 -13.5 0.5t-8 1.5t-5.5 3.5t-1 6.5q0 3 0.5 5t1.5 3.5t3 2.5t3.5 2t5 2t4.5 1t5.5 1t5.5 1q53 11 107 54 q15 13 21 13q10 0 10 -17q0 -7 -0.5 -22.5t-0.5 -24.5v-290q0 -44 7 -60t37 -18q28 -2 28 -15t-14 -13q-15 0 -50.5 2t-52.5 2q-28 0 -63.5 -2t-47.5 -2q-17 0 -17 12q0 15 29 17q32 1 39 16t7 65z"/>
    <glyph glyph-name="j" unicode="j" horiz-adv-x="246" d="M136 531h-1q-23 0 -40.5 17t-17.5 41t15 41.5t44 17.5q24 0 41 -16t17 -41q0 -27 -17 -43.5t-41 -16.5zM185 437v-436q0 -48 -8 -81t-35 -63q-22 -30 -71 -65.5t-63 -35.5q-12 0 -12 11q0 10 19 22q40 32 56 63t16 88v356q0 39 -7 51t-33 13q-25 5 -27 12q0 9 6.5 12 t24.5 7q22 4 51.5 19.5t44.5 29.5q21 16 27 16q11 0 11 -19z"/>
    <glyph glyph-name="k" unicode="k" horiz-adv-x="575" d="M92 91v477q0 19 -2 30t-9.5 16.5t-14 6.5t-22.5 2q-22 3 -22 14q0 12 21 14q66 7 112 33q15 11 24 11q7 0 9 -4t2 -17v-418q0 -23 6 -23t26 18l117 93q40 32 40 48q0 3 -0.5 5t-2 4t-3 3.5t-4 2.5t-4.5 1.5t-5.5 1t-4.5 1t-5 1t-5 0.5q-36 0 -36 17q0 8 5.5 10t18.5 2 q39 -3 88 -3q58 0 98 3q11 0 15 -0.5t7 -3.5t3 -9q0 -13 -25 -15q-21 -1 -40.5 -8.5t-28.5 -13.5t-34 -24l-71 -54q-23 -20 -23 -26q0 -3 16 -26l137 -181q40 -54 65 -54q31 -2 31 -16t-19 -14q-18 0 -54 2t-54 2q-17 0 -53.5 -2t-54.5 -2q-15 0 -15 13q0 12 23 15 q26 2 26 18q0 9 -21 39l-78 108q-26 34 -33 34q-9 0 -28.5 -16.5t-19.5 -32.5v-100q0 -47 35 -49q30 -3 30 -15q0 -14 -18 -14q-16 0 -49 2t-48 2q-18 0 -53.5 -2t-52.5 -2t-17 12q0 15 29 17q30 1 38 15t8 51z"/>
    <glyph glyph-name="l" unicode="l" horiz-adv-x="281" d="M93 114v430q0 55 -6.5 66.5t-43.5 13.5q-20 2 -20 13t25 14q73 9 106 33q22 11 27 11q7 0 8.5 -4t1.5 -17v-572q0 -44 7 -60t37 -18q28 -2 28 -15t-15 -13q-16 0 -50.5 2t-51.5 2q-23 0 -61 -2t-51 -2q-17 0 -17 12q0 15 30 17q23 0 32.5 9.5t11.5 24.5t2 55z"/>
    <glyph glyph-name="m" unicode="m" horiz-adv-x="848" d="M90 108v181q0 42 -6.5 55t-32.5 14q-24 4 -26 11q0 14 30 19q62 14 103 55q13 13 20 13q10 0 10 -15v-35q0 -29 6 -29q3 0 10.5 6l21 17t24.5 19q49 34 100 34q76 0 114 -70q7 -13 12 -13q3 0 14 11q21 20 35 31.5t45.5 26t63.5 14.5q68 0 106 -45q21 -24 26 -50.5 t5 -76.5v-179q0 -45 6.5 -60.5t37.5 -16.5q28 -2 28 -16q0 -13 -15 -13q-18 0 -53 2t-52 2t-49.5 -2t-48.5 -2t-16 12t26 16q26 1 32 16.5t6 57.5v202q0 45 -22.5 73t-60.5 28q-48 0 -85 -36q-18 -17 -22.5 -33t-4.5 -49v-185q0 -43 6 -58t32 -16q26 -2 26 -15t-17 -13 q-16 0 -47 2t-46 2q-17 0 -49 -2t-47 -2q-17 0 -17 12q0 3 0.5 5t2.5 3.5t3.5 3t4 2t4.5 1t5.5 1t4.5 0.5q19 1 27.5 10t10 21.5t1.5 44.5v175q0 60 -12 84q-10 18 -30 29.5t-41 11.5q-47 0 -83 -34q-19 -17 -24 -34t-5 -48v-185q0 -32 1.5 -44t10 -21t27.5 -10 q25 -2 25 -15t-15 -13t-46 2t-49 2q-23 0 -58.5 -2t-48.5 -2q-17 0 -17 12q0 15 28 17q31 1 37.5 17t6.5 66z"/>
    <glyph glyph-name="n" unicode="n" horiz-adv-x="582" d="M92 114v175q0 42 -6.5 54t-30.5 13q-27 1 -27 12q0 3 1.5 6t3 4.5t5 3t5.5 2t7 1.5t6 1q22 5 53.5 21.5t48.5 33.5q15 15 21 15q10 0 10 -19v-43q0 -18 4 -18q2 0 8.5 5l19 15t22.5 17q51 40 110 40q72 0 114 -49q20 -24 26.5 -54t6.5 -78v-170q0 -42 7 -59t37 -18 q28 -2 28 -16q0 -13 -14 -13q-15 0 -54 2t-56 2q-18 0 -49 -2t-44 -2q-16 0 -16 13q0 12 22 15q2 1 3 1q18 1 26.5 11t10 22.5t1.5 43.5v161q0 64 -15 89q-27 42 -83 42q-52 0 -87 -37q-17 -18 -22 -35t-5 -46v-174q0 -31 1.5 -43.5t10 -22.5t27.5 -11q25 -3 25 -15 q0 -14 -16 -14q-13 0 -48.5 2t-53.5 2q-21 0 -54 -2t-46 -2q-16 0 -16 12q0 15 28 17q31 1 37.5 18.5t6.5 70.5z"/>
    <glyph glyph-name="o" unicode="o" horiz-adv-x="570" d="M287 -13h-1q-107 0 -180 68t-73 167q0 91 69 161t184 70q83 0 143 -36t86.5 -86.5t26.5 -106.5q0 -99 -73 -168t-182 -69zM292 15h1q66 0 105 64t39 133q0 85 -40 149t-111 64q-67 0 -108 -55t-41 -137q0 -86 43 -152t112 -66z"/>
    <glyph glyph-name="p" unicode="p" horiz-adv-x="597" d="M190 -16v-104q0 -46 7 -61.5t39 -16.5q30 -2 30 -15t-16 -13q-14 0 -51 1.5t-55 1.5q-19 0 -58 -1.5t-53 -1.5q-17 0 -17 12q0 3 1 5.5t3 4.5t3.5 3t5.5 1.5t5.5 0.5t6 0.5t5.5 0.5q33 1 39.5 17t6.5 72v393q0 44 -7 58t-34 15q-28 5 -30 11q0 14 28 19q61 14 106 54 q18 15 24 15q11 0 11 -17v-36q0 -14 4 -14q2 0 7.5 4l15.5 11t17 11q64 39 124 39q73 0 139.5 -63t66.5 -167t-70.5 -171t-173.5 -66q-44 0 -98 19q-15 5 -24 5q-6 0 -7 -4.5t-1 -22.5zM458 206v1q0 87 -47 139t-111 52q-66 0 -96 -44q-14 -21 -14 -60v-164q0 -60 26 -85 q31 -28 78 -28q74 0 119 56t45 133z"/>
    <glyph glyph-name="q" unicode="q" horiz-adv-x="574" d="M400 -112v113q0 23 -7 23q-6 0 -33 -16q-38 -21 -107 -21q-95 0 -157.5 67t-62.5 172q0 99 76.5 163t180.5 64q61 0 109 -20q11 -5 23 -12.5t19 -11.5t11 -4q11 0 25 28q12 26 25 26q12 0 12 -11q0 -5 -4 -19q-12 -52 -12 -127v-422q0 -46 7.5 -61.5t39.5 -16.5 q29 -2 29 -15t-15 -13t-52 1.5t-57 1.5q-24 0 -60 -1.5t-49 -1.5q-16 0 -16 12q0 3 0.5 5t1.5 3.5t2.5 2.5t3.5 2t3.5 1.5t4 0.5t4.5 0.5t5 0.5h4q32 1 39 16.5t7 69.5zM137 220v-1q0 -72 47 -130.5t122 -58.5q24 0 49 10t35 26q10 18 10 59v190q0 51 -9 68q-10 17 -34 27 t-48 10q-77 0 -124.5 -57t-47.5 -143z"/>
    <glyph glyph-name="r" unicode="r" horiz-adv-x="375" d="M92 114v169q0 45 -6.5 58.5t-31.5 14.5q-25 2 -27 8q-1 1 -1 4q0 2 0.5 4t1 3t1.5 2.5t2 2l3 1.5t3.5 1.5l4.5 1.5l4.5 1.5t5.5 1.5t6 1q21 5 50 20.5t45 30.5q19 17 25 17q12 0 12 -20v-47q0 -19 5 -19q2 0 6.5 5l12.5 14.5t15 15.5q43 43 87 43q27 0 45.5 -16t18.5 -41 q0 -23 -14.5 -37t-36.5 -14q-21 0 -40 21q-18 20 -33 20q-23 0 -47 -35q-19 -29 -19 -91v-153q0 -30 2 -43t13.5 -23.5t35.5 -10.5q33 -6 36 -16q0 -13 -22 -13q-12 0 -50.5 2t-62.5 2q-25 0 -60.5 -2t-47.5 -2q-17 0 -17 12q0 15 29 17q32 1 39 18t7 71z"/>
    <glyph glyph-name="s" unicode="s" horiz-adv-x="426" d="M52 321v1q0 52 50 91.5t139 39.5q25 0 62.5 -5t52.5 -11q12 -4 12 -22q0 -5 -0.5 -14t-0.5 -13t0.5 -13.5t0.5 -13.5q0 -23 -15 -23q-8 0 -13 7t-12.5 22t-15.5 26q-27 35 -80 35q-30 0 -56 -18.5t-26 -47.5q0 -42 55 -66q12 -6 61 -23q28 -10 46 -19t39 -24t31.5 -37.5 t10.5 -51.5q0 -68 -63 -111t-143 -43q-27 0 -68.5 8t-66.5 22q-11 6 -14 14q-3 7 -3 24q0 11 1 33t1 33q0 26 18 26q6 0 10 -3t7 -10t5 -13.5l5.5 -18l6.5 -20.5q24 -68 99 -68q43 0 75.5 23t32.5 64q0 36 -23.5 55t-70.5 37q-84 30 -112 52q-38 31 -38 76z"/>
    <glyph glyph-name="t" unicode="t" horiz-adv-x="309" d="M168 378v-234q0 -105 55 -105q24 0 46 16l27 16q10 0 10 -10q0 -19 -41 -46.5t-89 -27.5q-52 0 -80 31q-17 20 -21.5 43t-4.5 76v248q0 13 -3 16.5t-12 3.5h-27q-22 0 -22 13q0 11 19 19q28 15 44.5 26t35.5 32.5t32 50.5q7 18 19 18t12 -15v-83q0 -21 16 -22 q14 0 50.5 1t51.5 1q11 0 11 -19q0 -16 -3 -20.5t-14 -4.5t-37.5 1t-38.5 1q-24 0 -30 -3.5t-6 -22.5z"/>
    <glyph glyph-name="u" unicode="u" horiz-adv-x="579" d="M177 407v-224q0 -24 1 -38t6.5 -36t15.5 -34t30.5 -21.5t50.5 -9.5q60 0 94 41q11 11 13 22t2 43v187q0 30 -1.5 43t-10.5 23t-28 10q-29 0 -29 15q0 13 18 13q12 0 36 -1.5t35 -1.5t33.5 1.5t31.5 1.5t11 -4t2 -19v-38v-276q0 -26 7 -36t33 -9q29 2 29 -10 q0 -11 -37 -17q-3 -1 -4 -1q-75 -22 -104 -40q-2 0 -7.5 -3t-7.5 -3q-7 0 -7 12v39q0 20 -8 20q-5 0 -18 -10q-70 -59 -138 -59q-74 0 -116 54q-31 38 -31 134v162q0 46 -6.5 60.5t-37.5 16.5q-27 2 -27 15q0 12 16 12q10 0 37.5 -1.5t37.5 -1.5t31.5 1.5t31.5 1.5 q11 0 13 -7t2 -27z"/>
    <glyph glyph-name="v" unicode="v" horiz-adv-x="512" d="M236 427v-1q0 -8 -5 -9.5t-22 -2.5q-32 -2 -32 -27q0 -11 13 -44l58 -144q32 -82 35 -82q2 0 8.5 13t16.5 37t15 34l66 143q11 36 11 43q0 26 -34 26q-27 4 -27 16t20 12q7 0 33.5 -1.5t40.5 -1.5t37 1.5t28 1.5q18 0 18 -10q0 -5 -3 -8.5t-5.5 -5t-10 -3t-8.5 -1.5 q-6 -1 -12 -3t-11 -6l-9 -7.5t-8.5 -10t-7 -10.5t-7 -12.5t-6 -12.5t-6 -13.5t-5.5 -12.5l-132 -292q-1 -2 -3.5 -7.5t-3.5 -7.5l-3.5 -7t-3.5 -6.5l-3.5 -5t-4.5 -4.5t-4.5 -3t-5.5 -2.5t-6 -0.5q-11 0 -18 3.5t-9 7t-6 13.5l-139 339q-18 43 -28 51q-11 9 -32 10 q-23 2 -23 16q0 12 23 12q8 0 44.5 -1.5t58.5 -1.5q24 0 57 1.5t40 1.5q21 0 21 -14z"/>
    <glyph glyph-name="w" unicode="w" horiz-adv-x="799" d="M403 273l-115 -266q-2 -7 -4 -10t-8 -5.5t-16 -2.5q-20 0 -28 21l-152 339q-15 35 -27 49.5t-36 15.5q-25 2 -25 14q0 13 24 13q38 0 116.5 -1.5t117.5 -1.5q42 0 122.5 1.5t118.5 1.5q23 0 23 -13q0 -12 -21 -14q-11 0 -21 -5.5t-10 -16.5q0 -8 13 -40l88 -199 q12 -32 16 -32q3 0 17 33l74 176q15 30 15 54q0 29 -29 31q-28 0 -28 13t20 13q11 0 34 -1.5t36 -1.5q12 0 35 1.5t34 1.5q17 0 17 -13q0 -10 -29 -14q-15 -2 -27.5 -13.5t-19 -22.5t-15.5 -31l-141 -339q-6 -19 -25 -19q-21 0 -29 20l-113 264h-2zM288 414h-62 q-48 0 -48 -25q0 -15 19 -58l81 -180q15 -32 18 -32t5.5 3.5t7 14.5t5.5 14l54 121q14 38 14 42q0 11 -22 55q-15 31 -26.5 38t-45.5 7z"/>
    <glyph glyph-name="x" unicode="x" horiz-adv-x="540" d="M279 9v1q0 11 29 13q10 1 13 1.5t9.5 2.5t9 5.5t2.5 8.5q0 10 -23 42q-75 97 -77 97q-3 0 -60 -71q-35 -44 -35 -64q0 -3 0.5 -5.5t2 -4.5t3 -3t4.5 -2.5t4.5 -2t5 -1t5 -1t5.5 -1t5 -0.5q24 -2 24 -15t-21 -13q-11 0 -37.5 2t-44.5 2t-47.5 -2t-42.5 -2q-17 0 -17 12 q0 15 33 18q45 1 103 75l69 85q16 22 16 28q0 5 -9 16l-97 127q-31 40 -43 48q-15 8 -39 9q-26 0 -26 13q0 14 16 14q18 0 54 -1.5t58 -1.5q23 0 61.5 1.5t54.5 1.5q19 0 19 -12q0 -14 -22 -14q-33 -2 -33 -18q0 -9 23 -42q8 -9 22.5 -29l24 -33t11.5 -13q3 0 52 63 q28 36 28 49q0 22 -33 24q-22 2 -22 12q0 13 18 13q11 0 39.5 -1.5t46.5 -1.5q16 0 43.5 1.5t39.5 1.5q21 0 21 -13q0 -11 -27 -14q-37 -1 -59 -16.5t-53 -55.5l-28.5 -35t-21.5 -27q-18 -21 -18 -30t17 -28l104 -142q28 -38 41 -46t38 -10q21 -3 21 -14q0 -14 -27 -14 q-16 0 -55 2t-60 2q-20 0 -54.5 -2t-46.5 -2q-17 0 -17 13z"/>
    <glyph glyph-name="y" unicode="y" horiz-adv-x="517" d="M81 -185v1q0 26 11 35.5t45 9.5q31 0 34 1q16 6 41 63q22 53 22 62q0 6 -13 40l-142 318q-2 4 -8 17t-8 17t-7.5 13t-10 12t-12 6.5t-16.5 3.5q-24 3 -24 13q0 14 24 14q11 0 47 -1.5t66 -1.5q25 0 57 1.5t44 1.5q16 0 16 -14q0 -10 -24 -13q-44 -3 -44 -28q0 -10 12 -39 q99 -234 103 -234q3 0 20 38t42.5 100t38.5 90q13 29 13 40q0 30 -47 34q-21 0 -21 11q0 15 18 15q12 0 37 -1.5t39 -1.5q15 0 40 1.5t35 1.5q19 0 19 -15q0 -8 -24 -13q-23 -3 -40 -22t-36 -62l-169 -390q-5 -12 -17 -37.5t-20 -45t-14 -40.5q-8 -28 -18 -36t-46 -8 q-32 0 -47.5 9t-15.5 34z"/>
    <glyph glyph-name="z" unicode="z" horiz-adv-x="469" d="M426 130h1q13 0 13 -25q0 -12 -1.5 -36.5t-1.5 -37.5q-1 -21 -4 -27t-15 -5q-22 0 -86 0.5t-109 0.5q-37 0 -92 -0.5t-79 -0.5q-21 0 -21 11q0 7 13 24l247 344q12 15 12 22t-17 7h-108q-61 0 -92 -46q-1 -1 -4.5 -5.5l-5.5 -7t-5.5 -4.5t-7.5 -2q-13 0 -13 11 q0 1 32 101q10 29 20 29t14 -19q0 -18 11.5 -22t39.5 -4h125h125q14 0 17.5 -1t3.5 -7q0 -10 -14 -28l-242 -339q-15 -21 -15 -25q0 -8 32 -8h78q66 0 89 15t41 63q7 22 19 22z"/>
    <glyph glyph-name="braceleft" unicode="{" horiz-adv-x="276" d="M99 3v141q0 50 -10.5 77.5t-37.5 33.5q-28 5 -28 19q0 13 28 18q48 10 48 111v141q0 85 36 118t102 33q19 0 19 -15q0 -13 -19 -15q-60 -1 -60 -114v-135q0 -64 -15.5 -96t-63.5 -45v-2q48 -13 63.5 -45t15.5 -96v-136q0 -113 60 -114q19 -2 19 -15q0 -15 -19 -15 q-66 0 -102 33t-36 118z"/>
    <glyph glyph-name="bar" unicode="|" horiz-adv-x="540" d="M308 -250h-70v1000h70v-1000z"/>
    <glyph glyph-name="braceright" unicode="}" horiz-adv-x="276" d="M177 544v-141q0 -50 10.5 -77.5t37.5 -33.5q28 -5 28 -18q0 -14 -28 -19q-48 -10 -48 -111v-141q0 -85 -36 -118t-102 -33q-19 0 -19 15q0 13 19 15q60 1 60 114v136q0 64 15.5 96t63.5 45v2q-48 13 -63.5 45t-15.5 96v135q0 113 -60 114q-19 2 -19 15q0 15 19 15 q66 0 102 -33t36 -118z"/>
    <glyph glyph-name="asciitilde" unicode="~" horiz-adv-x="569" d="M89 181l-38 49q53 89 125 89q21 0 42.5 -5.5t34 -11l40.5 -18.5q70 -33 100 -33q42 0 87 68l37 -50q-26 -42 -55 -65.5t-69 -22.5q-51 0 -113 34q-64 34 -105 34q-43 0 -86 -68z"/>
    <glyph glyph-name="uni00A0" unicode=" " horiz-adv-x="321"/>
    <glyph glyph-name="exclamdown" unicode="¡" horiz-adv-x="251" d="M129 454h1q23 0 39 -17t16 -42t-16.5 -42t-40.5 -17q-23 0 -40 16.5t-17 42.5t17 42.5t41 16.5zM130 262h1q12 0 16 -41q7 -70 14 -119q15 -113 24 -238q0 -31 -16 -50.5t-43 -19.5q-55 0 -55 69q4 46 28 250q9 73 11 98q0 3 1 8q2 13 2.5 18.5t3 12.5t5.5 9.5t8 2.5z "/>
    <glyph glyph-name="cent" unicode="¢" horiz-adv-x="522" d="M312 118v-103q0 -14 -3 -17.5t-14 -3.5q-13 0 -16 3.5t-3 16.5v104q-79 4 -137 61.5t-58 137.5q0 82 57.5 141t137.5 72v91q0 14 3 17.5t15 3.5t15 -3.5t3 -16.5v-90q66 0 111 -26q17 -7 17 -27q0 -26 -2 -43q-2 -25 -16 -25q-6 0 -13 6t-11.5 12.5t-12.5 19.5t-12 19 q-23 35 -61 39v-345q25 -2 37 -1q27 3 47 13.5t30.5 19.5t13.5 9q7 0 7 -8q0 -18 -43 -45t-92 -32zM276 173v332q-43 -10 -76 -57t-33 -106q0 -56 30 -104t79 -65z"/>
    <glyph glyph-name="sterling" unicode="£" d="M214 277h-133q-14 1 -14 10q0 17 5 21.5t22 4.5h101q-2 5 -13.5 26.5t-17 34.5t-11.5 37.5t-6 49.5q0 79 49 129t125 50q36 0 73 -12.5t37 -39.5q0 -21 -7.5 -44.5t-19.5 -23.5q-10 0 -20.5 14t-19 30.5t-24.5 30.5t-36 14q-35 0 -55.5 -29t-20.5 -71q0 -33 12.5 -66.5 t35 -73.5t29.5 -56h119q13 0 13 -9q0 -18 -5.5 -22.5t-21.5 -4.5h-89q13 -29 13 -58q0 -30 -10 -56.5t-19.5 -42t-9.5 -17.5q0 -6 15 -13q9 -4 28 -15t30.5 -17t27.5 -11.5t29 -5.5q26 0 48.5 15.5t22.5 45.5q0 16 -9.5 24t-20.5 9.5t-20.5 11t-9.5 27.5q0 20 11 32t31 12 q25 0 38.5 -22.5t13.5 -53.5q0 -68 -40.5 -114t-100.5 -46q-34 0 -65 16t-48 32.5t-18 16.5q-2 0 -13 -10l-25.5 -22.5t-42 -22.5t-59.5 -10q-48 0 -81 21t-33 65t34.5 68.5t81.5 24.5q32 0 62 -11t47 -21t19 -10q7 1 8 21.5t-1 28.5q-5 53 -41 108zM76 75v-1 q0 -30 18.5 -45t43.5 -15q29 0 58.5 21t29.5 35q0 11 -32.5 36t-59.5 25q-25 0 -41.5 -15.5t-16.5 -40.5z"/>
    <glyph glyph-name="currency" unicode="¤" d="M53 52l-46 46l92 92q-39 48 -39 121t39 120l-92 92l46 47l92 -92q50 39 121 39q73 0 122 -39l91 92l47 -47l-92 -92q39 -49 39 -120q0 -70 -39 -121l92 -92l-47 -46l-91 92q-52 -40 -122 -40q-72 0 -121 39zM266 456h-1q-59 0 -100 -43.5t-41 -101.5q0 -59 41.5 -102.5 t100.5 -43.5t101 43.5t42 102.5q0 58 -42 101.5t-101 43.5z"/>
    <glyph glyph-name="yen" unicode="¥" d="M313 233v-154q0 -48 31 -50q40 -2 40 -17q0 -16 -27 -16q-10 0 -39 2t-50 2t-53.5 -2t-45.5 -2t-18 3t-5 13q0 15 39 17q21 1 27.5 12t6.5 41v151h-155q-7 0 -9 2t-2 9v16q0 10 11 10h149q-3 19 -27 68h-122q-7 0 -9 2t-2 9v16q0 10 11 10h101l-88 175q-15 29 -28.5 40 t-33.5 12q-26 0 -26 16q0 17 20 17q14 0 51 -2t54 -2q19 0 52 2t42 2q22 0 22 -15q0 -18 -29 -18q-28 0 -28 -22q0 -15 48 -111q43 -87 55.5 -110t18.5 -23q9 0 40 62l25 49q54 108 54 130q0 25 -38 25q-25 2 -25 16q0 17 22 17q9 0 35.5 -2t45.5 -2q16 0 40.5 2t32.5 2 q18 0 18 -15q0 -17 -27 -18q-38 -2 -70 -62l-84 -165h104q10 0 10 -10v-16q0 -11 -10 -11h-124q-22 -37 -28 -68h152q10 0 10 -10v-16q0 -11 -10 -11h-155z"/>
    <glyph glyph-name="brokenbar" unicode="¦" horiz-adv-x="540" d="M308 325h-70v350h70v-350zM308 -175h-70v350h70v-350z"/>
    <glyph glyph-name="section" unicode="§" horiz-adv-x="424" d="M271 83l-2 -2q90 -61 90 -141q0 -63 -43.5 -97.5t-111.5 -34.5q-54 0 -98 28.5t-44 75.5q0 22 15 39t38 17q24 0 37.5 -12.5t13.5 -36.5q0 -16 -15.5 -33t-15.5 -21q0 -13 21.5 -24t50.5 -11q40 0 64.5 20.5t24.5 57.5q0 18 -8 34t-33.5 39.5t-38.5 34l-57 44.5 q-69 54 -102 93.5t-33 86.5q0 31 11 54t24.5 35t35.5 20.5t33.5 11t29.5 4.5l1 3q-93 70 -93 147q0 54 39 88.5t103 34.5q61 0 100.5 -27t39.5 -72q0 -25 -14 -40.5t-40 -15.5q-19 0 -33.5 12.5t-14.5 33.5q0 23 17 37t17 18q0 13 -17.5 22.5t-47.5 9.5q-41 0 -63.5 -20.5 t-22.5 -55.5q0 -30 27.5 -59t85.5 -74l20 -15q69 -54 103.5 -96t34.5 -92q0 -59 -34 -89t-95 -32zM84 277v-1q0 -27 17 -53t69 -70q56 -48 96 -48q36 0 55 19t19 51q0 24 -13 45.5t-50 54.5q-71 66 -127 66q-29 0 -47.5 -18.5t-18.5 -45.5z"/>
    <glyph glyph-name="dieresis" unicode="¨" horiz-adv-x="415" d="M113 526h-1q-20 0 -34 15.5t-14 36.5t14 35.5t35 14.5t35 -15.5t14 -36.5q0 -20 -14.5 -35t-34.5 -15zM302 526h-1q-20 0 -34 15.5t-14 36.5t14 35.5t35 14.5q20 0 34.5 -15.5t14.5 -36.5q0 -20 -14.5 -35t-34.5 -15z"/>
    <glyph glyph-name="copyright" unicode="©" horiz-adv-x="769" d="M739 349v-1q0 -150 -103 -255t-251 -105q-149 0 -252 105t-103 256t103 257t252 106q148 0 251 -106t103 -257zM92 349v-1q0 -126 86 -219t207 -93t206.5 93t85.5 220q0 128 -85.5 221.5t-206.5 93.5q-122 0 -207.5 -93.5t-85.5 -221.5zM559 263l-16 -72q-4 -13 -27 -22 q-60 -17 -111 -17q-99 0 -159 51.5t-60 156.5q0 75 58.5 138.5t168.5 63.5q53 0 107 -20q23 -9 23 -22v-72h-21q-4 37 -31.5 62t-81.5 25q-64 0 -100.5 -46.5t-37.5 -124.5q-1 -86 35 -136t109 -50q89 0 124 85h20z"/>
    <glyph glyph-name="ordfeminine" unicode="ª" horiz-adv-x="360" d="M271 574v-131q0 -12 0.5 -18t2 -13.5t5 -11t9.5 -3.5q9 0 18 9q8 6 10 6q7 0 7 -8q0 -10 -12 -21t-29.5 -17.5t-27.5 -6.5q-19 0 -38 27l-10 13q-2 0 -11 -7q-42 -36 -87 -36q-26 0 -44 14.5t-18 39.5q0 49 94 88l42 19q17 8 21 12.5t4 16.5v25q0 22 -6 34t-26 12 q-17 0 -29 -6t-17.5 -12.5t-11.5 -18.5q-11 -20 -22.5 -30t-33.5 -10q-15 0 -15 14q0 29 42.5 57t101.5 28q47 0 64 -16.5t17 -48.5zM147 395h1q19 0 39 15t20 45v38q0 7 -4 7q-12 0 -49 -22q-16 -9 -22.5 -13t-16 -14t-9.5 -21q0 -14 11 -24.5t30 -10.5z"/>
    <glyph glyph-name="guillemotleft" unicode="«" horiz-adv-x="303" d="M172 96h-51q-22 0 -35 19l-45 72q-5 7 -19 23q-7 7 -7 10q0 2 7 9q8 9 19 24l45 71q13 19 35 19h51q11 0 11 -5t-12 -5q-16 0 -37 -31l-41 -63q-5 -9 -15 -19q7 -7 15 -19l41 -64q21 -31 37 -31q12 0 12 -5t-11 -5zM286 96h-51q-22 0 -35 19l-46 72q-7 11 -19 23 q-6 6 -6 10q0 3 6 9q11 11 19 24l46 71q13 19 35 19h51q11 0 11 -5t-12 -5q-18 0 -37 -31l-41 -63q-10 -14 -15 -19q3 -3 8 -10t7 -9l41 -64q19 -31 37 -31q12 0 12 -5t-11 -5z"/>
    <glyph glyph-name="logicalnot" unicode="¬" horiz-adv-x="569" d="M465 108v209h-433v72h504v-281h-71z"/>
    <glyph glyph-name="uni00AD" unicode="­" horiz-adv-x="306" d="M50 259h224q11 0 11 -6q0 -5 -15 -50q-3 -11 -13 -11h-224q-11 0 -11 6q0 5 15 50q4 11 13 11z"/>
    <glyph glyph-name="registered" unicode="®" horiz-adv-x="769" d="M739 349v-1q0 -150 -103 -255t-251 -105q-149 0 -252 105t-103 256t103 257t252 106q148 0 251 -106t103 -257zM92 349v-1q0 -126 86 -219t207 -93t206.5 93t85.5 220q0 128 -85.5 221.5t-206.5 93.5q-122 0 -207.5 -93.5t-85.5 -221.5zM216 533v16h188q51 0 85.5 -24.5 t34.5 -72.5q0 -38 -23 -67t-60 -41l60 -84q46 -64 78 -88v-10h-70q-16 0 -31 19t-43.5 69.5t-50.5 82.5h-48v-105q0 -31 7 -38.5t42 -9.5l1 -18h-170v18q35 2 42 9.5t7 38.5v257q0 31 -7 38.5t-42 9.5zM336 528v-175h43q36 0 55 26.5t19 68.5q0 80 -75 80h-42z"/>
    <glyph glyph-name="macron" unicode="¯" horiz-adv-x="399" d="M89 596h231q15 0 15 -5q0 -6 -8 -30q-4 -10 -7 -12t-13 -2h-233q-10 0 -10 4t9 29q4 14 7 15q2 1 9 1z"/>
    <glyph glyph-name="degree" unicode="°" horiz-adv-x="400" d="M201 642h1q60 0 102.5 -43t42.5 -103q0 -62 -42.5 -105.5t-103.5 -43.5q-62 0 -105 43.5t-43 105.5q0 60 43 103t105 43zM201 603h-1q-43 0 -73.5 -32t-30.5 -75q0 -45 30.5 -77.5t74.5 -32.5q43 0 73 32.5t30 77.5q0 43 -30.5 75t-72.5 32z"/>
    <glyph glyph-name="plusminus" unicode="±" horiz-adv-x="569" d="M249 346v176h71v-176h216v-71h-216v-177h-71v177h-217v71h217zM32 -28v72h504v-72h-504z"/>
    <glyph glyph-name="twosuperior" unicode="²" horiz-adv-x="327" d="M302 349l-1 -80q0 -13 -18 -13t-59 1t-62 1t-62 -1t-59 -1q-24 0 -24 9q0 11 14 23l83 88l46 51t35.5 51.5t19.5 58.5q0 32 -21 53.5t-54 21.5q-23 0 -45.5 -12t-33.5 -32q-11 -17 -22 -17t-11 12q0 25 40 52t96 27q58 0 96 -27.5t38 -70.5q0 -21 -9 -41.5t-28.5 -41 t-33 -33t-40.5 -33t-34 -26.5q-3 -3 -20.5 -15.5t-26.5 -20t-9 -10.5q0 -4 24 -4h101q26 0 37 6t17 28q4 15 15 15q8 0 9.5 -3.5t1.5 -15.5z"/>
    <glyph glyph-name="threesuperior" unicode="³" horiz-adv-x="327" d="M146 486l2 -3q26 7 43 7q52 0 86 -27t34 -75q0 -51 -39 -93.5t-89 -62.5t-94 -20q-75 0 -75 42q0 15 10 24t24 9q26 0 40 -25q14 -22 30 -22q35 0 75 34.5t40 82.5q0 40 -24.5 66.5t-65.5 26.5q-29 0 -61 -12l-33 -13q-9 0 -9 15q0 2 0.5 4t1.5 3.5t3 3t3.5 3t4.5 3t5 3 t5.5 3.5t6.5 4l38 23t34.5 23.5t31.5 29.5t10 28q0 19 -14 30t-34 11q-39 0 -65 -32q-7 -10 -20 -10q-10 0 -10 10q0 8 11 21.5t41.5 27t71.5 13.5q39 0 69.5 -16t30.5 -50q0 -42 -69 -68q-16 -8 -50 -22z"/>
    <glyph glyph-name="acute" unicode="´" horiz-adv-x="384" d="M124 511h-1q-8 0 -8 9q0 4 3 7.5t9.5 8.5t7.5 5l126 99q38 33 60 33q14 0 23.5 -9t9.5 -22q0 -6 -1.5 -11t-5.5 -9.5t-7 -7.5t-9.5 -6.5l-9.5 -5l-10.5 -5t-9.5 -4.5l-140 -68q-31 -14 -37 -14z"/>
    <glyph glyph-name="mu" unicode="µ" horiz-adv-x="579" d="M177 407v-224q0 -24 1 -38t6.5 -36t15.5 -34t30.5 -21.5t50.5 -9.5q59 0 94 41q11 11 13 22t2 43v187q0 30 -1.5 43t-10.5 23t-28 10q-29 0 -29 15q0 13 18 13q12 0 36 -1.5t35 -1.5t33.5 1.5t31.5 1.5t11 -4.5t2 -19.5v-37v-276q0 -26 7 -36t33 -9q29 2 29 -10 q0 -11 -37 -17q-3 -1 -4 -1q-75 -22 -104 -40q-2 0 -7.5 -3t-7.5 -3q-7 0 -7 12v39q0 20 -8 20q-5 0 -18 -10q-70 -59 -135 -59q-36 0 -63 16t-40 41l-3 -1v-37q0 -33 16 -81t16 -73q0 -32 -14 -53t-38 -21q-48 0 -48 75q0 24 12 73.5t12 88.5v109v213q0 46 -6.5 60.5 t-37.5 16.5q-27 2 -27 15q0 12 16 12q10 0 37.5 -1.5t37.5 -1.5t31.5 1.5t31.5 1.5q11 0 13 -7t2 -27z"/>
    <glyph glyph-name="paragraph" unicode="¶" horiz-adv-x="617" d="M278 619h250q22 0 22 -17q0 -16 -30 -16q-43 0 -51.5 -13.5t-8.5 -73.5v-671h-72v747h-58v-747h-72v387q-91 3 -140.5 62t-49.5 143q0 81 57.5 140t152.5 59z"/>
    <glyph glyph-name="periodcentered" unicode="·" horiz-adv-x="274" d="M136 195h-1q-25 0 -40.5 17t-15.5 41q0 25 16.5 41.5t41.5 16.5q26 0 41.5 -16t15.5 -42q0 -27 -15 -42.5t-43 -15.5z"/>
    <glyph glyph-name="cedilla" unicode="¸" horiz-adv-x="353" d="M152 0h32l-40 -60q18 2 30 2q40 0 69.5 -16.5t29.5 -52.5q0 -35 -32 -57t-77 -22q-30 0 -60.5 10.5t-30.5 33.5t20 23q12 0 29 -23t42 -23q21 0 39 14t18 34q0 49 -67 49q-9 0 -23.5 -2t-20.5 -2q-9 0 -9 10l10 20z"/>
    <glyph glyph-name="onesuperior" unicode="¹" horiz-adv-x="327" d="M211 630v-297q0 -23 1.5 -31.5t10 -14.5t27.5 -6t25.5 -3t6.5 -11q0 -11 -15 -11q-11 0 -41.5 1t-52.5 1q-21 0 -54 -1t-44 -1q-15 0 -15 12t34 13q21 0 30 6t10.5 14t1.5 29v244q0 14 -7 14q-5 0 -36 -12t-36 -12q-11 0 -11 13q0 8 5.5 11t23.5 8q23 7 57.5 19.5 l47.5 17.5q14 6 21 6q10 0 10 -9z"/>
    <glyph glyph-name="ordmasculine" unicode="º" horiz-adv-x="360" d="M177 359h-1q-64 0 -110 41t-46 101q0 61 46 99.5t111 38.5q69 0 113.5 -39.5t44.5 -98.5q0 -60 -45.5 -101t-112.5 -41zM180 381h1q39 0 62 36.5t23 77.5q0 50 -24.5 86.5t-65.5 36.5q-39 0 -63 -31.5t-24 -78.5q0 -51 25.5 -89t65.5 -38z"/>
    <glyph glyph-name="guillemotright" unicode="»" horiz-adv-x="303" d="M17 343h51q23 0 35 -19l46 -71q4 -7 19 -24q6 -6 6 -9q0 -4 -6 -10q-17 -20 -19 -23l-46 -72q-12 -19 -35 -19h-51q-11 0 -11 5t13 5q16 0 37 31l41 64q7 12 14 19q-7 7 -14 19l-41 63q-21 31 -37 31q-13 0 -13 5t11 5zM131 343h51q22 0 35 -19l46 -71q8 -13 19 -24 q6 -6 6 -9q0 -4 -6 -10q-12 -12 -19 -23l-46 -72q-13 -19 -35 -19h-51q-11 0 -11 5t12 5q18 0 37 31l41 64q10 14 15 19q-5 5 -15 19l-41 63q-19 31 -37 31q-12 0 -12 5t11 5z"/>
    <glyph glyph-name="onequarter" unicode="¼" horiz-adv-x="802" d="M170 -14v1q0 2 14 24l422 621q7 10 18 10h20q12 0 12 -5q0 -3 -14 -25l-422 -621q-7 -10 -18 -10h-20q-12 0 -12 5zM211 630v-297q0 -23 1.5 -31.5t10 -14.5t27.5 -6t25.5 -3t6.5 -11q0 -11 -15 -11q-11 0 -41.5 1t-52.5 1q-21 0 -54 -1t-44 -1q-15 0 -15 12t34 13 q21 0 30 6t10.5 14t1.5 29v244q0 14 -7 14q-5 0 -36 -12t-36 -12q-11 0 -11 13q0 8 5.5 11t23.5 8q23 7 57.5 19.5l47.5 17.5q14 6 21 6q10 0 10 -9zM691 268v-110q0 -13 8 -13h47q8 -1 8 -15q0 -11 -1.5 -13.5t-7.5 -2.5h-43q-8 0 -9.5 -2.5t-1.5 -14.5v-39q0 -22 6 -28.5 t31 -6.5q19 0 19 -14q0 -11 -19 -11q-8 0 -30.5 1t-38.5 1q-19 0 -48.5 -1t-39.5 -1q-14 0 -14 12q0 8 5.5 10t20.5 3q22 1 27.5 8.5t5.5 26.5v44q0 9 -3 10.5t-15 1.5h-146q-7 0 -9.5 2.5t-2.5 13.5t12 25l206 252q8 9 19 9h19q10 0 10 -5t-17 -22l-194 -223 q-2 -2 -5.5 -6.5t-6 -8t-2.5 -4.5q0 -3 14 -3h105q12 0 14 3t2 17v91q0 10 6 13q7 2 22.5 7.5t26.5 9t14 3.5q6 0 6 -20z"/>
    <glyph glyph-name="onehalf" unicode="½" horiz-adv-x="802" d="M170 -14v1q0 2 14 24l422 621q7 10 18 10h20q12 0 12 -5q0 -3 -14 -25l-422 -621q-7 -10 -18 -10h-20q-12 0 -12 5zM211 630v-297q0 -23 1.5 -31.5t10 -14.5t27.5 -6t25.5 -3t6.5 -11q0 -11 -15 -11q-11 0 -41.5 1t-52.5 1q-21 0 -54 -1t-44 -1q-15 0 -15 12t34 13 q21 0 30 6t10.5 14t1.5 29v244q0 14 -7 14q-5 0 -36 -12t-36 -12q-11 0 -11 13q0 8 5.5 11t23.5 8q23 7 57.5 19.5l47.5 17.5q14 6 21 6q10 0 10 -9zM774 91l-1 -80q0 -13 -18 -13t-59 1t-63 1q-20 0 -61 -1t-59 -1q-24 0 -24 10q0 9 13 22l83 88q30 31 47 50.5t36 52.5 t19 58q0 32 -21.5 53.5t-54.5 21.5q-23 0 -45 -12t-34 -32q-9 -16 -21 -16q-11 0 -11 11q0 26 40 52.5t96 26.5q58 0 96 -27t38 -70q0 -18 -8 -36.5t-17.5 -32t-28.5 -31.5t-30 -27t-33.5 -26t-28.5 -22q-6 -6 -21 -17t-24.5 -19t-9.5 -10q0 -5 23 -5h102q26 0 36.5 6 t16.5 28q4 15 16 15q8 0 9.5 -3.5t1.5 -15.5z"/>
    <glyph glyph-name="threequarters" unicode="¾" horiz-adv-x="802" d="M146 486l2 -3q26 7 43 7q52 0 86 -27t34 -75q0 -51 -39 -93.5t-89 -62.5t-94 -20q-75 0 -75 42q0 15 10 24t24 9q26 0 40 -25q14 -22 30 -22q35 0 75 34.5t40 82.5q0 40 -24.5 66.5t-65.5 26.5q-29 0 -61 -12l-33 -13q-9 0 -9 15q0 2 0.5 4t1.5 3.5t3 3t3.5 3t4.5 3t5 3 t5.5 3.5t6.5 4l38 23t34.5 23.5t31.5 29.5t10 28q0 19 -14 30t-34 11q-39 0 -65 -32q-7 -10 -20 -10q-10 0 -10 10q0 8 11 21.5t41.5 27t71.5 13.5q39 0 69.5 -16t30.5 -50q0 -42 -69 -68q-16 -8 -50 -22zM170 -14v1q0 2 14 24l422 621q7 10 18 10h20q12 0 12 -5 q0 -3 -14 -25l-422 -621q-7 -10 -18 -10h-20q-12 0 -12 5zM691 268v-110q0 -13 8 -13h47q8 -1 8 -15q0 -11 -1.5 -13.5t-7.5 -2.5h-43q-8 0 -9.5 -2.5t-1.5 -14.5v-39q0 -22 6 -28.5t31 -6.5q19 0 19 -14q0 -11 -19 -11q-8 0 -30.5 1t-38.5 1q-19 0 -48.5 -1t-39.5 -1 q-14 0 -14 12q0 8 5.5 10t20.5 3q22 1 27.5 8.5t5.5 26.5v44q0 9 -3 10.5t-15 1.5h-146q-7 0 -9.5 2.5t-2.5 13.5t12 25l206 252q8 9 19 9h19q10 0 10 -5t-17 -22l-194 -223q-2 -2 -5.5 -6.5t-6 -8t-2.5 -4.5q0 -3 14 -3h105q12 0 14 3t2 17v91q0 10 6 13q7 2 22.5 7.5 t26.5 9t14 3.5q6 0 6 -20z"/>
    <glyph glyph-name="questiondown" unicode="¿" horiz-adv-x="343" d="M231 338h-1q-26 0 -41 17t-15 41q0 26 16 41.5t43 15.5q26 0 39.5 -17t13.5 -40q0 -25 -13 -41.5t-42 -16.5zM307 -147v-1q0 -20 -11 -28q-24 -18 -88 -18q-74 0 -130 49.5t-56 120.5q0 51 25 87t73 71l67 50q24 22 25 52q1 20 5 25.5t11 5.5q11 0 14 -7t5 -22 q1 -11 7.5 -49.5t7.5 -47.5q0 -18 -14.5 -31.5t-42.5 -30.5q-56 -37 -84.5 -70t-28.5 -78q0 -39 25.5 -63.5t50.5 -24.5q32 0 61 43q31 42 48 42q30 0 30 -75z"/>
    <glyph glyph-name="Agrave" unicode="À" horiz-adv-x="665" d="M358 217h-148q-17 0 -23 -5t-16 -32l-13 -33t-17.5 -48.5t-6.5 -32.5q0 -32 62 -38h4q25 -2 25 -17t-26 -15q-7 0 -40 2t-45 2t-53.5 -2t-48.5 -2q-22 0 -22 15q0 13 31 18q30 1 44 15.5t36 74.5l175 454q3 6 17 43q7 24 34 24q25 0 32 -20l210 -513q0 -1 5 -11t6 -12.5 t5.5 -11.5t7 -12t7.5 -10t9 -9.5t9.5 -6.5t11.5 -5.5t13 -1.5q29 0 29 -17q0 -14 -20 -14q-19 0 -66.5 2t-73.5 2q-17 0 -61.5 -2t-62.5 -2q-23 0 -23 14q0 18 34 18q57 0 57 27q0 15 -40 111q-2 5 -5 13.5t-4.5 11.5t-3.5 8.5t-4 6.5t-3.5 4.5t-4.5 3.5t-5 1.5t-7.5 1.5h-9 h-11.5zM223 256h125q27 0 27 8q0 3 -3.5 12t-3.5 11q-62 155 -65 163q-11 28 -15 28q-5 0 -16 -29l-65 -172q-4 -10 -4 -15q0 -6 20 -6zM409 689v-1q0 -9 -9 -9q-3 0 -9.5 2.5t-14.5 6.5t-12 5l-141 68q-1 1 -9 4.5t-10.5 5t-9.5 5t-9.5 6.5l-6.5 7.5t-5.5 9.5t-1.5 11 q0 13 9.5 22t22.5 9q19 0 60 -33l127 -99q19 -13 19 -20z"/>
    <glyph glyph-name="Aacute" unicode="Á" horiz-adv-x="665" d="M358 217h-148q-17 0 -23 -5t-16 -32l-13 -33t-17.5 -48.5t-6.5 -32.5q0 -32 62 -38h4q25 -2 25 -17t-26 -15q-7 0 -40 2t-45 2t-53.5 -2t-48.5 -2q-22 0 -22 15q0 13 31 18q30 1 44 15.5t36 74.5l175 454q3 6 17 43q7 24 34 24q25 0 32 -20l210 -513q0 -1 5 -11t6 -12.5 t5.5 -11.5t7 -12t7.5 -10t9 -9.5t9.5 -6.5t11.5 -5.5t13 -1.5q29 0 29 -17q0 -14 -20 -14q-19 0 -66.5 2t-73.5 2q-17 0 -61.5 -2t-62.5 -2q-23 0 -23 14q0 18 34 18q57 0 57 27q0 15 -40 111q-2 5 -5 13.5t-4.5 11.5t-3.5 8.5t-4 6.5t-3.5 4.5t-4.5 3.5t-5 1.5t-7.5 1.5h-9 h-11.5zM223 256h125q27 0 27 8q0 3 -3.5 12t-3.5 11q-62 155 -65 163q-11 28 -15 28q-5 0 -16 -29l-65 -172q-4 -10 -4 -15q0 -6 20 -6zM252 675h-1q-7 0 -7 9q0 4 3.5 7.5t9 8t6.5 5.5l126 99q40 33 61 33q14 0 23 -9.5t9 -22.5q0 -8 -2.5 -14t-10.5 -12t-11 -8.5t-15 -8.5 t-13 -6l-141 -67q-31 -14 -37 -14z"/>
    <glyph glyph-name="Acircumflex" unicode="Â" horiz-adv-x="665" d="M358 217h-148q-17 0 -23 -5t-16 -32l-13 -33t-17.5 -48.5t-6.5 -32.5q0 -32 62 -38h4q25 -2 25 -17t-26 -15q-7 0 -40 2t-45 2t-53.5 -2t-48.5 -2q-22 0 -22 15q0 13 31 18q30 1 44 15.5t36 74.5l175 454q3 6 17 43q7 24 34 24q25 0 32 -20l210 -513q0 -1 5 -11t6 -12.5 t5.5 -11.5t7 -12t7.5 -10t9 -9.5t9.5 -6.5t11.5 -5.5t13 -1.5q29 0 29 -17q0 -14 -20 -14q-19 0 -66.5 2t-73.5 2q-17 0 -61.5 -2t-62.5 -2q-23 0 -23 14q0 18 34 18q57 0 57 27q0 15 -40 111q-2 5 -5 13.5t-4.5 11.5t-3.5 8.5t-4 6.5t-3.5 4.5t-4.5 3.5t-5 1.5t-7.5 1.5h-9 h-11.5zM223 256h125q27 0 27 8q0 3 -3.5 12t-3.5 11q-62 155 -65 163q-11 28 -15 28q-5 0 -16 -29l-65 -172q-4 -10 -4 -15q0 -6 20 -6zM308 846h30q18 0 28 -15l92 -132q8 -11 8 -18q0 -6 -12 -6t-26 14l-105 98l-106 -98q-14 -14 -25 -14q-13 0 -13 6q0 7 8 18l92 132 q10 15 29 15z"/>
    <glyph glyph-name="Atilde" unicode="Ã" horiz-adv-x="665" d="M358 217h-148q-17 0 -23 -5t-16 -32l-13 -33t-17.5 -48.5t-6.5 -32.5q0 -32 62 -38h4q25 -2 25 -17t-26 -15q-7 0 -40 2t-45 2t-53.5 -2t-48.5 -2q-22 0 -22 15q0 13 31 18q30 1 44 15.5t36 74.5l175 454q3 6 17 43q7 24 34 24q25 0 32 -20l210 -513q0 -1 5 -11t6 -12.5 t5.5 -11.5t7 -12t7.5 -10t9 -9.5t9.5 -6.5t11.5 -5.5t13 -1.5q29 0 29 -17q0 -14 -20 -14q-19 0 -66.5 2t-73.5 2q-17 0 -61.5 -2t-62.5 -2q-23 0 -23 14q0 18 34 18q57 0 57 27q0 15 -40 111q-2 5 -5 13.5t-4.5 11.5t-3.5 8.5t-4 6.5t-3.5 4.5t-4.5 3.5t-5 1.5t-7.5 1.5h-9 h-11.5zM223 256h125q27 0 27 8q0 3 -3.5 12t-3.5 11q-62 155 -65 163q-11 28 -15 28q-5 0 -16 -29l-65 -172q-4 -10 -4 -15q0 -6 20 -6zM392 690h-1q-29 0 -78 33q-4 2 -16.5 10t-18.5 11.5t-16.5 7t-18.5 3.5q-19 0 -32.5 -14.5t-21 -28.5t-12.5 -14q-12 0 -12 12 q2 25 29.5 58t72.5 33q29 0 82 -33q47 -31 67 -31q19 0 32 14t21 28t13 14q13 0 11 -12q-1 -25 -28.5 -58t-72.5 -33z"/>
    <glyph glyph-name="Adieresis" unicode="Ä" horiz-adv-x="665" d="M358 217h-148q-17 0 -23 -5t-16 -32l-13 -33t-17.5 -48.5t-6.5 -32.5q0 -32 62 -38h4q25 -2 25 -17t-26 -15q-7 0 -40 2t-45 2t-53.5 -2t-48.5 -2q-22 0 -22 15q0 13 31 18q30 1 44 15.5t36 74.5l175 454q3 6 17 43q7 24 34 24q25 0 32 -20l210 -513q0 -1 5 -11t6 -12.5 t5.5 -11.5t7 -12t7.5 -10t9 -9.5t9.5 -6.5t11.5 -5.5t13 -1.5q29 0 29 -17q0 -14 -20 -14q-19 0 -66.5 2t-73.5 2q-17 0 -61.5 -2t-62.5 -2q-23 0 -23 14q0 18 34 18q57 0 57 27q0 15 -40 111q-2 5 -5 13.5t-4.5 11.5t-3.5 8.5t-4 6.5t-3.5 4.5t-4.5 3.5t-5 1.5t-7.5 1.5h-9 h-11.5zM223 256h125q27 0 27 8q0 3 -3.5 12t-3.5 11q-62 155 -65 163q-11 28 -15 28q-5 0 -16 -29l-65 -172q-4 -10 -4 -15q0 -6 20 -6zM226 689h-1q-20 0 -34 16t-14 37t13.5 35t35.5 14q21 0 35 -15t14 -36t-14.5 -36t-34.5 -15zM415 689h-1q-20 0 -34 16t-14 37t13.5 35 t35.5 14q20 0 34.5 -15.5t14.5 -35.5q0 -21 -14.5 -36t-34.5 -15z"/>
    <glyph glyph-name="Aring" unicode="Å" horiz-adv-x="665" d="M358 217h-148q-17 0 -23 -5t-16 -32l-13 -33t-17.5 -48.5t-6.5 -32.5q0 -32 62 -38h4q25 -2 25 -17t-26 -15q-7 0 -40 2t-45 2t-53.5 -2t-48.5 -2q-22 0 -22 15q0 13 31 18q30 1 44 15.5t36 74.5l175 454q3 6 17 43q7 24 34 24q25 0 32 -20l210 -513q0 -1 5 -11t6 -12.5 t5.5 -11.5t7 -12t7.5 -10t9 -9.5t9.5 -6.5t11.5 -5.5t13 -1.5q29 0 29 -17q0 -14 -20 -14q-19 0 -66.5 2t-73.5 2q-17 0 -61.5 -2t-62.5 -2q-23 0 -23 14q0 18 34 18q57 0 57 27q0 15 -40 111q-2 5 -5 13.5t-4.5 11.5t-3.5 8.5t-4 6.5t-3.5 4.5t-4.5 3.5t-5 1.5t-7.5 1.5h-9 h-11.5zM223 256h125q27 0 27 8q0 3 -3.5 12t-3.5 11q-62 155 -65 163q-11 28 -15 28q-5 0 -16 -29l-65 -172q-4 -10 -4 -15q0 -6 20 -6zM329 657h-1q-41 0 -71 30t-30 72q0 43 30 72.5t72 29.5q43 0 72.5 -29.5t29.5 -72.5q0 -42 -29.5 -72t-72.5 -30zM329 694h1q27 0 46 19 t19 46q0 28 -19 47t-47 19q-27 0 -46 -19t-19 -47q0 -27 19 -46t46 -19z"/>
    <glyph glyph-name="AE" unicode="Æ" horiz-adv-x="948" d="M588 540v-144q0 -33 9.5 -38.5t63.5 -5.5q63 0 80.5 6.5t23.5 40.5q0 2 1 6.5t1 6.5t1 6t2 6.5t2 5.5t2.5 5t3.5 3.5t4 2.5t5 1q16 0 16 -19q0 -12 -1.5 -41.5t-1.5 -43.5q0 -15 1.5 -44.5t1.5 -43.5q0 -24 -16 -24q-5 0 -8 2.5t-5.5 8t-4 10t-3.5 13l-3 12.5 q-8 29 -30.5 36t-95.5 7q-32 0 -40.5 -5t-8.5 -29v-163q0 -50 17 -67.5t83 -17.5q88 0 121 18.5t56 79.5q12 32 28 32q15 0 15 -17q0 -2 -1 -9.5t-3 -21t-3 -24.5q-8 -52 -8 -68q-1 -16 -7 -19.5t-30 -3.5h-306q-21 0 -71 -2q-48 -2 -71 -2q-21 0 -21 19q0 7 4.5 10t9.5 3.5 t16 0.5q43 1 51.5 14.5t8.5 73.5v168q0 21 -5.5 25.5t-28.5 4.5h-116q-28 0 -38 -6t-26 -30l-102 -164q-26 -40 -26 -64q0 -21 43 -21q26 0 34 -3t8 -14q0 -17 -23 -17q-15 0 -47 2t-48 2t-48 -2t-46 -2q-24 0 -24 16q0 7 4.5 11t9.5 5.5t16 2.5q27 1 42.5 14t53.5 74 l279 424q21 34 21 39q0 10 -17 12t-17 15q0 14 27 14q32 0 102 -2t106 -2q41 0 125 2q20 0 62 0.5t62 0.5q13 0 16 -5t3 -24q0 -56 -1 -85q0 -14 -0.5 -19.5t-4 -9.5t-10.5 -4t-12.5 6t-14 24.5t-9.5 21.5q-11 23 -26 35t-44.5 18t-79.5 6q-63 0 -76 -7t-13 -39zM477 390 v155q0 36 -12 36q-3 0 -7.5 -4t-7.5 -7.5t-7 -10t-5 -7.5l-109 -167q-12 -18 -12 -24q0 -10 28 -10h104q20 0 24.5 6.5t3.5 32.5z"/>
    <glyph glyph-name="Ccedilla" unicode="Ç" horiz-adv-x="633" d="M597 157l-5 -82q-2 -24 -6.5 -31t-26.5 -17q-88 -40 -189 -40l-32 -47q18 2 30 2q40 0 69.5 -16.5t29.5 -52.5q0 -35 -32 -57t-77 -22q-30 0 -60.5 10.5t-30.5 33.5t20 23q12 0 29 -23t42 -23q21 0 39 14t18 34q0 49 -67 49q-9 0 -23.5 -2t-20.5 -2q-9 0 -9 10l10 20 l33 51q-132 13 -216.5 108.5t-84.5 217.5q0 139 105.5 231t251.5 92q84 0 162 -26q12 -5 17.5 -11.5t7 -13t3.5 -24.5q1 -6 3 -22.5t3 -29t1 -18.5q0 -18 -17 -18q-8 0 -15 7.5t-18 26t-19 28.5q-50 66 -134 66q-108 0 -167.5 -83.5t-59.5 -201.5q0 -126 67.5 -211.5 t161.5 -85.5q87 0 139 87q6 9 17 31t18 30.5t16 8.5q17 0 17 -21z"/>
    <glyph glyph-name="Egrave" unicode="È" horiz-adv-x="586" d="M116 118v385q0 58 -8.5 72t-51.5 15q-30 0 -30 15q0 18 21 18q27 0 87 -2t87 -2q49 0 143 2q24 0 71 0.5t71 0.5q14 0 17 -6t3 -29q0 -15 -0.5 -45t-0.5 -46q0 -27 -15 -27q-12 0 -20 16l-9 17.5l-8 15.5q-14 28 -28.5 41t-45 20t-85.5 7q-66 0 -77 -8q-10 -7 -10 -40 v-142q0 -33 9 -38.5t61 -5.5q67 0 83 6.5t23 41.5q1 2 2.5 10.5t2.5 12.5t3.5 9.5t6 8t8.5 2.5q16 0 16 -19q0 -13 -1.5 -41.5t-1.5 -42.5q0 -16 1.5 -45.5t1.5 -44.5q0 -23 -16 -23q-5 0 -8 2.5t-5.5 8t-4 10t-3.5 12.5l-3 12q-8 29 -31 36t-97 7q-30 0 -38.5 -5t-8.5 -29 v-163q0 -57 23.5 -71t89.5 -14q69 0 105 17t59 71q14 33 23 37q4 2 8 2q12 0 13 -10q2 -7 0 -29q-1 -10 -6 -46.5t-7 -56.5q-1 -12 -4 -15t-12 -3h-334q-31 0 -77 -2t-61 -2q-21 0 -21 18q0 15 30 15q43 1 51.5 15t8.5 74zM378 689v-1q0 -9 -8 -9q-1 0 -36 14l-141 68 q-1 1 -9 4.5t-10.5 5t-9.5 5t-9.5 6.5l-6.5 7.5t-5.5 9.5t-1.5 11q0 13 9.5 22t22.5 9q17 0 60 -33l127 -99q18 -14 18 -20z"/>
    <glyph glyph-name="Eacute" unicode="É" horiz-adv-x="586" d="M116 118v385q0 58 -8.5 72t-51.5 15q-30 0 -30 15q0 18 21 18q27 0 87 -2t87 -2q49 0 143 2q24 0 71 0.5t71 0.5q14 0 17 -6t3 -29q0 -15 -0.5 -45t-0.5 -46q0 -27 -15 -27q-12 0 -20 16l-9 17.5l-8 15.5q-14 28 -28.5 41t-45 20t-85.5 7q-66 0 -77 -8q-10 -7 -10 -40 v-142q0 -33 9 -38.5t61 -5.5q67 0 83 6.5t23 41.5q1 2 2.5 10.5t2.5 12.5t3.5 9.5t6 8t8.5 2.5q16 0 16 -19q0 -13 -1.5 -41.5t-1.5 -42.5q0 -16 1.5 -45.5t1.5 -44.5q0 -23 -16 -23q-5 0 -8 2.5t-5.5 8t-4 10t-3.5 12.5l-3 12q-8 29 -31 36t-97 7q-30 0 -38.5 -5t-8.5 -29 v-163q0 -57 23.5 -71t89.5 -14q69 0 105 17t59 71q14 33 23 37q4 2 8 2q12 0 13 -10q2 -7 0 -29q-1 -10 -6 -46.5t-7 -56.5q-1 -12 -4 -15t-12 -3h-334q-31 0 -77 -2t-61 -2q-21 0 -21 18q0 15 30 15q43 1 51.5 15t8.5 74zM250 675h-1q-8 0 -8 9q0 4 3.5 7.5t9 8t6.5 5.5 l126 99q40 33 61 33q13 0 22.5 -9.5t9.5 -22.5q0 -8 -2.5 -14t-10.5 -12t-11 -8.5t-15 -8.5t-13 -6l-141 -67q-28 -14 -36 -14z"/>
    <glyph glyph-name="Ecircumflex" unicode="Ê" horiz-adv-x="586" d="M116 118v385q0 58 -8.5 72t-51.5 15q-30 0 -30 15q0 18 21 18q27 0 87 -2t87 -2q49 0 143 2q24 0 71 0.5t71 0.5q14 0 17 -6t3 -29q0 -15 -0.5 -45t-0.5 -46q0 -27 -15 -27q-12 0 -20 16l-9 17.5l-8 15.5q-14 28 -28.5 41t-45 20t-85.5 7q-66 0 -77 -8q-10 -7 -10 -40 v-142q0 -33 9 -38.5t61 -5.5q67 0 83 6.5t23 41.5q1 2 2.5 10.5t2.5 12.5t3.5 9.5t6 8t8.5 2.5q16 0 16 -19q0 -13 -1.5 -41.5t-1.5 -42.5q0 -16 1.5 -45.5t1.5 -44.5q0 -23 -16 -23q-5 0 -8 2.5t-5.5 8t-4 10t-3.5 12.5l-3 12q-8 29 -31 36t-97 7q-30 0 -38.5 -5t-8.5 -29 v-163q0 -57 23.5 -71t89.5 -14q69 0 105 17t59 71q14 33 23 37q4 2 8 2q12 0 13 -10q2 -7 0 -29q-1 -10 -6 -46.5t-7 -56.5q-1 -12 -4 -15t-12 -3h-334q-31 0 -77 -2t-61 -2q-21 0 -21 18q0 15 30 15q43 1 51.5 15t8.5 74zM298 846h30q18 0 29 -15l92 -132q8 -11 8 -18 q0 -6 -13 -6q-11 0 -25 14l-106 98l-105 -98q-14 -14 -26 -14t-12 6q0 7 7 18l93 132q10 15 28 15z"/>
    <glyph glyph-name="Edieresis" unicode="Ë" horiz-adv-x="586" d="M116 118v385q0 58 -8.5 72t-51.5 15q-30 0 -30 15q0 18 21 18q27 0 87 -2t87 -2q49 0 143 2q24 0 71 0.5t71 0.5q14 0 17 -6t3 -29q0 -15 -0.5 -45t-0.5 -46q0 -27 -15 -27q-12 0 -20 16l-9 17.5l-8 15.5q-14 28 -28.5 41t-45 20t-85.5 7q-66 0 -77 -8q-10 -7 -10 -40 v-142q0 -33 9 -38.5t61 -5.5q67 0 83 6.5t23 41.5q1 2 2.5 10.5t2.5 12.5t3.5 9.5t6 8t8.5 2.5q16 0 16 -19q0 -13 -1.5 -41.5t-1.5 -42.5q0 -16 1.5 -45.5t1.5 -44.5q0 -23 -16 -23q-5 0 -8 2.5t-5.5 8t-4 10t-3.5 12.5l-3 12q-8 29 -31 36t-97 7q-30 0 -38.5 -5t-8.5 -29 v-163q0 -57 23.5 -71t89.5 -14q69 0 105 17t59 71q14 33 23 37q4 2 8 2q12 0 13 -10q2 -7 0 -29q-1 -10 -6 -46.5t-7 -56.5q-1 -12 -4 -15t-12 -3h-334q-31 0 -77 -2t-61 -2q-21 0 -21 18q0 15 30 15q43 1 51.5 15t8.5 74zM211 689h-1q-20 0 -34 16t-14 37t13.5 35t35.5 14 q21 0 35 -15t14 -36t-14.5 -36t-34.5 -15zM400 689h-1q-20 0 -34 16t-14 37t13.5 35t35.5 14q20 0 34.5 -15.5t14.5 -35.5q0 -21 -14.5 -36t-34.5 -15z"/>
    <glyph glyph-name="Igrave" unicode="Ì" horiz-adv-x="355" d="M229 503v-388q0 -58 9.5 -72.5t54.5 -14.5q27 0 27 -16t-21 -16q-12 0 -50 2t-70 2q-33 0 -74 -2t-55 -2q-21 0 -21 16t29 16q43 0 51.5 14t8.5 73v388q0 59 -8.5 72.5t-51.5 14.5q-29 0 -29 16q0 17 21 17q14 0 56.5 -2t69.5 -2q28 0 68.5 2t54.5 2q21 0 21 -17 q0 -16 -30 -16q-43 -1 -52 -14.5t-9 -72.5zM258 689v-1q0 -9 -9 -9q-3 0 -9.5 2.5t-14.5 6.5t-12 5l-140 68q-2 1 -9.5 4.5l-10.5 5l-9.5 5t-9.5 6.5t-7 7.5t-5.5 9.5t-1.5 11q0 13 9.5 22t23.5 9q17 0 60 -33l126 -99q19 -13 19 -20z"/>
    <glyph glyph-name="Iacute" unicode="Í" horiz-adv-x="355" d="M229 503v-388q0 -58 9.5 -72.5t54.5 -14.5q27 0 27 -16t-21 -16q-12 0 -50 2t-70 2q-33 0 -74 -2t-55 -2q-21 0 -21 16t29 16q43 0 51.5 14t8.5 73v388q0 59 -8.5 72.5t-51.5 14.5q-29 0 -29 16q0 17 21 17q14 0 56.5 -2t69.5 -2q28 0 68.5 2t54.5 2q21 0 21 -17 q0 -16 -30 -16q-43 -1 -52 -14.5t-9 -72.5zM101 675h-1q-8 0 -8 9q0 4 3.5 7.5t9 8t6.5 5.5l126 99q40 33 61 33q14 0 23 -9.5t9 -22.5q0 -8 -2.5 -14t-10.5 -12t-11 -8.5t-15 -8.5t-13 -6l-141 -67q-28 -14 -36 -14z"/>
    <glyph glyph-name="Icircumflex" unicode="Î" horiz-adv-x="355" d="M229 503v-388q0 -58 9.5 -72.5t54.5 -14.5q27 0 27 -16t-21 -16q-12 0 -50 2t-70 2q-33 0 -74 -2t-55 -2q-21 0 -21 16t29 16q43 0 51.5 14t8.5 73v388q0 59 -8.5 72.5t-51.5 14.5q-29 0 -29 16q0 17 21 17q14 0 56.5 -2t69.5 -2q28 0 68.5 2t54.5 2q21 0 21 -17 q0 -16 -30 -16q-43 -1 -52 -14.5t-9 -72.5zM162 846h30q19 0 29 -15l92 -132q8 -11 8 -18q0 -6 -12 -6t-26 14l-106 98l-105 -98q-14 -14 -26 -14t-12 6q0 7 8 18l92 132q10 15 28 15z"/>
    <glyph glyph-name="Idieresis" unicode="Ï" horiz-adv-x="355" d="M229 503v-388q0 -58 9.5 -72.5t54.5 -14.5q27 0 27 -16t-21 -16q-12 0 -50 2t-70 2q-33 0 -74 -2t-55 -2q-21 0 -21 16t29 16q43 0 51.5 14t8.5 73v388q0 59 -8.5 72.5t-51.5 14.5q-29 0 -29 16q0 17 21 17q14 0 56.5 -2t69.5 -2q28 0 68.5 2t54.5 2q21 0 21 -17 q0 -16 -30 -16q-43 -1 -52 -14.5t-9 -72.5zM83 689h-1q-20 0 -34 16t-14 37t13.5 35t35.5 14q21 0 35 -15t14 -36t-14.5 -36t-34.5 -15zM272 689h-1q-20 0 -34 16t-14 37t13.5 35t35.5 14q20 0 34.5 -15.5t14.5 -35.5q0 -21 -14.5 -36t-34.5 -15z"/>
    <glyph glyph-name="Eth" unicode="Ð" horiz-adv-x="757" d="M119 351v164q0 28 -1 40t-8.5 21t-23.5 9q-10 0 -27.5 -4.5t-20.5 -4.5q-16 0 -16 15q0 16 48 26q94 20 249 20q189 0 293 -93q51 -44 77 -104t26 -122q0 -33 -7.5 -69.5t-31.5 -83.5t-62 -83t-106.5 -61t-158.5 -25q-31 0 -107 2t-106 2q-12 0 -43.5 -2t-43.5 -2 q-21 0 -21 17q0 15 30 15q43 0 52 14.5t9 75.5v194h-104q-7 0 -9 2t-2 9v17q0 7 2 9t9 2h104zM230 312v-186q0 -60 18.5 -80.5t77.5 -20.5q123 0 194 83q69 84 69 198q0 136 -77.5 217.5t-198.5 81.5q-58 0 -71 -13t-12 -54v-187h178q10 0 10 -11v-17q0 -11 -10 -11h-178z "/>
    <glyph glyph-name="Ntilde" unicode="Ñ" horiz-adv-x="719" d="M113 112v401q0 51 -8.5 63.5t-50.5 12.5q-31 0 -31 16q0 18 32 18q9 0 38 -1t46 -1q15 0 39.5 1t29.5 1q18 0 41 -31l305 -401q16 -21 26 -33v16v335q0 54 -9 67t-54 14q-28 0 -28 15q0 18 22 18q13 0 42.5 -2t47.5 -2q16 0 44 2t40 2q24 0 24 -19q0 -14 -33 -16 q-40 -1 -49 -15t-9 -64v-501q0 -14 -3 -17t-18 -3q-27 0 -40 22l-50 65l-335 442q-3 3 -10.5 13t-9.5 12v-25v-405q0 -56 10.5 -69t60.5 -14q22 -2 22 -15q0 -18 -23 -18q-12 0 -44.5 2t-51.5 2q-16 0 -44.5 -2t-40.5 -2q-21 0 -21 18q0 10 6.5 12t25.5 3q42 0 51.5 13.5 t9.5 69.5zM434 690h-1q-30 0 -77 33q-2 1 -16 9.5l-19.5 12t-16.5 7t-19 3.5q-19 0 -32 -14.5t-21 -28.5t-13 -14q-13 0 -11 12q1 25 28.5 58t72.5 33q29 0 82 -33q49 -31 67 -31q20 0 33 14t20.5 28t12.5 14q12 0 12 -12q-2 -25 -29.5 -58t-72.5 -33z"/>
    <glyph glyph-name="Ograve" unicode="Ò" horiz-adv-x="789" d="M38 314v1q0 135 107.5 229t246.5 94q156 0 255.5 -93t99.5 -230q0 -141 -102.5 -234.5t-250.5 -93.5q-141 0 -248.5 95.5t-107.5 231.5zM622 301v1q0 129 -71 215.5t-161 86.5q-96 0 -161.5 -76.5t-65.5 -205.5q0 -125 68.5 -212.5t167.5 -87.5q85 0 154 77t69 202z M471 689v-1q0 -9 -9 -9q-3 0 -9.5 2.5t-14.5 6.5t-12 5l-140 68q-2 1 -7.5 3.5t-8 3.5t-8 4t-8 4.5t-6.5 4.5t-6 6l-4.5 6.5t-3.5 7.5t-1 9q0 13 9.5 22t22.5 9q19 0 60 -33l127 -99q19 -13 19 -20z"/>
    <glyph glyph-name="Oacute" unicode="Ó" horiz-adv-x="789" d="M38 314v1q0 135 107.5 229t246.5 94q156 0 255.5 -93t99.5 -230q0 -141 -102.5 -234.5t-250.5 -93.5q-141 0 -248.5 95.5t-107.5 231.5zM622 301v1q0 129 -71 215.5t-161 86.5q-96 0 -161.5 -76.5t-65.5 -205.5q0 -125 68.5 -212.5t167.5 -87.5q85 0 154 77t69 202z M327 675h-1q-8 0 -8 9q0 4 3.5 7.5t9 8t6.5 5.5l126 99q40 33 61 33q14 0 23 -9.5t9 -22.5q0 -8 -2.5 -14t-10.5 -12t-11 -8.5t-15 -8.5t-13 -6l-141 -67q-28 -14 -36 -14z"/>
    <glyph glyph-name="Ocircumflex" unicode="Ô" horiz-adv-x="789" d="M38 314v1q0 135 107.5 229t246.5 94q156 0 255.5 -93t99.5 -230q0 -141 -102.5 -234.5t-250.5 -93.5q-141 0 -248.5 95.5t-107.5 231.5zM622 301v1q0 129 -71 215.5t-161 86.5q-96 0 -161.5 -76.5t-65.5 -205.5q0 -125 68.5 -212.5t167.5 -87.5q85 0 154 77t69 202z M380 846h30q18 0 28 -15l93 -132q7 -11 7 -18q0 -6 -12 -6t-26 14l-105 98l-106 -98q-14 -14 -25 -14q-13 0 -13 6q0 7 8 18l92 132q10 15 29 15z"/>
    <glyph glyph-name="Otilde" unicode="Õ" horiz-adv-x="789" d="M38 314v1q0 135 107.5 229t246.5 94q156 0 255.5 -93t99.5 -230q0 -141 -102.5 -234.5t-250.5 -93.5q-141 0 -248.5 95.5t-107.5 231.5zM622 301v1q0 129 -71 215.5t-161 86.5q-96 0 -161.5 -76.5t-65.5 -205.5q0 -125 68.5 -212.5t167.5 -87.5q85 0 154 77t69 202z M457 690h-1q-30 0 -77 33q-2 1 -16 9.5l-19.5 12t-16.5 7t-19 3.5q-19 0 -32 -14.5t-21 -28.5t-13 -14q-13 0 -11 12q1 25 28.5 58t72.5 33q29 0 82 -33q49 -31 67 -31q20 0 33 14t20.5 28t12.5 14q12 0 12 -12q-2 -25 -29.5 -58t-72.5 -33z"/>
    <glyph glyph-name="Odieresis" unicode="Ö" horiz-adv-x="789" d="M38 314v1q0 135 107.5 229t246.5 94q156 0 255.5 -93t99.5 -230q0 -141 -102.5 -234.5t-250.5 -93.5q-141 0 -248.5 95.5t-107.5 231.5zM622 301v1q0 129 -71 215.5t-161 86.5q-96 0 -161.5 -76.5t-65.5 -205.5q0 -125 68.5 -212.5t167.5 -87.5q85 0 154 77t69 202z M300 689h-1q-20 0 -34 16t-14 37t13.5 35t35.5 14q21 0 35 -15t14 -36t-14.5 -36t-34.5 -15zM489 689h-1q-20 0 -34 16t-14 37t13.5 35t35.5 14q20 0 34.5 -15.5t14.5 -35.5q0 -21 -14.5 -36t-34.5 -15z"/>
    <glyph glyph-name="multiply" unicode="×" horiz-adv-x="569" d="M234 253l-184 184l50 50l184 -185l184 185l50 -50l-185 -184l185 -184l-50 -50l-184 185l-184 -185l-50 50z"/>
    <glyph glyph-name="Oslash" unicode="Ø" horiz-adv-x="789" d="M227 115l306 429q-62 60 -145 60q-95 0 -160 -76.5t-65 -203.5q0 -125 64 -209zM558 510l-305 -429q57 -60 145 -60q86 0 155.5 75t69.5 206q0 122 -65 208zM204 38l-75 -106q-9 -12 -17 -12h-23q-12 0 -12 5t7 14l85 120q-59 46 -95 112t-36 142q0 90 51 166t132 117.5 t170 41.5q108 0 191 -49l75 104q8 12 16 12h24q12 0 12 -4q0 -2 -8 -15l-84 -118q61 -42 95.5 -109t34.5 -144q0 -141 -102.5 -234.5t-250.5 -93.5q-109 0 -190 51z"/>
    <glyph glyph-name="Ugrave" unicode="Ù" horiz-adv-x="709" d="M225 504v-286q0 -102 21 -136q19 -31 60.5 -46t87.5 -15q104 0 152 53q15 17 23 39.5t9 39t1 47.5v286q0 66 -11.5 84.5t-56.5 19.5q-28 0 -28 16q0 17 25 17q12 0 42 -2t47 -2q15 0 43 2t38 2q24 0 24 -16q0 -2 -0.5 -4.5t-2 -4t-3 -2.5t-4 -2t-4.5 -1.5t-5 -1t-5 -1 t-5.5 -1t-4.5 -0.5q-8 0 -14.5 -1.5t-11 -3t-8.5 -5.5t-6.5 -6t-4 -8t-2.5 -9t-2 -11.5t-1 -12t-0.5 -14.5t-0.5 -15v-301q0 -39 -2.5 -61t-15.5 -51t-39 -51q-60 -52 -191 -52q-124 0 -190 46q-41 29 -53 67.5t-12 108.5v295q0 58 -8.5 71.5t-51.5 14.5q-30 0 -30 16 q0 17 21 17q16 0 56.5 -2t66.5 -2q24 0 67.5 2t58.5 2q22 0 22 -17q0 -16 -31 -16q-43 0 -51.5 -14t-8.5 -72zM435 689v-1q0 -9 -9 -9q-3 0 -9.5 2.5t-14.5 6.5t-11 5l-141 68q-1 1 -9 4.5t-10.5 5t-9.5 5t-9.5 6.5l-6.5 7.5t-5.5 9.5t-1.5 11q0 13 9.5 22t22.5 9 q17 0 60 -33l126 -99q19 -13 19 -20z"/>
    <glyph glyph-name="Uacute" unicode="Ú" horiz-adv-x="709" d="M225 504v-286q0 -102 21 -136q19 -31 60.5 -46t87.5 -15q104 0 152 53q15 17 23 39.5t9 39t1 47.5v286q0 66 -11.5 84.5t-56.5 19.5q-28 0 -28 16q0 17 25 17q12 0 42 -2t47 -2q15 0 43 2t38 2q24 0 24 -16q0 -2 -0.5 -4.5t-2 -4t-3 -2.5t-4 -2t-4.5 -1.5t-5 -1t-5 -1 t-5.5 -1t-4.5 -0.5q-8 0 -14.5 -1.5t-11 -3t-8.5 -5.5t-6.5 -6t-4 -8t-2.5 -9t-2 -11.5t-1 -12t-0.5 -14.5t-0.5 -15v-301q0 -39 -2.5 -61t-15.5 -51t-39 -51q-60 -52 -191 -52q-124 0 -190 46q-41 29 -53 67.5t-12 108.5v295q0 58 -8.5 71.5t-51.5 14.5q-30 0 -30 16 q0 17 21 17q16 0 56.5 -2t66.5 -2q24 0 67.5 2t58.5 2q22 0 22 -17q0 -16 -31 -16q-43 0 -51.5 -14t-8.5 -72zM335 675h-1q-7 0 -7 9q0 4 3.5 7.5t9 8t6.5 5.5l126 99q40 33 61 33q13 0 22.5 -9.5t9.5 -22.5q0 -8 -2.5 -14t-10.5 -12t-11 -8.5t-15 -8.5t-13 -6l-141 -67 q-28 -14 -37 -14z"/>
    <glyph glyph-name="Ucircumflex" unicode="Û" horiz-adv-x="709" d="M225 504v-286q0 -102 21 -136q19 -31 60.5 -46t87.5 -15q104 0 152 53q15 17 23 39.5t9 39t1 47.5v286q0 66 -11.5 84.5t-56.5 19.5q-28 0 -28 16q0 17 25 17q12 0 42 -2t47 -2q15 0 43 2t38 2q24 0 24 -16q0 -2 -0.5 -4.5t-2 -4t-3 -2.5t-4 -2t-4.5 -1.5t-5 -1t-5 -1 t-5.5 -1t-4.5 -0.5q-8 0 -14.5 -1.5t-11 -3t-8.5 -5.5t-6.5 -6t-4 -8t-2.5 -9t-2 -11.5t-1 -12t-0.5 -14.5t-0.5 -15v-301q0 -39 -2.5 -61t-15.5 -51t-39 -51q-60 -52 -191 -52q-124 0 -190 46q-41 29 -53 67.5t-12 108.5v295q0 58 -8.5 71.5t-51.5 14.5q-30 0 -30 16 q0 17 21 17q16 0 56.5 -2t66.5 -2q24 0 67.5 2t58.5 2q22 0 22 -17q0 -16 -31 -16q-43 0 -51.5 -14t-8.5 -72zM372 846h30q18 0 28 -15l93 -132q7 -11 7 -18q0 -6 -12 -6t-26 14l-105 98l-106 -98q-14 -14 -25 -14q-13 0 -13 6q0 5 8 18l92 132q11 15 29 15z"/>
    <glyph glyph-name="Udieresis" unicode="Ü" horiz-adv-x="709" d="M225 504v-286q0 -102 21 -136q19 -31 60.5 -46t87.5 -15q104 0 152 53q15 17 23 39.5t9 39t1 47.5v286q0 66 -11.5 84.5t-56.5 19.5q-28 0 -28 16q0 17 25 17q12 0 42 -2t47 -2q15 0 43 2t38 2q24 0 24 -16q0 -2 -0.5 -4.5t-2 -4t-3 -2.5t-4 -2t-4.5 -1.5t-5 -1t-5 -1 t-5.5 -1t-4.5 -0.5q-8 0 -14.5 -1.5t-11 -3t-8.5 -5.5t-6.5 -6t-4 -8t-2.5 -9t-2 -11.5t-1 -12t-0.5 -14.5t-0.5 -15v-301q0 -39 -2.5 -61t-15.5 -51t-39 -51q-60 -52 -191 -52q-124 0 -190 46q-41 29 -53 67.5t-12 108.5v295q0 58 -8.5 71.5t-51.5 14.5q-30 0 -30 16 q0 17 21 17q16 0 56.5 -2t66.5 -2q24 0 67.5 2t58.5 2q22 0 22 -17q0 -16 -31 -16q-43 0 -51.5 -14t-8.5 -72zM295 689h-1q-20 0 -34 16t-14 37t13.5 35t35.5 14q20 0 34.5 -15.5t14.5 -35.5q0 -21 -14.5 -36t-34.5 -15zM483 689h-1q-20 0 -34 16t-14 37t13.5 35t35.5 14 q21 0 35 -15t14 -36t-14.5 -36t-34.5 -15z"/>
    <glyph glyph-name="Yacute" unicode="Ý" horiz-adv-x="673" d="M282 107v119q0 29 -4.5 42t-22.5 39l-134 203q-36 53 -52 65.5t-53 13.5q-10 1 -14.5 1.5t-8.5 4.5t-4 11q0 17 25 17q11 0 45.5 -2t65.5 -2q30 0 79 2t68 2q21 0 21 -15q0 -18 -34 -18q-39 -2 -39 -21q0 -6 4 -15.5t12.5 -23.5l15.5 -25t19 -28t17 -25q6 -10 20 -31 l23 -35l20 -30t17.5 -24t9.5 -8q6 0 88 129l17 25.5l18 27.5l13 21.5t11 22t3 14.5q0 17 -13.5 21.5t-38.5 4.5q-28 0 -28 14q0 19 30 19q12 0 42.5 -2t48.5 -2q19 0 48 2t42 2q25 0 25 -17q0 -5 -2 -8t-8.5 -5t-10.5 -2.5t-14 -1.5q-11 0 -21 -3t-20 -10.5t-16.5 -13 t-16 -17.5t-13 -17l-13.5 -19t-11 -16l-125 -191q-16 -25 -20 -38.5t-3 -44.5v-110q0 -54 9 -67.5t54 -13.5q28 0 28 -16t-21 -16q-18 0 -61.5 2t-60.5 2q-18 0 -63 -2t-62 -2q-21 0 -21 16t30 16q42 0 51 13t9 66zM311 675h-1q-8 0 -8 9q0 4 3 7.5t10 8.5l7 5l126 99 q38 33 60 33q14 0 23.5 -9.5t9.5 -22.5q0 -8 -3 -14t-10.5 -12t-11.5 -8.5t-15 -8l-13 -6.5l-140 -67q-31 -14 -37 -14z"/>
    <glyph glyph-name="Thorn" unicode="Þ" horiz-adv-x="596" d="M226 155v-53q0 -49 9.5 -61.5t53.5 -12.5q27 0 27 -16t-21 -16q-12 0 -49.5 2t-69.5 2q-33 0 -74.5 -2t-55.5 -2q-21 0 -21 16t30 16q43 0 51.5 14t8.5 72v389q0 60 -8.5 73t-51.5 14q-29 0 -29 16q0 17 21 17q14 0 56.5 -2t69.5 -2q28 0 68.5 2t54.5 2q21 0 21 -17 q0 -16 -30 -16q-38 -1 -49.5 -11.5t-11.5 -38.5v-18q0 -14 24 -14q7 0 39 1.5t58 1.5q57 0 100 -16.5t66 -44t33.5 -56.5t10.5 -60q0 -77 -54.5 -128t-142.5 -51q-44 0 -95 15l-20 5q-19 0 -19 -20zM226 405v-148q0 -26 2 -34t13 -14q29 -17 70 -17q52 0 89.5 37.5 t37.5 101.5q0 67 -40.5 109t-106.5 42q-43 0 -54 -15.5t-11 -61.5z"/>
    <glyph glyph-name="germandbls" unicode="ß" horiz-adv-x="597" d="M192 455v-429q0 -20 -2.5 -25t-14.5 -5q-9 0 -30.5 2t-34.5 2q-18 0 -43 -2t-33 -2q-16 0 -16 13q0 16 28 18q33 1 40.5 16.5t7.5 65.5v252q0 25 -4 30.5t-24 5.5q-37 0 -37 15t32 21q40 10 51 70q33 192 220 192q84 0 140 -43.5t56 -111.5q0 -76 -92 -102 q-5 -1 -19 -4.5t-19.5 -5t-16 -5t-15.5 -7l-11 -8t-8 -10.5t-2 -14q0 -10 6 -18.5t18.5 -16.5t24 -13.5t32.5 -14.5t33 -15q114 -54 114 -155q0 -69 -52.5 -116.5t-128.5 -47.5q-68 0 -116 29q-13 7 -15.5 16t-2.5 33v54q0 30 17 30q13 0 22 -20.5t15 -44.5t25.5 -44.5 t51.5 -20.5q41 0 66.5 26.5t25.5 80.5q0 39 -22.5 66.5t-54.5 44t-64.5 31.5t-55 39.5t-22.5 58.5q0 56 68 72q94 21 94 110q0 52 -31 83.5t-79 31.5q-35 0 -59 -14.5t-36 -33t-18.5 -51.5t-7.5 -53.5t-1 -55.5z"/>
    <glyph glyph-name="agrave" unicode="à" horiz-adv-x="497" d="M294 300v45q0 20 -1.5 31t-6.5 24t-17 19t-31 6q-38 0 -61 -19.5t-41 -58.5q-17 -33 -38 -42q-30 -11 -43 -11q-20 0 -20 19q0 45 68 92.5t161 47.5q74 0 108 -29q14 -12 17 -26.5t3 -52.5v-224q0 -73 33 -73q17 0 29 12q13 13 17 13q7 0 7 -15q0 -18 -37 -42t-70 -24 q-9 0 -16.5 3t-13 6t-11.5 10t-8.5 10.5l-8.5 12.5t-7 11q-9 13 -13 13q-2 0 -9 -5.5l-20 -15t-24 -16.5q-55 -34 -107 -34q-42 0 -70.5 23.5t-28.5 61.5q0 25 12 46t38 39.5t43 28t52 26.5q27 11 78 36q27 13 32 20t5 32zM133 101v-1q0 -26 17.5 -41t43.5 -15q46 0 80 37 q10 10 14.5 21.5t5 19.5t0.5 25v59q0 25 -4 25q-5 0 -23 -9l-69 -36q-65 -37 -65 -85zM325 525v-1q0 -8 -9 -8q-5 0 -36 14l-140 67q-41 19 -49 34q-4 7 -4 15q0 14 9.5 23t22.5 9q19 0 60 -33l127 -99q19 -16 19 -21z"/>
    <glyph glyph-name="aacute" unicode="á" horiz-adv-x="497" d="M294 300v45q0 20 -1.5 31t-6.5 24t-17 19t-31 6q-38 0 -61 -19.5t-41 -58.5q-17 -33 -38 -42q-30 -11 -43 -11q-20 0 -20 19q0 45 68 92.5t161 47.5q74 0 108 -29q14 -12 17 -26.5t3 -52.5v-224q0 -73 33 -73q17 0 29 12q13 13 17 13q7 0 7 -15q0 -18 -37 -42t-70 -24 q-9 0 -16.5 3t-13 6t-11.5 10t-8.5 10.5l-8.5 12.5t-7 11q-9 13 -13 13q-2 0 -9 -5.5l-20 -15t-24 -16.5q-55 -34 -107 -34q-42 0 -70.5 23.5t-28.5 61.5q0 25 12 46t38 39.5t43 28t52 26.5q27 11 78 36q27 13 32 20t5 32zM133 101v-1q0 -26 17.5 -41t43.5 -15q46 0 80 37 q10 10 14.5 21.5t5 19.5t0.5 25v59q0 25 -4 25q-5 0 -23 -9l-69 -36q-65 -37 -65 -85zM153 511h-1q-8 0 -8 9q0 4 3 7.5t9.5 8.5t7.5 5l126 99q38 33 60 33q14 0 23.5 -9t9.5 -22q0 -6 -1.5 -11t-5.5 -9.5t-7 -7.5t-9.5 -6.5l-9.5 -5l-10.5 -5t-9.5 -4.5l-140 -68 q-31 -14 -37 -14z"/>
    <glyph glyph-name="acircumflex" unicode="â" horiz-adv-x="497" d="M294 300v45q0 20 -1.5 31t-6.5 24t-17 19t-31 6q-38 0 -61 -19.5t-41 -58.5q-17 -33 -38 -42q-30 -11 -43 -11q-20 0 -20 19q0 45 68 92.5t161 47.5q74 0 108 -29q14 -12 17 -26.5t3 -52.5v-224q0 -73 33 -73q17 0 29 12q13 13 17 13q7 0 7 -15q0 -18 -37 -42t-70 -24 q-9 0 -16.5 3t-13 6t-11.5 10t-8.5 10.5l-8.5 12.5t-7 11q-9 13 -13 13q-2 0 -9 -5.5l-20 -15t-24 -16.5q-55 -34 -107 -34q-42 0 -70.5 23.5t-28.5 61.5q0 25 12 46t38 39.5t43 28t52 26.5q27 11 78 36q27 13 32 20t5 32zM133 101v-1q0 -26 17.5 -41t43.5 -15q46 0 80 37 q10 10 14.5 21.5t5 19.5t0.5 25v59q0 25 -4 25q-5 0 -23 -9l-69 -36q-65 -37 -65 -85zM210 682h30q18 0 29 -15l92 -132q8 -11 8 -18q0 -6 -13 -6q-11 0 -25 14l-106 99l-105 -99q-14 -14 -26 -14t-12 6q0 7 7 18l93 132q10 15 28 15z"/>
    <glyph glyph-name="atilde" unicode="ã" horiz-adv-x="497" d="M294 300v45q0 20 -1.5 31t-6.5 24t-17 19t-31 6q-38 0 -61 -19.5t-41 -58.5q-17 -33 -38 -42q-30 -11 -43 -11q-20 0 -20 19q0 45 68 92.5t161 47.5q74 0 108 -29q14 -12 17 -26.5t3 -52.5v-224q0 -73 33 -73q17 0 29 12q13 13 17 13q7 0 7 -15q0 -18 -37 -42t-70 -24 q-9 0 -16.5 3t-13 6t-11.5 10t-8.5 10.5l-8.5 12.5t-7 11q-9 13 -13 13q-2 0 -9 -5.5l-20 -15t-24 -16.5q-55 -34 -107 -34q-42 0 -70.5 23.5t-28.5 61.5q0 25 12 46t38 39.5t43 28t52 26.5q27 11 78 36q27 13 32 20t5 32zM133 101v-1q0 -26 17.5 -41t43.5 -15q46 0 80 37 q10 10 14.5 21.5t5 19.5t0.5 25v59q0 25 -4 25q-5 0 -23 -9l-69 -36q-65 -37 -65 -85zM288 527h-1q-30 0 -78 32q-50 32 -70 32q-19 0 -32.5 -14t-21 -28t-12.5 -14q-12 0 -12 12q2 25 29.5 57.5t72.5 32.5q33 0 82 -33q47 -31 67 -31q19 0 32 14t21 28t13 14q13 0 11 -12 q-1 -24 -28.5 -57t-72.5 -33z"/>
    <glyph glyph-name="adieresis" unicode="ä" horiz-adv-x="497" d="M294 300v45q0 20 -1.5 31t-6.5 24t-17 19t-31 6q-38 0 -61 -19.5t-41 -58.5q-17 -33 -38 -42q-30 -11 -43 -11q-20 0 -20 19q0 45 68 92.5t161 47.5q74 0 108 -29q14 -12 17 -26.5t3 -52.5v-224q0 -73 33 -73q17 0 29 12q13 13 17 13q7 0 7 -15q0 -18 -37 -42t-70 -24 q-9 0 -16.5 3t-13 6t-11.5 10t-8.5 10.5l-8.5 12.5t-7 11q-9 13 -13 13q-2 0 -9 -5.5l-20 -15t-24 -16.5q-55 -34 -107 -34q-42 0 -70.5 23.5t-28.5 61.5q0 25 12 46t38 39.5t43 28t52 26.5q27 11 78 36q27 13 32 20t5 32zM133 101v-1q0 -26 17.5 -41t43.5 -15q46 0 80 37 q10 10 14.5 21.5t5 19.5t0.5 25v59q0 25 -4 25q-5 0 -23 -9l-69 -36q-65 -37 -65 -85zM137 526h-1q-20 0 -34 15.5t-14 36.5t14 35.5t35 14.5q20 0 34.5 -15.5t14.5 -36.5q0 -20 -14.5 -35t-34.5 -15zM325 526h-1q-20 0 -34 15.5t-14 36.5t14 35.5t35 14.5q20 0 34.5 -15.5 t14.5 -36.5q0 -20 -14.5 -35t-34.5 -15z"/>
    <glyph glyph-name="aring" unicode="å" horiz-adv-x="497" d="M294 300v45q0 20 -1.5 31t-6.5 24t-17 19t-31 6q-38 0 -61 -19.5t-41 -58.5q-17 -33 -38 -42q-30 -11 -43 -11q-20 0 -20 19q0 45 68 92.5t161 47.5q74 0 108 -29q14 -12 17 -26.5t3 -52.5v-224q0 -73 33 -73q17 0 29 12q13 13 17 13q7 0 7 -15q0 -18 -37 -42t-70 -24 q-9 0 -16.5 3t-13 6t-11.5 10t-8.5 10.5l-8.5 12.5t-7 11q-9 13 -13 13q-2 0 -9 -5.5l-20 -15t-24 -16.5q-55 -34 -107 -34q-42 0 -70.5 23.5t-28.5 61.5q0 25 12 46t38 39.5t43 28t52 26.5q27 11 78 36q27 13 32 20t5 32zM133 101v-1q0 -26 17.5 -41t43.5 -15q46 0 80 37 q10 10 14.5 21.5t5 19.5t0.5 25v59q0 25 -4 25q-5 0 -23 -9l-69 -36q-65 -37 -65 -85zM233 511h-1q-42 0 -71.5 30t-29.5 72q0 43 29.5 73t72.5 30t72.5 -30t29.5 -73q0 -42 -29.5 -72t-72.5 -30zM233 548h1q26 0 45.5 19t19.5 46q0 28 -19.5 47t-46.5 19t-46.5 -19 t-19.5 -47q0 -27 19.5 -46t46.5 -19z"/>
    <glyph glyph-name="ae" unicode="æ" horiz-adv-x="755" d="M696 280h-247q-26 0 -31 -5.5t-5 -35.5q0 -92 49.5 -143.5t118.5 -51.5q59 0 104 40q22 18 26 18q10 0 10 -10t-25 -37q-66 -68 -166 -68q-102 0 -162 78q-78 -78 -209 -78q-54 0 -86 21.5t-32 56.5q0 72 137 133l55 22l45 18q22 10 27.5 17t5.5 25q0 30 -1 45 q-4 99 -81 99q-56 0 -92 -74q-15 -32 -34 -42q-26 -13 -47 -13q-22 0 -22 20q0 40 64.5 89t154.5 49q41 0 73 -18.5t46 -45.5q26 29 70 46.5t96 17.5q85 0 137 -45.5t52 -104.5q0 -16 -5.5 -19.5t-25.5 -3.5zM423 327v-1q0 -8 6 -10t25 -2h109q65 0 65 45q0 28 -25 46.5 t-57 18.5q-49 0 -86 -33t-37 -64zM220 29h1q36 0 58.5 20.5t27.5 54.5q4 27 4 80q0 28 -11 28q-7 0 -33 -10q-122 -46 -122 -111q0 -28 22 -45t53 -17z"/>
    <glyph glyph-name="ccedilla" unicode="ç" horiz-adv-x="468" d="M33 211v1q0 101 80 171t185 70q78 0 125 -31q13 -7 15 -27v-7.5v-9.5v-7v-26q-2 -28 -18 -28q-9 0 -18 9t-23 29.5t-23 31.5q-33 39 -68 39q-57 0 -103.5 -53.5t-46.5 -132.5q0 -82 50.5 -142t124.5 -60q62 0 102 37q19 14 21 14q10 0 10 -12q0 -5 -7 -15t-22 -23 t-35 -24.5t-50 -19.5t-63 -8l-32 -47q18 2 30 2q40 0 69 -16.5t29 -52.5q0 -35 -32 -57t-76 -22q-30 0 -60.5 10.5t-30.5 33.5t19 23q12 0 20.5 -11.5t20 -23t31.5 -11.5q21 0 39 14t18 34q0 49 -67 49q-10 0 -24.5 -2t-19.5 -2q-9 0 -9 10l10 20l34 51q-86 9 -145.5 71.5 t-59.5 150.5z"/>
    <glyph glyph-name="egrave" unicode="è" horiz-adv-x="510" d="M458 265h-281q-27 0 -33 -4t-6 -24q0 -80 49.5 -137t130.5 -57q63 0 110 37q29 24 32 24q11 0 11 -11q0 -15 -39 -48q-67 -58 -164 -58q-104 0 -170 68t-66 162q0 111 79.5 173.5t178.5 62.5q88 0 138 -48t50 -114q0 -26 -20 -26zM145 313v-1q0 -9 6.5 -12t24.5 -3 q48 0 72 1q69 0 101 12q31 9 31 38q0 13 -6.5 29.5t-30.5 33.5t-62 17q-59 0 -97.5 -40.5t-38.5 -74.5zM346 525v-1q0 -8 -8 -8q-5 0 -36 14l-141 67q-1 1 -7 3.5t-8 3.5t-7.5 4t-8 5l-6.5 5t-6 5.5t-4.5 6.5t-3.5 8t-1 8q0 14 9.5 23t22.5 9q19 0 60 -33l127 -99 q1 -1 6.5 -5.5t8.5 -8t3 -7.5z"/>
    <glyph glyph-name="eacute" unicode="é" horiz-adv-x="510" d="M458 265h-281q-27 0 -33 -4t-6 -24q0 -80 49.5 -137t130.5 -57q63 0 110 37q29 24 32 24q11 0 11 -11q0 -15 -39 -48q-67 -58 -164 -58q-104 0 -170 68t-66 162q0 111 79.5 173.5t178.5 62.5q88 0 138 -48t50 -114q0 -26 -20 -26zM145 313v-1q0 -9 6.5 -12t24.5 -3 q48 0 72 1q69 0 101 12q31 9 31 38q0 13 -6.5 29.5t-30.5 33.5t-62 17q-59 0 -97.5 -40.5t-38.5 -74.5zM196 511h-1q-8 0 -8 9q0 4 3 7.5t9.5 8.5t7.5 5l125 99q40 33 61 33q13 0 22.5 -9t9.5 -22q0 -6 -1.5 -11t-5.5 -9.5l-6.5 -7.5t-9.5 -6.5t-9.5 -5t-10.5 -5t-9 -4.5 l-141 -68q-28 -14 -36 -14z"/>
    <glyph glyph-name="ecircumflex" unicode="ê" horiz-adv-x="510" d="M458 265h-281q-27 0 -33 -4t-6 -24q0 -80 49.5 -137t130.5 -57q63 0 110 37q29 24 32 24q11 0 11 -11q0 -15 -39 -48q-67 -58 -164 -58q-104 0 -170 68t-66 162q0 111 79.5 173.5t178.5 62.5q88 0 138 -48t50 -114q0 -26 -20 -26zM145 313v-1q0 -9 6.5 -12t24.5 -3 q48 0 72 1q69 0 101 12q31 9 31 38q0 13 -6.5 29.5t-30.5 33.5t-62 17q-59 0 -97.5 -40.5t-38.5 -74.5zM244 682h30q18 0 29 -15l92 -132q8 -11 8 -18q0 -6 -13 -6q-11 0 -25 14l-106 99l-105 -99q-14 -14 -26 -14t-12 6q0 7 7 18l93 132q10 15 28 15z"/>
    <glyph glyph-name="edieresis" unicode="ë" horiz-adv-x="510" d="M458 265h-281q-27 0 -33 -4t-6 -24q0 -80 49.5 -137t130.5 -57q63 0 110 37q29 24 32 24q11 0 11 -11q0 -15 -39 -48q-67 -58 -164 -58q-104 0 -170 68t-66 162q0 111 79.5 173.5t178.5 62.5q88 0 138 -48t50 -114q0 -26 -20 -26zM145 313v-1q0 -9 6.5 -12t24.5 -3 q48 0 72 1q69 0 101 12q31 9 31 38q0 13 -6.5 29.5t-30.5 33.5t-62 17q-59 0 -97.5 -40.5t-38.5 -74.5zM165 526h-1q-20 0 -34 15.5t-14 36.5t14 35.5t35 14.5t35 -15.5t14 -36.5q0 -20 -14.5 -35t-34.5 -15zM353 526h-1q-20 0 -33.5 15.5t-13.5 36.5t13.5 35.5t34.5 14.5 t35 -15.5t14 -36.5q0 -20 -14.5 -35t-34.5 -15z"/>
    <glyph glyph-name="igrave" unicode="ì" horiz-adv-x="283" d="M100 114v174q0 45 -6.5 57.5t-33.5 13.5q-10 0 -13.5 0.5t-8 1.5t-5.5 3.5t-1 6.5q0 3 0.5 5t1.5 3.5t3 2.5t3.5 2t5 2t4.5 1t5.5 1t5.5 1q53 11 107 54q15 13 21 13q10 0 10 -17q0 -7 -0.5 -22.5t-0.5 -24.5v-290q0 -44 7 -60t37 -18q28 -2 28 -15t-14 -13 q-15 0 -50.5 2t-52.5 2q-28 0 -63.5 -2t-47.5 -2q-17 0 -17 12q0 15 29 17q23 0 32.5 9.5t11.5 24.5t2 55zM219 525v-1q0 -8 -8 -8q-5 0 -36 14l-141 67q-1 1 -7 3.5t-8 3.5t-7.5 4t-8 5l-6.5 5t-6 5.5t-4.5 6.5t-3.5 8t-1 8q0 14 9 23t23 9q19 0 60 -33l127 -99 q1 -1 6.5 -5.5t8.5 -8t3 -7.5z"/>
    <glyph glyph-name="iacute" unicode="í" horiz-adv-x="283" d="M100 114v174q0 45 -6.5 57.5t-33.5 13.5q-10 0 -13.5 0.5t-8 1.5t-5.5 3.5t-1 6.5q0 3 0.5 5t1.5 3.5t3 2.5t3.5 2t5 2t4.5 1t5.5 1t5.5 1q53 11 107 54q15 13 21 13q10 0 10 -17q0 -7 -0.5 -22.5t-0.5 -24.5v-290q0 -44 7 -60t37 -18q28 -2 28 -15t-14 -13 q-15 0 -50.5 2t-52.5 2q-28 0 -63.5 -2t-47.5 -2q-17 0 -17 12q0 15 29 17q23 0 32.5 9.5t11.5 24.5t2 55zM55 511h-1q-7 0 -7 9q0 4 3.5 8t9 8t6.5 5l126 99q40 33 61 33q13 0 22.5 -9t9.5 -22q0 -6 -1.5 -11t-5.5 -9.5l-6.5 -7.5t-9.5 -6.5t-9.5 -5t-10.5 -5t-9 -4.5 l-141 -68q-28 -14 -37 -14z"/>
    <glyph glyph-name="icircumflex" unicode="î" horiz-adv-x="283" d="M100 114v174q0 45 -6.5 57.5t-33.5 13.5q-10 0 -13.5 0.5t-8 1.5t-5.5 3.5t-1 6.5q0 3 0.5 5t1.5 3.5t3 2.5t3.5 2t5 2t4.5 1t5.5 1t5.5 1q53 11 107 54q15 13 21 13q10 0 10 -17q0 -7 -0.5 -22.5t-0.5 -24.5v-290q0 -44 7 -60t37 -18q28 -2 28 -15t-14 -13 q-15 0 -50.5 2t-52.5 2q-28 0 -63.5 -2t-47.5 -2q-17 0 -17 12q0 15 29 17q23 0 32.5 9.5t11.5 24.5t2 55zM134 682h30q18 0 29 -15l92 -132q8 -11 8 -18q0 -6 -13 -6q-11 0 -25 14l-106 99l-105 -99q-14 -14 -26 -14t-12 6q0 7 7 18l93 132q10 15 28 15z"/>
    <glyph glyph-name="idieresis" unicode="ï" horiz-adv-x="283" d="M100 114v174q0 45 -6.5 57.5t-33.5 13.5q-10 0 -13.5 0.5t-8 1.5t-5.5 3.5t-1 6.5q0 3 0.5 5t1.5 3.5t3 2.5t3.5 2t5 2t4.5 1t5.5 1t5.5 1q53 11 107 54q15 13 21 13q10 0 10 -17q0 -7 -0.5 -22.5t-0.5 -24.5v-290q0 -44 7 -60t37 -18q28 -2 28 -15t-14 -13 q-15 0 -50.5 2t-52.5 2q-28 0 -63.5 -2t-47.5 -2q-17 0 -17 12q0 15 29 17q23 0 32.5 9.5t11.5 24.5t2 55zM47 526h-1q-20 0 -34 15.5t-14 36.5t14 35.5t35 14.5t35 -15.5t14 -36.5q0 -20 -14.5 -35t-34.5 -15zM236 526h-1q-20 0 -34 15.5t-14 36.5t14 35.5t35 14.5 q20 0 34.5 -15.5t14.5 -36.5q0 -20 -14.5 -35t-34.5 -15z"/>
    <glyph glyph-name="eth" unicode="ð" horiz-adv-x="570" d="M293 575l-132 -70q-20 -9 -23 -9q-6 0 -11 5l-7 10q0 1 -1.5 3.5t-1.5 4.5q0 5 13 11l133 70q-46 31 -100 53l-13 5l-12 4.5t-8.5 4t-6 5.5t-1.5 7q0 12 26 12q62 0 174 -62l108 57q18 9 22 9q6 0 11 -5l7 -10q3 -4 3 -8q0 -3 -13 -11l-103 -54q84 -58 134 -144.5 t50 -188.5q0 -135 -75 -211t-179 -76q-108 0 -181 68t-73 167q0 93 68.5 161t179.5 68q85 0 133 -67l2 3q-30 110 -123 188zM292 15h1q66 0 105 64t39 133q0 84 -40 147.5t-111 63.5q-67 0 -108 -54t-41 -136q0 -86 43 -152t112 -66z"/>
    <glyph glyph-name="ntilde" unicode="ñ" horiz-adv-x="582" d="M92 114v175q0 42 -6.5 54t-30.5 13q-27 1 -27 12q0 3 1.5 6t3 4.5t5 3t5.5 2t7 1.5t6 1q22 5 53.5 21.5t48.5 33.5q15 15 21 15q10 0 10 -19v-43q0 -18 4 -18q2 0 8.5 5l19 15t22.5 17q51 40 110 40q72 0 114 -49q20 -24 26.5 -54t6.5 -78v-170q0 -42 7 -59t37 -18 q28 -2 28 -16q0 -13 -14 -13q-15 0 -54 2t-56 2q-18 0 -49 -2t-44 -2q-16 0 -16 13q0 12 22 15q2 1 3 1q18 1 26.5 11t10 22.5t1.5 43.5v161q0 64 -15 89q-27 42 -83 42q-52 0 -87 -37q-17 -18 -22 -35t-5 -46v-174q0 -31 1.5 -43.5t10 -22.5t27.5 -11q25 -3 25 -15 q0 -14 -16 -14q-13 0 -48.5 2t-53.5 2q-21 0 -54 -2t-46 -2q-16 0 -16 12q0 15 28 17q31 1 37.5 18.5t6.5 70.5zM354 527h-1q-30 0 -78 32q-50 32 -70 32q-19 0 -32.5 -14t-21 -28t-12.5 -14q-12 0 -12 12q2 25 29.5 57.5t72.5 32.5q33 0 82 -33q47 -31 67 -31q19 0 32 14 t21 28t13 14q13 0 11 -12q-1 -24 -28.5 -57t-72.5 -33z"/>
    <glyph glyph-name="ograve" unicode="ò" horiz-adv-x="570" d="M287 -13h-1q-107 0 -180 68t-73 167q0 91 69 161t184 70q83 0 143 -36t86.5 -86.5t26.5 -106.5q0 -99 -73 -168t-182 -69zM292 15h1q66 0 105 64t39 133q0 85 -40 149t-111 64q-67 0 -108 -55t-41 -137q0 -86 43 -152t112 -66zM361 525v-1q0 -8 -8 -8t-36 14l-141 67 q-1 1 -7 3.5t-8 3.5t-7.5 4t-8 5l-6.5 5t-6 5.5t-4.5 6.5t-3.5 8t-1 8q0 14 9 23t23 9q17 0 60 -33l127 -99q1 -1 6.5 -5.5t8.5 -8t3 -7.5z"/>
    <glyph glyph-name="oacute" unicode="ó" horiz-adv-x="570" d="M287 -13h-1q-107 0 -180 68t-73 167q0 91 69 161t184 70q83 0 143 -36t86.5 -86.5t26.5 -106.5q0 -99 -73 -168t-182 -69zM292 15h1q66 0 105 64t39 133q0 85 -40 149t-111 64q-67 0 -108 -55t-41 -137q0 -86 43 -152t112 -66zM217 511h-1q-7 0 -7 9q0 3 2.5 6.5t5 5.5 l6.5 5t5 4l126 99q38 33 61 33q13 0 22.5 -9t9.5 -22q0 -5 -1.5 -10t-3.5 -8t-6.5 -7t-6.5 -6t-8.5 -5.5t-8.5 -4.5t-9.5 -4.5t-8.5 -3.5l-140 -68q-31 -14 -37 -14z"/>
    <glyph glyph-name="ocircumflex" unicode="ô" horiz-adv-x="570" d="M287 -13h-1q-107 0 -180 68t-73 167q0 91 69 161t184 70q83 0 143 -36t86.5 -86.5t26.5 -106.5q0 -99 -73 -168t-182 -69zM292 15h1q66 0 105 64t39 133q0 85 -40 149t-111 64q-67 0 -108 -55t-41 -137q0 -86 43 -152t112 -66zM270 682h30q18 0 29 -15l92 -132 q7 -11 7 -18q0 -6 -12 -6q-11 0 -25 14l-106 99l-105 -99q-14 -14 -26 -14t-12 6q0 7 7 18l93 132q10 15 28 15z"/>
    <glyph glyph-name="otilde" unicode="õ" horiz-adv-x="570" d="M287 -13h-1q-107 0 -180 68t-73 167q0 91 69 161t184 70q83 0 143 -36t86.5 -86.5t26.5 -106.5q0 -99 -73 -168t-182 -69zM292 15h1q66 0 105 64t39 133q0 85 -40 149t-111 64q-67 0 -108 -55t-41 -137q0 -86 43 -152t112 -66zM348 527h-1q-30 0 -78 32q-50 32 -70 32 t-33 -14t-20.5 -28t-12.5 -14q-12 0 -12 12q2 25 29.5 57.5t72.5 32.5q33 0 82 -33q47 -31 67 -31q19 0 32 14t21 28t13 14q13 0 11 -12q-1 -24 -28.5 -57t-72.5 -33z"/>
    <glyph glyph-name="odieresis" unicode="ö" horiz-adv-x="570" d="M287 -13h-1q-107 0 -180 68t-73 167q0 91 69 161t184 70q83 0 143 -36t86.5 -86.5t26.5 -106.5q0 -99 -73 -168t-182 -69zM292 15h1q66 0 105 64t39 133q0 85 -40 149t-111 64q-67 0 -108 -55t-41 -137q0 -86 43 -152t112 -66zM191 526h-1q-20 0 -34 15.5t-14 36.5 t14 35.5t35 14.5q20 0 34.5 -15.5t14.5 -36.5q0 -20 -14.5 -35t-34.5 -15zM379 526h-1q-20 0 -34 15.5t-14 36.5t14 35.5t35 14.5t35 -15.5t14 -36.5q0 -20 -14.5 -35t-34.5 -15z"/>
    <glyph glyph-name="divide" unicode="÷" horiz-adv-x="569" d="M217 460v1q0 27 20.5 46.5t47.5 19.5q26 0 46.5 -20t20.5 -47q0 -26 -20.5 -46.5t-45.5 -20.5q-28 0 -48.5 20t-20.5 47zM536 217h-504v72h504v-72zM217 46v1q0 27 20.5 46.5t47.5 19.5q26 0 46.5 -20t20.5 -47q0 -26 -20.5 -46.5t-45.5 -20.5q-28 0 -48.5 20t-20.5 47z "/>
    <glyph glyph-name="oslash" unicode="ø" horiz-adv-x="570" d="M160 16l-50 -75q-6 -9 -16 -9h-15q-10 0 -10 4q0 3 6 13l56 84q-45 32 -71.5 81t-26.5 105q0 93 69 163.5t185 70.5q72 0 128 -29l50 75q6 9 16 9h15q10 0 10 -4q0 -3 -6 -13l-56 -84q47 -31 72.5 -80.5t25.5 -105.5q0 -97 -73 -165.5t-181 -68.5q-67 0 -128 29zM178 88 l199 293q-35 44 -92 44q-70 0 -109 -60.5t-39 -134.5q0 -80 41 -142zM396 352l-198 -293q39 -44 92 -44q66 0 106.5 62t40.5 133q0 87 -41 142z"/>
    <glyph glyph-name="ugrave" unicode="ù" horiz-adv-x="579" d="M177 407v-224q0 -24 1 -38t6.5 -36t15.5 -34t30.5 -21.5t50.5 -9.5q60 0 94 41q11 11 13 22t2 43v187q0 30 -1.5 43t-10.5 23t-28 10q-29 0 -29 15q0 13 18 13q12 0 36 -1.5t35 -1.5t33.5 1.5t31.5 1.5t11 -4t2 -19v-38v-276q0 -26 7 -36t33 -9q29 2 29 -10 q0 -11 -37 -17q-3 -1 -4 -1q-75 -22 -104 -40q-2 0 -7.5 -3t-7.5 -3q-7 0 -7 12v39q0 20 -8 20q-5 0 -18 -10q-70 -59 -138 -59q-74 0 -116 54q-31 38 -31 134v162q0 46 -6.5 60.5t-37.5 16.5q-27 2 -27 15q0 12 16 12q10 0 37.5 -1.5t37.5 -1.5t31.5 1.5t31.5 1.5 q11 0 13 -7t2 -27zM346 525v-1q0 -8 -9 -8q-5 0 -36 14l-140 67q-41 19 -49 34q-4 7 -4 15q0 14 9 23t23 9q19 0 60 -33l127 -99q19 -16 19 -21z"/>
    <glyph glyph-name="uacute" unicode="ú" horiz-adv-x="579" d="M177 407v-224q0 -24 1 -38t6.5 -36t15.5 -34t30.5 -21.5t50.5 -9.5q60 0 94 41q11 11 13 22t2 43v187q0 30 -1.5 43t-10.5 23t-28 10q-29 0 -29 15q0 13 18 13q12 0 36 -1.5t35 -1.5t33.5 1.5t31.5 1.5t11 -4t2 -19v-38v-276q0 -26 7 -36t33 -9q29 2 29 -10 q0 -11 -37 -17q-3 -1 -4 -1q-75 -22 -104 -40q-2 0 -7.5 -3t-7.5 -3q-7 0 -7 12v39q0 20 -8 20q-5 0 -18 -10q-70 -59 -138 -59q-74 0 -116 54q-31 38 -31 134v162q0 46 -6.5 60.5t-37.5 16.5q-27 2 -27 15q0 12 16 12q10 0 37.5 -1.5t37.5 -1.5t31.5 1.5t31.5 1.5 q11 0 13 -7t2 -27zM222 511h-1q-8 0 -8 9q0 4 3 7.5t9.5 8.5t7.5 5l125 99q40 33 61 33q13 0 22.5 -9t9.5 -22q0 -6 -1.5 -11t-5.5 -9.5l-6.5 -7.5t-9.5 -6.5t-9.5 -5t-10.5 -5t-9 -4.5l-141 -68q-28 -14 -36 -14z"/>
    <glyph glyph-name="ucircumflex" unicode="û" horiz-adv-x="579" d="M177 407v-224q0 -24 1 -38t6.5 -36t15.5 -34t30.5 -21.5t50.5 -9.5q60 0 94 41q11 11 13 22t2 43v187q0 30 -1.5 43t-10.5 23t-28 10q-29 0 -29 15q0 13 18 13q12 0 36 -1.5t35 -1.5t33.5 1.5t31.5 1.5t11 -4t2 -19v-38v-276q0 -26 7 -36t33 -9q29 2 29 -10 q0 -11 -37 -17q-3 -1 -4 -1q-75 -22 -104 -40q-2 0 -7.5 -3t-7.5 -3q-7 0 -7 12v39q0 20 -8 20q-5 0 -18 -10q-70 -59 -138 -59q-74 0 -116 54q-31 38 -31 134v162q0 46 -6.5 60.5t-37.5 16.5q-27 2 -27 15q0 12 16 12q10 0 37.5 -1.5t37.5 -1.5t31.5 1.5t31.5 1.5 q11 0 13 -7t2 -27zM280 682h30q18 0 29 -15l92 -132q8 -11 8 -18q0 -6 -13 -6q-11 0 -25 14l-106 99l-105 -99q-14 -14 -26 -14t-12 6q0 7 7 18l93 132q10 15 28 15z"/>
    <glyph glyph-name="udieresis" unicode="ü" horiz-adv-x="579" d="M177 407v-224q0 -24 1 -38t6.5 -36t15.5 -34t30.5 -21.5t50.5 -9.5q60 0 94 41q11 11 13 22t2 43v187q0 30 -1.5 43t-10.5 23t-28 10q-29 0 -29 15q0 13 18 13q12 0 36 -1.5t35 -1.5t33.5 1.5t31.5 1.5t11 -4t2 -19v-38v-276q0 -26 7 -36t33 -9q29 2 29 -10 q0 -11 -37 -17q-3 -1 -4 -1q-75 -22 -104 -40q-2 0 -7.5 -3t-7.5 -3q-7 0 -7 12v39q0 20 -8 20q-5 0 -18 -10q-70 -59 -138 -59q-74 0 -116 54q-31 38 -31 134v162q0 46 -6.5 60.5t-37.5 16.5q-27 2 -27 15q0 12 16 12q10 0 37.5 -1.5t37.5 -1.5t31.5 1.5t31.5 1.5 q11 0 13 -7t2 -27zM186 526h-1q-20 0 -34 15.5t-14 36.5t14 35.5t35 14.5q20 0 34 -15.5t14 -36.5q0 -20 -14.5 -35t-33.5 -15zM374 526h-1q-20 0 -34 15.5t-14 36.5t14 35.5t35 14.5q20 0 34.5 -15.5t14.5 -36.5q0 -20 -14.5 -35t-34.5 -15z"/>
    <glyph glyph-name="yacute" unicode="ý" horiz-adv-x="517" d="M81 -185v1q0 26 11 35.5t45 9.5q31 0 34 1q16 6 41 63q22 53 22 62q0 6 -13 40l-142 318q-2 4 -8 17t-8 17t-7.5 13t-10 12t-12 6.5t-16.5 3.5q-24 3 -24 13q0 14 24 14q11 0 47 -1.5t66 -1.5q25 0 57 1.5t44 1.5q16 0 16 -14q0 -10 -24 -13q-44 -3 -44 -28q0 -10 12 -39 q99 -234 103 -234q3 0 20 38t42.5 100t38.5 90q13 29 13 40q0 30 -47 34q-21 0 -21 11q0 15 18 15q12 0 37 -1.5t39 -1.5q15 0 40 1.5t35 1.5q19 0 19 -15q0 -8 -24 -13q-23 -3 -40 -22t-36 -62l-169 -390q-5 -12 -17 -37.5t-20 -45t-14 -40.5q-8 -28 -18 -36t-46 -8 q-32 0 -47.5 9t-15.5 34zM227 511h-1q-7 0 -7 9q0 4 3.5 8t9 8t6.5 5l126 99q40 33 61 33q13 0 22.5 -9t9.5 -22q0 -6 -1.5 -11t-5.5 -9.5l-6.5 -7.5t-9.5 -6.5t-9.5 -5t-10.5 -5t-9 -4.5l-141 -68q-28 -14 -37 -14z"/>
    <glyph glyph-name="thorn" unicode="þ" horiz-adv-x="597" d="M190 -16v-104q0 -46 7 -61.5t39 -16.5q30 -2 30 -15t-16 -13q-14 0 -51 1.5t-55 1.5q-19 0 -58 -1.5t-53 -1.5q-17 0 -17 12q0 3 1 5.5t3 4.5t3.5 3t5.5 1.5t5.5 0.5t6 0.5t5.5 0.5q33 1 39.5 17t6.5 72v653q0 55 -7 66.5t-43 13.5q-20 2 -20 13t25 14q73 9 106 33 q22 11 27 11q7 0 8.5 -4t1.5 -17v-271q0 -14 4 -14q2 0 7.5 4l15.5 11t17 11q64 39 124 39q73 0 139.5 -63t66.5 -167t-70.5 -171t-173.5 -66q-44 0 -98 19q-15 5 -24 5q-6 0 -7 -4.5t-1 -22.5zM458 206v1q0 87 -47 139t-111 52q-66 0 -96 -44q-14 -21 -14 -60v-164 q0 -60 26 -85q31 -28 78 -28q74 0 119 56t45 133z"/>
    <glyph glyph-name="ydieresis" unicode="ÿ" horiz-adv-x="517" d="M81 -185v1q0 26 11 35.5t45 9.5q31 0 34 1q16 6 41 63q22 53 22 62q0 6 -13 40l-142 318q-2 4 -8 17t-8 17t-7.5 13t-10 12t-12 6.5t-16.5 3.5q-24 3 -24 13q0 14 24 14q11 0 47 -1.5t66 -1.5q25 0 57 1.5t44 1.5q16 0 16 -14q0 -10 -24 -13q-44 -3 -44 -28q0 -10 12 -39 q99 -234 103 -234q3 0 20 38t42.5 100t38.5 90q13 29 13 40q0 30 -47 34q-21 0 -21 11q0 15 18 15q12 0 37 -1.5t39 -1.5q15 0 40 1.5t35 1.5q19 0 19 -15q0 -8 -24 -13q-23 -3 -40 -22t-36 -62l-169 -390q-5 -12 -17 -37.5t-20 -45t-14 -40.5q-8 -28 -18 -36t-46 -8 q-32 0 -47.5 9t-15.5 34zM188 526h-1q-20 0 -34 15.5t-14 36.5t14 35.5t35 14.5q20 0 34.5 -15.5t14.5 -36.5q0 -20 -14.5 -35t-34.5 -15zM376 526h-1q-20 0 -34 15.5t-14 36.5t14 35.5t35 14.5t35 -15.5t14 -36.5q0 -20 -14.5 -35t-34.5 -15z"/>
    <glyph glyph-name="dotlessi" unicode="ı" horiz-adv-x="283" d="M100 114v174q0 45 -6.5 57.5t-33.5 13.5q-10 0 -13.5 0.5t-8 1.5t-5.5 3.5t-1 6.5q0 3 0.5 5t1.5 3.5t3 2.5t3.5 2t5 2t4.5 1t5.5 1t5.5 1q53 11 107 54q15 13 21 13q10 0 10 -17q0 -7 -0.5 -22.5t-0.5 -24.5v-290q0 -44 7 -60t37 -18q28 -2 28 -15t-14 -13 q-15 0 -50.5 2t-52.5 2q-28 0 -63.5 -2t-47.5 -2q-17 0 -17 12q0 15 29 17q23 0 32.5 9.5t11.5 24.5t2 55z"/>
    <glyph glyph-name="Lslash" unicode="Ł" horiz-adv-x="513" d="M226 343v-210q0 -59 15.5 -79.5t74.5 -20.5q63 0 93.5 24.5t51.5 72.5q14 34 28 34q16 0 14 -24q0 -19 -5 -55t-5 -53q0 -2 -0.5 -7.5t-0.5 -7t-0.5 -5.5t-1.5 -5.5t-2 -4t-3 -3t-4.5 -1.5t-6 -1.5t-7.5 -0.5q-45 0 -150 2t-142 2q-21 0 -63.5 -2t-63.5 -2q-22 0 -22 17 q0 16 30 16q43 1 51 14.5t8 72.5v147l-78 -68q-22 -16 -26 -16q-6 0 -6 16v17q0 12 11 21l99 85v185q0 59 -8.5 72.5t-51.5 14.5q-29 0 -29 16q0 17 21 17q14 0 51 -2t65 -2t73 2t60 2q21 0 21 -17q0 -16 -30 -16q-43 -1 -52 -14.5t-9 -71.5v-106l118 100q22 16 26 16 q6 0 6 -17v-16q0 -13 -12 -21z"/>
    <glyph glyph-name="lslash" unicode="ł" horiz-adv-x="281" d="M191 377v-275q0 -44 7 -60t37 -18q28 -2 28 -15t-15 -13q-16 0 -50.5 2t-51.5 2q-23 0 -61 -2t-51 -2q-17 0 -17 12q0 15 30 17q23 0 32.5 9.5t11.5 24.5t2 55v194l-67 -57q-20 -16 -22 -16q-6 0 -6 11v21q0 13 9 20l86 74v183q0 55 -6.5 66.5t-43.5 13.5q-20 2 -20 13 t25 14q66 8 106 33q22 11 26 11q8 0 9.5 -4t1.5 -17v-243l67 57q20 16 22 16q6 0 6 -12v-20q0 -13 -9 -20z"/>
    <glyph glyph-name="OE" unicode="Œ" horiz-adv-x="1019" d="M669 281v-163q0 -26 1.5 -37.5t10 -25t27.5 -18t53 -4.5q85 0 122.5 18.5t60.5 82.5q9 27 25 27q15 0 15 -21q0 -5 -3 -26q-10 -54 -11 -91q0 -9 -1 -13t-5 -7t-13 -3h-160h-160q-15 0 -45 -0.5t-46 -0.5q-22 0 -70 -5.5t-80 -5.5q-59 0 -120.5 22t-114 62t-86 103.5 t-33.5 139.5q0 125 101 223.5t243 98.5q48 0 108 -7q56 -8 111 -8h168h167q18 0 21.5 -4t3.5 -26v-86q-1 -15 -1.5 -20t-4 -9t-10.5 -4q-5 0 -9.5 4t-6.5 8l-6 12.5t-6 11.5q-21 53 -51.5 66t-111.5 13h-38q-32 0 -38.5 -6.5t-6.5 -37.5v-148q0 -33 9 -38.5t62 -5.5 q64 0 81.5 6.5t23.5 40.5q7 43 22 43q17 0 17 -19q0 -12 -2 -40.5t-2 -42.5q0 -15 2 -45.5t2 -44.5q0 -24 -16 -24q-5 0 -8.5 2.5t-6 8t-4 10t-3.5 13l-3 12.5q-8 29 -30.5 36t-96.5 7q-31 0 -39 -5t-8 -29zM162 328v-1q0 -76 26.5 -144.5t86 -116t141.5 -47.5q39 0 66 8.5 t41 20t22 32t9.5 34.5t2.5 37v152v158q-1 44 -6.5 65.5t-24.5 39.5q-45 41 -127 41q-64 0 -112.5 -28.5t-74 -73t-38 -89.5t-12.5 -88z"/>
    <glyph glyph-name="oe" unicode="œ" horiz-adv-x="883" d="M812 282h-246q-27 0 -31 -5q-8 -9 -8 -49q0 -75 46.5 -130t121.5 -55q65 0 109 40q19 19 27 19q9 0 9 -10q0 -9 -23 -35q-70 -70 -167 -70q-95 0 -153 64q-16 18 -22 27q-8 -11 -23 -24q-72 -67 -172 -67q-101 0 -174 67.5t-73 166.5q0 54 24 100t62 73.5t81 43t83 15.5 q105 0 170 -68q16 -14 23 -24q22 23 28 27q65 65 163 65q74 0 127.5 -45t53.5 -100q0 -19 -6 -22.5t-30 -3.5zM283 15h1q57 0 99 61.5t42 138.5q0 84 -42 148t-102 64q-68 0 -105 -63t-37 -134q0 -84 42.5 -149.5t101.5 -65.5zM543 331v-1q0 -10 6.5 -12t27.5 -2h81 q19 0 30.5 1t28 4.5t24.5 13.5t8 26q0 29 -27 47.5t-59 18.5q-48 0 -84 -34.5t-36 -61.5z"/>
    <glyph glyph-name="Scaron" unicode="Š" horiz-adv-x="513" d="M472 189v-1q0 -80 -67 -140.5t-180 -60.5q-92 0 -164 38q-18 10 -18 43q0 34 2 90q2 30 22 30q6 0 10 -4t7 -12.5t5 -15.5t4.5 -19.5t3.5 -18.5q11 -48 45.5 -75.5t88.5 -27.5q57 0 98 33t41 85t-32.5 85t-94.5 59q-9 3 -26 10.5t-23 10.5q-64 27 -101.5 65t-37.5 99 q0 59 37 101t84 58.5t94 16.5q81 0 145 -21q12 -5 15 -12t3 -23q0 -13 1.5 -39t2.5 -39q0 -22 -18 -22q-13 0 -24 27q-29 100 -123 100q-48 0 -82.5 -25.5t-34.5 -71.5q0 -13 3 -24.5t10 -21.5t13.5 -18t20 -16.5t21 -14t25 -13.5t25 -11t27 -11.5t25.5 -10.5 q66 -29 106.5 -70.5t40.5 -111.5zM276 675h-30q-18 0 -29 15l-92 132q-8 11 -8 18q0 6 13 6q11 0 25 -14l106 -98l105 98q14 14 26 14t12 -6q0 -7 -7 -18l-93 -132q-10 -15 -28 -15z"/>
    <glyph glyph-name="scaron" unicode="š" horiz-adv-x="426" d="M52 321v1q0 52 50 91.5t139 39.5q25 0 62.5 -5t52.5 -11q12 -4 12 -22q0 -5 -0.5 -14t-0.5 -13t0.5 -13.5t0.5 -13.5q0 -23 -15 -23q-8 0 -13 7t-12.5 22t-15.5 26q-27 35 -80 35q-30 0 -56 -18.5t-26 -47.5q0 -42 55 -66q12 -6 61 -23q28 -10 46 -19t39 -24t31.5 -37.5 t10.5 -51.5q0 -68 -63 -111t-143 -43q-27 0 -68.5 8t-66.5 22q-11 6 -14 14q-3 7 -3 24q0 11 1 33t1 33q0 26 18 26q6 0 10 -3t7 -10t5 -13.5l5.5 -18l6.5 -20.5q24 -68 99 -68q43 0 75.5 23t32.5 64q0 36 -23.5 55t-70.5 37q-84 30 -112 52q-38 31 -38 76zM246 511h-30 q-18 0 -29 15l-92 132q-8 11 -8 18q0 6 13 6q10 0 25 -13l106 -99l105 99q15 13 26 13q12 0 12 -6q0 -7 -8 -18l-92 -132q-11 -15 -28 -15z"/>
    <glyph glyph-name="Ydieresis" unicode="Ÿ" horiz-adv-x="673" d="M282 107v119q0 29 -4.5 42t-22.5 39l-134 203q-36 53 -52 65.5t-53 13.5q-10 1 -14.5 1.5t-8.5 4.5t-4 11q0 17 25 17q11 0 45.5 -2t65.5 -2q30 0 79 2t68 2q21 0 21 -15q0 -18 -34 -18q-39 -2 -39 -21q0 -6 4 -15.5t12.5 -23.5l15.5 -25t19 -28t17 -25q6 -10 20 -31 l23 -35l20 -30t17.5 -24t9.5 -8q6 0 88 129l17 25.5l18 27.5l13 21.5t11 22t3 14.5q0 17 -13.5 21.5t-38.5 4.5q-28 0 -28 14q0 19 30 19q12 0 42.5 -2t48.5 -2q19 0 48 2t42 2q25 0 25 -17q0 -5 -2 -8t-8.5 -5t-10.5 -2.5t-14 -1.5q-11 0 -21 -3t-20 -10.5t-16.5 -13 t-16 -17.5t-13 -17l-13.5 -19t-11 -16l-125 -191q-16 -25 -20 -38.5t-3 -44.5v-110q0 -54 9 -67.5t54 -13.5q28 0 28 -16t-21 -16q-18 0 -61.5 2t-60.5 2q-18 0 -63 -2t-62 -2q-21 0 -21 16t30 16q42 0 51 13t9 66zM258 689h-1q-20 0 -34 16t-14 37t13.5 35t35.5 14 q20 0 34.5 -15.5t14.5 -35.5q0 -21 -14.5 -36t-34.5 -15zM446 689h-1q-20 0 -34 16t-14 37t13.5 35t35.5 14q21 0 35 -15t14 -36t-14.5 -36t-34.5 -15z"/>
    <glyph glyph-name="Zcaron" unicode="Ž" horiz-adv-x="615" d="M220 38h1h167q71 0 107 23t47 88q5 18 8 23t12 5q12 0 15.5 -7t3.5 -24t-0.5 -57.5t-0.5 -62.5q0 -19 -6 -23t-33 -4q-25 0 -98.5 0.5t-132.5 0.5q-62 0 -143 -0.5t-108 -0.5q-23 0 -23 13q0 6 7 16l360 522q14 23 14 29q0 7 -29 7h-138q-76 0 -114 -50q-8 -10 -17.5 -26 t-16 -23.5t-15.5 -7.5q-15 0 -15 15q0 4 6 28l30 111q8 31 21 31q10 0 18 -18q4 -16 12.5 -20t41.5 -4h174h173q22 0 22 -8q0 -6 -22 -36l-345 -504q-14 -23 -14 -27q0 -9 31 -9zM342 675h-30q-18 0 -28 15l-93 132q-7 11 -7 18q0 6 12 6t26 -14l105 -98l106 98q14 14 25 14 q13 0 13 -6q0 -7 -8 -18l-92 -132q-11 -15 -29 -15z"/>
    <glyph glyph-name="zcaron" unicode="ž" horiz-adv-x="469" d="M426 130h1q13 0 13 -25q0 -12 -1.5 -36.5t-1.5 -37.5q-1 -21 -4 -27t-15 -5q-22 0 -86 0.5t-109 0.5q-37 0 -92 -0.5t-79 -0.5q-21 0 -21 11q0 7 13 24l247 344q12 15 12 22t-17 7h-108q-61 0 -92 -46q-1 -1 -4.5 -5.5l-5.5 -7t-5.5 -4.5t-7.5 -2q-13 0 -13 11 q0 1 32 101q10 29 20 29t14 -19q0 -18 11.5 -22t39.5 -4h125h125q14 0 17.5 -1t3.5 -7q0 -10 -14 -28l-242 -339q-15 -21 -15 -25q0 -8 32 -8h78q66 0 89 15t41 63q7 22 19 22zM269 511h-30q-17 0 -28 15l-92 132q-8 11 -8 18q0 6 12 6q11 0 26 -13l105 -99l106 99 q15 13 26 13q12 0 12 -6q0 -7 -8 -18l-92 -132q-11 -15 -29 -15z"/>
    <glyph glyph-name="florin" unicode="ƒ" d="M185 351h-64q-20 0 -20 7q0 12 6 22q4 7 25 7h64q40 131 97 184q32 28 78 49.5t84 21.5q29 0 61 -11.5t32 -30.5q0 -18 -17 -48q-10 -19 -24 -19q-13 0 -34 27q-1 1 -7 8.5t-8 9.5t-7.5 8t-9 8t-8.5 5.5t-10 4.5t-10 1q-27 0 -49 -32q-25 -32 -53 -121q-3 -12 -10.5 -35 t-9.5 -30h82q22 0 22 -7q0 -8 -6 -21q-2 -8 -23 -8h-85l-96 -323q-12 -40 -20 -62t-23 -51t-33 -52q-68 -86 -167 -86q-29 0 -61 11.5t-32 30.5q0 15 17 49q11 18 24 18q14 0 35 -27q1 -1 5 -6t5 -6.5t4.5 -6t5.5 -6t5.5 -5l5.5 -5.5t5.5 -4t6.5 -3l6 -2t6 -1q25 0 45 37 q20 35 59 167z"/>
    <glyph glyph-name="circumflex" unicode="ˆ" horiz-adv-x="431" d="M200 682h30q18 0 29 -15l92 -132q8 -11 8 -18q0 -6 -13 -6q-11 0 -25 14l-106 99l-105 -99q-14 -14 -26 -14t-12 6q0 7 7 18l93 132q10 15 28 15z"/>
    <glyph glyph-name="caron" unicode="ˇ" horiz-adv-x="431" d="M230 511h-30q-17 0 -28 15l-93 132q-7 11 -7 18q0 6 12 6q11 0 26 -13l105 -99l106 99q15 13 25 13q13 0 13 -6q0 -7 -8 -18l-92 -132q-12 -15 -29 -15z"/>
    <glyph glyph-name="uni02C9" unicode="ˉ" horiz-adv-x="399" d="M89 596h231q15 0 15 -5q0 -6 -8 -30q-4 -10 -7 -12t-13 -2h-233q-10 0 -10 4t9 29q4 14 7 15q2 1 9 1z"/>
    <glyph glyph-name="breve" unicode="˘" horiz-adv-x="415" d="M208 517h-1q-56 0 -92.5 42.5t-36.5 88.5q0 20 12 20t17 -18q17 -75 101 -75q83 0 100 75q5 18 17 18t12 -20q0 -46 -36.5 -88.5t-92.5 -42.5z"/>
    <glyph glyph-name="dotaccent" unicode="˙" horiz-adv-x="275" d="M138 525h-1q-22 0 -35.5 15.5t-13.5 38.5q0 22 14 38t36 16t36 -16t14 -38t-14 -38t-36 -16z"/>
    <glyph glyph-name="ring" unicode="˚" horiz-adv-x="322" d="M161 511h-1q-42 0 -71.5 30t-29.5 72q0 43 29.5 73t72.5 30q42 0 72 -30t30 -73q0 -42 -30 -72t-72 -30zM161 548h1q26 0 45 19t19 46q0 28 -19 47t-46 19t-46.5 -19t-19.5 -47q0 -27 19.5 -46t46.5 -19z"/>
    <glyph glyph-name="ogonek" unicode="˛" horiz-adv-x="337" d="M199 0h35q-103 -57 -103 -120q0 -22 17 -35t38 -13q29 0 51 14q15 11 23 11q10 0 10 -12q0 -15 -33.5 -31.5t-67.5 -16.5q-41 0 -68 19.5t-27 58.5t41.5 75.5t83.5 49.5z"/>
    <glyph glyph-name="tilde" unicode="˜" horiz-adv-x="431" d="M278 527h-1q-30 0 -78 32q-50 32 -70 32q-19 0 -32 -14t-21 -28t-13 -14q-12 0 -12 12q2 25 29.5 57.5t72.5 32.5q33 0 82 -33q49 -31 67 -31q19 0 32 14t21 28t13 14q13 0 11 -12q-1 -24 -28.5 -57t-72.5 -33z"/>
    <glyph glyph-name="hungarumlaut" unicode="˝" horiz-adv-x="399" d="M78 511h-1q-7 0 -7 7q0 6 14 23l76 107q1 1 5 6t5 6.5t4.5 5.5t5 5.5t5 4.5t5.5 4.5t5 3t6 2t6 0.5q32 0 32 -30q0 -17 -32 -43l-96 -82q-22 -20 -33 -20zM216 511h-1q-7 0 -7 7q0 4 13 23l77 107q1 1 5 6t5 6.5t4.5 5.5t5 5.5t5 4.5t5.5 4.5t5 3t6 2t6 0.5q31 0 31 -30 q0 -17 -31 -43l-96 -82q-23 -20 -33 -20z"/>
    <glyph glyph-name="uni03A9" unicode="Ω" horiz-adv-x="697" d="M665 143l-25 -143h-232l-7 19q3 6 26.5 50t33.5 66t26.5 63t23.5 79t7 75q-1 136 -49 199.5t-122 63.5q-168 0 -168 -268q0 -18 2 -37.5t5 -35.5t9 -36.5l10 -33.5t13.5 -34.5t13.5 -31.5t15.5 -32.5l15 -29l16 -30.5t14.5 -27l-8 -19h-231l-22 143l26 1q15 -43 29.5 -56 t44.5 -13h96q-31 25 -53 46t-50 56.5t-43 80.5t-15 97q0 131 80.5 211t202.5 80q124 0 201.5 -76.5t77.5 -207.5q0 -46 -14.5 -88.5t-42 -80t-51 -62t-58.5 -56.5h103q30 0 43 12t28 57z"/>
    <glyph glyph-name="uni03BC" unicode="μ" horiz-adv-x="579" d="M177 407v-224q0 -24 1 -38t6.5 -36t15.5 -34t30.5 -21.5t50.5 -9.5q59 0 94 41q11 11 13 22t2 43v187q0 30 -1.5 43t-10.5 23t-28 10q-29 0 -29 15q0 13 18 13q12 0 36 -1.5t35 -1.5t33.5 1.5t31.5 1.5t11 -4.5t2 -19.5v-37v-276q0 -26 7 -36t33 -9q29 2 29 -10 q0 -11 -37 -17q-3 -1 -4 -1q-75 -22 -104 -40q-2 0 -7.5 -3t-7.5 -3q-7 0 -7 12v39q0 20 -8 20q-5 0 -18 -10q-70 -59 -135 -59q-36 0 -63 16t-40 41l-3 -1v-37q0 -33 16 -81t16 -73q0 -32 -14 -53t-38 -21q-48 0 -48 75q0 24 12 73.5t12 88.5v109v213q0 46 -6.5 60.5 t-37.5 16.5q-27 2 -27 15q0 12 16 12q10 0 37.5 -1.5t37.5 -1.5t31.5 1.5t31.5 1.5q11 0 13 -7t2 -27z"/>
    <glyph glyph-name="pi" unicode="π" horiz-adv-x="544" d="M494 443l24 -9q-10 -61 -35 -94q-19 -5 -63 -5q-4 -46 -4 -202q1 -83 40 -83q22 0 45 25l13 -22q-18 -30 -46.5 -47t-57.5 -17q-42 0 -66 27t-24 94q0 86 10 228q-28 0 -75 0.5t-63 0.5v-14q0 -96 -13.5 -172t-26 -105.5t-22.5 -42.5q-34 -14 -60 -16l-7 17q47 60 68 155 t21 180q-42 1 -65.5 -8t-55.5 -32l-15 24q2 2 10 12t11.5 14t12 13t14.5 13.5l16 11.5t20 10.5l22.5 7.5t27.5 5.5t31 1.5q33 0 121 -1.5t135 -1.5q22 0 33.5 6.5t23.5 25.5z"/>
    <glyph glyph-name="endash" unicode="–" horiz-adv-x="500" d="M33 258h453q12 0 12 -6q0 -1 -4 -17l-10 -30q-4 -12 -17 -12h-453q-12 0 -12 6q0 1 4 17l10 30q4 12 17 12z"/>
    <glyph glyph-name="emdash" unicode="—" horiz-adv-x="1000" d="M33 258h953q12 0 12 -6q0 -1 -4 -17l-10 -30q-4 -12 -17 -12h-953q-12 0 -12 6q0 1 4 17l10 30q4 12 17 12z"/>
    <glyph glyph-name="quoteleft" unicode="‘" horiz-adv-x="238" d="M172 679h1q10 0 10 -11q0 -3 -4 -7.5l-14 -15l-17 -17.5q-42 -49 -42 -81q0 -15 7.5 -20t24.5 -7q38 -5 38 -43q0 -20 -13 -36.5t-39 -16.5q-31 0 -48 25t-17 56q0 43 24.5 85.5t50.5 65.5t38 23z"/>
    <glyph glyph-name="quoteright" unicode="’" horiz-adv-x="238" d="M64 587v1q0 18 13 34t39 16q31 0 48 -25t17 -55q0 -62 -45 -118t-68 -56q-11 0 -11 11q0 3 35 41q41 48 41 81q0 14 -7.5 19.5t-24.5 7.5q-37 5 -37 43z"/>
    <glyph glyph-name="quotesinglbase" unicode="‚" horiz-adv-x="238" d="M66 33v1q0 19 13 35t39 16q31 0 48 -25t17 -56q0 -60 -45 -116.5t-68 -56.5q-11 0 -11 10q0 3 4 7.5l14.5 16t16.5 17.5q42 49 42 81q0 24 -32 27q-38 5 -38 43z"/>
    <glyph glyph-name="quotedblleft" unicode="“" horiz-adv-x="411" d="M172 679h1q10 0 10 -10q0 -2 -1.5 -5t-5.5 -6.5t-7.5 -7.5l-9.5 -10.5l-11 -11.5q-42 -47 -42 -81q0 -15 7.5 -20t24.5 -7q38 -5 38 -43q0 -20 -13 -36.5t-39 -16.5q-31 0 -48 25t-17 57q0 60 45 116.5t68 56.5zM341 679h1q10 0 10 -11q0 -3 -3.5 -7.5t-14 -15.5 l-16.5 -17q-42 -47 -42 -81q0 -15 7.5 -20t24.5 -7q38 -5 38 -43q0 -20 -13 -36.5t-40 -16.5q-31 0 -48 25t-17 56q0 62 45.5 118t67.5 56z"/>
    <glyph glyph-name="quotedblright" unicode="”" horiz-adv-x="411" d="M65 587v1q0 19 13 34.5t40 15.5q31 0 48 -25t17 -55q0 -61 -45.5 -117.5t-67.5 -56.5q-11 0 -11 11q0 3 4 7.5l14 15.5l16 18q42 47 42 81q0 24 -32 27q-38 5 -38 43zM235 586v1q0 19 13 35t39 16q31 0 48 -24.5t17 -55.5q0 -43 -24.5 -85.5t-50.5 -65.5t-38 -23 q-11 0 -11 10q0 2 1.5 5t5.5 6.5t7.5 7.5l9.5 10.5l11 11.5q42 49 42 81q0 15 -7.5 20t-24.5 7q-38 7 -38 43z"/>
    <glyph glyph-name="quotedblbase" unicode="„" horiz-adv-x="395" d="M66 33v1q0 19 13 35t39 16q31 0 48 -25t17 -56q0 -60 -45 -116.5t-68 -56.5q-11 0 -11 10q0 3 4 7.5l14.5 16t16.5 17.5q42 49 42 81q0 24 -32 27q-38 5 -38 43zM225 33v1q0 19 13.5 35t40.5 16q31 0 48 -25t17 -56q0 -62 -46 -118t-68 -56q-11 0 -11 11q0 3 35 40 q41 48 41 82q0 14 -7 19t-24 8q-39 6 -39 43z"/>
    <glyph glyph-name="dagger" unicode="†" horiz-adv-x="455" d="M239 -187h-23q0 166 -9 257t-32 147q41 59 41 183q-49 0 -88 -17t-56 -17q-21 0 -33.5 13.5t-12.5 31.5t12.5 31.5t33.5 13.5q16 0 57.5 -17t86.5 -17q0 63 -19 110t-19 63q0 20 13.5 33t35.5 13q23 0 36.5 -13t13.5 -33q0 -18 -9.5 -38.5t-19 -53.5t-9.5 -81 q46 0 87.5 17t56.5 17q21 0 33 -13t12 -32t-12 -32t-33 -13q-17 0 -56 17t-88 17q0 -124 41 -183q-23 -56 -32 -147t-9 -257z"/>
    <glyph glyph-name="daggerdbl" unicode="‡" horiz-adv-x="455" d="M428 411v-1q0 -18 -12 -31t-33 -13q-17 0 -56 17t-88 17q2 -103 38 -173q-36 -70 -38 -173q49 0 88 17t56 17q21 0 33 -13t12 -32t-12 -32t-33 -13q-17 0 -56 17t-88 17q-1 -63 18.5 -110t19.5 -63q0 -20 -13.5 -33t-36.5 -13q-22 0 -35.5 13t-13.5 33q0 16 19 63t19 110 q-49 0 -88 -16.5t-56 -16.5q-21 0 -33.5 13t-12.5 31t12.5 31.5t33.5 13.5q17 0 56 -17t88 -17q-2 103 -38 173q36 70 38 173q-49 0 -88 -17t-56 -17q-21 0 -33.5 13.5t-12.5 31.5t12.5 31.5t33.5 13.5q16 0 57.5 -17t86.5 -17q0 63 -19 110t-19 63q0 20 13.5 33t35.5 13 q23 0 36.5 -13t13.5 -33q0 -18 -9.5 -38.5t-19 -53.5t-9.5 -81q46 0 87.5 17t56.5 17q21 0 33 -13t12 -32z"/>
    <glyph glyph-name="bullet" unicode="•" horiz-adv-x="593" d="M297 490h1q58 0 98 -40.5t40 -99.5q0 -57 -40.5 -97t-98.5 -40t-98.5 40t-40.5 97q-1 58 40 99t99 41z"/>
    <glyph glyph-name="ellipsis" unicode="…" horiz-adv-x="1000" d="M167 103h1q23 0 39 -15.5t16 -42.5t-15 -42.5t-42 -15.5q-26 0 -41.5 17t-15.5 41t14.5 41t43.5 17zM501 103h1q23 0 39 -15.5t16 -42.5t-15 -42.5t-42 -15.5q-26 0 -41.5 17t-15.5 41t14.5 41t43.5 17zM834 103h1q24 0 40 -15.5t16 -42.5t-15 -42.5t-42 -15.5 q-26 0 -41.5 17t-15.5 41t14 41t43 17z"/>
    <glyph glyph-name="perthousand" unicode="‰" horiz-adv-x="1079" d="M166 289h-1q-66 0 -107.5 54t-41.5 121t42.5 121t107.5 54q68 0 109.5 -52.5t41.5 -122.5t-40.5 -122.5t-110.5 -52.5zM167 313h1q73 0 73 151t-75 151q-23 0 -39 -16t-23 -42t-9.5 -47.5t-2.5 -45.5q0 -151 75 -151zM565 -13h-1q-66 0 -108 54t-42 121t43 121t108 54 q67 0 108.5 -52.5t41.5 -122.5t-40.5 -122.5t-109.5 -52.5zM565 11h1q74 0 74 151t-75 151q-23 0 -39 -16t-23.5 -41.5t-10 -48t-2.5 -45.5t2.5 -45.5t10 -48t23.5 -41.5t39 -16zM914 -13h-1q-66 0 -108 54t-42 121t43 121t108 54q67 0 108.5 -52.5t41.5 -122.5 t-40.5 -122.5t-109.5 -52.5zM914 11h1q74 0 74 151t-75 151t-75 -151t75 -151zM123 -14v1q0 2 14 24l421 620q7 10 19 10h20q11 0 11 -5q0 -4 -13 -25l-422 -620q-7 -10 -19 -10h-20q-11 0 -11 5z"/>
    <glyph glyph-name="guilsinglleft" unicode="‹" horiz-adv-x="194" d="M174 96h-51q-22 0 -35 19l-45 72q-5 7 -19 23q-7 7 -7 10q0 2 7 9q8 9 19 24l45 71q13 19 35 19h51q11 0 11 -5t-12 -5q-16 0 -37 -31l-41 -63q-5 -9 -15 -19q7 -7 15 -19l41 -64q21 -31 37 -31q12 0 12 -5t-11 -5z"/>
    <glyph glyph-name="guilsinglright" unicode="›" horiz-adv-x="194" d="M19 343h52q22 0 35 -19l45 -71q11 -15 19 -24q7 -7 7 -9q0 -3 -7 -10q-14 -16 -19 -23l-45 -72q-13 -19 -35 -19h-52q-10 0 -10 5t12 5q16 0 37 31l41 64q7 12 14 19q-7 7 -14 19l-41 63q-21 31 -37 31q-12 0 -12 5t10 5z"/>
    <glyph glyph-name="fraction" unicode="⁄" horiz-adv-x="156" d="M-164 -14v1q0 3 13 24l422 621q7 10 19 10h20q11 0 11 -5q0 -3 -14 -25l-421 -621q-7 -10 -19 -10h-20q-11 0 -11 5z"/>
    <glyph glyph-name="Euro" unicode="€" horiz-adv-x="530" d="M391 268q0 -6 -1 -9q-2 -18 -21 -18h-177q10 -100 48.5 -164.5t107.5 -64.5q86 0 129 133q5 19 17 19q13 0 13 -16l-11 -88q-3 -24 -17 -35q-14 -12 -49 -24t-85 -12q-108 0 -173.5 75t-84.5 177h-62q-15 0 -15 10q0 1 0.5 3.5t0.5 4.5q1 4 1.5 5.5t2 4.5t3 4.5t5.5 2.5 t9 1h50q-2 24 -2 35q0 21 3 42h-58q-15 0 -15 10q0 5 1 8q1 4 1.5 5.5t2 4.5t3 4.5t5.5 2.5t9 1h57q22 101 90.5 171t178.5 70q37 0 96 -13q23 -6 29.5 -14t9.5 -31l10 -72q0 -20 -12 -20q-11 0 -21 21q-14 29 -20.5 41t-21 31t-33 26.5t-42.5 7.5q-69 0 -108.5 -63 t-51.5 -155h205q15 0 15 -9q0 -1 -0.5 -4t-0.5 -5q-4 -18 -21 -18h-202q-1 -13 -1 -38q0 -26 1 -39h187q15 0 15 -9z"/>
    <glyph glyph-name="afii61289" unicode="ℓ" horiz-adv-x="402" d="M365 112l20 -18q-59 -111 -165 -111q-67 0 -100 36q-18 22 -26 51t-8 86v69l-56 -40l-13 26l68 51v122q0 108 10 157t40 85q41 50 93 50q44 0 67.5 -36t23.5 -90q0 -76 -35.5 -139t-104.5 -131v-79q0 -88 19.5 -123.5t62.5 -35.5q57 0 104 70zM179 438v-111 q84 100 84 221q0 97 -41 97q-25 0 -34 -44t-9 -163z"/>
    <glyph glyph-name="trademark" unicode="™" horiz-adv-x="891" d="M45 543h-22v83h313v-83h-22q-9 61 -57 61h-45v-273q0 -31 6.5 -38.5t38.5 -10.5v-22h-155v22q31 3 37 10.5t6 38.5v273h-43q-48 0 -57 -61zM374 626h111l138 -277l138 277h101v-22q-28 -1 -39 -13.5t-11 -36.5v-235q0 -23 6 -28t38 -9v-22h-155v22q32 4 38.5 9t6.5 28 v214h-2l-137 -275h-9l-136 275h-2v-192q0 -31 9 -43.5t39 -15.5v-22h-119v22q29 3 37 14.5t8 44.5v219q-4 19 -22 31.5t-38 12.5v22z"/>
    <glyph glyph-name="Omega" unicode="Ω" horiz-adv-x="697" d="M665 143l-25 -143h-232l-7 19q3 6 26.5 50t33.5 66t26.5 63t23.5 79t7 75q-1 136 -49 199.5t-122 63.5q-168 0 -168 -268q0 -18 2 -37.5t5 -35.5t9 -36.5l10 -33.5t13.5 -34.5t13.5 -31.5t15.5 -32.5l15 -29l16 -30.5t14.5 -27l-8 -19h-231l-22 143l26 1q15 -43 29.5 -56 t44.5 -13h96q-31 25 -53 46t-50 56.5t-43 80.5t-15 97q0 131 80.5 211t202.5 80q124 0 201.5 -76.5t77.5 -207.5q0 -46 -14.5 -88.5t-42 -80t-51 -62t-58.5 -56.5h103q30 0 43 12t28 57z"/>
    <glyph glyph-name="estimated" unicode="℮" horiz-adv-x="796" d="M764 302h-594q-5 0 -5 -4v-180q0 -10 8 -20q95 -98 225 -98q142 0 236 109h53q-50 -59 -126.5 -93t-163.5 -34q-152 0 -259 96.5t-107 232.5q0 137 107.5 233.5t258.5 96.5q152 0 259.5 -96.5t107.5 -233.5v-9zM629 325v181q0 12 -9 21q-94 94 -222 94q-129 0 -224 -97 q-9 -9 -9 -22v-177q0 -6 5 -6h455q4 0 4 6z"/>
    <glyph glyph-name="partialdiff" unicode="∂" horiz-adv-x="512" d="M251 394h1q34 0 68 -16t55 -46q8 59 9 100q4 82 -24 144q-15 33 -46 56t-70 23q-64 0 -134 -58q-13 -1 -26.5 25t-6.5 43q63 38 136 38q131 0 203 -132q48 -90 48 -216q0 -138 -46 -231q-70 -141 -201 -141q-80 0 -128.5 50t-48.5 136q0 92 57 156q61 69 154 69zM275 353 h-1q-59 0 -96 -53q-42 -68 -42 -178q0 -48 22 -78t60 -30q60 0 103 97q31 69 46 179q-10 22 -35.5 42.5t-56.5 20.5z"/>
    <glyph glyph-name="Delta" unicode="∆" horiz-adv-x="610" d="M576 0h-543v27l245 607l44 12l254 -619v-27zM455 49l-185 462l-181 -462h366z"/>
    <glyph glyph-name="product" unicode="∏" horiz-adv-x="663" d="M636 641v-27q-60 -4 -73 -15.5t-13 -57.5v-511q0 -51 13 -64t72 -17v-28h-259v28q53 4 64.5 16t11.5 65v545q0 21 -6 26.5t-28 5.5h-176q-21 0 -26.5 -5t-5.5 -24v-548q0 -52 9.5 -64.5t60.5 -16.5v-28h-253v28q58 5 71.5 17.5t13.5 63.5v511q0 46 -13.5 57.5t-74.5 15.5 v27h612z"/>
    <glyph glyph-name="summation" unicode="∑" horiz-adv-x="531" d="M509 104l-43 -187h-440v25l209 309l-204 364v26h435l12 -157l-28 -6q-13 62 -34 98q-10 19 -29 25.5t-70 6.5h-166l168 -292l-210 -316h237q64 0 84.5 16t49.5 95z"/>
    <glyph glyph-name="minus" unicode="−" horiz-adv-x="569" d="M536 217h-504v72h504v-72z"/>
    <glyph glyph-name="uni2215" unicode="∕" horiz-adv-x="156" d="M-164 -14v1q0 3 13 24l422 621q7 10 19 10h20q11 0 11 -5q0 -3 -14 -25l-421 -621q-7 -10 -19 -10h-20q-11 0 -11 5z"/>
    <glyph glyph-name="uni2219" unicode="∙" horiz-adv-x="274" d="M136 195h-1q-25 0 -40.5 17t-15.5 41q0 25 16.5 41.5t41.5 16.5q26 0 41.5 -16t15.5 -42q0 -27 -15 -42.5t-43 -15.5z"/>
    <glyph glyph-name="radical" unicode="√" horiz-adv-x="524" d="M511 812l-160 -954l-23 -11l-204 505l-82 -39l-12 34l159 73l150 -390h2l129 792z"/>
    <glyph glyph-name="infinity" unicode="∞" horiz-adv-x="709" d="M664 264v-1q0 -69 -43 -111.5t-101 -42.5q-82 0 -165 105q-42 -51 -80.5 -78t-88.5 -27q-58 0 -100 42.5t-42 107.5q0 67 42.5 110t106.5 43q83 0 166 -104q50 58 78 76q41 28 88 28q61 -1 100 -42t39 -106zM193 166h1q19 0 36 7t36.5 24.5t27.5 26t29 32.5l-30 38 t-27.5 29t-36.5 25t-40 7q-39 0 -62.5 -27.5t-22.5 -69.5q-1 -38 24.5 -65t64.5 -27zM519 355h-1q-16 0 -31.5 -5.5t-31.5 -19t-23.5 -20.5t-25 -27t-18.5 -21q45 -54 73 -75t61 -21q37 0 60 29t23 64q0 43 -24 69.5t-62 26.5z"/>
    <glyph glyph-name="integral" unicode="∫" horiz-adv-x="364" d="M152 4l-19 374q-5 95 2 167t21.5 115t36.5 70t44 36.5t48 9.5q23 0 42.5 -13t20.5 -35q0 -22 -14 -34t-33 -12q-18 0 -30 25t-21 25q-40 0 -33 -149l17 -349q6 -118 -4 -203.5t-33.5 -131.5t-52.5 -67t-65 -21q-26 0 -44 14.5t-19 34.5q-1 21 16 35.5t39 14.5 q15 0 26.5 -27t20.5 -27q20 0 29 40t5 108z"/>
    <glyph glyph-name="approxequal" unicode="≈" horiz-adv-x="509" d="M432 407l39 -36q-49 -91 -124 -91q-41 0 -104 37q-49 30 -80 30q-28 0 -47 -17t-41 -49l-40 35q21 41 57 66t76 25q13 0 24.5 -2t23 -6.5t18 -7.5t18.5 -9.5t15 -8.5q48 -29 68 -32q6 -1 13 -1q43 0 84 67zM432 242l39 -36q-49 -91 -124 -91q-41 0 -104 36q-49 31 -80 31 q-28 0 -47.5 -17.5t-40.5 -49.5l-40 35q21 41 57 66t76 25q11 0 21.5 -2l18 -3.5t17.5 -6t14.5 -7l14.5 -8t12 -6.5q4 -2 13.5 -8l13.5 -8.5t12 -6.5t13.5 -5.5t13 -3t15.5 -1.5q26 0 44.5 16t40.5 51z"/>
    <glyph glyph-name="notequal" unicode="≠" horiz-adv-x="509" d="M370 464l-37 -82h131v-61h-155l-56 -125h211v-61h-235l-47 -105l-48 20l38 85h-128v61h152l56 125h-208v61h232l46 103z"/>
    <glyph glyph-name="lessequal" unicode="≤" horiz-adv-x="509" d="M462 93l-413 203v66l412 202v-70l-349 -164v-2l350 -164v-71zM465 -4h-420v62h420v-62z"/>
    <glyph glyph-name="greaterequal" unicode="≥" horiz-adv-x="509" d="M50 564l413 -203v-65l-412 -203v71l349 164v2l-350 164v70zM463 -4h-417v62h417v-62z"/>
    <glyph glyph-name="lozenge" unicode="◊" d="M488 307l-185 -373h-73l-186 373l187 377h72zM419 307l-150 312h-4l-151 -311l152 -311h3z"/>
    </font>
</defs>
</svg>
