<?xml version="1.0" encoding="UTF-8" standalone="no"?>
<!DOCTYPE svg PUBLIC "-//W3C//DTD SVG 1.1//EN" "http://www.w3.org/Graphics/SVG/1.1/DTD/svg11.dtd">
<svg>
<metadata>
Created by FontForge 20090622 at Tue Aug 25 07:57:19 2015
 By deploy user
Copyright 1990-1993 Bitstream Inc.  All rights reserved.
</metadata>
<defs>
<font id="GaramondITCbyBT-Bold" horiz-adv-x="1024">
  <font-face font-family="GarmdITC Bk BT" font-weight="700" font-stretch="normal" units-per-em="2048" panose-1="2 2 8 2 6 5 6 2 3 4" ascent="1638" descent="-410" x-height="909" cap-height="1290" bbox="-342 -483 2363 1800" underline-thickness="209" underline-position="-121" unicode-range="U+0020-U+F002"/>
<missing-glyph horiz-adv-x="1229" d="M102 -362v1806h1024v-1806h-1024zM217 -248h795v1577h-795v-1577z"/>
    <glyph glyph-name=".notdef" horiz-adv-x="1229" d="M102 -362v1806h1024v-1806h-1024zM217 -248h795v1577h-795v-1577z"/>
    <glyph glyph-name=".null" horiz-adv-x="0"/>
    <glyph glyph-name="nonmarkingreturn" horiz-adv-x="602"/>
    <glyph glyph-name="space" unicode=" " horiz-adv-x="602"/>
    <glyph glyph-name="exclam" unicode="!" horiz-adv-x="664" d="M180 945q-3 19 -11 57q-19 101 -19 143q0 76 47.5 118t134.5 42t134.5 -42t47.5 -118q0 -42 -20 -144l-11 -57l-100 -547q-5 -26 -17.5 -38.5t-33.5 -12.5t-34 13t-17 38zM166 125q0 61 47.5 103t118.5 42q69 0 117.5 -42t48.5 -103q0 -60 -48 -101.5t-118 -41.5 q-71 0 -118.5 41t-47.5 102z"/>
    <glyph glyph-name="quotedbl" unicode="&quot;" horiz-adv-x="707" d="M543 852h-41l-80 461q-2 12 -3 21t-1 16q0 53 28 83.5t76 30.5q49 0 77 -29.5t28 -80.5q0 -6 -1 -15l-3 -26zM203 852h-41l-80 461q-1 7 -1.5 14.5t-0.5 22.5q0 52 28 83t74 31q48 0 75.5 -29t27.5 -81q0 -16 -0.5 -24.5t-1.5 -16.5z"/>
    <glyph glyph-name="numbersign" unicode="#" horiz-adv-x="1575" d="M705 852l-91 -252h265l88 252h-262zM711 1464h215l-148 -415h254l150 415h213l-148 -415h283l-74 -199h-278l-88 -248h292l-71 -196h-291l-148 -416h-215l148 416h-254l-150 -416h-215l148 416h-289l74 196h287l88 248h-304l74 199h299z"/>
    <glyph glyph-name="dollar" unicode="$" horiz-adv-x="1204" d="M582 856l45 326h-11q-83 0 -134.5 -45.5t-51.5 -118.5q0 -56 37.5 -96t114.5 -66zM426 -289l41 295q-189 37 -236 67.5t-47 96.5v168q0 31 13.5 50.5t35.5 19.5q40 0 73 -100l5 -15q0 -1 1 -2q61 -180 167 -193l58 416q-153 58 -231.5 149t-78.5 211q0 170 113.5 282 t300.5 126l31 219h112l-30 -221q148 -44 180.5 -67t32.5 -70v-13l-6 -128q-2 -27 -13 -41.5t-30 -14.5q-28 0 -55 60q-7 16 -11 24q-30 66 -54.5 95t-58.5 42l-49 -352q168 -78 249 -175.5t81 -221.5q0 -170 -124.5 -288.5t-315.5 -127.5l-41 -291h-113zM592 95 q83 3 137.5 58t54.5 134q0 65 -36 112.5t-105 71.5z"/>
    <glyph glyph-name="percent" unicode="%" horiz-adv-x="1622" d="M1016 307q0 -119 44.5 -195.5t110.5 -76.5q65 0 105.5 64.5t40.5 170.5q0 127 -43.5 204t-112.5 77q-65 0 -105 -67.5t-40 -176.5zM793 285q0 140 109.5 240t264.5 100t264 -95.5t109 -228.5q0 -140 -110.5 -240t-264.5 -100q-157 0 -264.5 94t-107.5 230zM1389 1327 l-1039 -1366h-117l1039 1366h117zM303 1012q0 -120 45.5 -197.5t112.5 -77.5q65 0 105 65t40 171q0 126 -43.5 203t-111.5 77q-66 0 -107 -66.5t-41 -174.5zM82 987q0 141 109 240.5t264 99.5t263.5 -95t108.5 -228q0 -141 -109.5 -240.5t-262.5 -99.5q-158 0 -265.5 93.5 t-107.5 229.5z"/>
    <glyph glyph-name="ampersand" unicode="&amp;" horiz-adv-x="1575" d="M762 874q45 0 85 46t40 104q0 88 -50.5 153.5t-111.5 65.5q-51 0 -81 -32t-30 -87q0 -25 6.5 -49.5t20.5 -52.5q29 -62 65 -105t56 -43zM825 231q6 4 8 8.5t3 12.5q0 6 -2 11t-7 9l-303 371q-2 4 -7.5 6t-12.5 2q-5 0 -9.5 -1.5t-11.5 -6.5l-32 -22q-41 -29 -63.5 -72 t-22.5 -94q0 -118 80.5 -206.5t189.5 -88.5q47 0 83.5 10.5t69.5 34.5zM1274 238q52 -68 96 -103t100 -57q12 -5 31 -10q39 -12 39 -33q0 -19 -15.5 -27t-51.5 -8q-29 0 -104 4t-122 4h-60q-13 -1 -28.5 -1.5t-50.5 -0.5q-43 0 -71.5 16.5t-73.5 77.5l-29 39 q-16 21 -22.5 27t-10.5 6q-5 0 -12.5 -3.5t-20.5 -12.5l-53 -39q-125 -92 -211.5 -124t-187.5 -32q-165 0 -266 102t-101 269q0 121 73.5 207t227.5 145l49 18q18 7 25.5 13.5t7.5 13.5q0 5 -3 12t-9 17l-37 59l-13 21q-73 116 -73 192q0 130 121.5 213.5t316.5 83.5 q192 0 303 -67.5t111 -182.5q0 -86 -51.5 -142t-177.5 -104l-62 -22q-17 -6 -21.5 -10t-5.5 -13q1 -5 3 -9q1 -2 2 -3l202 -244q6 -7 13.5 -11.5t13.5 -4.5t15 6t18 17l41 47q12 15 19 35.5t7 39.5q0 25 -21.5 40t-64.5 20q-2 0 -8 1q-57 5 -57 36q0 17 13.5 26t39.5 9 q5 -1 24 -2q112 -9 228 -9q74 0 147 5q16 1 19 1q20 0 27.5 -6t7.5 -22q0 -25 -50 -41q-21 -6 -33 -11q-55 -21 -103 -56.5t-93 -90.5l-88 -104q-11 -13 -14.5 -19t-3.5 -10q0 -8 2.5 -15.5t7.5 -13.5z"/>
    <glyph glyph-name="quotesingle" unicode="'" horiz-adv-x="365" d="M203 852h-41l-80 461q-2 12 -3 21t-1 16q0 53 28 83.5t76 30.5t75.5 -29t27.5 -81q0 -16 -0.5 -24.5t-1.5 -16.5z"/>
    <glyph glyph-name="parenleft" unicode="(" horiz-adv-x="807" d="M115 430q0 195 73.5 370t221.5 330q78 84 171 141.5t134 57.5q14 0 22 -7.5t8 -18.5q0 -14 -65 -61.5t-109 -108.5q-86 -121 -132 -301t-46 -402q0 -221 46 -401.5t132 -300.5q44 -61 109 -109t65 -61q0 -12 -8 -19.5t-22 -7.5q-33 0 -106 40.5t-144 102.5 q-167 147 -258.5 345t-91.5 411z"/>
    <glyph glyph-name="parenright" unicode=")" horiz-adv-x="807" d="M690 430q0 -195 -74.5 -371t-222.5 -331q-78 -83 -170 -140t-133 -57q-14 0 -23.5 7.5t-9.5 19.5q0 13 65 61t109 109q88 121 134.5 301.5t46.5 400.5t-46.5 400.5t-134.5 302.5q-44 61 -109 108.5t-65 61.5q0 11 9.5 18.5t23.5 7.5q31 0 103.5 -41t144.5 -104 q168 -148 260 -345.5t92 -408.5z"/>
    <glyph glyph-name="asterisk" unicode="*" d="M526 883v-6q0 -81 41 -173.5t41 -117.5q0 -42 -27 -67t-71 -25t-70 25t-26 67q0 26 40 115.5t40 164.5l-1 20q-2 -1 -10 -7q-76 -54 -123 -118l-3 -4q-74 -108 -134 -108q-33 0 -62.5 34t-29.5 73q0 38 33 66t76 28q72 0 132 15.5t107 45.5q-83 51 -212 59q-12 0 -20 1 q-52 5 -84 31.5t-32 64.5q0 40 29.5 72t64.5 32q58 0 121 -92q10 -13 14 -20q28 -39 59 -67t79 -56v6q0 81 -42 174t-42 119q0 42 27 67t71 25t70 -25t26 -67q0 -25 -40 -115t-40 -166v-20l25 19q70 49 111 106v0q73 112 135 112q34 0 63 -33t29 -73q0 -37 -33 -65.5 t-74 -28.5q-73 0 -133 -15.5t-106 -46.5q86 -51 206 -58q13 -1 19 -1q58 -5 89.5 -30.5t31.5 -65.5q0 -41 -28.5 -74t-63.5 -33q-60 0 -127 102l-8 12q-27 39 -59.5 67.5t-78.5 54.5z"/>
    <glyph glyph-name="plus" unicode="+" horiz-adv-x="1706" d="M752 1221h202v-510h498v-199h-498v-512h-202v512h-498v199h498v510z"/>
    <glyph glyph-name="comma" unicode="," horiz-adv-x="602" d="M115 117q0 62 47.5 104.5t120.5 42.5q85 0 138.5 -59.5t53.5 -155.5q0 -73 -31.5 -140t-99.5 -138q-53 -55 -97 -85t-71 -30q-13 0 -22 8t-9 21q0 21 45 51q25 17 39 28q51 42 78 87.5t27 89.5q0 42 -51 44q-25 1 -41 3q-60 7 -93.5 41.5t-33.5 87.5z"/>
    <glyph glyph-name="hyphen" unicode="-" horiz-adv-x="621" d="M580 584q9 0 13.5 -3.5t4.5 -11.5q0 -3 -0.5 -6t-1.5 -6l-63 -202q-4 -12 -14 -19.5t-21 -7.5h-453q-9 0 -13.5 3t-4.5 9q0 5 0.5 8t1.5 5l63 204q3 10 13.5 18.5t21.5 8.5h453z"/>
    <glyph glyph-name="period" unicode="." horiz-adv-x="602" d="M135 125q0 61 47.5 103t118.5 42q70 0 118 -42t48 -103q0 -60 -48 -101.5t-118 -41.5q-71 0 -118.5 41t-47.5 102z"/>
    <glyph glyph-name="slash" unicode="/" horiz-adv-x="569" d="M45 -190h-106l630 1517h107z"/>
    <glyph glyph-name="zero" unicode="0" horiz-adv-x="1204" d="M602 47q116 0 171.5 145t55.5 449q0 311 -55.5 455.5t-173.5 144.5q-115 0 -170 -144.5t-55 -447.5q0 -310 55 -456t172 -146zM602 1327q240 0 390.5 -187.5t150.5 -494.5t-150 -495.5t-391 -188.5q-239 0 -390 188.5t-151 495.5t150.5 494.5t390.5 187.5z"/>
    <glyph glyph-name="one" unicode="1" horiz-adv-x="1204" d="M498 223v819q0 45 -10.5 58.5t-38.5 13.5q-27 0 -103 -26.5t-123 -26.5q-20 0 -32.5 11t-12.5 28q0 40 135 73l99 25q131 37 253.5 83t125.5 46q16 0 23 -8t7 -27v-1061q0 -64 20.5 -92t70.5 -37q19 -3 52 -6q93 -11 93 -53q0 -24 -14.5 -34.5t-49.5 -10.5 q-19 0 -127.5 6t-197.5 6q-64 0 -185 -5t-178 -5q-35 0 -51 11t-16 34q0 49 106 55v0q16 2 32.5 3.5t34.5 2.5q54 6 70.5 27t16.5 90z"/>
    <glyph glyph-name="two" unicode="2" horiz-adv-x="1204" d="M195 0q-57 0 -74 8.5t-17 30.5q0 38 166 233l136 160q195 237 252 341t57 190q0 111 -64 178t-170 67q-60 0 -115.5 -27t-103.5 -79q-19 -22 -47 -59q-44 -60 -72 -60q-12 0 -20 10t-8 27q0 25 35.5 78t87.5 98q76 68 163 99.5t195 31.5q203 0 320.5 -93t117.5 -251 q0 -80 -29 -147t-92 -129q-56 -58 -220 -166.5t-238 -188.5l-37 -41q-6 -6 -9 -11.5t-3 -10.5q0 -7 6.5 -12t15.5 -5h399q40 0 65.5 11t41.5 35q6 8 15 33q16 48 46 48q20 0 29.5 -15t9.5 -48v-14l-10 -272q-2 -40 -9.5 -49t-37.5 -9h-62q-9 0 -45 1q-160 7 -309 7h-366z "/>
    <glyph glyph-name="three" unicode="3" horiz-adv-x="1204" d="M541 782l4 -10q28 4 56 6t58 2q186 0 300 -94t114 -246q0 -102 -51 -200.5t-152 -188.5q-119 -106 -257 -163.5t-271 -57.5q-117 0 -181.5 42t-64.5 118q0 54 34.5 88.5t88.5 34.5q37 0 69.5 -18t53.5 -50q10 -15 26 -49q36 -78 89 -78q109 0 204 115.5t95 265.5 t-87.5 243t-228.5 93q-86 0 -174 -27.5l-88 -27.5q-14 0 -24.5 8.5t-10.5 21.5q0 39 125 96q55 26 86 42q142 72 212.5 150.5t70.5 164.5q0 73 -45.5 117.5t-120.5 44.5q-51 0 -95 -19t-93 -61q-17 -15 -41 -41q-33 -37 -52 -37q-16 0 -25 9.5t-9 25.5q0 72 132 149.5 t300 77.5q169 0 263.5 -58t94.5 -161q0 -89 -99 -169.5t-306 -158.5z"/>
    <glyph glyph-name="four" unicode="4" horiz-adv-x="1204" d="M598 365q0 29 -7 36t-30 7h-416q-54 0 -68 13t-14 52q0 25 8.5 47t26.5 45l711 916q13 14 18.5 17t18.5 3h12h55q14 0 19.5 -4t5.5 -12q0 -13 -68 -92l-59 -68l-322 -391t-194 -254l-76 -113q-4 -7 -6 -12.5t-2 -9.5q0 -7 5.5 -11t14.5 -4h328q28 0 37.5 10.5t9.5 39.5 v329q0 21 31 37l12 6q42 22 99.5 39t78.5 17q9 0 35.5 3t44.5 3q8 0 11.5 -7t3.5 -28v-21v-387q0 -25 7 -32.5t32 -8.5h133q16 0 25 -10t9 -28v-41q0 -23 -10 -33t-31 -10h-131q-20 0 -29 -12t-9 -38v-184q0 -32 18.5 -49.5t69.5 -28.5q1 -1 2 -1.5t4 -0.5q47 -10 59 -19.5 t12 -29.5q0 -25 -15 -35t-60 -10q-31 0 -112.5 4t-133.5 4q-75 0 -162.5 -4t-99.5 -4q-45 0 -65.5 12t-20.5 37q0 20 11.5 30t51.5 15q2 0 5 1q28 4 42 7q44 13 59 35t15 82v146z"/>
    <glyph glyph-name="five" unicode="5" horiz-adv-x="1204" d="M443 1061q-98 -7 -126 -24t-28 -60q0 -39 127 -47q93 -5 156 -15q236 -34 359.5 -144.5t123.5 -287.5q0 -133 -84.5 -258.5t-235.5 -214.5q-114 -67 -259 -104t-292 -37q-35 0 -51 9t-16 28q0 21 17 32t85 21q28 4 55.5 9t55.5 12q205 47 315.5 140t110.5 218t-87.5 209 t-242.5 106q-72 11 -176 19q-119 10 -119 35q0 22 42.5 158.5t70.5 250.5q8 33 17 80q21 103 81 111l550 67q11 1 25.5 3.5t18.5 2.5q22 0 30.5 -7t8.5 -30q0 -7 -2 -18.5t-6 -26.5l-39 -149q-9 -30 -29.5 -44t-65.5 -18z"/>
    <glyph glyph-name="six" unicode="6" horiz-adv-x="1204" d="M78 549q0 206 103 390.5t296 326.5q133 97 295 157t287 60q31 0 46 -8t15 -25q0 -29 -95 -50.5t-161 -49.5q-224 -98 -352.5 -301t-128.5 -459q0 -231 87 -387t208 -156q81 0 126.5 73t45.5 204q0 177 -65 296t-158 119q-35 0 -74.5 -12t-46.5 -12q-15 0 -24 6.5t-9 17.5 q0 41 75.5 80t170.5 39q180 0 299 -121t119 -305q0 -198 -150 -334.5t-369 -136.5q-228 0 -384 169t-156 419z"/>
    <glyph glyph-name="seven" unicode="7" horiz-adv-x="1204" d="M449 -80q-12 0 -16.5 2.5t-4.5 7.5q0 3 1.5 8t4.5 13l404 932q15 37 21.5 59t6.5 35q0 11 -17 15.5t-61 4.5h-428q-87 0 -176 -3q-20 -1 -24 -1q-29 0 -39 13.5t-10 62.5v203q0 20 9.5 28.5t33.5 8.5q5 0 37 -4q188 -19 387 -19h247q72 0 155.5 2t94.5 2q37 0 58.5 -7.5 t21.5 -20.5q0 -21 -163 -331.5t-294 -625.5l-145 -350q-10 -23 -19 -29t-30 -6h-55z"/>
    <glyph glyph-name="eight" unicode="8" horiz-adv-x="1204" d="M473 580q-62 0 -101.5 -70.5t-39.5 -183.5q0 -128 73.5 -205.5t194.5 -77.5q107 0 176.5 63t69.5 160q0 49 -25 95t-71 81q-76 57 -161.5 97.5t-115.5 40.5zM702 817q47 0 85 59.5t38 139.5q0 109 -65 176.5t-172 67.5q-92 0 -151.5 -51t-59.5 -130q0 -40 16.5 -75.5 t46.5 -63.5q17 -15 38.5 -29t53.5 -30q75 -35 114 -49.5t56 -14.5zM325 612q9 4 14 8t5 7t-6.5 8.5t-20.5 13.5l-63 41q-66 43 -103.5 111.5t-37.5 146.5q0 165 139 274t356 109q207 0 336 -85.5t129 -219.5q0 -67 -44 -124t-124 -93l-49 -23q-5 -1 -8.5 -5.5t-3.5 -10.5 q0 -4 18 -14l4 -2l58 -35q101 -60 152.5 -142.5t51.5 -185.5q0 -184 -161.5 -308t-407.5 -124q-214 0 -355 102.5t-141 253.5q0 92 57 166.5t154 110.5z"/>
    <glyph glyph-name="nine" unicode="9" horiz-adv-x="1204" d="M477 459q-173 0 -290 118.5t-117 294.5q0 195 145.5 329t359.5 134q229 0 386 -165t157 -408q0 -187 -98.5 -366.5t-286.5 -332.5q-78 -64 -175.5 -119t-215.5 -102q-59 -22 -110.5 -35.5t-75.5 -13.5q-20 0 -33.5 11t-13.5 26q0 33 93 68t148 67q215 124 336 330.5 t121 445.5q0 206 -85.5 357t-191.5 151q-89 0 -142.5 -66.5t-53.5 -178.5q0 -177 85 -300.5t202 -123.5q10 0 30 4t29 4q14 0 23.5 -10t9.5 -25q0 -31 -73.5 -62.5t-162.5 -31.5z"/>
    <glyph glyph-name="colon" unicode=":" horiz-adv-x="649" d="M160 668q0 61 47.5 103t118.5 42q69 0 117.5 -42.5t48.5 -102.5q0 -61 -48.5 -103.5t-117.5 -42.5q-71 0 -118.5 42t-47.5 104zM160 125q0 61 47.5 103t118.5 42q69 0 117.5 -42t48.5 -103q0 -60 -48 -101.5t-118 -41.5q-71 0 -118.5 41t-47.5 102z"/>
    <glyph glyph-name="semicolon" unicode=";" horiz-adv-x="649" d="M143 117q0 62 49 104.5t121 42.5q85 0 138 -59t53 -156q0 -73 -31.5 -140t-99.5 -138q-53 -55 -97.5 -85t-70.5 -30q-14 0 -22.5 8t-8.5 21q0 21 45 51q25 17 39 28q50 42 77 87.5t27 89.5q0 43 -50 44q-25 1 -42 3q-59 7 -93 41.5t-34 87.5zM145 668q0 61 48 103t118 42 t118 -42.5t48 -102.5q0 -61 -48 -103.5t-118 -42.5t-118 42t-48 104z"/>
    <glyph glyph-name="less" unicode="&lt;" horiz-adv-x="1706" d="M1442 1194v-219l-893 -365l893 -364v-219l-1178 485v199z"/>
    <glyph glyph-name="equal" unicode="=" horiz-adv-x="1706" d="M254 496h1198v-199h-1198v199zM254 926h1198v-199h-1198v199z"/>
    <glyph glyph-name="greater" unicode="&gt;" horiz-adv-x="1706" d="M264 1194l1178 -483v-199l-1178 -485v219l895 364l-895 365v219z"/>
    <glyph glyph-name="question" unicode="?" horiz-adv-x="786" d="M272 336q-33 0 -50 68q-4 18 -7 28q-18 69 -28.5 128t-10.5 83q0 65 135 167l17 13q129 100 165.5 151.5t36.5 108.5q0 59 -32 97.5t-82 38.5q-32 0 -60.5 -18t-56.5 -56q-11 -14 -29 -40q-60 -85 -112 -85q-35 0 -55.5 38.5t-20.5 106.5q0 65 64.5 103.5t175.5 38.5 q178 0 297.5 -110t119.5 -269q0 -189 -318 -410q-25 -18 -38 -26q-56 -40 -64 -100q-1 -8 -2 -11q-3 -31 -12 -38t-33 -7zM125 125q0 61 47.5 103t118.5 42q70 0 118 -42t48 -103q0 -60 -48 -101.5t-118 -41.5q-71 0 -118.5 41t-47.5 102z"/>
    <glyph glyph-name="at" unicode="@" horiz-adv-x="2019" d="M1176 319q-62 -100 -134.5 -148t-160.5 -48q-142 0 -222.5 91t-80.5 251q0 114 50 221.5t144 196.5q69 64 148 97.5t161 33.5q96 0 150.5 -45t71.5 -138l49 164h190l-174 -618l-2 -7q-14 -58 -14 -87q0 -47 20.5 -74t54.5 -27q33 0 85 25t98 63q103 88 158 217t55 285 q0 275 -188.5 446t-489.5 171q-138 0 -262 -38t-228 -112q-173 -121 -266.5 -308.5t-93.5 -416.5q0 -335 210.5 -532t565.5 -197q166 0 319.5 50.5t307.5 156.5l39 -51q-151 -113 -318 -169.5t-348 -56.5q-187 0 -347.5 46t-277.5 133q-151 112 -232 277.5t-81 363.5 q0 155 52 298.5t153 264.5q145 174 346.5 267t435.5 93q349 0 558.5 -189t209.5 -503q0 -161 -59 -299.5t-170 -239.5q-59 -53 -126.5 -80.5t-137.5 -27.5q-98 0 -155 52t-64 148zM1118 948q-62 0 -112.5 -44.5t-100.5 -143.5q-57 -114 -87 -215t-30 -183q0 -79 34.5 -125.5 t92.5 -46.5q64 0 124.5 62t115.5 182q40 92 63 185.5t23 162.5q0 80 -32 123t-91 43z"/>
    <glyph glyph-name="A" unicode="A" horiz-adv-x="1292" d="M541 1247q19 47 39 63.5t65 16.5q41 0 57 -12t39 -70l406 -989q33 -82 61.5 -118t69.5 -52q12 -5 40 -9q56 -9 56 -42q0 -19 -15.5 -28t-45.5 -9q-11 0 -102 7t-173 7q-71 0 -168.5 -9t-124.5 -9q-29 0 -44 10t-15 31q0 20 13.5 31t43.5 16q3 1 5.5 1.5t7.5 0.5 q43 6 54 16.5t11 32.5q0 9 -2 18.5t-6 18.5l-86 227q-10 26 -40 35.5t-130 9.5h-57h-74q-79 0 -103 -12t-38 -55q-24 -69 -34.5 -112t-10.5 -70q0 -34 15.5 -53t57.5 -36q16 -6 32 -11t34 -9h1q62 -17 62 -49q0 -21 -12.5 -31t-38.5 -10q-3 0 -21 2q-103 12 -210 12 q-83 0 -161 -12q-13 -2 -15 -2q-26 0 -39 9.5t-13 29.5q0 33 50 50l4 1q8 2 17 5t17 7q31 14 53.5 42t41.5 75zM379 539h254q14 0 20 3t6 11q0 4 -1.5 9.5t-4.5 11.5l-133 325q-6 14 -9 18.5t-7 4.5q-5 -1 -9.5 -7t-8.5 -17l-126 -335q0 -1 -1 -4q-3 -8 -3 -10 q0 -5 4.5 -7.5t18.5 -2.5z"/>
    <glyph glyph-name="B" unicode="B" horiz-adv-x="1382" d="M903 711q197 -17 302.5 -109t105.5 -246q0 -184 -130 -279t-380 -95q-95 0 -245 12t-206 12q-82 0 -166 -6t-86 -6q-23 0 -37 12.5t-14 32.5q0 30 63 38l3 1q2 1 4.5 1.5t9.5 0.5q57 8 76.5 29t19.5 69v848q0 84 -16.5 116t-56.5 32q-13 0 -37 -5.5t-35 -5.5 q-16 0 -25.5 9t-9.5 24q0 53 159.5 78.5t489.5 25.5q281 0 423 -79.5t142 -237.5q0 -116 -89.5 -185t-264.5 -87zM553 543v-330q0 -81 36.5 -115.5t121.5 -34.5q114 0 182 76.5t68 204.5q0 147 -82.5 232.5t-223.5 85.5q-61 0 -81.5 -22.5t-20.5 -96.5zM553 1094v-287 q0 -40 8.5 -49.5t52.5 -9.5q147 0 222 57t75 170q0 118 -62 182t-177 64q-75 0 -97 -19.5t-22 -107.5z"/>
    <glyph glyph-name="C" unicode="C" horiz-adv-x="1384" d="M66 645q0 146 62 275.5t179 228.5q108 89 244.5 133.5t302.5 44.5q127 0 237 -23t148 -53q14 -9 26.5 -75.5t12.5 -143.5q0 -23 -10.5 -35t-30.5 -12q-31 0 -71 65q-19 31 -31 48q-56 76 -119 110.5t-146 34.5q-189 0 -315.5 -171.5t-126.5 -434.5q0 -258 125 -426 t313 -168q97 0 179 53t131 148l22 45q38 78 64 78q23 0 30.5 -18.5t7.5 -94.5v-27q0 -73 -7 -104.5t-25 -48.5q-59 -53 -171.5 -83t-252.5 -30q-351 0 -564.5 189t-213.5 495z"/>
    <glyph glyph-name="D" unicode="D" horiz-adv-x="1606" d="M223 1100q0 35 -19 54.5t-54 19.5q-11 0 -37.5 -3.5t-42.5 -3.5q-11 0 -19 9.5t-8 23.5q0 24 20.5 37t94.5 29q120 26 247.5 39.5t262.5 13.5q400 0 636 -182t236 -488q0 -139 -65 -264t-187 -221q-109 -87 -253 -128.5t-335 -41.5q-78 0 -187 9t-138 9q-85 0 -175 -9 t-94 -9q-22 0 -34.5 12t-12.5 33q0 29 58 40q11 2 16 3q54 7 72 27.5t18 68.5v922zM557 1122v-856q0 -110 33 -149t125 -39q204 0 334.5 160.5t130.5 418.5q0 266 -124 423t-333 157q-97 0 -131.5 -23t-34.5 -92z"/>
    <glyph glyph-name="E" unicode="E" horiz-adv-x="1245" d="M594 635q-16 -2 -23.5 -9t-7.5 -20v-299q0 -149 40.5 -189t154.5 -40q76 0 142.5 26t109.5 72q33 36 73 100t70 64q22 0 35.5 -16t13.5 -43q0 -7 -2 -21.5t-6 -34.5l-31 -172q-6 -36 -23 -51.5t-50 -15.5q-9 0 -56 3q-276 23 -561 23q-173 0 -342 -15q-30 -3 -37 -3 q-26 0 -40.5 11.5t-14.5 31.5q0 31 65 42q11 2 17 3q61 7 81.5 27.5t20.5 68.5v928q0 48 -20.5 69t-81.5 29q-5 1 -15 2q-69 10 -69 41q0 21 15 33t40 12q5 0 31 -2q163 -14 336 -14q195 0 397.5 8t210.5 8q41 0 51 -7.5t10 -29.5v-211q0 -39 -8.5 -50t-32.5 -11 q-29 0 -78 70l-42 57q-31 39 -88 59.5t-138 20.5q-97 0 -137.5 -25t-40.5 -88v-293q0 -28 23 -39.5t84 -11.5q92 0 132 10t58 33q21 28 45 82.5t56 54.5q20 0 31.5 -13t11.5 -36q-1 -4 -2 -18q-9 -72 -9 -139q0 -64 3 -129.5t3 -67.5q0 -42 -9.5 -56t-35.5 -14q-37 0 -66 65 q-12 26 -20 40q-31 56 -69 76t-113 20q-25 0 -38.5 -0.5t-25.5 -1.5z"/>
    <glyph glyph-name="F" unicode="F" horiz-adv-x="1145" d="M563 176q0 -48 23.5 -68.5t107.5 -29.5q8 -1 19 -2q67 -6 67 -37q0 -21 -17 -33t-46 -12q-12 0 -119 9t-203 9t-196.5 -9t-104.5 -9q-26 0 -40.5 11.5t-14.5 31.5q0 32 65 40l3 1q3 1 6 1.5t8 0.5q62 8 82 29t20 69v928q0 48 -20.5 69t-81.5 29q-5 1 -15 2q-69 10 -69 41 q0 21 15 33t40 12q8 0 41 -3q137 -13 262 -13h234q105 0 245 8t175 8q38 0 46.5 -7t8.5 -30v-227q0 -27 -8.5 -35t-28.5 -8q-29 0 -77 72q-24 36 -40 57q-31 42 -85 63t-130 21q-94 0 -133 -26t-39 -91v-297q0 -28 23 -39.5t84 -11.5q92 0 132 10t58 33q21 28 45 82.5 t56 54.5q20 0 31.5 -13t11.5 -36q-1 -4 -2 -18q-9 -72 -9 -139q0 -64 3 -129.5t3 -67.5q0 -42 -9.5 -56t-35.5 -14q-37 0 -66 65q-12 26 -20 40q-31 56 -69 76t-113 20q-25 0 -38.5 -0.5t-25.5 -1.5l-28 -4q-16 -2 -23.5 -9t-7.5 -20v-430z"/>
    <glyph glyph-name="G" unicode="G" horiz-adv-x="1542" d="M1280 1040v-14q0 -21 -9 -31t-28 -10q-34 0 -72 64l-22 34q-57 84 -123.5 122t-155.5 38q-191 0 -316.5 -172.5t-125.5 -439.5q0 -261 126.5 -424.5t324.5 -163.5q80 0 109.5 32.5t29.5 151.5v92v50q0 103 -12 135.5t-45 46.5q-18 8 -60 12h-1q-41 3 -52.5 11.5 t-11.5 27.5t14.5 31t38.5 12q9 0 42 -3q132 -13 251 -13q129 0 253 14q19 2 23 2q18 0 29.5 -12t11.5 -31q0 -37 -45 -40q-28 -3 -43 -7q-32 -7 -44.5 -36.5t-12.5 -119.5v-57q0 -58 3 -121t3 -67q0 -82 -153.5 -137.5t-393.5 -55.5q-337 0 -542 182t-205 478 q0 150 64.5 287t182.5 237q103 86 246.5 134t300.5 48q109 0 206 -17.5t155 -45.5q40 -20 50 -107q2 -16 3 -25z"/>
    <glyph glyph-name="H" unicode="H" horiz-adv-x="1616" d="M563 770q0 -13 8.5 -21t22.5 -8h428q14 0 21.5 7.5t7.5 21.5v338q0 49 -19 69.5t-80 28.5h-2q-1 0 -3 1q-62 8 -62 38q0 22 13 33.5t36 11.5q6 0 30 -2q129 -12 257 -12t256 12q25 2 30 2q23 0 36 -11.5t13 -31.5q0 -18 -11 -26.5t-56 -14.5q-1 -1 -2.5 -1.5t-3.5 -0.5 q-54 -8 -72 -29t-18 -69v-928q0 -48 18 -69t71 -29q4 -1 7 -1.5t8 -0.5q3 -1 6 -1q53 -11 53 -38q0 -21 -13 -33t-36 -12q-5 0 -31 3q-127 13 -255 13t-256 -13q-25 -3 -31 -3q-23 0 -36 12.5t-13 34.5q0 28 56 35q7 1 11 2q61 9 80 29t19 69v442q0 14 -7.5 21.5t-21.5 7.5 h-428q-14 0 -22.5 -7.5t-8.5 -21.5v-442q0 -48 19 -68.5t82 -29.5q4 -1 11 -2q56 -7 56 -35q0 -22 -13 -34.5t-36 -12.5q-6 0 -31 3q-128 13 -256 13t-257 -14q-24 -2 -29 -2q-23 0 -36.5 12t-13.5 33q0 30 57 38l3 1q3 1 6 1.5t8 0.5q54 8 72 29t18 69v928q0 48 -18 69 t-72 29q-2 0 -3.5 0.5t-2.5 1.5q-45 6 -56.5 14.5t-11.5 26.5q0 20 13.5 31.5t36.5 11.5q5 0 29 -2q129 -12 257 -12t257 12q24 2 30 2q23 0 36 -11.5t13 -33.5q0 -30 -62 -38l-3 -1h-2q-64 -8 -82.5 -28.5t-18.5 -71.5v-336z"/>
    <glyph glyph-name="I" unicode="I" horiz-adv-x="786" d="M223 1106q0 48 -18 69t-72 29q-4 0 -5.5 0.5t-2.5 1.5q-43 6 -54.5 14.5t-11.5 26.5q0 20 13.5 31.5t36.5 11.5q5 0 29 -2q129 -12 257 -12t257 12q24 2 30 2q23 0 36 -11.5t13 -33.5q0 -30 -62 -38l-3 -1h-2q-63 -9 -82 -29.5t-19 -68.5v-932q0 -48 19 -68.5t82 -29.5 q4 -1 11 -2q56 -7 56 -35q0 -22 -13 -34.5t-36 -12.5q-6 0 -31 3q-128 13 -256 13t-257 -14q-24 -2 -29 -2q-23 0 -36.5 12t-13.5 33q0 30 57 38l3 1q3 1 6 1.5t8 0.5q54 8 72 29t18 69v928z"/>
    <glyph glyph-name="J" unicode="J" horiz-adv-x="801" d="M244 1106q0 49 -20.5 69.5t-83.5 28.5q-2 1 -6 1.5t-11 0.5q-3 1 -8 2q-62 10 -62 39q0 20 15 31.5t41 11.5q10 0 49 -3q137 -11 258 -11q128 0 257 12q24 2 29 2q24 0 37 -11.5t13 -33.5q0 -30 -63 -38l-3 -1h-2q-62 -9 -81 -29.5t-19 -68.5v-633q0 -20 2 -67.5t2 -73.5 q0 -195 -53 -334t-164 -236q-99 -86 -208.5 -135t-199.5 -49t-145.5 52t-55.5 137q0 70 39.5 111.5t104.5 41.5q38 0 68.5 -15t50.5 -44q16 -24 35 -68q27 -65 63 -65q64 0 92.5 91t28.5 304v981z"/>
    <glyph glyph-name="K" unicode="K" horiz-adv-x="1401" d="M954 1094q18 18 27.5 34.5t9.5 30.5q0 20 -14 31.5t-45 17.5q-9 2 -25 4q-51 6 -51 39q0 18 14.5 28.5t38.5 10.5q8 0 80.5 -7t136.5 -7q46 0 126 5t114 5q35 0 48 -7t13 -26q0 -37 -78 -49q-40 -6 -63 -12q-65 -16 -146 -73t-159 -140l-125 -135q-8 -10 -12 -17t-4 -12 q0 -7 2 -13t6 -12l454 -603q4 -5 12 -16q55 -75 113 -91q2 -1 4.5 -1.5t6.5 -0.5q1 0 4 -1q57 -13 57 -44q0 -18 -11 -25.5t-42 -7.5q-14 0 -104.5 8t-165.5 8q-134 0 -265 -15q-24 -3 -28 -3q-21 0 -33 11.5t-12 29.5q0 17 10 26.5t31 12.5q6 1 16 2q45 7 45 31 q0 18 -25 58t-84 116l-223 289q-9 12 -15 18t-9 6q-8 0 -14.5 -7t-6.5 -16v-399q0 -48 17 -69t69 -29q3 -1 7 -1q48 -7 49 -36q0 -23 -10.5 -35t-30.5 -12q-4 0 -21 2q-118 14 -248 14q-128 0 -257 -14q-24 -2 -29 -2q-23 0 -36.5 12t-13.5 33q0 30 57 38l3 1q3 1 6 1.5 t8 0.5q54 8 72 29t18 69v928q0 48 -18 69t-72 29q-2 0 -3.5 0.5t-2.5 1.5q-45 6 -56.5 14.5t-11.5 26.5q0 20 13.5 31.5t36.5 11.5q5 0 29 -2q129 -12 257 -12t257 12q24 2 30 2q23 0 36 -11.5t13 -33.5q0 -30 -62 -38l-3 -1h-2q-63 -9 -82 -29.5t-19 -68.5v-369 q0 -13 3 -19.5t9 -6.5q4 0 9 3.5t12 10.5z"/>
    <glyph glyph-name="L" unicode="L" horiz-adv-x="1126" d="M563 246q0 -100 31 -135t117 -35q65 0 127.5 27.5t101.5 72.5q25 29 61 81q52 75 82 75q19 0 28 -10.5t9 -30.5q0 -6 -3 -29.5t-5 -36.5l-25 -172q-6 -39 -21.5 -51t-55.5 -12q-37 0 -228 10t-344 10q-163 0 -306 -14q-20 -2 -23 -2q-23 0 -36.5 12t-13.5 33q1 30 61 39 q8 1 13 2q54 8 72 29t18 69v928q0 48 -18 69t-72 29q-2 0 -3.5 0.5t-2.5 1.5q-45 6 -56.5 14.5t-11.5 26.5q0 20 13.5 31.5t36.5 11.5q5 0 29 -2q129 -12 257 -12q122 0 258 11q35 3 43 3q27 0 40.5 -10.5t13.5 -32.5q0 -32 -70 -41h-2h-3q-69 -9 -90.5 -29.5t-21.5 -68.5 v-862z"/>
    <glyph glyph-name="M" unicode="M" horiz-adv-x="1761" d="M840 102q-19 -45 -37 -63.5t-43 -18.5q-28 0 -46 17t-36 63l-334 846q-3 7 -6 11t-6 4q-5 -1 -7.5 -5.5t-2.5 -15.5l-25 -405q-2 -30 -3 -71.5t-1 -90.5q0 -140 12 -195.5t41 -77.5q19 -15 73 -23q8 -1 11 -1q41 -3 53.5 -11t12.5 -26q0 -21 -16 -32t-46 -11q-11 0 -70 6 t-108 6q-58 0 -118.5 -6t-63.5 -6q-26 0 -42 11t-16 28q0 18 9.5 26.5t44.5 14.5q3 0 7.5 0.5t14.5 3.5q59 13 74.5 37.5t19.5 105.5l43 746q1 11 2 32q2 40 2 52q0 85 -15 111.5t-56 37.5q-8 2 -18 4t-27 4q-1 0 -2 1q-49 6 -49 36q0 20 13 31.5t36 11.5q7 0 33 -2 q94 -8 176 -8q52 0 110.5 3t65.5 3q28 0 46.5 -10t26.5 -29l279 -731q4 -12 10.5 -19.5t11.5 -7.5q6 0 12 8.5t13 24.5l299 725q9 22 29 30.5t71 8.5q27 0 81.5 -2t82.5 -2q45 0 103.5 4t72.5 4q33 0 48.5 -11t15.5 -34q0 -30 -53 -36l-2 -1q-13 0 -25.5 -1.5t-26.5 -4.5 q-36 -10 -51.5 -42t-15.5 -103v-19l24 -857q2 -52 22.5 -74t71.5 -27q9 -3 12 -3.5t7 -0.5v0q53 -6 53 -37q0 -19 -13.5 -31t-35.5 -12q-6 0 -31 3q-132 13 -262 13q-128 0 -259 -13q-27 -3 -34 -3q-21 0 -35 11t-14 28t10 25.5t48 15.5q4 0 9.5 0.5t19.5 3.5q44 9 60.5 31 t16.5 69l-6 719q0 10 -2.5 16t-7.5 7q-3 -1 -5.5 -4.5t-8.5 -15.5z"/>
    <glyph glyph-name="N" unicode="N" horiz-adv-x="1505" d="M319 297q0 -106 18.5 -152t61.5 -57q25 -8 68 -12h4v0q59 -6 59 -37q0 -20 -16.5 -31.5t-46.5 -11.5q-11 0 -76.5 6t-120.5 6q-52 0 -111 -6t-67 -6q-26 0 -40.5 12t-14.5 33q0 17 8.5 24.5t42.5 10.5q8 2 28.5 5.5t33.5 6.5q37 11 52 55.5t15 153.5v743q0 88 -13.5 121 t-47.5 41q-8 1 -18 2.5t-27 3.5q-36 2 -46 10.5t-10 28.5t13 31.5t34 11.5q4 0 22 -1q104 -7 214 -7q74 0 151 3q16 1 19 1q24 0 38 -7t34 -32l567 -702q7 -9 14.5 -14t12.5 -5q8 0 14 8.5t6 20.5v436q0 106 -18.5 152t-61.5 57q-25 8 -68 12h-4q-42 5 -51.5 12.5t-9.5 24.5 q0 20 17 30.5t49 10.5q11 0 75.5 -5t118.5 -5q53 0 112.5 5t67.5 5q27 0 40.5 -10.5t13.5 -32.5q0 -18 -8.5 -25.5t-41.5 -9.5q-6 -1 -27 -5t-34 -7q-38 -11 -54 -57t-16 -152v-952q0 -49 -16.5 -73.5t-48.5 -24.5q-26 0 -49.5 15t-65.5 69l-764 968q-5 7 -9.5 9.5 t-10.5 3.5q-6 -1 -8 -6.5t-3 -22.5v-680z"/>
    <glyph glyph-name="O" unicode="O" horiz-adv-x="1636" d="M797 1247q-169 0 -270 -147.5t-101 -397.5q0 -295 115 -477t297 -182q169 0 270.5 148t101.5 399q0 293 -116 475t-297 182zM823 1327q145 0 275.5 -46t230.5 -132q117 -98 178.5 -227.5t61.5 -276.5q0 -146 -61.5 -274.5t-178.5 -229.5q-102 -88 -233.5 -134t-282.5 -46 q-143 0 -274 47t-232 133q-118 101 -179.5 230t-61.5 274t61.5 274t179.5 230q102 87 233 132.5t283 45.5z"/>
    <glyph glyph-name="P" unicode="P" horiz-adv-x="1266" d="M563 176q0 -49 19.5 -69t80.5 -27q3 -1 5.5 -1.5t7.5 -0.5h1q52 -9 52 -37q0 -22 -12.5 -34.5t-34.5 -12.5q-6 0 -31 3q-128 13 -256 13t-257 -14q-24 -2 -29 -2q-23 0 -36.5 12t-13.5 33q0 30 57 38l3 1q3 1 6 1.5t8 0.5q54 8 72 29t18 69v928q0 48 -18 69t-72 29 q-3 1 -6 1q-68 11 -68 42q0 26 19 36.5t63 10.5q5 0 73 -3t132 -3q73 0 204 5t189 5q237 0 362.5 -95.5t125.5 -274.5q0 -169 -110.5 -287.5t-262.5 -118.5q-33 0 -64.5 5.5t-58.5 15.5l-131 45q-10 2 -14.5 3t-5.5 1q-10 0 -13.5 -5.5t-3.5 -23.5v-387zM555 979v-203 q0 -75 25 -101t90 -26q97 0 154 72t57 197q0 126 -63 208t-156 82q-62 0 -84.5 -34t-22.5 -179v-16z"/>
    <glyph glyph-name="Q" unicode="Q" horiz-adv-x="1636" d="M602 -10q-79 17 -159.5 60t-147.5 104q-115 105 -172 228t-57 263q0 145 61.5 274t179.5 230q102 87 233 132.5t283 45.5q145 0 275.5 -46t230.5 -132q117 -101 178.5 -229.5t61.5 -274.5q0 -139 -54.5 -258t-166.5 -227q-57 -54 -129.5 -97t-126.5 -57l-43 -12 q-17 -5 -24 -10.5t-7 -14.5q0 -5 0.5 -7.5t1.5 -4.5l18 -33q61 -116 157 -184t200 -68q26 0 57 4.5t37 4.5q20 0 30.5 -8.5t10.5 -24.5q0 -38 -95.5 -66t-238.5 -28q-212 0 -340 75.5t-156 216.5l-16 80q-1 4 -2 11q-8 37 -30 42zM797 1247q-169 0 -270 -147.5t-101 -397.5 q0 -295 115 -477t297 -182q169 0 270.5 148t101.5 399q0 293 -116 475t-297 182z"/>
    <glyph glyph-name="R" unicode="R" horiz-adv-x="1372" d="M588 618q-14 0 -21.5 -7t-7.5 -21v-414q0 -48 19 -68.5t79 -29.5q5 -1 11 -2q55 -7 55 -35q0 -22 -13 -34.5t-34 -12.5q-6 0 -31 3q-126 13 -252 13q-124 0 -251 -13q-26 -3 -31 -3q-22 0 -36 12.5t-14 32.5q0 30 57 38l3 1q3 1 6 1.5t8 0.5q53 8 70.5 28.5t17.5 69.5 v928q0 48 -18 69t-72 29q-3 1 -6 1q-68 11 -68 42q0 26 19 36.5t63 10.5q5 0 73 -3t132 -3q93 0 246 5t213 5q225 0 342 -80t117 -233q0 -120 -95.5 -201t-275.5 -112q71 -17 117 -52t80 -98l192 -356q30 -55 91 -86.5t61 -46.5q0 -16 -12.5 -28.5t-28.5 -12.5q-3 0 -58.5 6 t-107.5 6q-31 0 -92 -4t-91 -4q-36 0 -52.5 13t-35.5 52l-206 422q-34 69 -68.5 102t-73.5 33h-20zM555 1057v-246q0 -76 12 -92.5t54 -16.5q128 0 207 70t79 182q0 108 -69 181t-168 73q-65 0 -90 -30t-25 -121z"/>
    <glyph glyph-name="S" unicode="S" horiz-adv-x="1171" d="M119 348q0 20 13 32.5t34 12.5q36 0 58 -84q11 -41 20 -65q35 -100 102 -149.5t166 -49.5q127 0 203 58t76 153q0 84 -56.5 141.5t-245.5 139.5q-201 87 -276.5 172.5t-75.5 212.5q0 171 144 288t356 117q92 0 172.5 -17.5t120.5 -43.5q17 -12 24 -29t7 -72v-174 q0 -20 -10 -31.5t-27 -11.5q-39 0 -77 93l-9 21q-43 101 -90.5 136t-131.5 35q-93 0 -151.5 -49t-58.5 -127q0 -113 191 -188l81 -33q208 -93 294.5 -190.5t86.5 -233.5q0 -192 -157.5 -321.5t-397.5 -129.5q-108 0 -207 26t-145 62q-19 15 -26 38.5t-7 88.5v172z"/>
    <glyph glyph-name="T" unicode="T" horiz-adv-x="1247" d="M817 1194q-14 0 -22.5 -7.5t-8.5 -21.5v-989q0 -48 19.5 -68.5t81.5 -29.5q4 -1 12 -2q57 -7 57 -35q0 -21 -14 -34t-37 -13q-6 0 -31 3q-128 13 -256 13q-127 0 -255 -13q-25 -3 -31 -3q-23 0 -36 12t-13 33q0 30 56 38l3 1q4 1 6.5 1.5t7.5 0.5q54 8 72 29t18 69v987 q0 14 -8 21.5t-22 7.5h-33q-60 0 -107.5 -24t-93.5 -78q-23 -28 -55 -74q-45 -66 -72 -66q-17 0 -27 11.5t-10 31.5q0 9 24.5 89.5t43.5 154.5q3 13 9 37q20 90 55 90q27 0 40 -35l5 -13q10 -23 33.5 -31.5t111.5 -8.5h489q110 0 192.5 9t101.5 22q8 5 29.5 37t49.5 32 q18 0 27.5 -12t9.5 -35q0 -10 -13 -105.5t-20 -183.5q-4 -54 -15 -72t-36 -18q-31 0 -63 75q-20 46 -35 75q-28 50 -68.5 71t-111.5 21h-60z"/>
    <glyph glyph-name="U" unicode="U" horiz-adv-x="1516" d="M219 1106q0 48 -18 69t-72 29q-3 1 -6 1q-68 11 -68 42q0 20 13.5 31.5t35.5 11.5q6 0 30 -2q129 -14 257 -14q113 0 236 13q29 3 37 3q22 0 34.5 -11.5t12.5 -33.5q0 -30 -58 -40l-4 -1h-4q-61 -7 -80.5 -27t-19.5 -69v-670q0 -216 72.5 -298.5t254.5 -82.5 q99 0 175.5 35.5t115.5 97.5q25 40 35 99.5t10 222.5v217q0 270 -13.5 353t-47.5 108q-10 7 -25 10.5t-40 3.5q-44 3 -57 13t-13 30q0 23 15.5 32t55.5 9q18 0 77.5 -4t103.5 -4q36 0 92.5 4t77.5 4q40 0 55.5 -9t15.5 -32q0 -21 -12.5 -30.5t-57.5 -12.5q-25 0 -40.5 -3.5 t-26.5 -10.5q-34 -25 -47.5 -111.5t-13.5 -349.5v-270q0 -159 -16 -225.5t-54 -114.5q-65 -81 -180 -119.5t-289 -38.5q-171 0 -288.5 37.5t-186.5 114.5q-40 45 -57 108.5t-17 200.5v86v598z"/>
    <glyph glyph-name="V" unicode="V" horiz-adv-x="1274" d="M160 991l-14 32q-59 139 -97 161q-18 10 -47 19q-47 15 -47 46q0 17 13 29t32 12q4 0 24 -2q120 -12 242 -12q88 0 181.5 7t99.5 7q27 0 41 -10t14 -29q0 -21 -12.5 -32.5t-50.5 -22.5q-11 -3 -29 -7q-53 -12 -53 -40q0 -6 2.5 -14.5t7.5 -20.5l281 -660q1 -4 7 -8t11 -4 q6 0 11.5 4t8.5 11l234 563q13 33 20 64.5t7 56.5q0 17 -15.5 29t-52.5 24l-28 8q-52 14 -52 45q0 23 14 32t52 9q17 0 72 -4t93 -4q32 0 83.5 4t72.5 4q37 0 51.5 -9t14.5 -32q0 -33 -47.5 -47t-63.5 -24q-31 -20 -61 -69t-93 -198l-258 -602q-25 -59 -61 -155 q-70 -181 -127 -181q-54 0 -116 160q-33 84 -56 137z"/>
    <glyph glyph-name="W" unicode="W" horiz-adv-x="1831" d="M1026 1053l37 -82q4 -9 8.5 -14t7.5 -5q4 0 9 4.5t10 12.5l55 94q10 17 16.5 38t6.5 38q0 38 -25 60t-70 22q-39 0 -64.5 -19t-25.5 -47q0 -10 9.5 -38.5t25.5 -63.5zM203 885q-1 1 -2 4q-107 250 -150 285q-17 14 -68 29t-51 46q0 18 14.5 29.5t35.5 11.5q4 0 84.5 -7 t156.5 -7q46 0 121.5 4t106.5 4q27 0 39 -8.5t12 -28.5q0 -21 -34 -39.5t-34 -48.5q0 -14 4.5 -31.5t12.5 -34.5l296 -707q4 -10 8 -13.5t9 -3.5q4 0 7 3t9 13l111 207q3 5 5.5 16t2.5 23q0 7 -1 13.5t-3 12.5l-188 459l-2 4q-25 60 -80 78q-8 2 -20 6q-48 15 -48 45 q0 18 14 29.5t35 11.5q5 0 30 -2q162 -12 337 -12q168 0 343 10q38 2 46 2q34 0 46.5 -9t12.5 -32q0 -31 -42 -46l-15 -5q-18 -8 -34 -25t-31 -46l-150 -289q-4 -7 -6 -15t-2 -18q0 -8 1.5 -14.5t4.5 -14.5l143 -356q5 -12 8.5 -16t8.5 -5q5 1 9.5 6t8.5 15l229 543 q21 48 32 88.5t11 66.5q0 30 -9 46.5t-31 29.5q-9 5 -27 13q-41 19 -41 46q0 18 13 27.5t38 9.5q2 0 12 -1q65 -5 136 -5q70 0 141 4h14q31 0 43 -8.5t12 -30.5q0 -32 -43 -48q-26 -9 -40 -17q-29 -17 -64.5 -69.5t-64.5 -125.5l-283 -680q-26 -61 -62 -160 q-64 -176 -120 -176q-51 0 -94 117l-29 74l-125 303q-4 7 -7.5 9.5t-9.5 2.5q-1 0 -5 -4.5t-7 -9.5l-137 -268l-42 -89q-60 -135 -118 -135q-50 0 -119 159l-14 32z"/>
    <glyph glyph-name="X" unicode="X" horiz-adv-x="1382" d="M281 952q-93 124 -138.5 172t-85.5 68q-23 12 -71.5 17.5t-48.5 37.5q0 22 13 32.5t40 10.5q20 0 127.5 -8t193.5 -8q176 0 331 13q20 1 24 1q19 0 31 -10t12 -27q0 -19 -12.5 -29t-43.5 -14q-38 -4 -61 -18.5t-23 -34.5q0 -14 5.5 -28t23.5 -42l143 -204q6 -9 13 -14 t14 -5t14 5t13 14l69 110q37 60 56.5 101.5t19.5 62.5q0 20 -13 34t-34 17q-11 2 -32 4q-52 5 -52 37q0 22 14 32.5t43 10.5q8 0 81.5 -6t137.5 -6q80 0 168 6t97 6q33 0 46 -9.5t13 -33.5q0 -20 -15.5 -28.5t-58.5 -8.5q-99 0 -177.5 -55t-203.5 -233l-98 -142 q-6 -7 -9 -15t-3 -15q0 -9 5 -19q1 -1 1 -2l393 -541q34 -46 61 -70t54 -32q11 -3 33 -8q51 -9 51 -45q0 -19 -12.5 -28t-36.5 -9q-2 0 -94 8t-183 8q-178 0 -325 -14q-18 -2 -21 -2q-19 0 -32 13t-13 32t14 28t46 11q37 3 55 14.5t18 32.5q0 18 -18.5 52t-63.5 95l-158 216 q-4 6 -10 10t-12 4q-5 0 -10 -3.5t-11 -11.5l-151 -239l-4 -6q-45 -71 -45 -99q0 -25 15 -37.5t62 -21.5q10 -2 26 -4q69 -10 69 -45q0 -22 -17 -32.5t-51 -10.5q-41 0 -122 9t-121 9q-54 0 -134 -5t-106 -5q-21 0 -29 8t-8 27q0 32 62 43h2l24 5t31 7q61 20 116 67t113 130 l211 301q3 4 4.5 10t1.5 14q0 6 -1.5 11.5t-4.5 9.5z"/>
    <glyph glyph-name="Y" unicode="Y" horiz-adv-x="1268" d="M461 569l-342 510q-1 2 -3 4q-52 81 -118 109q-10 4 -28 10q-46 16 -46 47q0 17 13.5 29t31.5 12q4 0 21 -1q133 -13 282 -13q96 0 194 7t101 7q27 0 41.5 -10t14.5 -29q0 -18 -10.5 -29.5t-37.5 -21.5q-11 -4 -33 -8q-48 -10 -48 -39q0 -9 5.5 -21t16.5 -28l240 -353 q5 -8 11 -13t11 -5q8 0 14.5 5t12.5 14l170 268q19 30 30 59.5t11 48.5q0 24 -16.5 40t-53.5 28q-10 3 -28 7q-52 13 -52 44q0 23 14 32t52 9q22 0 88 -5t110 -5q48 0 103.5 5t64.5 5q28 0 41 -9.5t13 -31.5q0 -32 -52 -49q-27 -9 -44 -16q-28 -12 -66.5 -56.5t-91.5 -124.5 l-252 -374q-12 -19 -17.5 -34.5t-5.5 -31.5v-385q0 -49 19.5 -69t80.5 -27q3 -1 5.5 -1.5t7.5 -0.5q1 0 2 -1q53 -8 53 -36q0 -22 -13 -34.5t-36 -12.5q-6 0 -31 3q-128 13 -256 13t-257 -14q-24 -2 -29 -2q-23 0 -36.5 12t-13.5 33q0 30 57 38l3 1q3 1 6 1.5t8 0.5 q54 8 72 29t18 69v320q0 17 -6 37t-16 34z"/>
    <glyph glyph-name="Z" unicode="Z" horiz-adv-x="1335" d="M502 102h227q164 0 242 33t123 117q12 23 27 70q24 75 61 75q25 0 39 -21.5t14 -60.5q0 -14 -2 -72t-2 -102q0 -27 1 -60.5t1 -39.5q0 -27 -12.5 -37t-44.5 -10q-33 0 -189.5 7t-279.5 7q-250 0 -506 -12q-52 -2 -64 -2q-66 0 -81 9t-15 34q0 13 8 29.5t33 52.5l711 1041 q4 5 6 9.5t2 8.5q-1 6 -6.5 9t-16.5 3h-147q-119 0 -202 -22.5t-128 -67.5q-25 -25 -62 -67q-55 -62 -81 -62q-22 0 -35.5 13t-13.5 34q0 9 26.5 97.5t46.5 170.5q13 52 27.5 70t40.5 18q33 0 47 -34t19 -38q15 -11 70.5 -15.5t256.5 -4.5h279q55 0 142 7t118 7 q30 0 44.5 -6t14.5 -18q0 -13 -10 -35t-29 -49l-715 -1043q-5 -8 -8.5 -15.5t-3.5 -10.5q0 -7 7.5 -12t19.5 -5z"/>
    <glyph glyph-name="bracketleft" unicode="[" horiz-adv-x="807" d="M461 -326q0 -29 10 -41t35 -12h127q30 0 46.5 -11.5t16.5 -33.5q0 -23 -14.5 -34t-46.5 -11h-350q-57 0 -73.5 16.5t-16.5 77.5v1608q0 62 16.5 78t73.5 16h350q32 0 46.5 -10.5t14.5 -34.5q0 -22 -16.5 -33.5t-46.5 -11.5h-127q-25 0 -35 -11t-10 -40v-1512z"/>
    <glyph glyph-name="backslash" unicode="\" horiz-adv-x="569" d="M569 -190l-630 1517h106l631 -1517h-107z"/>
    <glyph glyph-name="bracketright" unicode="]" horiz-adv-x="807" d="M346 1186q0 29 -10 40t-35 11h-129q-30 0 -45.5 11.5t-15.5 33.5q0 24 14.5 34.5t46.5 10.5h348q57 0 73.5 -16t16.5 -78v-1608q0 -61 -16.5 -77.5t-73.5 -16.5h-348q-32 0 -46.5 11t-14.5 34q0 22 15.5 33.5t45.5 11.5h129q25 0 35 12t10 41v1512z"/>
    <glyph glyph-name="asciicircum" unicode="^" horiz-adv-x="2048" d="M905 1462h236l491 -565h-112l-498 373l-498 -373h-112z"/>
    <glyph glyph-name="underscore" unicode="_" d="M0 -279h1024v-204h-1024v204z"/>
    <glyph glyph-name="grave" unicode="`" d="M707 1059h-91l-313 166q-58 31 -76 53t-18 53q0 40 25 65t65 25q31 0 63 -18.5t72 -61.5z"/>
    <glyph glyph-name="a" unicode="a" horiz-adv-x="1079" d="M600 307v156q0 11 -3.5 17.5t-10.5 6.5q-5 0 -12 -2t-13 -6l-72 -37q-77 -41 -117 -89t-40 -101q0 -56 32 -88.5t87 -32.5q71 0 110 46t39 130zM606 117q-102 -77 -189 -116.5t-153 -39.5q-93 0 -151 59t-58 152q0 95 67 163t245 144l206 90q14 7 20.5 19.5t6.5 32.5v131 q0 61 -19 90.5t-59 29.5q-63 0 -131 -110l-24 -39q-39 -60 -97 -90.5t-133 -30.5q-35 0 -55.5 16.5t-20.5 45.5q0 32 25 73t68 78q69 61 174.5 97t212.5 36q113 0 195.5 -27t131.5 -81q25 -27 35 -64t10 -121v-39v-374q0 -64 11.5 -87.5t40.5 -23.5q18 0 42.5 15.5 t30.5 15.5q12 0 21.5 -12t9.5 -27q0 -45 -91 -103.5t-187 -58.5q-58 0 -96 33.5t-77 122.5h-12z"/>
    <glyph glyph-name="b" unicode="b" horiz-adv-x="1247" d="M141 1124q0 42 -12 64.5t-41 36.5q-14 6 -39 11q-47 10 -47 38q1 38 105 58l5 1q14 2 45 8q9 1 15 2q79 16 161 48t91 32q21 0 30 -12t9 -41q0 -20 -2 -58t-2 -57v-346q0 -12 4.5 -18t13.5 -6q4 0 10 2q2 1 5 2l32 14q51 22 105 33.5t108 11.5q197 0 324 -129t127 -330 q0 -227 -160 -377.5t-401 -150.5q-102 0 -216 42t-128 42q-29 0 -68.5 -52t-62.5 -52q-17 0 -25 10t-8 31q0 3 11 92t11 174v876zM459 674v-395q0 -132 30 -185t101 -53q116 0 191 113t75 295q0 170 -72 275t-186 105q-77 0 -108 -34.5t-31 -120.5z"/>
    <glyph glyph-name="c" unicode="c" horiz-adv-x="1040" d="M623 948q148 0 248 -40t100 -95q0 -87 -26 -142t-66 -55q-29 0 -56 24t-63 85q-11 18 -28 50q-54 99 -111 99q-94 0 -172 -107.5t-78 -254.5q0 -175 103 -291.5t257 -116.5q74 0 147 40t76 40q16 0 26.5 -9.5t10.5 -24.5q0 -17 -22 -40t-66 -51q-82 -51 -159.5 -75.5 t-159.5 -24.5q-230 0 -378.5 140.5t-148.5 357.5q0 222 154.5 356.5t411.5 134.5z"/>
    <glyph glyph-name="d" unicode="d" horiz-adv-x="1274" d="M786 72q-99 -64 -166.5 -87.5t-138.5 -23.5q-192 0 -308 134t-116 358q0 221 135 358t353 137q75 0 157 -28q8 -3 12 -4l36 -13q3 -1 6 -1.5t8 -0.5q8 0 12 7.5t4 25.5v143q0 76 -7 100t-25 37t-63.5 23t-45.5 37q0 37 103 58l7 1q16 2 49 8q9 2 13 2q79 16 162 48t92 32 q21 0 30 -12t9 -41q0 -20 -3 -58t-3 -57v-1075q0 -25 8.5 -39t23.5 -14q13 0 45 24.5t48 24.5q13 0 20.5 -11.5t7.5 -33.5q0 -78 -70 -88q-24 -3 -40 -6q-96 -18 -188.5 -47t-96.5 -29q-24 0 -34 10t-15 39l-10 62h-11zM780 332v370q0 85 -35.5 123.5t-113.5 38.5 q-115 0 -181.5 -104t-66.5 -287q0 -163 70.5 -263.5t181.5 -100.5q81 0 113 45t32 178z"/>
    <glyph glyph-name="e" unicode="e" horiz-adv-x="1108" d="M412 692l-6 -35v-2q0 -7 8 -11.5t22 -4.5h133q105 0 149 23.5t44 76.5q0 59 -41.5 97t-106.5 38q-79 0 -134.5 -49.5t-67.5 -132.5zM393 520v-53q0 -160 95.5 -260.5t248.5 -100.5q91 0 175.5 52.5t91.5 52.5q17 0 27.5 -10t10.5 -25q0 -19 -30.5 -50.5t-83.5 -66.5 q-82 -52 -162.5 -75t-177.5 -23q-235 0 -383 139t-148 357q0 220 153.5 355.5t403.5 135.5q188 0 309 -95t121 -235q0 -33 -20.5 -47t-71.5 -14h-520q-21 0 -30 -8.5t-9 -28.5z"/>
    <glyph glyph-name="f" unicode="f" horiz-adv-x="711" d="M146 928q2 1 6 2q24 9 28 32l13 82q22 177 147.5 278t318.5 101q108 0 177 -26.5t69 -65.5q0 -65 -47 -138t-86 -73q-38 0 -86 101l-12 26q-20 39 -41.5 60.5t-40.5 21.5q-49 0 -74.5 -80t-25.5 -229v-82q0 -13 8 -21t22 -8h180q17 0 22 -4.5t5 -21.5v-45q0 -15 -5 -21 t-17 -6h-185q-14 0 -22 -7.5t-8 -21.5v-587q0 -52 13 -75.5t50 -35.5q9 -4 21.5 -6t37.5 -2q42 -3 54 -12t12 -29q0 -18 -11.5 -28.5t-31.5 -10.5q-6 0 -31 3q-130 13 -258 13q-136 0 -271 -12q-23 -2 -28 -2q-12 0 -22.5 11.5t-10.5 25.5q0 20 11 29t49 12q12 0 23.5 2 t21.5 6q31 12 42 33t11 78v596q0 13 -7.5 20.5t-21.5 7.5h-71q-20 0 -34.5 11t-14.5 24q0 15 11.5 25t49.5 24z"/>
    <glyph glyph-name="g" unicode="g" horiz-adv-x="1133" d="M860 -199q0 62 -57 88.5t-207 28.5q-171 2 -259 51q-7 4 -9 4q-22 0 -46 -43t-24 -90q0 -98 82 -157.5t219 -59.5q132 0 216.5 51.5t84.5 126.5zM553 360q79 0 126.5 71.5t47.5 191.5q0 118 -47.5 189t-126.5 71t-127.5 -71.5t-48.5 -188.5q0 -119 48.5 -191t127.5 -72z M971 756q22 -38 33.5 -76.5t11.5 -77.5q0 -146 -130.5 -234.5t-348.5 -88.5q-8 0 -28 1t-32 1q-33 0 -51 -12.5t-18 -35.5q0 -45 228 -54q7 -1 11 -1q243 -10 351 -72.5t108 -191.5q0 -149 -174 -257t-430 -108q-203 0 -337 72t-134 172q0 40 24.5 70.5t89.5 66.5l93 54 q16 9 23 14t7 8q0 6 -2.5 10.5t-8.5 9.5l-44 35q-57 48 -84 80.5t-27 55.5q0 25 69 49q14 5 21 8l103 39q15 5 20.5 8t6.5 6q0 3 -4.5 7.5t-13.5 10.5l-42 23q-95 56 -134.5 116.5t-39.5 147.5q0 144 128.5 241t324.5 97q147 0 286 -55q6 -2 11 -4l17 -7q39 -18 77 -18 q4 0 12 1t12 1l70 6q4 0 13.5 1.5t15.5 1.5q44 0 56.5 -20t12.5 -81q0 -7 -8.5 -10.5t-23.5 -3.5q-34 0 -62.5 -1.5t-58.5 -4.5z"/>
    <glyph glyph-name="h" unicode="h" horiz-adv-x="1294" d="M172 1124q0 43 -11.5 65t-39.5 36q-14 6 -40 11q-48 10 -48 38q0 37 101 57l9 2q15 2 49 8q9 2 13 2q79 16 161 48t91 32q20 0 29.5 -12t9.5 -41q0 -17 -2 -55t-2 -60v-387q0 -7 3.5 -12.5t6.5 -5.5t9 2.5t13 7.5l51 31q46 27 102.5 42t115.5 15q169 0 251 -76t82 -233 v-444q0 -57 11 -78t43 -33q13 -4 40 -8h4q38 -3 49 -12.5t11 -28.5q0 -18 -11 -27.5t-32 -9.5q-6 0 -31 3q-108 11 -206 11q-144 0 -277 -12q-21 -2 -25 -2q-16 0 -26 10.5t-10 26.5q0 20 9.5 29t43.5 12q12 0 22.5 2t18.5 6q29 12 39 33t10 78v399q0 115 -37 172t-113 57 q-90 0 -128.5 -54.5t-38.5 -188.5v-385q0 -57 8.5 -78t32.5 -33q5 -2 12.5 -4t21.5 -4q28 -3 36.5 -12t8.5 -29q0 -17 -6 -27t-16 -10q-3 0 -22 2q-113 12 -236 12q-126 0 -253 -12q-25 -2 -30 -2q-12 0 -22.5 11.5t-10.5 25.5q0 20 11 29t49 12q12 0 23.5 2t21.5 6 q30 12 40.5 31.5t10.5 79.5v929z"/>
    <glyph glyph-name="i" unicode="i" horiz-adv-x="659" d="M174 586q0 59 -9.5 77t-37.5 29q-13 4 -40 8h-5q-1 1 -4 1q-45 7 -45 34q0 31 76 49h2q39 9 73 20t68 25q71 31 138.5 75t74.5 44q15 0 22 -13.5t7 -43.5v-696q0 -55 11 -76.5t44 -34.5q8 -4 19 -6t32 -2q36 -3 46.5 -12t10.5 -29q0 -19 -10.5 -28t-32.5 -9q-5 0 -31 3 q-108 11 -210 11q-153 0 -295 -12q-22 -2 -27 -2q-12 0 -23.5 11.5t-11.5 25.5q0 20 11 29t49 12q12 0 23.5 2t21.5 6q31 12 42 33t11 78v391zM522 1178q0 -66 -52.5 -111t-129.5 -45t-129.5 45t-52.5 111t52.5 110.5t129.5 44.5t129.5 -44.5t52.5 -110.5z"/>
    <glyph glyph-name="j" unicode="j" horiz-adv-x="659" d="M174 586q0 59 -9.5 77t-37.5 29q-13 4 -40 8h-5q-1 1 -4 1q-45 7 -45 34q0 18 12.5 27.5t66.5 21.5q7 2 23 6q72 19 119 39q71 30 137.5 74.5t73.5 44.5q16 0 22.5 -16t6.5 -62v-735q0 -182 -31.5 -269t-106.5 -155q-82 -75 -171.5 -119.5t-155.5 -44.5q-18 0 -26.5 8.5 t-8.5 24.5q0 22 48 48q29 17 44 28q45 34 66.5 89.5t21.5 137.5v703zM522 1178q0 -66 -52.5 -111t-129.5 -45t-129.5 45t-52.5 111t52.5 110.5t129.5 44.5t129.5 -44.5t52.5 -110.5z"/>
    <glyph glyph-name="k" unicode="k" horiz-adv-x="1284" d="M492 195q0 -56 9.5 -77.5t37.5 -33.5q6 -2 14.5 -4t25.5 -4q34 -3 44 -12t10 -29q0 -16 -7.5 -26.5t-19.5 -10.5q-4 0 -24 2q-122 12 -248 12t-255 -12q-25 -2 -30 -2q-12 0 -22.5 11.5t-10.5 25.5q0 20 11 29t49 12q12 0 23.5 2t21.5 6q31 12 42 33t11 78v929 q0 42 -12 64.5t-41 36.5q-14 6 -40 11q-48 10 -48 38q0 39 111 60l7 1l31.5 4.5t19.5 3.5q84 17 166 48.5t89 31.5q22 0 31.5 -12t9.5 -41q0 -17 -3 -55t-3 -60v-700q0 -9 3 -13.5t9 -4.5q3 0 7.5 2.5t12.5 9.5l176 131q61 45 87 72.5t26 44.5q0 12 -12 21t-42 18 q-10 3 -27 7q-42 10 -42 36q0 17 9 24.5t30 7.5q24 0 94.5 -6t118.5 -6q100 0 212 10q28 2 36 2q20 0 30.5 -8t10.5 -24q0 -33 -71 -44q-23 -3 -36 -6q-63 -13 -118.5 -40.5t-110.5 -71.5l-86 -68q-7 -7 -9.5 -13t-2.5 -13q0 -6 1 -9.5t5 -9.5l346 -438q1 -1 3 -4 q54 -66 105 -82q41 -12 52.5 -22t11.5 -27q0 -19 -12.5 -29t-36.5 -10q-1 0 -75.5 6t-147.5 6q-62 0 -134 -7t-81 -7q-26 0 -39 9.5t-13 29.5q0 14 14.5 35t14.5 28q0 10 -10.5 28t-42.5 60l-182 233q-13 16 -30.5 28t-25.5 12q-12 0 -18.5 -6.5t-9.5 -20.5v-231z"/>
    <glyph glyph-name="l" unicode="l" horiz-adv-x="659" d="M170 1124q0 42 -12 64.5t-41 36.5q-14 6 -40 11q-48 10 -48 38q0 37 102 58l8 1q15 2 49 8q9 2 13 2q79 16 161 48t91 32q20 0 29.5 -12t9.5 -41q0 -17 -2.5 -55t-2.5 -60v-1060q0 -55 11.5 -76.5t44.5 -34.5q8 -4 19 -6t31 -2q39 -3 49.5 -12t10.5 -29q0 -18 -10 -27.5 t-31 -9.5q-5 0 -30 2q-119 12 -232 12q-142 0 -278 -12q-23 -2 -27 -2q-12 0 -22.5 11.5t-10.5 25.5q0 20 11 29t49 12q12 0 23.5 2t21.5 6q31 12 42 33t11 78v929z"/>
    <glyph glyph-name="m" unicode="m" horiz-adv-x="1927" d="M1087 809h13q67 67 153 102t183 35q161 0 243 -76t82 -225v-450q0 -57 11 -78t43 -33q6 -2 15.5 -4t28.5 -4q2 0 5 -1q55 -7 55 -42q0 -17 -11.5 -26t-33.5 -9q-8 0 -36 3q-100 11 -187 11q-149 0 -289 -12q-21 -2 -25 -2q-16 0 -26.5 9.5t-10.5 25.5q1 35 50 42q3 1 4 1 q12 0 22 2t19 6q29 12 39 33t10 78v397q0 115 -37 172t-113 57q-90 0 -129 -54.5t-39 -188.5v-383q0 -58 8.5 -78.5t33.5 -32.5q9 -4 28 -7q3 -1 4 -1t4 -1q43 -7 43 -42q0 -15 -7 -25t-17 -10q-6 0 -32 3q-115 11 -224 11q-120 0 -238 -12q-22 -2 -27 -2q-16 0 -26 9.5 t-10 25.5q0 35 49 42q3 1 4 1q12 0 22.5 2t18.5 6q29 12 39 33t10 78v397q0 115 -37 172t-113 57q-90 0 -128.5 -54.5t-38.5 -188.5v-383q0 -57 8.5 -78t32.5 -33q5 -2 12.5 -4t21.5 -4q28 -3 36.5 -12t8.5 -29q0 -17 -6 -27t-16 -10q-3 0 -22 2q-113 12 -236 12 q-126 0 -253 -12q-25 -2 -30 -2q-12 0 -22.5 10.5t-10.5 24.5q0 35 56 42q3 1 4 1q12 0 23.5 2t21.5 6q30 12 40.5 31.5t10.5 79.5v434q0 50 -9 66t-36 26q-12 3 -40 7q-4 1 -5 1t-4 1q-47 7 -47 34q0 18 13 28t65 21q3 1 8 2q74 18 121 39q59 28 118.5 75.5t71.5 47.5 q14 0 20.5 -10t6.5 -41v-95q0 -9 2.5 -14.5t5.5 -5.5q2 0 8.5 4t13.5 10l35 29q57 46 125 69t148 23q100 0 173.5 -34t120.5 -103z"/>
    <glyph glyph-name="n" unicode="n" horiz-adv-x="1294" d="M172 614v15q0 51 -9.5 67.5t-35.5 26.5q-12 3 -40 7q-4 1 -5 1t-4 1q-47 7 -47 34q0 32 72 49h1q48 11 77.5 20.5t58.5 22.5q59 27 116.5 74t69.5 47q16 0 22.5 -10.5t6.5 -40.5v-84q0 -12 3 -18.5t7 -6.5t7.5 1.5t6.5 4.5l23 19q54 47 133 75.5t158 28.5 q100 0 172.5 -28.5t111.5 -83.5q27 -39 38 -87.5t11 -140.5v-61v-352q0 -58 10.5 -78t43.5 -33q13 -4 40 -8h4q38 -3 49 -12.5t11 -28.5q0 -15 -10 -26t-23 -11q-4 0 -24 2q-127 12 -260 12q-118 0 -237 -12q-23 -2 -28 -2q-16 0 -26 10.5t-10 26.5q0 20 9.5 29t43.5 12 q12 0 22.5 2t18.5 6q29 12 39 33t10 78v315q0 189 -33.5 251t-116.5 62q-90 0 -128.5 -54.5t-38.5 -188.5v-385q0 -56 8.5 -77t32.5 -34q5 -2 12.5 -4t21.5 -4q28 -3 36.5 -12t8.5 -29q0 -18 -8.5 -27.5t-25.5 -9.5q-4 0 -22 2q-110 12 -224 12q-126 0 -253 -12 q-25 -2 -30 -2q-12 0 -22.5 11.5t-10.5 25.5q0 20 11 29t49 12q12 0 23.5 2t21.5 6q30 12 40.5 31.5t10.5 79.5v419z"/>
    <glyph glyph-name="o" unicode="o" horiz-adv-x="1237" d="M633 37q99 0 159 98t60 264q0 214 -69.5 343.5t-180.5 129.5q-101 0 -159 -96.5t-58 -267.5q0 -214 68.5 -342.5t179.5 -128.5zM57 457q0 223 156 357t418 134q250 0 399.5 -136t149.5 -361q0 -224 -158 -357t-426 -133q-242 0 -390.5 137t-148.5 359z"/>
    <glyph glyph-name="p" unicode="p" horiz-adv-x="1274" d="M492 580v-385q0 -76 37 -113t112 -37q115 0 181.5 104.5t66.5 286.5q0 163 -70.5 264t-181.5 101q-82 0 -113.5 -44.5t-31.5 -176.5zM492 -256q0 -55 11 -77t46 -34q11 -4 24 -6t28 -2q36 -2 47 -11.5t11 -29.5q0 -14 -10.5 -25.5t-23.5 -11.5q-5 0 -32 3 q-132 12 -263 12q-123 0 -253 -12q-28 -3 -34 -3q-14 0 -25.5 11.5t-11.5 25.5q0 20 11.5 29.5t47.5 11.5q16 0 29.5 2t24.5 6q33 12 44 33t11 78v870q0 63 -10 80.5t-37 28.5q-12 3 -40 7q-4 1 -5 1t-4 1q-45 7 -45 34q0 20 14 30t69 21q6 1 20 4q76 16 122 35 q66 28 128 75.5t73 47.5q15 0 21.5 -12t6.5 -39v-86q1 -15 3.5 -20t9.5 -5q4 0 7.5 1.5t6.5 4.5l25 23q60 51 126.5 76.5t139.5 25.5q182 0 297 -135.5t115 -353.5q0 -220 -135 -359t-349 -139q-59 0 -116.5 12.5t-116.5 38.5l-8 -6v-262z"/>
    <glyph glyph-name="q" unicode="q" horiz-adv-x="1247" d="M786 20l-12 7q-82 -34 -148 -50t-120 -16q-194 0 -321.5 130t-127.5 331q0 227 160 376.5t401 149.5q102 0 216 -42t129 -42q28 0 67.5 52.5t63.5 52.5q16 0 24 -9.5t8 -29.5q0 -10 -11 -99.5t-11 -166.5v-920q0 -55 11.5 -77t45.5 -34q11 -4 24 -6t28 -2 q36 -2 47.5 -11.5t11.5 -29.5q0 -14 -10.5 -25.5t-24.5 -11.5q-5 0 -31 3q-133 12 -264 12q-123 0 -254 -12q-29 -3 -35 -3q-13 0 -24 11.5t-11 25.5q1 34 57 41h3q14 0 27 2t24 6q35 12 46 34t11 77v276zM786 238v395q0 131 -30 184t-101 53q-116 0 -191 -113.5t-75 -295.5 q0 -168 73 -274.5t185 -106.5q76 0 107.5 35t31.5 123z"/>
    <glyph glyph-name="r" unicode="r" horiz-adv-x="891" d="M172 608v27q0 47 -9.5 62.5t-35.5 25.5q-12 3 -40 7q-4 1 -5 1t-4 1q-47 7 -47 34q0 32 73 50l4 1q46 11 74 20t54 21q55 25 121 73t87 48t29 -9.5t8 -41.5v-92q0 -12 2 -16.5t6 -4.5q5 0 10 3t11 9l22 25q41 42 88 64t97 22q82 0 133 -43.5t51 -112.5q0 -73 -44.5 -117 t-117.5 -44q-33 0 -59.5 10.5t-48.5 32.5q-7 7 -19 20q-49 53 -71 53q-26 0 -37.5 -24.5t-11.5 -77.5v-440q0 -55 10.5 -76.5t42.5 -34.5q8 -4 18 -6t28 -2q36 -3 46 -12t10 -29q0 -16 -8 -26.5t-21 -10.5q-4 0 -27 2q-128 12 -259 12q-126 0 -253 -12q-25 -2 -30 -2 q-12 0 -22.5 11.5t-10.5 25.5q0 20 11 29t49 12q12 0 23.5 2t21.5 6q30 12 40.5 31.5t10.5 79.5v413z"/>
    <glyph glyph-name="s" unicode="s" horiz-adv-x="930" d="M109 301q35 0 71 -74q15 -31 25 -49q43 -75 99 -110t134 -35q82 0 135.5 39t53.5 98q0 48 -34 80t-153 80l-28 11q-338 131 -338 304q0 137 115 220t307 83q66 0 133 -9.5t125 -27.5q31 -9 41 -23t10 -44v-23q0 -84 -10 -105.5t-37 -21.5q-30 0 -73 59l-21 27 q-44 54 -86.5 76.5t-98.5 22.5q-66 0 -109.5 -30t-43.5 -75q0 -70 205 -141l47 -17q158 -57 222 -126t64 -177q0 -156 -130 -254t-341 -98q-152 0 -242 37t-90 98q0 120 10.5 162.5t37.5 42.5z"/>
    <glyph glyph-name="t" unicode="t" horiz-adv-x="752" d="M172 748q0 38 -8 50.5t-29 12.5h-45q-31 0 -45 8t-14 25q0 26 84 70t141 90q35 29 96.5 95t93.5 66q23 0 31 -10t8 -45v-172q0 -13 8.5 -21t22.5 -8h162q24 0 30 -6t7 -43q0 -39 -7.5 -47t-29.5 -8h-162q-14 0 -22.5 -7.5t-8.5 -21.5l-6 -422v-43q0 -106 15.5 -150 t52.5 -44q30 0 75 25.5t56 25.5q14 0 28.5 -13.5t14.5 -27.5q0 -44 -108 -105t-220 -61q-128 0 -179.5 65.5t-51.5 245.5v35z"/>
    <glyph glyph-name="u" unicode="u" horiz-adv-x="1294" d="M166 715q0 58 -10 78.5t-37 31.5q-5 2 -13.5 4t-26.5 5q-30 2 -41 12t-11 31q0 18 10 27t31 9q2 0 59.5 -4t112.5 -4q91 0 185 9q17 1 21 1q23 0 30 -11t7 -60v-21v-508q0 -115 36.5 -171t111.5 -56q91 0 130.5 55t39.5 189v383q0 54 -11 75.5t-42 34.5q-11 4 -23 6.5 t-25 2.5h-3q-54 8 -54 43q0 18 9.5 27t29.5 9q4 0 19 -1q83 -7 169 -7q95 0 191 9q16 1 20 1q23 0 30 -9.5t7 -51.5v-31v-577q0 -59 9 -77t37 -30q7 -2 15.5 -3.5l26.5 -4.5h3q44 -7 44 -35q0 -21 -15.5 -32t-82.5 -23q-13 -2 -43 -8q-9 -2 -12 -2q-72 -16 -136.5 -40 t-66.5 -24q-20 0 -28.5 10t-14.5 41l-12 80l-13 2q-67 -68 -154.5 -103.5t-185.5 -35.5q-93 0 -165.5 30t-110.5 85q-25 36 -36 81.5t-11 131.5v76v350z"/>
    <glyph glyph-name="v" unicode="v" horiz-adv-x="1042" d="M774 645q13 29 21 63t8 54q0 25 -12 40t-37 21q-5 2 -11.5 4t-20.5 5q-34 6 -45 15t-11 27q0 21 8.5 29t30.5 8q5 0 64 -5t114 -5q58 0 118.5 4t63.5 4q18 0 25.5 -7.5t7.5 -24.5q-1 -34 -45 -45q-1 0 -3 -1q-15 -2 -21.5 -4t-13.5 -6q-32 -17 -60 -56t-74 -140 l-277 -609q-10 -24 -29.5 -34.5t-52.5 -10.5q-32 0 -49 10.5t-29 36.5l-301 662q-35 79 -59 107t-57 38q-12 4 -34 8q-48 10 -48 41q0 18 11 26.5t34 8.5q5 0 26 -1q116 -9 232 -9q120 0 241 7q22 1 27 1q20 0 29.5 -7.5t9.5 -22.5q0 -20 -10 -30t-32 -13q-4 -2 -7 -2.5 t-10 -0.5h-3q-53 -6 -53 -38q0 -14 33 -96l14 -37l132 -325q3 -9 6.5 -13.5t7.5 -4.5q3 0 8 5.5t10 15.5z"/>
    <glyph glyph-name="w" unicode="w" horiz-adv-x="1610" d="M469 659l123 -303q8 -17 12.5 -22.5t9.5 -5.5t12 7.5t13 20.5l90 217q3 8 4.5 16.5t1.5 18.5q0 18 -2.5 30t-7.5 22l-47 100q-19 38 -50 57t-77 19q-83 0 -105 -9.5t-22 -33.5q0 -10 8 -35t37 -99zM571 16q-11 -25 -24 -35t-35 -10q-25 0 -41 11.5t-27 35.5l-301 662 q-35 79 -59 107t-57 38q-12 4 -34 8q-48 10 -48 41q0 18 11 26.5t34 8.5q7 0 36 -2q126 -10 242 -10q402 0 750 11q42 1 49 1q25 0 36 -7.5t11 -24.5q0 -20 -10 -30t-32 -13l-18 -3q-54 -6 -55 -38q0 -11 11.5 -43.5t36.5 -90.5l127 -309q6 -15 10.5 -23t7.5 -8q5 1 10.5 9 t11.5 24l132 330q7 18 11.5 40t4.5 40q0 25 -12 40t-37 21q-11 3 -31 8q-57 13 -57 43q0 21 8.5 29t30.5 8q5 0 64.5 -5t113.5 -5q58 0 118.5 4t63.5 4q18 0 25.5 -7.5t7.5 -24.5q0 -35 -47 -45q-24 -5 -35 -11q-33 -17 -61 -56t-74 -140l-275 -609q-11 -25 -25.5 -35 t-39.5 -10q-27 0 -40.5 9t-27.5 38l-219 465q-7 15 -11.5 21t-6.5 6q-4 0 -8.5 -7t-8.5 -18z"/>
    <glyph glyph-name="x" unicode="x" horiz-adv-x="1139" d="M481 338q-5 7 -10 10.5t-10 3.5q-4 0 -13 -12l-2 -2l-92 -131q-13 -19 -22.5 -46t-9.5 -44q0 -18 5.5 -26t24.5 -15q10 -3 28 -7q44 -9 44 -36q0 -17 -9.5 -25t-29.5 -8q-3 0 -19 1q-87 5 -176 5q-93 0 -182 -5q-15 -1 -18 -1q-19 0 -26 7t-7 24q0 30 55 41q35 7 56 14 q110 37 207 162q10 13 16 20l104 135q4 6 5 10.5t1 12.5q0 6 -1.5 11t-4.5 10l-176 223q-56 70 -90.5 105t-64.5 52q-8 5 -21 12q-31 17 -31 33q0 18 11.5 27.5t31.5 9.5q4 0 21 -1q121 -9 258 -9q102 0 197 9q15 1 18 1q26 0 36.5 -7.5t10.5 -24.5q0 -23 -39 -42t-39 -34 q0 -10 8 -25.5t23 -34.5l102 -135q6 -7 12 -11.5t9 -4.5q5 0 9.5 3.5t10.5 12.5l89 126q11 16 18.5 33.5t7.5 27.5q0 16 -11 25.5t-43 17.5q-1 0 -4 1q-44 15 -44 37q0 19 9.5 27t30.5 8q5 0 26 -1q77 -3 147 -3q79 0 163 4h21q23 0 34 -8t11 -24q0 -33 -54 -37 q-44 -3 -68 -12q-43 -15 -91.5 -59.5t-106.5 -119.5l-82 -107q-6 -7 -11 -15t-5 -9q0 -5 2.5 -11t7.5 -13l269 -347q27 -34 45 -50t32 -19q2 -1 4 -1.5t5 -0.5q46 -10 57.5 -20t11.5 -29q0 -14 -9.5 -20.5t-29.5 -6.5q-5 0 -90.5 5t-165.5 5q-87 0 -187 -5t-112 -5 q-24 0 -36.5 9t-12.5 26q0 14 9.5 22.5t30.5 12.5q44 6 58.5 14t14.5 25q0 10 -19 43.5t-47 70.5z"/>
    <glyph glyph-name="y" unicode="y" horiz-adv-x="1108" d="M834 645q16 36 25 67t9 50q0 25 -13.5 40t-42.5 21l-39 8q-64 12 -64 43q0 19 9.5 27t33.5 8q4 0 21 -1q86 -7 169 -7q61 0 123.5 4t64.5 4q19 0 27 -7.5t8 -24.5q0 -35 -42 -42q-15 -3 -24 -6q-40 -12 -70.5 -42.5t-57.5 -86.5l-301 -616q-105 -216 -181 -422 q-13 -36 -16 -41q-23 -41 -54.5 -56.5t-109.5 -15.5q-87 0 -116 25t-29 96q0 70 26.5 98.5t90.5 28.5q19 0 44.5 -1t32.5 -1q56 0 96 43.5t40 98.5q0 20 -9.5 47.5t-31.5 72.5l-342 693q-18 35 -44.5 54t-68.5 27q-35 8 -45 17t-10 26q0 18 11 26.5t34 8.5q5 0 26 -1 q118 -9 236 -9q128 0 258 9q25 1 31 1q21 0 31 -8t10 -27q-1 -17 -13 -27t-36 -13q-6 -1 -19 -3q-63 -6 -63 -40q0 -8 7 -28.5t19 -47.5l180 -397q4 -8 8.5 -11.5t10.5 -3.5q4 0 9 4.5t9 14.5z"/>
    <glyph glyph-name="z" unicode="z" horiz-adv-x="1026" d="M469 123q-6 -8 -9 -16t-3 -13t6 -7.5t22 -2.5h76q102 0 167.5 17.5t98.5 54.5q20 21 43.5 82t57.5 61q22 0 31.5 -15t9.5 -51q0 -26 -4 -75t-4 -72q0 -16 1 -34.5t1 -20.5q0 -25 -10 -32t-44 -7q-7 0 -46 2q-236 12 -478 12q-91 0 -180.5 -6l-89.5 -6q-38 0 -58 12.5 t-20 36.5q0 20 24 55q6 9 9 13l468 691q4 6 5.5 10t1.5 7q0 5 -5.5 7.5t-21.5 2.5h-112q-68 0 -109.5 -11.5t-83.5 -39.5q-25 -17 -67.5 -55.5t-63.5 -38.5q-15 0 -24 9.5t-9 25.5t17.5 67.5t48.5 122.5q22 52 36.5 69t32.5 17q26 0 35 -36q2 -10 4 -15q10 -22 49 -30.5 t154 -8.5h256q66 0 138.5 5t78.5 5q32 0 49 -11.5t17 -33.5q0 -20 -25 -55q-5 -8 -8 -12z"/>
    <glyph glyph-name="braceleft" unicode="{" d="M852 1516v-61q-121 -3 -165 -55t-44 -210v-133q0 -225 -53.5 -307t-196.5 -115q143 -32 196.5 -113t53.5 -307v-135q0 -158 44 -210t165 -55v-59q-235 0 -320.5 72.5t-85.5 273.5v193q0 165 -56 226.5t-212 76.5v76q156 15 212 76.5t56 226.5v192q0 201 85.5 274 t320.5 73z"/>
    <glyph glyph-name="bar" unicode="|" d="M410 1565h206v-2048h-206v2048z"/>
    <glyph glyph-name="braceright" unicode="}" d="M172 1516q236 0 322 -73t86 -274v-192q0 -165 56 -226.5t212 -76.5v-76q-156 -15 -212 -76.5t-56 -226.5v-193q0 -198 -85 -272t-311 -74h-12v59q119 2 164 55t45 210v135q0 226 53.5 307t196.5 113q-143 33 -196.5 115t-53.5 307v133q0 156 -45 209.5t-164 55.5v61z"/>
    <glyph glyph-name="asciitilde" unicode="~" horiz-adv-x="1706" d="M1530 803v-221q-104 -71 -196.5 -104.5t-182.5 -33.5q-46 0 -92 8t-92 23q-24 8 -71 25q-219 75 -333 75q-85 0 -177.5 -37.5t-207.5 -119.5v221q107 72 204 107.5t183 35.5q117 0 291 -58q3 -1 4 -1l55 -19q155 -55 240 -55t175 37t200 117z"/>
    <glyph glyph-name="Adieresis" unicode="Ä" horiz-adv-x="1292" d="M541 1247q19 47 39 63.5t65 16.5q41 0 57 -12t39 -70l406 -989q33 -82 61.5 -118t69.5 -52q12 -5 40 -9q56 -9 56 -42q0 -19 -15.5 -28t-45.5 -9q-11 0 -102 7t-173 7q-71 0 -168.5 -9t-124.5 -9q-29 0 -44 10t-15 31q0 20 13.5 31t43.5 16q3 1 5.5 1.5t7.5 0.5 q43 6 54 16.5t11 32.5q0 9 -2 18.5t-6 18.5l-86 227q-10 26 -40 35.5t-130 9.5h-57h-74q-79 0 -103 -12t-38 -55q-24 -69 -34.5 -112t-10.5 -70q0 -34 15.5 -53t57.5 -36q16 -6 32 -11t34 -9h1q62 -17 62 -49q0 -21 -12.5 -31t-38.5 -10q-3 0 -21 2q-103 12 -210 12 q-83 0 -161 -12q-13 -2 -15 -2q-26 0 -39 9.5t-13 29.5q0 33 50 50l4 1q8 2 17 5t17 7q31 14 53.5 42t41.5 75zM379 539h254q14 0 20 3t6 11q0 4 -1.5 9.5t-4.5 11.5l-133 325q-6 14 -9 18.5t-7 4.5q-5 -1 -9.5 -7t-8.5 -17l-126 -335q0 -1 -1 -4q-3 -8 -3 -10 q0 -5 4.5 -7.5t18.5 -2.5zM708 1602q0 48 36.5 84t84.5 36q49 0 84 -35.5t35 -84.5q0 -54 -33 -87.5t-86 -33.5q-51 0 -86 34.5t-35 86.5zM344 1602q0 48 36 84t85 36t84 -35.5t35 -84.5q0 -54 -33.5 -87.5t-85.5 -33.5t-86.5 34.5t-34.5 86.5z"/>
    <glyph glyph-name="Aring" unicode="Å" horiz-adv-x="1292" d="M541 1247q19 47 39 63.5t65 16.5q41 0 57 -12t39 -70l406 -989q33 -82 61.5 -118t69.5 -52q12 -5 40 -9q56 -9 56 -42q0 -19 -15.5 -28t-45.5 -9q-11 0 -102 7t-173 7q-71 0 -168.5 -9t-124.5 -9q-29 0 -44 10t-15 31q0 20 13.5 31t43.5 16q3 1 5.5 1.5t7.5 0.5 q43 6 54 16.5t11 32.5q0 9 -2 18.5t-6 18.5l-86 227q-10 26 -40 35.5t-130 9.5h-57h-74q-79 0 -103 -12t-38 -55q-24 -69 -34.5 -112t-10.5 -70q0 -34 15.5 -53t57.5 -36q16 -6 32 -11t34 -9h1q62 -17 62 -49q0 -21 -12.5 -31t-38.5 -10q-3 0 -21 2q-103 12 -210 12 q-83 0 -161 -12q-13 -2 -15 -2q-26 0 -39 9.5t-13 29.5q0 33 50 50l4 1q8 2 17 5t17 7q31 14 53.5 42t41.5 75zM379 539h254q14 0 20 3t6 11q0 4 -1.5 9.5t-4.5 11.5l-133 325q-6 14 -9 18.5t-7 4.5q-5 -1 -9.5 -7t-8.5 -17l-126 -335q0 -1 -1 -4q-3 -8 -3 -10 q0 -5 4.5 -7.5t18.5 -2.5zM530 1595q0 -41 29 -70.5t70 -29.5q40 0 70 30t30 70q0 41 -29 70t-71 29q-43 0 -71 -28.5t-28 -70.5zM426 1595q0 86 59 144.5t146 58.5t145 -58t58 -145q0 -84 -59.5 -144t-143.5 -60q-86 0 -145.5 59.5t-59.5 144.5z"/>
    <glyph glyph-name="Ccedilla" unicode="Ç" horiz-adv-x="1384" d="M66 645q0 146 62 275.5t179 228.5q108 89 244.5 133.5t302.5 44.5q127 0 237 -23t148 -53q14 -9 26.5 -75.5t12.5 -143.5q0 -23 -10.5 -35t-30.5 -12q-31 0 -71 65q-19 31 -31 48q-56 76 -119 110.5t-146 34.5q-189 0 -315.5 -171.5t-126.5 -434.5q0 -258 125 -426 t313 -168q97 0 179 53t131 148l22 45q38 78 64 78q23 0 30.5 -18.5t7.5 -94.5v-27q0 -73 -7 -104.5t-25 -48.5q-59 -53 -171.5 -83t-252.5 -30q-351 0 -564.5 189t-213.5 495zM477 -375l41 88q73 -39 130.5 -56t117.5 -17q40 0 63 21.5t23 59.5q0 43 -25.5 64.5t-74.5 21.5 q-14 0 -29.5 -1.5t-32.5 -3.5v198h70v-112q16 2 32.5 3.5t33.5 2.5q86 0 136 -46t50 -124q0 -86 -60 -133.5t-169 -47.5q-55 0 -125 18.5t-181 63.5z"/>
    <glyph glyph-name="Eacute" unicode="É" horiz-adv-x="1245" d="M594 635q-16 -2 -23.5 -9t-7.5 -20v-299q0 -149 40.5 -189t154.5 -40q76 0 142.5 26t109.5 72q33 36 73 100t70 64q22 0 35.5 -16t13.5 -43q0 -7 -2 -21.5t-6 -34.5l-31 -172q-6 -36 -23 -51.5t-50 -15.5q-9 0 -56 3q-276 23 -561 23q-173 0 -342 -15q-30 -3 -37 -3 q-26 0 -40.5 11.5t-14.5 31.5q0 31 65 42q11 2 17 3q61 7 81.5 27.5t20.5 68.5v928q0 48 -20.5 69t-81.5 29q-5 1 -15 2q-69 10 -69 41q0 21 15 33t40 12q5 0 31 -2q163 -14 336 -14q195 0 397.5 8t210.5 8q41 0 51 -7.5t10 -29.5v-211q0 -39 -8.5 -50t-32.5 -11 q-29 0 -78 70l-42 57q-31 39 -88 59.5t-138 20.5q-97 0 -137.5 -25t-40.5 -88v-293q0 -28 23 -39.5t84 -11.5q92 0 132 10t58 33q21 28 45 82.5t56 54.5q20 0 31.5 -13t11.5 -36q-1 -4 -2 -18q-9 -72 -9 -139q0 -64 3 -129.5t3 -67.5q0 -42 -9.5 -56t-35.5 -14q-37 0 -66 65 q-12 26 -20 40q-31 56 -69 76t-113 20q-25 0 -38.5 -0.5t-25.5 -1.5zM428 1438l273 282q40 43 72 61.5t63 18.5q40 0 65 -25t25 -65q0 -31 -18 -53t-76 -53l-313 -166h-91z"/>
    <glyph glyph-name="Ntilde" unicode="Ñ" horiz-adv-x="1505" d="M319 297q0 -106 18.5 -152t61.5 -57q25 -8 68 -12h4v0q59 -6 59 -37q0 -20 -16.5 -31.5t-46.5 -11.5q-11 0 -76.5 6t-120.5 6q-52 0 -111 -6t-67 -6q-26 0 -40.5 12t-14.5 33q0 17 8.5 24.5t42.5 10.5q8 2 28.5 5.5t33.5 6.5q37 11 52 55.5t15 153.5v743q0 88 -13.5 121 t-47.5 41q-8 1 -18 2.5t-27 3.5q-36 2 -46 10.5t-10 28.5t13 31.5t34 11.5q4 0 22 -1q104 -7 214 -7q74 0 151 3q16 1 19 1q24 0 38 -7t34 -32l567 -702q7 -9 14.5 -14t12.5 -5q8 0 14 8.5t6 20.5v436q0 106 -18.5 152t-61.5 57q-25 8 -68 12h-4q-42 5 -51.5 12.5t-9.5 24.5 q0 20 17 30.5t49 10.5q11 0 75.5 -5t118.5 -5q53 0 112.5 5t67.5 5q27 0 40.5 -10.5t13.5 -32.5q0 -18 -8.5 -25.5t-41.5 -9.5q-6 -1 -27 -5t-34 -7q-38 -11 -54 -57t-16 -152v-952q0 -49 -16.5 -73.5t-48.5 -24.5q-26 0 -49.5 15t-65.5 69l-764 968q-5 7 -9.5 9.5 t-10.5 3.5q-6 -1 -8 -6.5t-3 -22.5v-680zM1043 1759q-14 -116 -68 -180.5t-137 -64.5q-16 0 -29.5 2t-27.5 6l-105 26q-14 4 -29 6.5t-28 2.5q-31 0 -52.5 -20.5t-37.5 -65.5h-66q17 123 69.5 184t141.5 61q17 0 32.5 -2t31.5 -6l109 -29q11 -3 20.5 -4.5t17.5 -1.5 q32 0 54.5 21t37.5 65h66z"/>
    <glyph glyph-name="Odieresis" unicode="Ö" horiz-adv-x="1636" d="M797 1247q-169 0 -270 -147.5t-101 -397.5q0 -295 115 -477t297 -182q169 0 270.5 148t101.5 399q0 293 -116 475t-297 182zM823 1327q145 0 275.5 -46t230.5 -132q117 -98 178.5 -227.5t61.5 -276.5q0 -146 -61.5 -274.5t-178.5 -229.5q-102 -88 -233.5 -134t-282.5 -46 q-143 0 -274 47t-232 133q-118 101 -179.5 230t-61.5 274t61.5 274t179.5 230q102 87 233 132.5t283 45.5zM880 1602q0 48 36.5 84t84.5 36q49 0 84 -35.5t35 -84.5q0 -54 -33 -87.5t-86 -33.5q-51 0 -86 34.5t-35 86.5zM516 1602q0 48 36 84t85 36t84 -35.5t35 -84.5 q0 -54 -33.5 -87.5t-85.5 -33.5t-86.5 34.5t-34.5 86.5z"/>
    <glyph glyph-name="Udieresis" unicode="Ü" horiz-adv-x="1516" d="M219 1106q0 48 -18 69t-72 29q-3 1 -6 1q-68 11 -68 42q0 20 13.5 31.5t35.5 11.5q6 0 30 -2q129 -14 257 -14q113 0 236 13q29 3 37 3q22 0 34.5 -11.5t12.5 -33.5q0 -30 -58 -40l-4 -1h-4q-61 -7 -80.5 -27t-19.5 -69v-670q0 -216 72.5 -298.5t254.5 -82.5 q99 0 175.5 35.5t115.5 97.5q25 40 35 99.5t10 222.5v217q0 270 -13.5 353t-47.5 108q-10 7 -25 10.5t-40 3.5q-44 3 -57 13t-13 30q0 23 15.5 32t55.5 9q18 0 77.5 -4t103.5 -4q36 0 92.5 4t77.5 4q40 0 55.5 -9t15.5 -32q0 -21 -12.5 -30.5t-57.5 -12.5q-25 0 -40.5 -3.5 t-26.5 -10.5q-34 -25 -47.5 -111.5t-13.5 -349.5v-270q0 -159 -16 -225.5t-54 -114.5q-65 -81 -180 -119.5t-289 -38.5q-171 0 -288.5 37.5t-186.5 114.5q-40 45 -57 108.5t-17 200.5v86v598zM880 1602q0 48 36.5 84t84.5 36q49 0 84 -35.5t35 -84.5q0 -54 -33 -87.5 t-86 -33.5q-51 0 -86 34.5t-35 86.5zM516 1602q0 48 36 84t85 36t84 -35.5t35 -84.5q0 -54 -33.5 -87.5t-85.5 -33.5t-86.5 34.5t-34.5 86.5z"/>
    <glyph glyph-name="aacute" unicode="á" horiz-adv-x="1079" d="M600 307v156q0 11 -3.5 17.5t-10.5 6.5q-5 0 -12 -2t-13 -6l-72 -37q-77 -41 -117 -89t-40 -101q0 -56 32 -88.5t87 -32.5q71 0 110 46t39 130zM606 117q-102 -77 -189 -116.5t-153 -39.5q-93 0 -151 59t-58 152q0 95 67 163t245 144l206 90q14 7 20.5 19.5t6.5 32.5v131 q0 61 -19 90.5t-59 29.5q-63 0 -131 -110l-24 -39q-39 -60 -97 -90.5t-133 -30.5q-35 0 -55.5 16.5t-20.5 45.5q0 32 25 73t68 78q69 61 174.5 97t212.5 36q113 0 195.5 -27t131.5 -81q25 -27 35 -64t10 -121v-39v-374q0 -64 11.5 -87.5t40.5 -23.5q18 0 42.5 15.5 t30.5 15.5q12 0 21.5 -12t9.5 -27q0 -45 -91 -103.5t-187 -58.5q-58 0 -96 33.5t-77 122.5h-12zM346 1059l273 282q40 43 72 61.5t63 18.5q40 0 65 -25t25 -65q0 -31 -18 -53t-76 -53l-313 -166h-91z"/>
    <glyph glyph-name="agrave" unicode="à" horiz-adv-x="1079" d="M600 307v156q0 11 -3.5 17.5t-10.5 6.5q-5 0 -12 -2t-13 -6l-72 -37q-77 -41 -117 -89t-40 -101q0 -56 32 -88.5t87 -32.5q71 0 110 46t39 130zM606 117q-102 -77 -189 -116.5t-153 -39.5q-93 0 -151 59t-58 152q0 95 67 163t245 144l206 90q14 7 20.5 19.5t6.5 32.5v131 q0 61 -19 90.5t-59 29.5q-63 0 -131 -110l-24 -39q-39 -60 -97 -90.5t-133 -30.5q-35 0 -55.5 16.5t-20.5 45.5q0 32 25 73t68 78q69 61 174.5 97t212.5 36q113 0 195.5 -27t131.5 -81q25 -27 35 -64t10 -121v-39v-374q0 -64 11.5 -87.5t40.5 -23.5q18 0 42.5 15.5 t30.5 15.5q12 0 21.5 -12t9.5 -27q0 -45 -91 -103.5t-187 -58.5q-58 0 -96 33.5t-77 122.5h-12zM736 1059h-91l-313 166q-58 31 -76 53t-18 53q0 40 25 65t65 25q31 0 63 -18.5t72 -61.5z"/>
    <glyph glyph-name="acircumflex" unicode="â" horiz-adv-x="1079" d="M600 307v156q0 11 -3.5 17.5t-10.5 6.5q-5 0 -12 -2t-13 -6l-72 -37q-77 -41 -117 -89t-40 -101q0 -56 32 -88.5t87 -32.5q71 0 110 46t39 130zM606 117q-102 -77 -189 -116.5t-153 -39.5q-93 0 -151 59t-58 152q0 95 67 163t245 144l206 90q14 7 20.5 19.5t6.5 32.5v131 q0 61 -19 90.5t-59 29.5q-63 0 -131 -110l-24 -39q-39 -60 -97 -90.5t-133 -30.5q-35 0 -55.5 16.5t-20.5 45.5q0 32 25 73t68 78q69 61 174.5 97t212.5 36q113 0 195.5 -27t131.5 -81q25 -27 35 -64t10 -121v-39v-374q0 -64 11.5 -87.5t40.5 -23.5q18 0 42.5 15.5 t30.5 15.5q12 0 21.5 -12t9.5 -27q0 -45 -91 -103.5t-187 -58.5q-58 0 -96 33.5t-77 122.5h-12zM242 1059l225 348h148l225 -348h-84l-215 180l-215 -180h-84z"/>
    <glyph glyph-name="adieresis" unicode="ä" horiz-adv-x="1079" d="M600 307v156q0 11 -3.5 17.5t-10.5 6.5q-5 0 -12 -2t-13 -6l-72 -37q-77 -41 -117 -89t-40 -101q0 -56 32 -88.5t87 -32.5q71 0 110 46t39 130zM606 117q-102 -77 -189 -116.5t-153 -39.5q-93 0 -151 59t-58 152q0 95 67 163t245 144l206 90q14 7 20.5 19.5t6.5 32.5v131 q0 61 -19 90.5t-59 29.5q-63 0 -131 -110l-24 -39q-39 -60 -97 -90.5t-133 -30.5q-35 0 -55.5 16.5t-20.5 45.5q0 32 25 73t68 78q69 61 174.5 97t212.5 36q113 0 195.5 -27t131.5 -81q25 -27 35 -64t10 -121v-39v-374q0 -64 11.5 -87.5t40.5 -23.5q18 0 42.5 15.5 t30.5 15.5q12 0 21.5 -12t9.5 -27q0 -45 -91 -103.5t-187 -58.5q-58 0 -96 33.5t-77 122.5h-12zM602 1223q0 48 36.5 84t84.5 36q49 0 84 -35.5t35 -84.5q0 -54 -33 -87.5t-86 -33.5q-51 0 -86 34.5t-35 86.5zM238 1223q0 48 36 84t85 36t84 -35.5t35 -84.5 q0 -54 -33.5 -87.5t-85.5 -33.5t-86.5 34.5t-34.5 86.5z"/>
    <glyph glyph-name="atilde" unicode="ã" horiz-adv-x="1079" d="M600 307v156q0 11 -3.5 17.5t-10.5 6.5q-5 0 -12 -2t-13 -6l-72 -37q-77 -41 -117 -89t-40 -101q0 -56 32 -88.5t87 -32.5q71 0 110 46t39 130zM606 117q-102 -77 -189 -116.5t-153 -39.5q-93 0 -151 59t-58 152q0 95 67 163t245 144l206 90q14 7 20.5 19.5t6.5 32.5v131 q0 61 -19 90.5t-59 29.5q-63 0 -131 -110l-24 -39q-39 -60 -97 -90.5t-133 -30.5q-35 0 -55.5 16.5t-20.5 45.5q0 32 25 73t68 78q69 61 174.5 97t212.5 36q113 0 195.5 -27t131.5 -81q25 -27 35 -64t10 -121v-39v-374q0 -64 11.5 -87.5t40.5 -23.5q18 0 42.5 15.5 t30.5 15.5q12 0 21.5 -12t9.5 -27q0 -45 -91 -103.5t-187 -58.5q-58 0 -96 33.5t-77 122.5h-12zM830 1380q-14 -116 -68 -180.5t-137 -64.5q-16 0 -29.5 2t-27.5 6l-105 26q-14 4 -29 6.5t-28 2.5q-31 0 -52.5 -20.5t-37.5 -65.5h-66q17 123 69.5 184t141.5 61q17 0 32.5 -2 t31.5 -6l109 -29q11 -3 20.5 -4.5t17.5 -1.5q32 0 54.5 21t37.5 65h66z"/>
    <glyph glyph-name="aring" unicode="å" horiz-adv-x="1079" d="M600 307v156q0 11 -3.5 17.5t-10.5 6.5q-5 0 -12 -2t-13 -6l-72 -37q-77 -41 -117 -89t-40 -101q0 -56 32 -88.5t87 -32.5q71 0 110 46t39 130zM606 117q-102 -77 -189 -116.5t-153 -39.5q-93 0 -151 59t-58 152q0 95 67 163t245 144l206 90q14 7 20.5 19.5t6.5 32.5v131 q0 61 -19 90.5t-59 29.5q-63 0 -131 -110l-24 -39q-39 -60 -97 -90.5t-133 -30.5q-35 0 -55.5 16.5t-20.5 45.5q0 32 25 73t68 78q69 61 174.5 97t212.5 36q113 0 195.5 -27t131.5 -81q25 -27 35 -64t10 -121v-39v-374q0 -64 11.5 -87.5t40.5 -23.5q18 0 42.5 15.5 t30.5 15.5q12 0 21.5 -12t9.5 -27q0 -45 -91 -103.5t-187 -58.5q-58 0 -96 33.5t-77 122.5h-12zM403 1268q0 -57 39.5 -96t96.5 -39q56 0 94.5 39t38.5 96q0 56 -39 95.5t-94 39.5q-57 0 -96.5 -39t-39.5 -96zM285 1268q0 105 73.5 178.5t180.5 73.5q106 0 179 -73t73 -179 q0 -107 -73.5 -180.5t-178.5 -73.5q-106 0 -180 74t-74 180z"/>
    <glyph glyph-name="ccedilla" unicode="ç" horiz-adv-x="1040" d="M623 948q148 0 248 -40t100 -95q0 -87 -26 -142t-66 -55q-29 0 -56 24t-63 85q-11 18 -28 50q-54 99 -111 99q-94 0 -172 -107.5t-78 -254.5q0 -175 103 -291.5t257 -116.5q74 0 147 40t76 40q16 0 26.5 -9.5t10.5 -24.5q0 -17 -22 -40t-66 -51q-82 -51 -159.5 -75.5 t-159.5 -24.5q-230 0 -378.5 140.5t-148.5 357.5q0 222 154.5 356.5t411.5 134.5zM268 -375l41 88q73 -39 130.5 -56t117.5 -17q40 0 63 21.5t23 59.5q0 43 -25.5 64.5t-74.5 21.5q-14 0 -29.5 -1.5t-32.5 -3.5v198h70v-112q16 2 32.5 3.5t33.5 2.5q86 0 136 -46t50 -124 q0 -86 -60 -133.5t-169 -47.5q-55 0 -125 18.5t-181 63.5z"/>
    <glyph glyph-name="eacute" unicode="é" horiz-adv-x="1108" d="M412 692l-6 -35v-2q0 -7 8 -11.5t22 -4.5h133q105 0 149 23.5t44 76.5q0 59 -41.5 97t-106.5 38q-79 0 -134.5 -49.5t-67.5 -132.5zM393 520v-53q0 -160 95.5 -260.5t248.5 -100.5q91 0 175.5 52.5t91.5 52.5q17 0 27.5 -10t10.5 -25q0 -19 -30.5 -50.5t-83.5 -66.5 q-82 -52 -162.5 -75t-177.5 -23q-235 0 -383 139t-148 357q0 220 153.5 355.5t403.5 135.5q188 0 309 -95t121 -235q0 -33 -20.5 -47t-71.5 -14h-520q-21 0 -30 -8.5t-9 -28.5zM411 1059l273 282q40 43 72 61.5t63 18.5q40 0 65 -25t25 -65q0 -31 -18 -53t-76 -53l-313 -166 h-91z"/>
    <glyph glyph-name="egrave" unicode="è" horiz-adv-x="1108" d="M412 692l-6 -35v-2q0 -7 8 -11.5t22 -4.5h133q105 0 149 23.5t44 76.5q0 59 -41.5 97t-106.5 38q-79 0 -134.5 -49.5t-67.5 -132.5zM393 520v-53q0 -160 95.5 -260.5t248.5 -100.5q91 0 175.5 52.5t91.5 52.5q17 0 27.5 -10t10.5 -25q0 -19 -30.5 -50.5t-83.5 -66.5 q-82 -52 -162.5 -75t-177.5 -23q-235 0 -383 139t-148 357q0 220 153.5 355.5t403.5 135.5q188 0 309 -95t121 -235q0 -33 -20.5 -47t-71.5 -14h-520q-21 0 -30 -8.5t-9 -28.5zM801 1059h-91l-313 166q-58 31 -76 53t-18 53q0 40 25 65t65 25q31 0 63 -18.5t72 -61.5z"/>
    <glyph glyph-name="ecircumflex" unicode="ê" horiz-adv-x="1108" d="M412 692l-6 -35v-2q0 -7 8 -11.5t22 -4.5h133q105 0 149 23.5t44 76.5q0 59 -41.5 97t-106.5 38q-79 0 -134.5 -49.5t-67.5 -132.5zM393 520v-53q0 -160 95.5 -260.5t248.5 -100.5q91 0 175.5 52.5t91.5 52.5q17 0 27.5 -10t10.5 -25q0 -19 -30.5 -50.5t-83.5 -66.5 q-82 -52 -162.5 -75t-177.5 -23q-235 0 -383 139t-148 357q0 220 153.5 355.5t403.5 135.5q188 0 309 -95t121 -235q0 -33 -20.5 -47t-71.5 -14h-520q-21 0 -30 -8.5t-9 -28.5zM307 1059l225 348h148l225 -348h-84l-215 180l-215 -180h-84z"/>
    <glyph glyph-name="edieresis" unicode="ë" horiz-adv-x="1108" d="M412 692l-6 -35v-2q0 -7 8 -11.5t22 -4.5h133q105 0 149 23.5t44 76.5q0 59 -41.5 97t-106.5 38q-79 0 -134.5 -49.5t-67.5 -132.5zM393 520v-53q0 -160 95.5 -260.5t248.5 -100.5q91 0 175.5 52.5t91.5 52.5q17 0 27.5 -10t10.5 -25q0 -19 -30.5 -50.5t-83.5 -66.5 q-82 -52 -162.5 -75t-177.5 -23q-235 0 -383 139t-148 357q0 220 153.5 355.5t403.5 135.5q188 0 309 -95t121 -235q0 -33 -20.5 -47t-71.5 -14h-520q-21 0 -30 -8.5t-9 -28.5zM667 1223q0 48 36.5 84t84.5 36q49 0 84 -35.5t35 -84.5q0 -54 -33 -87.5t-86 -33.5 q-51 0 -86 34.5t-35 86.5zM303 1223q0 48 36 84t85 36t84 -35.5t35 -84.5q0 -54 -33.5 -87.5t-85.5 -33.5t-86.5 34.5t-34.5 86.5z"/>
    <glyph glyph-name="iacute" unicode="í" horiz-adv-x="659" d="M174 586q0 59 -9.5 77t-37.5 29q-13 4 -40 8h-5q-1 1 -4 1q-45 7 -45 34q0 31 76 49h2q39 9 73 20t68 25q71 31 138.5 75t74.5 44q15 0 22 -13.5t7 -43.5v-696q0 -55 11 -76.5t44 -34.5q8 -4 19 -6t32 -2q36 -3 46.5 -12t10.5 -29q0 -19 -10.5 -28t-32.5 -9q-5 0 -31 3 q-108 11 -210 11q-153 0 -295 -12q-22 -2 -27 -2q-12 0 -23.5 11.5t-11.5 25.5q0 20 11 29t49 12q12 0 23.5 2t21.5 6q31 12 42 33t11 78v391zM135 1059l273 282q40 43 72 61.5t63 18.5q40 0 65 -25t25 -65q0 -31 -18 -53t-76 -53l-313 -166h-91z"/>
    <glyph glyph-name="igrave" unicode="ì" horiz-adv-x="659" d="M174 586q0 59 -9.5 77t-37.5 29q-13 4 -40 8h-5q-1 1 -4 1q-45 7 -45 34q0 31 76 49h2q39 9 73 20t68 25q71 31 138.5 75t74.5 44q15 0 22 -13.5t7 -43.5v-696q0 -55 11 -76.5t44 -34.5q8 -4 19 -6t32 -2q36 -3 46.5 -12t10.5 -29q0 -19 -10.5 -28t-32.5 -9q-5 0 -31 3 q-108 11 -210 11q-153 0 -295 -12q-22 -2 -27 -2q-12 0 -23.5 11.5t-11.5 25.5q0 20 11 29t49 12q12 0 23.5 2t21.5 6q31 12 42 33t11 78v391zM525 1059h-91l-313 166q-58 31 -76 53t-18 53q0 40 25 65t65 25q31 0 63 -18.5t72 -61.5z"/>
    <glyph glyph-name="icircumflex" unicode="î" horiz-adv-x="659" d="M174 586q0 59 -9.5 77t-37.5 29q-13 4 -40 8h-5q-1 1 -4 1q-45 7 -45 34q0 31 76 49h2q39 9 73 20t68 25q71 31 138.5 75t74.5 44q15 0 22 -13.5t7 -43.5v-696q0 -55 11 -76.5t44 -34.5q8 -4 19 -6t32 -2q36 -3 46.5 -12t10.5 -29q0 -19 -10.5 -28t-32.5 -9q-5 0 -31 3 q-108 11 -210 11q-153 0 -295 -12q-22 -2 -27 -2q-12 0 -23.5 11.5t-11.5 25.5q0 20 11 29t49 12q12 0 23.5 2t21.5 6q31 12 42 33t11 78v391zM31 1059l225 348h148l225 -348h-84l-215 180l-215 -180h-84z"/>
    <glyph glyph-name="idieresis" unicode="ï" horiz-adv-x="659" d="M174 586q0 59 -9.5 77t-37.5 29q-13 4 -40 8h-5q-1 1 -4 1q-45 7 -45 34q0 31 76 49h2q39 9 73 20t68 25q71 31 138.5 75t74.5 44q15 0 22 -13.5t7 -43.5v-696q0 -55 11 -76.5t44 -34.5q8 -4 19 -6t32 -2q36 -3 46.5 -12t10.5 -29q0 -19 -10.5 -28t-32.5 -9q-5 0 -31 3 q-108 11 -210 11q-153 0 -295 -12q-22 -2 -27 -2q-12 0 -23.5 11.5t-11.5 25.5q0 20 11 29t49 12q12 0 23.5 2t21.5 6q31 12 42 33t11 78v391zM391 1223q0 48 36.5 84t84.5 36q49 0 84 -35.5t35 -84.5q0 -54 -33 -87.5t-86 -33.5q-51 0 -86 34.5t-35 86.5zM27 1223 q0 48 36 84t85 36t84 -35.5t35 -84.5q0 -54 -33.5 -87.5t-85.5 -33.5t-86.5 34.5t-34.5 86.5z"/>
    <glyph glyph-name="ntilde" unicode="ñ" horiz-adv-x="1294" d="M172 614v15q0 51 -9.5 67.5t-35.5 26.5q-12 3 -40 7q-4 1 -5 1t-4 1q-47 7 -47 34q0 32 72 49h1q48 11 77.5 20.5t58.5 22.5q59 27 116.5 74t69.5 47q16 0 22.5 -10.5t6.5 -40.5v-84q0 -12 3 -18.5t7 -6.5t7.5 1.5t6.5 4.5l23 19q54 47 133 75.5t158 28.5 q100 0 172.5 -28.5t111.5 -83.5q27 -39 38 -87.5t11 -140.5v-61v-352q0 -58 10.5 -78t43.5 -33q13 -4 40 -8h4q38 -3 49 -12.5t11 -28.5q0 -15 -10 -26t-23 -11q-4 0 -24 2q-127 12 -260 12q-118 0 -237 -12q-23 -2 -28 -2q-16 0 -26 10.5t-10 26.5q0 20 9.5 29t43.5 12 q12 0 22.5 2t18.5 6q29 12 39 33t10 78v315q0 189 -33.5 251t-116.5 62q-90 0 -128.5 -54.5t-38.5 -188.5v-385q0 -56 8.5 -77t32.5 -34q5 -2 12.5 -4t21.5 -4q28 -3 36.5 -12t8.5 -29q0 -18 -8.5 -27.5t-25.5 -9.5q-4 0 -22 2q-110 12 -224 12q-126 0 -253 -12 q-25 -2 -30 -2q-12 0 -22.5 11.5t-10.5 25.5q0 20 11 29t49 12q12 0 23.5 2t21.5 6q30 12 40.5 31.5t10.5 79.5v419zM936 1380q-14 -116 -68 -180.5t-137 -64.5q-16 0 -29.5 2t-27.5 6l-105 26q-14 4 -29 6.5t-28 2.5q-31 0 -52.5 -20.5t-37.5 -65.5h-66q17 123 69.5 184 t141.5 61q17 0 32.5 -2t31.5 -6l109 -29q11 -3 20.5 -4.5t17.5 -1.5q32 0 54.5 21t37.5 65h66z"/>
    <glyph glyph-name="oacute" unicode="ó" horiz-adv-x="1237" d="M633 37q99 0 159 98t60 264q0 214 -69.5 343.5t-180.5 129.5q-101 0 -159 -96.5t-58 -267.5q0 -214 68.5 -342.5t179.5 -128.5zM57 457q0 223 156 357t418 134q250 0 399.5 -136t149.5 -361q0 -224 -158 -357t-426 -133q-242 0 -390.5 137t-148.5 359zM423 1059l273 282 q40 43 72 61.5t63 18.5q40 0 65 -25t25 -65q0 -31 -18 -53t-76 -53l-313 -166h-91z"/>
    <glyph glyph-name="ograve" unicode="ò" horiz-adv-x="1237" d="M633 37q99 0 159 98t60 264q0 214 -69.5 343.5t-180.5 129.5q-101 0 -159 -96.5t-58 -267.5q0 -214 68.5 -342.5t179.5 -128.5zM57 457q0 223 156 357t418 134q250 0 399.5 -136t149.5 -361q0 -224 -158 -357t-426 -133q-242 0 -390.5 137t-148.5 359zM813 1059h-91 l-313 166q-58 31 -76 53t-18 53q0 40 25 65t65 25q31 0 63 -18.5t72 -61.5z"/>
    <glyph glyph-name="ocircumflex" unicode="ô" horiz-adv-x="1237" d="M633 37q99 0 159 98t60 264q0 214 -69.5 343.5t-180.5 129.5q-101 0 -159 -96.5t-58 -267.5q0 -214 68.5 -342.5t179.5 -128.5zM57 457q0 223 156 357t418 134q250 0 399.5 -136t149.5 -361q0 -224 -158 -357t-426 -133q-242 0 -390.5 137t-148.5 359zM319 1059l225 348 h148l225 -348h-84l-215 180l-215 -180h-84z"/>
    <glyph glyph-name="odieresis" unicode="ö" horiz-adv-x="1237" d="M633 37q99 0 159 98t60 264q0 214 -69.5 343.5t-180.5 129.5q-101 0 -159 -96.5t-58 -267.5q0 -214 68.5 -342.5t179.5 -128.5zM57 457q0 223 156 357t418 134q250 0 399.5 -136t149.5 -361q0 -224 -158 -357t-426 -133q-242 0 -390.5 137t-148.5 359zM679 1223 q0 48 36.5 84t84.5 36q49 0 84 -35.5t35 -84.5q0 -54 -33 -87.5t-86 -33.5q-51 0 -86 34.5t-35 86.5zM315 1223q0 48 36 84t85 36t84 -35.5t35 -84.5q0 -54 -33.5 -87.5t-85.5 -33.5t-86.5 34.5t-34.5 86.5z"/>
    <glyph glyph-name="otilde" unicode="õ" horiz-adv-x="1237" d="M633 37q99 0 159 98t60 264q0 214 -69.5 343.5t-180.5 129.5q-101 0 -159 -96.5t-58 -267.5q0 -214 68.5 -342.5t179.5 -128.5zM57 457q0 223 156 357t418 134q250 0 399.5 -136t149.5 -361q0 -224 -158 -357t-426 -133q-242 0 -390.5 137t-148.5 359zM907 1380 q-14 -116 -68 -180.5t-137 -64.5q-16 0 -29.5 2t-27.5 6l-105 26q-14 4 -29 6.5t-28 2.5q-31 0 -52.5 -20.5t-37.5 -65.5h-66q17 123 69.5 184t141.5 61q17 0 32.5 -2t31.5 -6l109 -29q11 -3 20.5 -4.5t17.5 -1.5q32 0 54.5 21t37.5 65h66z"/>
    <glyph glyph-name="uacute" unicode="ú" horiz-adv-x="1294" d="M166 715q0 58 -10 78.5t-37 31.5q-5 2 -13.5 4t-26.5 5q-30 2 -41 12t-11 31q0 18 10 27t31 9q2 0 59.5 -4t112.5 -4q91 0 185 9q17 1 21 1q23 0 30 -11t7 -60v-21v-508q0 -115 36.5 -171t111.5 -56q91 0 130.5 55t39.5 189v383q0 54 -11 75.5t-42 34.5q-11 4 -23 6.5 t-25 2.5h-3q-54 8 -54 43q0 18 9.5 27t29.5 9q4 0 19 -1q83 -7 169 -7q95 0 191 9q16 1 20 1q23 0 30 -9.5t7 -51.5v-31v-577q0 -59 9 -77t37 -30q7 -2 15.5 -3.5l26.5 -4.5h3q44 -7 44 -35q0 -21 -15.5 -32t-82.5 -23q-13 -2 -43 -8q-9 -2 -12 -2q-72 -16 -136.5 -40 t-66.5 -24q-20 0 -28.5 10t-14.5 41l-12 80l-13 2q-67 -68 -154.5 -103.5t-185.5 -35.5q-93 0 -165.5 30t-110.5 85q-25 36 -36 81.5t-11 131.5v76v350zM452 1059l273 282q40 43 72 61.5t63 18.5q40 0 65 -25t25 -65q0 -31 -18 -53t-76 -53l-313 -166h-91z"/>
    <glyph glyph-name="ugrave" unicode="ù" horiz-adv-x="1294" d="M166 715q0 58 -10 78.5t-37 31.5q-5 2 -13.5 4t-26.5 5q-30 2 -41 12t-11 31q0 18 10 27t31 9q2 0 59.5 -4t112.5 -4q91 0 185 9q17 1 21 1q23 0 30 -11t7 -60v-21v-508q0 -115 36.5 -171t111.5 -56q91 0 130.5 55t39.5 189v383q0 54 -11 75.5t-42 34.5q-11 4 -23 6.5 t-25 2.5h-3q-54 8 -54 43q0 18 9.5 27t29.5 9q4 0 19 -1q83 -7 169 -7q95 0 191 9q16 1 20 1q23 0 30 -9.5t7 -51.5v-31v-577q0 -59 9 -77t37 -30q7 -2 15.5 -3.5l26.5 -4.5h3q44 -7 44 -35q0 -21 -15.5 -32t-82.5 -23q-13 -2 -43 -8q-9 -2 -12 -2q-72 -16 -136.5 -40 t-66.5 -24q-20 0 -28.5 10t-14.5 41l-12 80l-13 2q-67 -68 -154.5 -103.5t-185.5 -35.5q-93 0 -165.5 30t-110.5 85q-25 36 -36 81.5t-11 131.5v76v350zM842 1059h-91l-313 166q-58 31 -76 53t-18 53q0 40 25 65t65 25q31 0 63 -18.5t72 -61.5z"/>
    <glyph glyph-name="ucircumflex" unicode="û" horiz-adv-x="1294" d="M166 715q0 58 -10 78.5t-37 31.5q-5 2 -13.5 4t-26.5 5q-30 2 -41 12t-11 31q0 18 10 27t31 9q2 0 59.5 -4t112.5 -4q91 0 185 9q17 1 21 1q23 0 30 -11t7 -60v-21v-508q0 -115 36.5 -171t111.5 -56q91 0 130.5 55t39.5 189v383q0 54 -11 75.5t-42 34.5q-11 4 -23 6.5 t-25 2.5h-3q-54 8 -54 43q0 18 9.5 27t29.5 9q4 0 19 -1q83 -7 169 -7q95 0 191 9q16 1 20 1q23 0 30 -9.5t7 -51.5v-31v-577q0 -59 9 -77t37 -30q7 -2 15.5 -3.5l26.5 -4.5h3q44 -7 44 -35q0 -21 -15.5 -32t-82.5 -23q-13 -2 -43 -8q-9 -2 -12 -2q-72 -16 -136.5 -40 t-66.5 -24q-20 0 -28.5 10t-14.5 41l-12 80l-13 2q-67 -68 -154.5 -103.5t-185.5 -35.5q-93 0 -165.5 30t-110.5 85q-25 36 -36 81.5t-11 131.5v76v350zM348 1059l225 348h148l225 -348h-84l-215 180l-215 -180h-84z"/>
    <glyph glyph-name="udieresis" unicode="ü" horiz-adv-x="1294" d="M166 715q0 58 -10 78.5t-37 31.5q-5 2 -13.5 4t-26.5 5q-30 2 -41 12t-11 31q0 18 10 27t31 9q2 0 59.5 -4t112.5 -4q91 0 185 9q17 1 21 1q23 0 30 -11t7 -60v-21v-508q0 -115 36.5 -171t111.5 -56q91 0 130.5 55t39.5 189v383q0 54 -11 75.5t-42 34.5q-11 4 -23 6.5 t-25 2.5h-3q-54 8 -54 43q0 18 9.5 27t29.5 9q4 0 19 -1q83 -7 169 -7q95 0 191 9q16 1 20 1q23 0 30 -9.5t7 -51.5v-31v-577q0 -59 9 -77t37 -30q7 -2 15.5 -3.5l26.5 -4.5h3q44 -7 44 -35q0 -21 -15.5 -32t-82.5 -23q-13 -2 -43 -8q-9 -2 -12 -2q-72 -16 -136.5 -40 t-66.5 -24q-20 0 -28.5 10t-14.5 41l-12 80l-13 2q-67 -68 -154.5 -103.5t-185.5 -35.5q-93 0 -165.5 30t-110.5 85q-25 36 -36 81.5t-11 131.5v76v350zM708 1223q0 48 36.5 84t84.5 36q49 0 84 -35.5t35 -84.5q0 -54 -33 -87.5t-86 -33.5q-51 0 -86 34.5t-35 86.5z M344 1223q0 48 36 84t85 36t84 -35.5t35 -84.5q0 -54 -33.5 -87.5t-85.5 -33.5t-86.5 34.5t-34.5 86.5z"/>
    <glyph glyph-name="dagger" unicode="†" d="M483 -407q-3 250 -27.5 459.5t-72.5 396.5q51 82 76.5 169t25.5 175v20q-67 -2 -158.5 -45t-129.5 -43q-53 0 -84 29t-31 80q0 48 34 80t87 32q41 0 132 -40.5t150 -41.5v23q0 95 -44 202t-44 128q0 49 32 79.5t83 30.5q53 0 86 -30t33 -78q0 -9 -45 -121.5t-45 -220.5 v-13h4q65 0 154 41t126 41q56 0 86.5 -29t30.5 -81q0 -54 -30.5 -82.5t-86.5 -28.5q-40 0 -130 40.5t-156 45.5q6 -115 32 -205.5t72 -156.5q-46 -167 -70.5 -382.5t-25.5 -473.5h-64z"/>
    <glyph glyph-name="degree" unicode="°" horiz-adv-x="674" d="M338 1335q-73 0 -124.5 -51t-51.5 -123q0 -74 51 -125t125 -51q72 0 123 52t51 124t-51 123t-123 51zM338 1464q126 0 214.5 -89.5t88.5 -215.5q0 -125 -89 -214t-216 -89q-126 0 -213.5 88t-87.5 215t88.5 216t214.5 89z"/>
    <glyph glyph-name="cent" unicode="¢" horiz-adv-x="1204" d="M575 449v524q-64 -47 -95 -110.5t-31 -147.5q0 -82 30 -146t96 -120zM575 0v285q-171 22 -267.5 126t-96.5 265q0 153 97 252.5t267 122.5v239h97v-235q133 -15 193.5 -40.5t60.5 -66.5q0 -66 -20 -108.5t-50 -42.5q-24 0 -47.5 20.5t-48.5 63.5q-9 14 -23 40 q-37 71 -65 72v-598q12 -2 27 -3t40 -1q65 0 117 34t55 34q13 0 21 -8.5t8 -20.5q0 -31 -81.5 -79t-186.5 -64v-287h-97z"/>
    <glyph glyph-name="sterling" unicode="£" horiz-adv-x="1204" d="M543 135q-101 -85 -176.5 -121.5t-147.5 -36.5q-99 0 -158 50.5t-59 132.5q0 91 81 150t210 59q31 0 80 -9.5t116 -27.5v8q0 41 -27 99t-100 165h-239q0 28 8.5 53.5t26.5 49.5h145q-38 53 -57 109t-19 118q0 168 120.5 277.5t307.5 109.5q117 0 205 -43.5t88 -99.5 q0 -68 -29.5 -124.5t-64.5 -56.5q-36 0 -89 95l-3 6q-5 8 -13 23q-65 118 -126 118q-54 0 -90.5 -44t-36.5 -112q0 -62 46 -154.5t142 -221.5l234 -1q1 -4 1.5 -8.5t0.5 -13.5q0 -18 -6.5 -38t-18.5 -42h-166q12 -37 18.5 -68t6.5 -57q0 -44 -18.5 -92t-55.5 -102 q103 -43 173.5 -64.5t109.5 -21.5q37 0 61.5 16.5t24.5 40.5t-51 41q-25 8 -37 14q-35 17 -55.5 49.5t-20.5 69.5q0 53 33 86t88 33q64 0 107.5 -58t43.5 -147q0 -44 -13.5 -89.5t-39.5 -88.5q-53 -88 -126 -138.5t-144 -50.5q-66 0 -131 35t-160 123zM459 201 q-32 36 -61.5 53.5t-57.5 17.5q-37 0 -61.5 -26t-24.5 -66q0 -39 22.5 -64.5t57.5 -25.5q34 0 66.5 29t58.5 82z"/>
    <glyph glyph-name="section" unicode="§" d="M260 590q0 -49 32.5 -99.5t100.5 -109.5q110 -95 156 -123.5t80 -28.5q57 0 96 37.5t39 91.5q0 46 -28.5 92.5t-100.5 114.5q-85 81 -142 116.5t-102 35.5q-55 0 -93 -37.5t-38 -89.5zM646 172q96 -81 142 -153t46 -144q0 -114 -99 -185t-262 -71q-137 0 -224 61t-87 154 q0 62 37 99.5t98 37.5q49 0 82 -33t33 -81q0 -40 -32 -75t-32 -44q0 -28 35 -46t92 -18q81 0 127.5 38.5t46.5 105.5q0 85 -197 253q-3 2 -3 3l-181 155q-89 77 -132.5 147t-43.5 138q0 109 78 178.5t209 77.5q-104 90 -146.5 157t-42.5 136q0 121 91.5 192.5t246.5 71.5 q132 0 215.5 -61t83.5 -154q0 -60 -34.5 -96.5t-92.5 -36.5q-52 0 -87 30.5t-35 75.5q0 33 31.5 70.5t31.5 50.5q0 26 -34 47t-81 21q-69 0 -111 -37t-42 -98q0 -54 39.5 -109.5t167.5 -165.5l178 -149q88 -75 131 -147t43 -146q0 -105 -77.5 -173t-208.5 -77z"/>
    <glyph glyph-name="bullet" unicode="•" horiz-adv-x="1208" d="M307 762q0 123 87 209t210 86q122 0 208.5 -86.5t86.5 -208.5t-87.5 -209.5t-209.5 -87.5q-123 0 -209 87t-86 210z"/>
    <glyph glyph-name="paragraph" unicode="¶" d="M983 1479v-111h-113v-1368h-151v1368h-158v-1368h-153v784q-167 6 -267 101t-100 245q0 158 107 253.5t284 95.5h551z"/>
    <glyph glyph-name="germandbls" unicode="ß" horiz-adv-x="1366" d="M176 684q0 14 -7.5 21.5t-21.5 7.5h-79q-21 0 -36.5 12.5t-15.5 28.5q0 12 13 23.5t53 31.5l65 33q17 8 24.5 17.5t8.5 22.5l8 91q16 197 163 323.5t366 126.5q197 0 320.5 -83t123.5 -212q0 -81 -44 -134t-129 -74l-51 -13q-151 -37 -151 -76q0 -36 197 -122l70 -31 q130 -58 195 -141.5t65 -192.5q0 -167 -120 -268t-323 -101q-68 0 -126 11.5t-115 36.5q-35 13 -44.5 26.5t-9.5 52.5q0 18 2.5 57t2.5 60v37q0 59 9 75.5t32 16.5q29 0 53 -70q14 -38 24 -61q41 -89 89.5 -127.5t119.5 -38.5q72 0 112 39.5t40 110.5q0 72 -40.5 120 t-148.5 97q-13 6 -39 17q-280 127 -280 276q0 54 25 100t63 63l8 5q184 87 184 217q0 110 -50 178.5t-128 68.5q-88 0 -128 -75t-40 -246v-979q0 -20 -20 -31.5t-55 -11.5q-7 0 -36 1q-98 5 -184 5q-37 0 -83.5 -4t-53.5 -4q-13 0 -24 11t-11 26q0 20 10.5 29t47.5 12 q14 0 25.5 2t21.5 6q32 13 42.5 33t10.5 78v489z"/>
    <glyph glyph-name="registered" unicode="®" horiz-adv-x="1683" d="M760 723q7 -1 16 -1.5t27 -0.5q96 0 144 45t48 135q0 60 -43 103t-106 43q-44 0 -65 -16.5t-21 -49.5v-258zM465 1098h403q146 0 234 -55.5t88 -143.5q0 -86 -64.5 -134.5t-214.5 -74.5q95 -22 149 -69.5t70 -124.5q6 -25 10 -74q5 -84 46 -84q28 0 42.5 29.5t14.5 87.5 v12h51v-23q0 -88 -44 -134t-128 -46q-47 0 -82.5 14t-56.5 41q-28 40 -33 134q-2 45 -6 67q-14 79 -54 116.5t-112 37.5h-18v-246q0 -46 20 -65t78 -27v-51h-393v50q61 4 83.5 24t22.5 69v522q0 49 -22.5 69.5t-83.5 25.5v53zM844 1309q-126 0 -241.5 -48.5t-203.5 -138.5 q-89 -90 -135.5 -204t-46.5 -240q0 -128 46.5 -242t135.5 -203q90 -89 202 -135.5t241 -46.5q127 0 240 47t200 135q89 91 136.5 206t47.5 239q0 125 -48.5 243t-135.5 203q-88 88 -202.5 136.5t-235.5 48.5zM844 1413q145 0 284 -59.5t242 -165.5q98 -101 150.5 -236.5 t52.5 -285.5q0 -139 -61 -277t-171 -244q-99 -96 -227.5 -147t-271.5 -51q-110 0 -211.5 30.5t-190.5 90.5q-157 104 -243 263.5t-86 346.5q0 146 55 280t158 238q102 104 237.5 160.5t282.5 56.5z"/>
    <glyph glyph-name="copyright" unicode="©" horiz-adv-x="1683" d="M1126 1102h45v-326h-47q-31 131 -100 202t-164 71q-118 0 -175.5 -90.5t-57.5 -274.5q0 -185 62.5 -281t182.5 -96q80 0 148.5 44t124.5 130l45 -28q-63 -107 -150.5 -161t-197.5 -54q-185 0 -308.5 122.5t-123.5 303.5q0 191 121 316.5t305 125.5q79 0 153 -33t80 -33 q24 0 37.5 15t19.5 47zM844 1309q-127 0 -241.5 -48t-203.5 -139q-89 -90 -135.5 -204t-46.5 -240q0 -128 46.5 -242t135.5 -203q90 -89 202 -135.5t241 -46.5q127 0 240 47t200 135q89 91 136.5 206t47.5 239q0 127 -47.5 244t-134.5 202q-87 88 -203 136.5t-237 48.5z M844 1413q141 0 275.5 -56t238.5 -159q102 -102 159.5 -239.5t57.5 -280.5t-56.5 -277.5t-160.5 -240.5q-102 -104 -235 -158.5t-281 -54.5t-279 54t-237 159q-105 104 -160 237t-55 281t54.5 281.5t158.5 236.5q103 104 239 160.5t281 56.5z"/>
    <glyph glyph-name="trademark" unicode="™" horiz-adv-x="1683" d="M758 1454h211l131 -369l129 369h198v-27l-27 -4q-19 -3 -27.5 -15t-8.5 -36v-379q0 -24 9 -36t28 -15l26 -4v-33h-253v33l30 4q18 3 27.5 16t9.5 35v365l-156 -455h-36l-166 463v-373q0 -22 9 -35t28 -16l34 -4v-33h-196v33l34 4q19 3 28 16t9 35v373q0 23 -9 35.5 t-27 15.5l-35 4v33zM238 1454h450l12 -192h-32q-8 79 -39.5 115t-91.5 36h-7v-420q1 -23 9.5 -35.5t25.5 -15.5l31 -4v-33h-266v33l30 4q17 3 26 16t9 35v420h-10q-59 0 -89 -36t-38 -115h-33z"/>
    <glyph glyph-name="acute" unicode="´" d="M317 1059l273 282q40 43 72 61.5t63 18.5q40 0 65 -25t25 -65q0 -31 -18 -53t-76 -53l-313 -166h-91z"/>
    <glyph glyph-name="dieresis" unicode="¨" d="M573 1223q0 48 36.5 84t84.5 36q49 0 84 -35.5t35 -84.5q0 -54 -33 -87.5t-86 -33.5q-51 0 -86 34.5t-35 86.5zM209 1223q0 48 36 84t85 36t84 -35.5t35 -84.5q0 -54 -33.5 -87.5t-85.5 -33.5t-86.5 34.5t-34.5 86.5z"/>
    <glyph glyph-name="notequal" unicode="≠" horiz-adv-x="1706" d="M1198 1233l148 -119l-154 -192h260v-191h-389l-191 -239h580v-193h-707l-245 -309l-148 119l154 190h-252v193h377l190 239h-567v191h696z"/>
    <glyph glyph-name="AE" unicode="Æ" horiz-adv-x="1880" d="M1505 1284q46 0 115.5 5t93.5 5q39 0 50.5 -8t11.5 -31v-211q0 -35 -9 -48t-30 -13q-27 0 -73 71q-23 36 -38 56q-29 40 -81 60t-126 20q-90 0 -127 -25t-37 -88v-291q0 -28 18.5 -38.5t78.5 -10.5q94 0 127 9t49 30q19 28 41 82.5t51 54.5q17 0 29 -13.5t12 -33.5 q0 -4 -2 -23q-8 -72 -8 -136q0 -60 2 -129t2 -78q0 -34 -9.5 -47t-31.5 -13q-34 0 -60 63q-11 26 -18 40q-33 61 -68 81.5t-100 20.5q-9 0 -29 -1t-30 -1l-27 -8q-14 -2 -20.5 -8.5t-6.5 -20.5v-299q0 -148 38 -188.5t141 -40.5q70 0 130 25.5t101 72.5q30 36 67 100t66 64 q21 0 33 -16.5t12 -44.5q0 -4 -2 -18.5t-6 -34.5l-29 -173q-6 -36 -21.5 -51.5t-45.5 -15.5q-8 0 -49 3q-259 23 -527 23q-171 0 -342 -15q-33 -3 -41 -3q-25 0 -39 12t-14 33q0 30 61 38l21 3q62 8 82 29t20 69v406q0 40 -17.5 50.5t-96.5 10.5h-156q-86 0 -111 -11.5 t-45 -43.5l-178 -301q-33 -55 -46 -87t-13 -55q0 -29 19.5 -45.5t59.5 -21.5q15 -2 42 -4q63 -4 63 -37q0 -22 -15.5 -31.5t-51.5 -9.5q-34 0 -104.5 7t-106.5 7q-68 0 -140.5 -6t-76.5 -6q-26 0 -40 10t-14 29q0 23 43 40q36 15 60 30q36 22 71 60t103 138l545 815 q10 16 16 32t6 26q0 19 -32 35q-2 1 -3 2q-23 10 -30 18t-7 18q0 21 15.5 31t46.5 10q4 0 24 -1q142 -9 301 -9h463zM602 778q-4 -6 -7 -13.5t-3 -10.5q0 -5 7.5 -11t14.5 -6h269q13 0 20.5 8.5t7.5 22.5v330q0 38 -8 47.5t-29 9.5q-18 0 -39 -16.5t-38 -44.5z"/>
    <glyph glyph-name="Oslash" unicode="Ø" horiz-adv-x="1636" d="M186 -240l205 318q-161 108 -243 251t-82 316q0 145 61.5 274t179.5 230q102 86 232 132t274 46q87 0 169 -16.5t163 -50.5l153 247h125l-186 -297q155 -92 243.5 -243t88.5 -322q0 -147 -61.5 -276t-178.5 -228q-102 -87 -233.5 -133.5t-274.5 -46.5q-89 0 -174 17.5 t-164 52.5l-172 -271h-125zM1118 1024l-540 -850q48 -65 113 -98t145 -33q169 0 271.5 148.5t102.5 398.5q0 126 -22.5 233.5t-69.5 200.5zM516 272l539 846q-56 65 -119.5 97t-136.5 32q-173 0 -275 -152.5t-102 -414.5q0 -113 23.5 -214.5t70.5 -193.5z"/>
    <glyph glyph-name="infinity" unicode="∞" horiz-adv-x="1706" d="M942 561q45 -75 106.5 -113t139.5 -38q94 0 152.5 55.5t58.5 144.5q0 86 -54 142.5t-135 56.5q-74 0 -136 -57t-132 -191zM766 659q-46 76 -107 113t-139 37q-93 0 -152 -56.5t-59 -144.5q0 -85 54 -141.5t135 -56.5q75 0 138 58t130 191zM858 457q-69 -133 -147 -195.5 t-174 -62.5q-139 0 -235.5 117.5t-96.5 293.5q0 184 85.5 297t223.5 113q93 0 169.5 -58.5t164.5 -199.5q68 132 148 196t175 64q139 0 235.5 -118t96.5 -294q0 -183 -86 -296t-223 -113q-93 0 -168.5 56.5t-167.5 199.5z"/>
    <glyph glyph-name="plusminus" unicode="±" horiz-adv-x="1706" d="M254 197h1198v-199h-1198v199zM752 1223h202v-326h498v-199h-498v-325h-202v325h-498v199h498v326z"/>
    <glyph glyph-name="lessequal" unicode="≤" horiz-adv-x="1706" d="M258 195h1192v-197h-1192v197zM1448 1241v-209l-834 -264l834 -262v-209l-1190 385v174z"/>
    <glyph glyph-name="greaterequal" unicode="≥" horiz-adv-x="1706" d="M258 195h1192v-197h-1192v197zM260 1241l1188 -385v-174l-1188 -385v209l832 262l-832 264v209z"/>
    <glyph glyph-name="yen" unicode="¥" horiz-adv-x="1309" d="M166 1085q-30 48 -53 70t-56 37q-9 4 -25 10q-42 16 -42 47q0 18 11.5 29.5t29.5 11.5q4 0 21 -2q116 -12 241 -12q109 0 230 11q32 3 40 3q25 0 38 -10t13 -29q0 -20 -9 -31t-32 -20q-11 -4 -31 -8q-46 -10 -46 -39q0 -8 5 -20.5t15 -28.5l234 -381q7 -12 15.5 -18.5 t16.5 -6.5t15.5 6.5t15.5 18.5l188 297q19 30 30 59.5t11 48.5q0 25 -15.5 40.5t-51.5 27.5q-11 3 -29 7q-51 13 -51 44q0 23 14 32t52 9q28 0 84 -5t83 -5q48 0 104.5 5t63.5 5q29 0 42.5 -10t13.5 -31q0 -32 -53 -49q-28 -9 -46 -16q-27 -12 -72 -62.5t-85 -118.5 l-78 -129h276v-100h-352l-74 -125h426v-100h-477v-371q0 -49 18 -69.5t74 -28.5q4 -1 9 -1q53 -8 53 -36q0 -22 -12 -34.5t-33 -12.5q-6 0 -27 2q-118 14 -235 14q-100 0 -212 -13q-29 -3 -36 -3q-20 0 -32.5 12.5t-12.5 32.5q0 29 55 39q8 1 12 2q50 8 67 29t17 69v369 h-508v100h432l-71 125h-361v100h287z"/>
    <glyph glyph-name="mu" unicode="µ" horiz-adv-x="1202" d="M178 209q-12 -95 -29 -252q-40 -381 -155 -381q-54 0 -84.5 30.5t-30.5 84.5q0 47 68 274t106 408l109 512h256l-99 -459q-11 -53 -16.5 -89t-5.5 -58q0 -59 30.5 -92t84.5 -33q71 0 116 53t68 166l109 512h256l-115 -533q-9 -41 -13 -66.5t-4 -43.5q0 -47 17.5 -67.5 t56.5 -20.5q40 0 66 18t45 59l21 50q27 69 55 69q15 0 23.5 -10t8.5 -29q0 -34 -16.5 -88.5t-42.5 -101.5q-41 -74 -99 -110t-137 -36q-85 0 -129.5 48t-54.5 151q-40 -106 -98.5 -152.5t-149.5 -46.5q-93 0 -149.5 61t-67.5 173z"/>
    <glyph glyph-name="partialdiff" unicode="∂" horiz-adv-x="1094" d="M762 662q19 99 29 188.5t10 155.5q0 100 -26 157.5t-70 57.5t-146 -73t-160 -73q-42 0 -71 30t-29 73q0 64 86.5 118t210.5 54q192 0 309 -161.5t117 -432.5q0 -339 -156.5 -560t-396.5 -221q-171 0 -282 114.5t-111 291.5q0 198 116 329.5t287 131.5q102 0 170 -43.5 t113 -136.5zM700 518q0 116 -38.5 178t-110.5 62q-101 0 -167.5 -134t-66.5 -341q0 -117 38.5 -177.5t111.5 -60.5q101 0 167 133.5t66 339.5z"/>
    <glyph glyph-name="summation" unicode="∑" horiz-adv-x="1542" d="M25 1473h1235l139 -429h-88l-92 250q-19 52 -60.5 73.5t-167.5 21.5h-557l666 -783v-41l-735 -680h886q48 0 65 13t27 51l72 229h88l-174 -571h-1309v71l822 756l-817 973v66z"/>
    <glyph glyph-name="product" unicode="∏" horiz-adv-x="1724" d="M47 1473h1624v-84h-190v-1698h190v-84h-698v84h178v1698h-582v-1698h176v-84h-698v84h191v1698h-191v84z"/>
    <glyph glyph-name="pi" unicode="π" horiz-adv-x="1477" d="M1444 885l-60 -275h-348q-4 -64 -6 -117t-2 -81q0 -47 4 -123.5t4 -106.5q0 -116 -38.5 -170.5t-120.5 -54.5q-52 0 -81.5 32.5t-29.5 88.5q0 73 73 245t101 287h-375q-4 -68 -6 -121t-2 -77q0 -48 3 -124t3 -106q0 -116 -38.5 -170.5t-121.5 -54.5q-50 0 -79 32t-29 89 q0 74 72 246t100 286h-156q-118 0 -167 -32t-66 -117h-64q45 238 138 331t284 93h1008z"/>
    <glyph glyph-name="integral" unicode="∫" horiz-adv-x="1186" d="M342 -252q102 0 121 639q3 136 6 211q16 508 123 732t328 224q98 0 157.5 -49t59.5 -129q0 -60 -38 -96.5t-100 -36.5q-46 0 -77 24t-41 68q-5 20 -7 54q-3 46 -30 47q-99 0 -119 -633l-6 -178q-11 -296 -31 -444.5t-59 -250.5q-56 -148 -148.5 -225.5t-214.5 -77.5 q-96 0 -156.5 49t-60.5 127q0 62 39 99t105 37q50 0 85 -31.5t35 -71.5q0 -58 6 -73t23 -15z"/>
    <glyph glyph-name="ordfeminine" unicode="ª" horiz-adv-x="809" d="M451 868v109q0 9 -3 13.5t-8 4.5q-4 0 -9 -1.5t-9 -4.5l-55 -26q-58 -29 -87.5 -62.5t-29.5 -71.5t23.5 -61t64.5 -23q54 0 83.5 32.5t29.5 90.5zM455 735q-75 -53 -141 -80.5t-115 -27.5q-71 0 -114.5 41t-43.5 106q0 66 50 113.5t183 101.5l157 64q9 3 14.5 11.5 t5.5 22.5v93q0 43 -14.5 63.5t-45.5 20.5q-46 0 -99 -79q-11 -17 -18 -26q-27 -41 -71 -62.5t-101 -21.5q-26 0 -40.5 11.5t-14.5 31.5q0 22 18 51t50 56q52 42 131.5 67t159.5 25q86 0 147.5 -19t97.5 -57q19 -19 27 -45t8 -84v-27v-262q0 -46 8 -62t29 -16q14 0 32.5 10.5 t22.5 10.5q10 0 17.5 -8t7.5 -19q0 -31 -68.5 -71.5t-140.5 -40.5q-44 0 -72.5 23t-56.5 85h-10z"/>
    <glyph glyph-name="ordmasculine" unicode="º" horiz-adv-x="928" d="M475 680q75 0 119.5 69t44.5 185q0 148 -52 239t-134 91q-76 0 -120 -68t-44 -186q0 -150 51 -240t135 -90zM43 973q0 156 117 250t313 94q187 0 299.5 -95.5t112.5 -252.5t-118.5 -249.5t-320.5 -92.5q-181 0 -292 95.5t-111 250.5z"/>
    <glyph glyph-name="Omega" unicode="Ω" horiz-adv-x="1569" d="M1133 258v-14h290l43 145h78l-117 -389h-530q98 217 147.5 431.5t49.5 422.5q0 279 -76.5 417t-231.5 138t-232 -138.5t-77 -416.5q0 -208 50 -422t149 -432h-533l-116 389h75l45 -145h289v14q-164 88 -253 239t-89 343q0 285 196.5 471t495.5 186q300 0 495.5 -186 t195.5 -471q0 -191 -89 -341t-255 -241z"/>
    <glyph glyph-name="ae" unicode="æ" horiz-adv-x="1653" d="M778 119q-92 -80 -192.5 -119t-214.5 -39q-145 0 -229.5 52t-84.5 139q0 82 83 148t370 183l94 39q12 5 18.5 15.5t6.5 27.5v142q0 98 -18 131.5t-64 33.5q-68 0 -142 -115l-22 -34q-40 -60 -100 -90.5t-140 -30.5q-37 0 -58.5 16t-21.5 44q0 35 25.5 74.5t73.5 78.5 q77 64 170 98.5t186 34.5q70 0 126.5 -16.5t111.5 -52.5l47 -31q8 -6 13 -8t9 -2q6 0 13 2t12 6l49 33q57 35 120.5 52t141.5 17q188 0 309 -95t121 -235q0 -33 -20.5 -47t-71.5 -14h-528q-16 0 -23.5 -7t-7.5 -22v-61q0 -160 95.5 -260.5t248.5 -100.5q91 0 175.5 52.5 t90.5 52.5q17 0 27 -9.5t10 -25.5q0 -21 -30.5 -53t-81.5 -64q-81 -49 -164.5 -73.5t-171.5 -24.5q-113 0 -199.5 39.5t-144.5 118.5h-17zM979 639h137q105 0 149 23.5t44 76.5q0 59 -41.5 96t-106.5 37q-79 0 -139.5 -54t-65.5 -122l-4 -41q0 -8 6 -12t21 -4zM629 274v140 q0 13 -3 19.5t-10 6.5q-3 0 -9 -2q-3 -1 -5 -2l-47 -16q-93 -34 -135.5 -87t-42.5 -136q0 -73 29.5 -116.5t78.5 -43.5q67 0 105.5 63t38.5 174z"/>
    <glyph glyph-name="oslash" unicode="ø" horiz-adv-x="1237" d="M119 -190l160 233q-108 69 -164 175t-56 241q0 225 154.5 357t419.5 132q64 0 124 -9.5t117 -29.5l103 148h121l-131 -193q104 -75 158.5 -180t54.5 -231q0 -224 -157.5 -358t-424.5 -134q-63 0 -120 9.5t-109 29.5l-127 -190h-123zM422 246l352 516q-37 56 -79.5 83 t-92.5 27q-102 0 -160.5 -98t-58.5 -272q0 -59 9.5 -122t29.5 -134zM817 651l-348 -510q33 -53 72.5 -78.5t89.5 -25.5q103 0 162 97t59 269q0 61 -8.5 123t-26.5 125z"/>
    <glyph glyph-name="questiondown" unicode="¿" horiz-adv-x="786" d="M516 950q33 0 50 -68q5 -18 7 -27q18 -70 28.5 -129.5t10.5 -84.5q0 -65 -134 -167l-17 -13q-133 -102 -168 -152t-35 -106q0 -59 32.5 -97t82.5 -38q31 0 59.5 17.5t56.5 55.5q11 14 29 40q60 85 113 85q35 0 55.5 -39.5t20.5 -107.5q0 -65 -64 -102t-176 -37 q-179 0 -298.5 108.5t-119.5 267.5q0 189 319 410l38 27q56 39 64 100q1 7 1 10q4 32 13 39.5t32 7.5zM666 1161q0 -61 -48 -103t-118 -42t-118 42t-48 103t48 102.5t118 41.5q71 0 118.5 -41.5t47.5 -102.5z"/>
    <glyph glyph-name="exclamdown" unicode="¡" horiz-adv-x="664" d="M498 1161q0 -61 -48 -103t-118 -42t-118 42t-48 103t48 102.5t118 41.5q71 0 118.5 -41.5t47.5 -102.5zM483 343l11 -58q20 -102 20 -144q0 -76 -48 -118.5t-134 -42.5t-134 42.5t-48 118.5q0 42 19 143q8 38 11 58l101 547q4 25 17 38t34 13t33.5 -12.5t17.5 -38.5z"/>
    <glyph glyph-name="logicalnot" unicode="¬" horiz-adv-x="1706" d="M254 864h1198v-502h-199v306h-999v196z"/>
    <glyph glyph-name="radical" unicode="√" horiz-adv-x="1346" d="M1141 1694h207v-129h-103l-592 -1606h-100l-311 858l-140 -51l-30 113l331 116l236 -661z"/>
    <glyph glyph-name="florin" unicode="ƒ" horiz-adv-x="1204" d="M954 692h-188q-14 0 -21.5 -7t-9.5 -22l-20 -239q-29 -336 -61.5 -479t-88.5 -226q-52 -77 -141.5 -121t-194.5 -44q-110 0 -173.5 42t-63.5 113q0 48 32.5 78.5t84.5 30.5q36 0 64.5 -17t49.5 -53q13 -20 30 -55q25 -51 44 -51q54 0 76 414q17 310 35 515l8 93v4 q0 11 -8 17.5t-21 6.5h-178q0 5 -1 16t-1 17q0 21 3.5 43t11.5 45h186q13 0 20 6t10 22l19 109q35 207 153 320.5t297 113.5q103 0 166.5 -42.5t63.5 -110.5q0 -51 -32.5 -84t-82.5 -33q-38 0 -68.5 19t-50.5 55q-6 11 -16 32q-36 70 -60 70q-50 0 -78 -367l-1 -17l-5 -64 v-4q0 -12 8 -18.5t21 -6.5h188q2 -7 2.5 -14.5t0.5 -24.5q0 -21 -2.5 -42t-6.5 -40z"/>
    <glyph glyph-name="approxequal" unicode="≈" horiz-adv-x="1706" d="M1530 596v-219q-106 -72 -198 -105.5t-181 -33.5q-95 0 -286.5 66.5t-301.5 66.5q-84 0 -174.5 -37t-210.5 -121v219q111 73 206.5 108t180.5 35q124 0 315.5 -65.5t274.5 -65.5q86 0 174 35.5t201 116.5zM1530 1008v-220q-106 -71 -196.5 -104t-180.5 -33 q-94 0 -286 65.5t-304 65.5q-82 0 -170 -35t-215 -122v219q107 71 204 107t183 36q125 0 316.5 -65.5t273.5 -65.5q84 0 171 35t204 117z"/>
    <glyph glyph-name="Delta" unicode="∆" horiz-adv-x="1350" d="M547 1116l-381 -827h764zM647 1497h68l692 -1497h-1460z"/>
    <glyph glyph-name="guillemotleft" unicode="«" horiz-adv-x="874" d="M662 455l145 -263q9 -18 11.5 -24t2.5 -8q0 -8 -7 -14.5t-15 -6.5q-21 0 -76 57q-34 36 -57 58q-67 63 -155.5 124t-88.5 77q0 17 72 65t120 88q49 41 107.5 102.5t77.5 61.5q7 0 14.5 -7.5t7.5 -14.5q0 -3 -2.5 -9t-11.5 -24zM301 455l148 -263q5 -11 8.5 -20t3.5 -12 q0 -8 -6.5 -14.5t-14.5 -6.5q-21 0 -75 57l-58 58q-67 63 -155.5 124t-88.5 77q0 17 71.5 65.5t119.5 87.5q48 40 107.5 102t78.5 62q8 0 14.5 -7t6.5 -15q0 -3 -3.5 -12.5t-9.5 -21.5z"/>
    <glyph glyph-name="guillemotright" unicode="»" horiz-adv-x="874" d="M573 455l-147 262q-5 10 -8.5 19.5t-3.5 13.5q0 8 6.5 15t13.5 7q21 0 73 -56q36 -38 60 -61q67 -63 155.5 -124t88.5 -76q0 -18 -71.5 -66t-118.5 -88q-48 -39 -107.5 -100.5t-79.5 -61.5q-8 0 -14 6.5t-6 14.5q0 4 3.5 13t8.5 19zM213 455l-147 261q-6 12 -9.5 21.5 t-3.5 12.5q0 7 7.5 14.5t15.5 7.5q20 0 73 -56q36 -38 60 -61q66 -62 154 -123.5t88 -76.5q0 -18 -71.5 -66t-119.5 -88t-106.5 -101t-77.5 -61q-8 0 -15.5 6.5t-7.5 14.5q0 3 3.5 12.5t9.5 20.5z"/>
    <glyph glyph-name="ellipsis" unicode="…" horiz-adv-x="2048" d="M176 125q0 61 47.5 103t118.5 42q70 0 118 -42t48 -103q0 -60 -48 -101.5t-118 -41.5q-71 0 -118.5 41t-47.5 102zM858 125q0 61 47.5 103t118.5 42q70 0 118 -42t48 -103q0 -60 -48 -101.5t-118 -41.5q-71 0 -118.5 41t-47.5 102zM1542 125q0 61 47.5 103t118.5 42 q70 0 118 -42t48 -103q0 -60 -48 -101.5t-118 -41.5q-71 0 -118.5 41t-47.5 102z"/>
    <glyph glyph-name="nonbreakingspace" unicode=" " horiz-adv-x="1204"/>
    <glyph glyph-name="Agrave" unicode="À" horiz-adv-x="1292" d="M541 1247q19 47 39 63.5t65 16.5q41 0 57 -12t39 -70l406 -989q33 -82 61.5 -118t69.5 -52q12 -5 40 -9q56 -9 56 -42q0 -19 -15.5 -28t-45.5 -9q-11 0 -102 7t-173 7q-71 0 -168.5 -9t-124.5 -9q-29 0 -44 10t-15 31q0 20 13.5 31t43.5 16q3 1 5.5 1.5t7.5 0.5 q43 6 54 16.5t11 32.5q0 9 -2 18.5t-6 18.5l-86 227q-10 26 -40 35.5t-130 9.5h-57h-74q-79 0 -103 -12t-38 -55q-24 -69 -34.5 -112t-10.5 -70q0 -34 15.5 -53t57.5 -36q16 -6 32 -11t34 -9h1q62 -17 62 -49q0 -21 -12.5 -31t-38.5 -10q-3 0 -21 2q-103 12 -210 12 q-83 0 -161 -12q-13 -2 -15 -2q-26 0 -39 9.5t-13 29.5q0 33 50 50l4 1q8 2 17 5t17 7q31 14 53.5 42t41.5 75zM379 539h254q14 0 20 3t6 11q0 4 -1.5 9.5t-4.5 11.5l-133 325q-6 14 -9 18.5t-7 4.5q-5 -1 -9.5 -7t-8.5 -17l-126 -335q0 -1 -1 -4q-3 -8 -3 -10 q0 -5 4.5 -7.5t18.5 -2.5zM842 1438h-91l-313 166q-58 31 -76 53t-18 53q0 40 25 65t65 25q31 0 63 -18.5t72 -61.5z"/>
    <glyph glyph-name="Atilde" unicode="Ã" horiz-adv-x="1292" d="M541 1247q19 47 39 63.5t65 16.5q41 0 57 -12t39 -70l406 -989q33 -82 61.5 -118t69.5 -52q12 -5 40 -9q56 -9 56 -42q0 -19 -15.5 -28t-45.5 -9q-11 0 -102 7t-173 7q-71 0 -168.5 -9t-124.5 -9q-29 0 -44 10t-15 31q0 20 13.5 31t43.5 16q3 1 5.5 1.5t7.5 0.5 q43 6 54 16.5t11 32.5q0 9 -2 18.5t-6 18.5l-86 227q-10 26 -40 35.5t-130 9.5h-57h-74q-79 0 -103 -12t-38 -55q-24 -69 -34.5 -112t-10.5 -70q0 -34 15.5 -53t57.5 -36q16 -6 32 -11t34 -9h1q62 -17 62 -49q0 -21 -12.5 -31t-38.5 -10q-3 0 -21 2q-103 12 -210 12 q-83 0 -161 -12q-13 -2 -15 -2q-26 0 -39 9.5t-13 29.5q0 33 50 50l4 1q8 2 17 5t17 7q31 14 53.5 42t41.5 75zM379 539h254q14 0 20 3t6 11q0 4 -1.5 9.5t-4.5 11.5l-133 325q-6 14 -9 18.5t-7 4.5q-5 -1 -9.5 -7t-8.5 -17l-126 -335q0 -1 -1 -4q-3 -8 -3 -10 q0 -5 4.5 -7.5t18.5 -2.5zM936 1759q-14 -116 -68 -180.5t-137 -64.5q-16 0 -29.5 2t-27.5 6l-105 26q-14 4 -29 6.5t-28 2.5q-31 0 -52.5 -20.5t-37.5 -65.5h-66q17 123 69.5 184t141.5 61q17 0 32.5 -2t31.5 -6l109 -29q11 -3 20.5 -4.5t17.5 -1.5q32 0 54.5 21t37.5 65 h66z"/>
    <glyph glyph-name="Otilde" unicode="Õ" horiz-adv-x="1636" d="M797 1247q-169 0 -270 -147.5t-101 -397.5q0 -295 115 -477t297 -182q169 0 270.5 148t101.5 399q0 293 -116 475t-297 182zM823 1327q145 0 275.5 -46t230.5 -132q117 -98 178.5 -227.5t61.5 -276.5q0 -146 -61.5 -274.5t-178.5 -229.5q-102 -88 -233.5 -134t-282.5 -46 q-143 0 -274 47t-232 133q-118 101 -179.5 230t-61.5 274t61.5 274t179.5 230q102 87 233 132.5t283 45.5zM1108 1759q-14 -116 -68 -180.5t-137 -64.5q-16 0 -29.5 2t-27.5 6l-105 26q-14 4 -29 6.5t-28 2.5q-31 0 -52.5 -20.5t-37.5 -65.5h-66q17 123 69.5 184t141.5 61 q17 0 32.5 -2t31.5 -6l109 -29q11 -3 20.5 -4.5t17.5 -1.5q32 0 54.5 21t37.5 65h66z"/>
    <glyph glyph-name="OE" unicode="Œ" horiz-adv-x="2021" d="M1397 307q0 -152 37.5 -190.5t138.5 -38.5q70 0 132 26t101 72q31 36 67 100t64 64q21 0 33 -15.5t12 -41.5q0 -6 -2 -21.5t-6 -36.5l-28 -171q-8 -39 -21.5 -51.5t-44.5 -12.5q-12 0 -65 4q-238 18 -461 18q-229 0 -477 -20q-56 -4 -70 -4q-142 0 -272 44.5t-232 127.5 q-117 96 -179.5 221t-62.5 264q0 140 62 263.5t180 219.5q103 85 234 128.5t282 43.5q3 0 169.5 -11t330.5 -11q237 0 479 14q47 2 57 2q39 0 49.5 -7.5t10.5 -31.5v-211q0 -39 -8.5 -50t-30.5 -11q-26 0 -69 66q-25 38 -42 61q-28 39 -80.5 59.5t-125.5 20.5 q-90 0 -126 -25t-36 -88v-293q0 -29 20 -40t76 -11q81 0 120.5 10t55.5 33q21 30 41.5 83.5t48.5 53.5q17 0 29 -13.5t12 -33.5l-5 -52.5t-5 -106.5q0 -47 3 -115.5t3 -89.5q0 -37 -9 -49.5t-32 -12.5q-33 0 -59 63q-11 27 -19 42q-30 57 -64.5 76.5t-103.5 19.5 q-23 0 -35.5 -0.5t-23.5 -1.5l-26 -4q-16 -2 -21.5 -8t-5.5 -21v-299zM1055 246v794q0 107 -47.5 152t-155.5 45q-195 0 -313.5 -146t-118.5 -391q0 -285 126 -463t322 -178q102 0 144.5 42.5t42.5 144.5z"/>
    <glyph glyph-name="oe" unicode="œ" horiz-adv-x="1851" d="M997 88q-83 -66 -179.5 -96.5t-221.5 -30.5q-242 0 -390.5 137t-148.5 359t155.5 356.5t416.5 134.5q109 0 194.5 -25t137.5 -71l34 -29q6 -5 11.5 -8.5t9.5 -3.5q3 0 8 2.5t14 9.5l29 27q53 49 132 73.5t181 24.5q181 0 296.5 -94.5t115.5 -235.5q0 -33 -19.5 -47 t-68.5 -14h-498q-23 0 -32 -7t-9 -24l2 -59q5 -166 94 -263.5t236 -97.5q89 0 169.5 52.5t86.5 52.5q17 0 27 -9.5t10 -25.5q0 -21 -28.5 -52t-80.5 -65q-81 -52 -158 -75t-171 -23q-107 0 -191 31t-151 96h-13zM1214 639h121q100 0 142.5 23.5t42.5 76.5q0 60 -40 97.5 t-102 37.5q-76 0 -135.5 -55t-60.5 -124v-31q0 -14 7 -19.5t25 -5.5zM633 37q99 0 159 98t60 264q0 214 -69.5 344.5t-180.5 130.5q-101 0 -159 -97.5t-58 -268.5q0 -214 68.5 -342.5t179.5 -128.5z"/>
    <glyph glyph-name="endash" unicode="–" d="M20 532q3 10 13.5 18.5t19.5 8.5h983q9 0 13 -3t4 -9q0 -4 -0.5 -6.5t-1.5 -5.5l-48 -159q-3 -10 -13 -18t-19 -8h-983q-9 0 -13 3t-4 9t0.5 8.5t1.5 5.5z"/>
    <glyph glyph-name="emdash" unicode="—" horiz-adv-x="2048" d="M20 532q3 10 13.5 18.5t19.5 8.5h2001q9 0 13 -3t4 -9q0 -4 -1 -7l-2 -6l-47 -158q-3 -10 -13 -18t-19 -8h-2001q-9 0 -13 3t-4 9t0.5 8.5t1.5 5.5z"/>
    <glyph glyph-name="quotedblleft" unicode="“" horiz-adv-x="901" d="M408 922q0 -57 -41 -93t-105 -36q-80 0 -136 60t-56 146q0 50 20.5 99t61.5 96q53 60 106 97.5t82 37.5q16 0 24.5 -8t8.5 -23q0 -22 -47 -56l-31 -23q-40 -33 -60 -63.5t-20 -57.5q0 -29 65 -47q24 -6 38 -11q46 -15 68 -44t22 -74zM819 922q0 -57 -41 -93t-104 -36 q-81 0 -137 60t-56 146q0 50 20.5 99t61.5 96q53 60 106.5 97.5t82.5 37.5q15 0 23.5 -8t8.5 -23q0 -23 -46 -57q-19 -14 -29 -22q-41 -33 -61.5 -64t-20.5 -57q0 -30 65 -47q23 -6 38 -11q46 -15 67.5 -44t21.5 -74z"/>
    <glyph glyph-name="quotedblright" unicode="”" horiz-adv-x="901" d="M82 1198q0 57 40 93t103 36q81 0 137 -59t56 -146q0 -49 -20.5 -98t-61.5 -96q-53 -60 -106.5 -97.5t-82.5 -37.5q-15 0 -23.5 7.5t-8.5 22.5q0 23 47 57l31 23q40 33 60.5 63.5t20.5 57.5q0 29 -61 44q-26 6 -40 11q-47 16 -69 44.5t-22 74.5zM500 1198q0 57 40 93 t103 36q81 0 137 -59t56 -146q0 -49 -21 -98t-61 -96q-54 -60 -107 -97.5t-82 -37.5q-16 0 -24.5 7.5t-8.5 22.5q0 23 46 56q21 15 32 24q40 32 60 62.5t20 58.5q0 29 -61 44q-26 6 -41 11q-46 16 -67 44.5t-21 74.5z"/>
    <glyph glyph-name="quoteleft" unicode="‘" horiz-adv-x="602" d="M467 922q0 -57 -40 -93t-103 -36q-81 0 -137 60t-56 146q0 51 20 100t60 95q53 60 106.5 97.5t81.5 37.5q17 0 26 -8t9 -23q0 -22 -46 -56l-32 -23q-40 -33 -61 -64t-21 -57q1 -30 65 -47q24 -6 38 -11q46 -15 68 -44t22 -74z"/>
    <glyph glyph-name="quoteright" unicode="’" horiz-adv-x="602" d="M152 1198q0 57 40 93t103 36q81 0 136.5 -59t55.5 -146q0 -51 -20 -99.5t-59 -94.5q-54 -60 -107 -97.5t-82 -37.5q-16 0 -24.5 7.5t-8.5 22.5q0 24 47 58q19 14 29 22q41 33 61.5 63.5t20.5 57.5q0 29 -61 44q-26 6 -41 11q-47 16 -68.5 44.5t-21.5 74.5z"/>
    <glyph glyph-name="divide" unicode="÷" horiz-adv-x="1706" d="M854 369q62 0 107 -45t45 -107q0 -61 -45 -105t-107 -44q-63 0 -107.5 43t-44.5 106t44.5 107.5t107.5 44.5zM254 711h1198v-199h-1198v199zM854 1155q62 0 107 -44.5t45 -106.5q0 -63 -44.5 -107.5t-107.5 -44.5t-107.5 44.5t-44.5 107.5t44.5 107t107.5 44z"/>
    <glyph glyph-name="lozenge" unicode="◊" horiz-adv-x="1012" d="M506 1409l-385 -817l385 -825l385 825zM506 1653l500 -1061l-500 -1069l-500 1069z"/>
    <glyph glyph-name="ydieresis" unicode="ÿ" horiz-adv-x="1108" d="M834 645q16 36 25 67t9 50q0 25 -13.5 40t-42.5 21l-39 8q-64 12 -64 43q0 19 9.5 27t33.5 8q4 0 21 -1q86 -7 169 -7q61 0 123.5 4t64.5 4q19 0 27 -7.5t8 -24.5q0 -35 -42 -42q-15 -3 -24 -6q-40 -12 -70.5 -42.5t-57.5 -86.5l-301 -616q-105 -216 -181 -422 q-13 -36 -16 -41q-23 -41 -54.5 -56.5t-109.5 -15.5q-87 0 -116 25t-29 96q0 70 26.5 98.5t90.5 28.5q19 0 44.5 -1t32.5 -1q56 0 96 43.5t40 98.5q0 20 -9.5 47.5t-31.5 72.5l-342 693q-18 35 -44.5 54t-68.5 27q-35 8 -45 17t-10 26q0 18 11 26.5t34 8.5q5 0 26 -1 q118 -9 236 -9q128 0 258 9q25 1 31 1q21 0 31 -8t10 -27q-1 -17 -13 -27t-36 -13q-6 -1 -19 -3q-63 -6 -63 -40q0 -8 7 -28.5t19 -47.5l180 -397q4 -8 8.5 -11.5t10.5 -3.5q4 0 9 4.5t9 14.5zM616 1223q0 48 36.5 84t84.5 36q49 0 84 -35.5t35 -84.5q0 -54 -33 -87.5 t-86 -33.5q-51 0 -86 34.5t-35 86.5zM252 1223q0 48 36 84t85 36t84 -35.5t35 -84.5q0 -54 -33.5 -87.5t-85.5 -33.5t-86.5 34.5t-34.5 86.5z"/>
    <glyph glyph-name="Ydieresis" unicode="Ÿ" horiz-adv-x="1268" d="M461 569l-342 510q-1 2 -3 4q-52 81 -118 109q-10 4 -28 10q-46 16 -46 47q0 17 13.5 29t31.5 12q4 0 21 -1q133 -13 282 -13q96 0 194 7t101 7q27 0 41.5 -10t14.5 -29q0 -18 -10.5 -29.5t-37.5 -21.5q-11 -4 -33 -8q-48 -10 -48 -39q0 -9 5.5 -21t16.5 -28l240 -353 q5 -8 11 -13t11 -5q8 0 14.5 5t12.5 14l170 268q19 30 30 59.5t11 48.5q0 24 -16.5 40t-53.5 28q-10 3 -28 7q-52 13 -52 44q0 23 14 32t52 9q22 0 88 -5t110 -5q48 0 103.5 5t64.5 5q28 0 41 -9.5t13 -31.5q0 -32 -52 -49q-27 -9 -44 -16q-28 -12 -66.5 -56.5t-91.5 -124.5 l-252 -374q-12 -19 -17.5 -34.5t-5.5 -31.5v-385q0 -49 19.5 -69t80.5 -27q3 -1 5.5 -1.5t7.5 -0.5q1 0 2 -1q53 -8 53 -36q0 -22 -13 -34.5t-36 -12.5q-6 0 -31 3q-128 13 -256 13t-257 -14q-24 -2 -29 -2q-23 0 -36.5 12t-13.5 33q0 30 57 38l3 1q3 1 6 1.5t8 0.5 q54 8 72 29t18 69v320q0 17 -6 37t-16 34zM696 1602q0 48 36.5 84t84.5 36q49 0 84 -35.5t35 -84.5q0 -54 -33 -87.5t-86 -33.5q-51 0 -86 34.5t-35 86.5zM332 1602q0 48 36 84t85 36t84 -35.5t35 -84.5q0 -54 -33.5 -87.5t-85.5 -33.5t-86.5 34.5t-34.5 86.5z"/>
    <glyph glyph-name="fraction" unicode="∕" horiz-adv-x="342" d="M-225 -39h-117l907 1366h117z"/>
    <glyph glyph-name="currency" unicode="¤" horiz-adv-x="1241" d="M623 1161q-113 0 -195 -82t-82 -194q0 -114 81 -194.5t196 -80.5q113 0 194.5 80.5t81.5 194.5q0 112 -81.5 194t-194.5 82zM172 1438l205 -203q54 39 114 58.5t130 19.5t131.5 -19.5t115.5 -58.5l203 203l105 -107l-203 -205q38 -53 57 -113.5t19 -127.5t-19 -127 t-57 -115l203 -205l-105 -104l-203 203q-54 -40 -115 -59t-130 -19q-72 0 -132.5 19t-113.5 59l-205 -203l-104 104l202 205q-38 54 -56.5 113.5t-18.5 128.5q0 67 18.5 127.5t56.5 113.5l-202 205z"/>
    <glyph glyph-name="guilsinglleft" unicode="‹" horiz-adv-x="514" d="M301 455l148 -263q5 -11 8.5 -20t3.5 -12q0 -8 -6.5 -14.5t-14.5 -6.5q-21 0 -75 57l-58 58q-67 63 -155.5 124t-88.5 77q0 17 71.5 65.5t119.5 87.5q48 40 107.5 102t78.5 62q8 0 14.5 -7t6.5 -15q0 -3 -3.5 -12.5t-9.5 -21.5z"/>
    <glyph glyph-name="guilsinglright" unicode="›" horiz-adv-x="514" d="M213 455l-147 261q-6 12 -9.5 21.5t-3.5 12.5q0 8 6.5 15t14.5 7q20 0 73 -56q36 -38 60 -61q67 -63 155.5 -124t88.5 -76q0 -18 -71.5 -66t-119.5 -88q-47 -39 -107 -100.5t-79 -61.5q-8 0 -14.5 6.5t-6.5 14.5q0 3 3.5 12.5t9.5 20.5z"/>
    <glyph glyph-name="fi" unicode="" horiz-adv-x="1319" d="M825 686q0 79 -27 102t-112 23h-164q-14 0 -21 -7.5t-7 -21.5v-587q0 -56 10 -77.5t39 -33.5q9 -4 21 -6t25 -2q36 -3 46 -12t10 -29q0 -19 -10 -29t-29 -10q-7 0 -33 3q-108 13 -204 13q-149 0 -292 -12q-24 -2 -28 -2q-12 0 -22.5 11.5t-10.5 25.5q0 20 11 29t49 12 q12 0 23.5 2t21.5 6q31 12 42 33t11 78v596q0 13 -7.5 20.5t-21.5 7.5h-71q-20 0 -34.5 11t-14.5 24q0 15 11.5 25t49.5 24l60 25q2 1 6 2q24 9 28 32l15 82q27 175 174.5 278t369.5 103q153 0 260 -38t107 -84q0 -54 -48 -123.5t-85 -69.5q-32 0 -91 80l-42 55 q-33 42 -73 64t-81 22q-94 0 -145.5 -81t-51.5 -230v-82q0 -14 7.5 -21.5t21.5 -7.5h283q185 0 292 38q9 3 11 3q21 0 30 -12t9 -53v-15v-675q0 -55 11 -76.5t42 -34.5q9 -4 19 -6t30 -2q36 -3 45.5 -12t9.5 -29t-9.5 -29.5t-30.5 -9.5q-6 0 -27 2q-120 14 -240 14 q-121 0 -232 -12q-18 -2 -22 -2q-9 0 -15.5 10.5t-6.5 26.5q0 20 8 29t35 12q6 0 13 2t15 6q21 12 29 32.5t8 78.5v491z"/>
    <glyph glyph-name="fl" unicode="" horiz-adv-x="1319" d="M492 1020v-82q0 -13 8 -21t22 -8h180q17 0 22 -4.5t5 -21.5v-45q0 -15 -5 -21t-17 -6h-185q-14 0 -22 -7.5t-8 -21.5v-587q0 -55 10 -76.5t41 -34.5q9 -4 21 -6t25 -2q36 -3 46 -12t10 -29t-10.5 -29.5t-32.5 -9.5q-5 0 -28 3q-119 13 -240 13q-126 0 -255 -12 q-25 -2 -30 -2q-12 0 -22.5 11.5t-10.5 25.5q0 20 11 29t49 12q12 0 23.5 2t21.5 6q31 12 42 33t11 78v596q0 13 -7.5 20.5t-21.5 7.5h-71q-20 0 -34.5 11t-14.5 24q0 15 11.5 25t49.5 24l60 25q2 1 6 2q24 9 28 32l13 82q20 168 173.5 274.5t378.5 106.5q62 0 126.5 -10 t134.5 -30l27 12q60 28 75 28q22 0 31.5 -12.5t9.5 -42.5q0 -16 -3 -54t-3 -61v-1060q0 -55 11 -76.5t42 -34.5q9 -4 19 -6t30 -2q36 -3 45.5 -12t9.5 -29q0 -19 -9.5 -29t-28.5 -10q-6 0 -31 3q-120 13 -238 13q-121 0 -232 -12q-18 -2 -22 -2q-9 0 -15.5 10.5t-6.5 26.5 q0 20 8 29t35 12q6 0 13 2t15 6q21 12 29 33.5t8 77.5v979q0 75 -36 116t-103 41q-95 0 -144.5 -79t-49.5 -232z"/>
    <glyph glyph-name="daggerdbl" unicode="‡" d="M383 449q51 82 76.5 169t25.5 175v20q-67 -2 -158.5 -45t-129.5 -43q-53 0 -84 29t-31 80q0 49 33.5 80.5t85.5 31.5q41 0 133 -40.5t151 -41.5v23q0 95 -44 202t-44 128q0 49 32 79.5t83 30.5q53 0 85 -30t32 -78q0 -9 -44 -121.5t-44 -220.5v-13h4q65 0 154 41t126 41 q55 0 85 -29t30 -81q0 -54 -29.5 -82.5t-85.5 -28.5q-40 0 -130 40.5t-156 45.5q6 -117 31.5 -207.5t70.5 -154.5q-51 -78 -76.5 -166.5t-25.5 -186.5v-10q67 2 158.5 45t129.5 43q53 0 83 -29t30 -79t-33.5 -81.5t-85.5 -31.5q-41 0 -132 40.5t-150 41.5v-23q0 -95 44 -202 t44 -127q0 -50 -32 -80.5t-83 -30.5q-53 0 -86 30.5t-33 78.5q0 8 45 120.5t45 221.5v12q-66 0 -156.5 -41t-127.5 -41q-56 0 -86.5 29t-30.5 81q0 54 30.5 82.5t86.5 28.5q40 0 130 -40.5t156 -45.5q-6 115 -31 203t-71 158z"/>
    <glyph glyph-name="periodcentered" unicode="·" horiz-adv-x="602" d="M139 645q0 67 47 113.5t115 46.5t115 -46.5t47 -113.5t-47 -114.5t-115 -47.5t-115 47.5t-47 114.5z"/>
    <glyph glyph-name="quotesinglbase" unicode="‚" horiz-adv-x="602" d="M133 135q0 57 40 93t103 36q81 0 137 -60t56 -147q0 -49 -20.5 -98t-61.5 -96q-53 -60 -106 -96.5t-82 -36.5q-16 0 -24.5 7.5t-8.5 22.5q0 22 44 53l34 25q40 33 61 63.5t21 57.5q-1 30 -64 46q-25 7 -38 11q-47 16 -69 44.5t-22 74.5z"/>
    <glyph glyph-name="quotedblbase" unicode="„" horiz-adv-x="901" d="M477 135q0 56 41 92.5t105 36.5q80 0 136 -60t56 -147q0 -49 -20.5 -98t-61.5 -96q-52 -60 -105.5 -96.5t-82.5 -36.5q-16 0 -24.5 7.5t-8.5 22.5q0 23 45 55l31 23q40 33 61 63.5t21 57.5q-1 30 -64 46q-25 7 -38 11q-47 16 -69 44.5t-22 74.5zM59 135q0 56 41 92.5 t105 36.5q80 0 136 -60t56 -147q0 -49 -20.5 -98t-61.5 -96q-52 -60 -105.5 -96.5t-82.5 -36.5q-16 0 -24.5 7.5t-8.5 22.5q0 22 44 53l34 25q40 32 60 63t20 58q0 29 -64 46q-25 7 -38 11q-47 16 -69 44.5t-22 74.5z"/>
    <glyph glyph-name="perthousand" unicode="‰" horiz-adv-x="2445" d="M1016 307q0 -119 44.5 -195.5t110.5 -76.5q65 0 105.5 64.5t40.5 170.5q0 127 -43.5 204t-112.5 77q-65 0 -105 -67.5t-40 -176.5zM1839 307q0 -119 45.5 -195.5t112.5 -76.5q65 0 105 64.5t40 170.5q0 127 -43.5 204t-111.5 77q-66 0 -107 -67.5t-41 -176.5zM1618 285 q0 140 109 240t264 100t263.5 -95.5t108.5 -228.5q0 -140 -109.5 -240t-262.5 -100q-158 0 -265.5 94t-107.5 230zM793 285q0 140 109.5 240t264.5 100t264 -95.5t109 -228.5q0 -140 -110.5 -240t-264.5 -100q-157 0 -264.5 94t-107.5 230zM1389 1327l-1039 -1366h-117 l1039 1366h117zM303 1012q0 -120 45.5 -197.5t112.5 -77.5q65 0 105 65t40 171q0 126 -43.5 203t-111.5 77q-66 0 -107 -66.5t-41 -174.5zM82 987q0 141 109 240.5t264 99.5t263.5 -95t108.5 -228q0 -141 -109.5 -240.5t-262.5 -99.5q-158 0 -265.5 93.5t-107.5 229.5z"/>
    <glyph glyph-name="Acircumflex" unicode="Â" horiz-adv-x="1292" d="M541 1247q19 47 39 63.5t65 16.5q41 0 57 -12t39 -70l406 -989q33 -82 61.5 -118t69.5 -52q12 -5 40 -9q56 -9 56 -42q0 -19 -15.5 -28t-45.5 -9q-11 0 -102 7t-173 7q-71 0 -168.5 -9t-124.5 -9q-29 0 -44 10t-15 31q0 20 13.5 31t43.5 16q3 1 5.5 1.5t7.5 0.5 q43 6 54 16.5t11 32.5q0 9 -2 18.5t-6 18.5l-86 227q-10 26 -40 35.5t-130 9.5h-57h-74q-79 0 -103 -12t-38 -55q-24 -69 -34.5 -112t-10.5 -70q0 -34 15.5 -53t57.5 -36q16 -6 32 -11t34 -9h1q62 -17 62 -49q0 -21 -12.5 -31t-38.5 -10q-3 0 -21 2q-103 12 -210 12 q-83 0 -161 -12q-13 -2 -15 -2q-26 0 -39 9.5t-13 29.5q0 33 50 50l4 1q8 2 17 5t17 7q31 14 53.5 42t41.5 75zM379 539h254q14 0 20 3t6 11q0 4 -1.5 9.5t-4.5 11.5l-133 325q-6 14 -9 18.5t-7 4.5q-5 -1 -9.5 -7t-8.5 -17l-126 -335q0 -1 -1 -4q-3 -8 -3 -10 q0 -5 4.5 -7.5t18.5 -2.5zM348 1438l225 348h148l225 -348h-84l-215 180l-215 -180h-84z"/>
    <glyph glyph-name="Ecircumflex" unicode="Ê" horiz-adv-x="1245" d="M594 635q-16 -2 -23.5 -9t-7.5 -20v-299q0 -149 40.5 -189t154.5 -40q76 0 142.5 26t109.5 72q33 36 73 100t70 64q22 0 35.5 -16t13.5 -43q0 -7 -2 -21.5t-6 -34.5l-31 -172q-6 -36 -23 -51.5t-50 -15.5q-9 0 -56 3q-276 23 -561 23q-173 0 -342 -15q-30 -3 -37 -3 q-26 0 -40.5 11.5t-14.5 31.5q0 31 65 42q11 2 17 3q61 7 81.5 27.5t20.5 68.5v928q0 48 -20.5 69t-81.5 29q-5 1 -15 2q-69 10 -69 41q0 21 15 33t40 12q5 0 31 -2q163 -14 336 -14q195 0 397.5 8t210.5 8q41 0 51 -7.5t10 -29.5v-211q0 -39 -8.5 -50t-32.5 -11 q-29 0 -78 70l-42 57q-31 39 -88 59.5t-138 20.5q-97 0 -137.5 -25t-40.5 -88v-293q0 -28 23 -39.5t84 -11.5q92 0 132 10t58 33q21 28 45 82.5t56 54.5q20 0 31.5 -13t11.5 -36q-1 -4 -2 -18q-9 -72 -9 -139q0 -64 3 -129.5t3 -67.5q0 -42 -9.5 -56t-35.5 -14q-37 0 -66 65 q-12 26 -20 40q-31 56 -69 76t-113 20q-25 0 -38.5 -0.5t-25.5 -1.5zM324 1438l225 348h148l225 -348h-84l-215 180l-215 -180h-84z"/>
    <glyph glyph-name="Aacute" unicode="Á" horiz-adv-x="1292" d="M541 1247q19 47 39 63.5t65 16.5q41 0 57 -12t39 -70l406 -989q33 -82 61.5 -118t69.5 -52q12 -5 40 -9q56 -9 56 -42q0 -19 -15.5 -28t-45.5 -9q-11 0 -102 7t-173 7q-71 0 -168.5 -9t-124.5 -9q-29 0 -44 10t-15 31q0 20 13.5 31t43.5 16q3 1 5.5 1.5t7.5 0.5 q43 6 54 16.5t11 32.5q0 9 -2 18.5t-6 18.5l-86 227q-10 26 -40 35.5t-130 9.5h-57h-74q-79 0 -103 -12t-38 -55q-24 -69 -34.5 -112t-10.5 -70q0 -34 15.5 -53t57.5 -36q16 -6 32 -11t34 -9h1q62 -17 62 -49q0 -21 -12.5 -31t-38.5 -10q-3 0 -21 2q-103 12 -210 12 q-83 0 -161 -12q-13 -2 -15 -2q-26 0 -39 9.5t-13 29.5q0 33 50 50l4 1q8 2 17 5t17 7q31 14 53.5 42t41.5 75zM379 539h254q14 0 20 3t6 11q0 4 -1.5 9.5t-4.5 11.5l-133 325q-6 14 -9 18.5t-7 4.5q-5 -1 -9.5 -7t-8.5 -17l-126 -335q0 -1 -1 -4q-3 -8 -3 -10 q0 -5 4.5 -7.5t18.5 -2.5zM452 1438l273 282q40 43 72 61.5t63 18.5q40 0 65 -25t25 -65q0 -31 -18 -53t-76 -53l-313 -166h-91z"/>
    <glyph glyph-name="Edieresis" unicode="Ë" horiz-adv-x="1245" d="M594 635q-16 -2 -23.5 -9t-7.5 -20v-299q0 -149 40.5 -189t154.5 -40q76 0 142.5 26t109.5 72q33 36 73 100t70 64q22 0 35.5 -16t13.5 -43q0 -7 -2 -21.5t-6 -34.5l-31 -172q-6 -36 -23 -51.5t-50 -15.5q-9 0 -56 3q-276 23 -561 23q-173 0 -342 -15q-30 -3 -37 -3 q-26 0 -40.5 11.5t-14.5 31.5q0 31 65 42q11 2 17 3q61 7 81.5 27.5t20.5 68.5v928q0 48 -20.5 69t-81.5 29q-5 1 -15 2q-69 10 -69 41q0 21 15 33t40 12q5 0 31 -2q163 -14 336 -14q195 0 397.5 8t210.5 8q41 0 51 -7.5t10 -29.5v-211q0 -39 -8.5 -50t-32.5 -11 q-29 0 -78 70l-42 57q-31 39 -88 59.5t-138 20.5q-97 0 -137.5 -25t-40.5 -88v-293q0 -28 23 -39.5t84 -11.5q92 0 132 10t58 33q21 28 45 82.5t56 54.5q20 0 31.5 -13t11.5 -36q-1 -4 -2 -18q-9 -72 -9 -139q0 -64 3 -129.5t3 -67.5q0 -42 -9.5 -56t-35.5 -14q-37 0 -66 65 q-12 26 -20 40q-31 56 -69 76t-113 20q-25 0 -38.5 -0.5t-25.5 -1.5zM684 1602q0 48 36.5 84t84.5 36q49 0 84 -35.5t35 -84.5q0 -54 -33 -87.5t-86 -33.5q-51 0 -86 34.5t-35 86.5zM320 1602q0 48 36 84t85 36t84 -35.5t35 -84.5q0 -54 -33.5 -87.5t-85.5 -33.5t-86.5 34.5 t-34.5 86.5z"/>
    <glyph glyph-name="Egrave" unicode="È" horiz-adv-x="1245" d="M594 635q-16 -2 -23.5 -9t-7.5 -20v-299q0 -149 40.5 -189t154.5 -40q76 0 142.5 26t109.5 72q33 36 73 100t70 64q22 0 35.5 -16t13.5 -43q0 -7 -2 -21.5t-6 -34.5l-31 -172q-6 -36 -23 -51.5t-50 -15.5q-9 0 -56 3q-276 23 -561 23q-173 0 -342 -15q-30 -3 -37 -3 q-26 0 -40.5 11.5t-14.5 31.5q0 31 65 42q11 2 17 3q61 7 81.5 27.5t20.5 68.5v928q0 48 -20.5 69t-81.5 29q-5 1 -15 2q-69 10 -69 41q0 21 15 33t40 12q5 0 31 -2q163 -14 336 -14q195 0 397.5 8t210.5 8q41 0 51 -7.5t10 -29.5v-211q0 -39 -8.5 -50t-32.5 -11 q-29 0 -78 70l-42 57q-31 39 -88 59.5t-138 20.5q-97 0 -137.5 -25t-40.5 -88v-293q0 -28 23 -39.5t84 -11.5q92 0 132 10t58 33q21 28 45 82.5t56 54.5q20 0 31.5 -13t11.5 -36q-1 -4 -2 -18q-9 -72 -9 -139q0 -64 3 -129.5t3 -67.5q0 -42 -9.5 -56t-35.5 -14q-37 0 -66 65 q-12 26 -20 40q-31 56 -69 76t-113 20q-25 0 -38.5 -0.5t-25.5 -1.5zM818 1438h-91l-313 166q-58 31 -76 53t-18 53q0 40 25 65t65 25q31 0 63 -18.5t72 -61.5z"/>
    <glyph glyph-name="Iacute" unicode="Í" horiz-adv-x="786" d="M223 1106q0 48 -18 69t-72 29q-4 0 -5.5 0.5t-2.5 1.5q-43 6 -54.5 14.5t-11.5 26.5q0 20 13.5 31.5t36.5 11.5q5 0 29 -2q129 -12 257 -12t257 12q24 2 30 2q23 0 36 -11.5t13 -33.5q0 -30 -62 -38l-3 -1h-2q-63 -9 -82 -29.5t-19 -68.5v-932q0 -48 19 -68.5t82 -29.5 q4 -1 11 -2q56 -7 56 -35q0 -22 -13 -34.5t-36 -12.5q-6 0 -31 3q-128 13 -256 13t-257 -14q-24 -2 -29 -2q-23 0 -36.5 12t-13.5 33q0 30 57 38l3 1q3 1 6 1.5t8 0.5q54 8 72 29t18 69v928zM198 1438l273 282q40 43 72 61.5t63 18.5q40 0 65 -25t25 -65q0 -31 -18 -53 t-76 -53l-313 -166h-91z"/>
    <glyph glyph-name="Icircumflex" unicode="Î" horiz-adv-x="786" d="M223 1106q0 48 -18 69t-72 29q-4 0 -5.5 0.5t-2.5 1.5q-43 6 -54.5 14.5t-11.5 26.5q0 20 13.5 31.5t36.5 11.5q5 0 29 -2q129 -12 257 -12t257 12q24 2 30 2q23 0 36 -11.5t13 -33.5q0 -30 -62 -38l-3 -1h-2q-63 -9 -82 -29.5t-19 -68.5v-932q0 -48 19 -68.5t82 -29.5 q4 -1 11 -2q56 -7 56 -35q0 -22 -13 -34.5t-36 -12.5q-6 0 -31 3q-128 13 -256 13t-257 -14q-24 -2 -29 -2q-23 0 -36.5 12t-13.5 33q0 30 57 38l3 1q3 1 6 1.5t8 0.5q54 8 72 29t18 69v928zM94 1438l225 348h148l225 -348h-84l-215 180l-215 -180h-84z"/>
    <glyph glyph-name="Idieresis" unicode="Ï" horiz-adv-x="786" d="M223 1106q0 48 -18 69t-72 29q-4 0 -5.5 0.5t-2.5 1.5q-43 6 -54.5 14.5t-11.5 26.5q0 20 13.5 31.5t36.5 11.5q5 0 29 -2q129 -12 257 -12t257 12q24 2 30 2q23 0 36 -11.5t13 -33.5q0 -30 -62 -38l-3 -1h-2q-63 -9 -82 -29.5t-19 -68.5v-932q0 -48 19 -68.5t82 -29.5 q4 -1 11 -2q56 -7 56 -35q0 -22 -13 -34.5t-36 -12.5q-6 0 -31 3q-128 13 -256 13t-257 -14q-24 -2 -29 -2q-23 0 -36.5 12t-13.5 33q0 30 57 38l3 1q3 1 6 1.5t8 0.5q54 8 72 29t18 69v928zM454 1602q0 48 36.5 84t84.5 36q49 0 84 -35.5t35 -84.5q0 -54 -33 -87.5 t-86 -33.5q-51 0 -86 34.5t-35 86.5zM90 1602q0 48 36 84t85 36t84 -35.5t35 -84.5q0 -54 -33.5 -87.5t-85.5 -33.5t-86.5 34.5t-34.5 86.5z"/>
    <glyph glyph-name="Igrave" unicode="Ì" horiz-adv-x="786" d="M223 1106q0 48 -18 69t-72 29q-4 0 -5.5 0.5t-2.5 1.5q-43 6 -54.5 14.5t-11.5 26.5q0 20 13.5 31.5t36.5 11.5q5 0 29 -2q129 -12 257 -12t257 12q24 2 30 2q23 0 36 -11.5t13 -33.5q0 -30 -62 -38l-3 -1h-2q-63 -9 -82 -29.5t-19 -68.5v-932q0 -48 19 -68.5t82 -29.5 q4 -1 11 -2q56 -7 56 -35q0 -22 -13 -34.5t-36 -12.5q-6 0 -31 3q-128 13 -256 13t-257 -14q-24 -2 -29 -2q-23 0 -36.5 12t-13.5 33q0 30 57 38l3 1q3 1 6 1.5t8 0.5q54 8 72 29t18 69v928zM588 1438h-91l-313 166q-58 31 -76 53t-18 53q0 40 25 65t65 25q31 0 63 -18.5 t72 -61.5z"/>
    <glyph glyph-name="Oacute" unicode="Ó" horiz-adv-x="1636" d="M797 1247q-169 0 -270 -147.5t-101 -397.5q0 -295 115 -477t297 -182q169 0 270.5 148t101.5 399q0 293 -116 475t-297 182zM823 1327q145 0 275.5 -46t230.5 -132q117 -98 178.5 -227.5t61.5 -276.5q0 -146 -61.5 -274.5t-178.5 -229.5q-102 -88 -233.5 -134t-282.5 -46 q-143 0 -274 47t-232 133q-118 101 -179.5 230t-61.5 274t61.5 274t179.5 230q102 87 233 132.5t283 45.5zM624 1438l273 282q40 43 72 61.5t63 18.5q40 0 65 -25t25 -65q0 -31 -18 -53t-76 -53l-313 -166h-91z"/>
    <glyph glyph-name="Ocircumflex" unicode="Ô" horiz-adv-x="1636" d="M797 1247q-169 0 -270 -147.5t-101 -397.5q0 -295 115 -477t297 -182q169 0 270.5 148t101.5 399q0 293 -116 475t-297 182zM823 1327q145 0 275.5 -46t230.5 -132q117 -98 178.5 -227.5t61.5 -276.5q0 -146 -61.5 -274.5t-178.5 -229.5q-102 -88 -233.5 -134t-282.5 -46 q-143 0 -274 47t-232 133q-118 101 -179.5 230t-61.5 274t61.5 274t179.5 230q102 87 233 132.5t283 45.5zM520 1438l225 348h148l225 -348h-84l-215 180l-215 -180h-84z"/>
    <glyph glyph-name="apple" unicode="" horiz-adv-x="1618" d="M836 1216q-1 6 -1.5 14t-0.5 23q0 124 95 229.5t236 131.5q1 -10 1.5 -23t0.5 -39q0 -131 -103.5 -234.5t-203.5 -103.5h-8q-3 0 -7.5 1t-8.5 1zM1505 403q-114 -247 -205 -342.5t-204 -95.5q-50 0 -131.5 33t-122.5 33q-45 0 -131 -33t-127 -33q-64 0 -128.5 44 t-129.5 132q-102 140 -157.5 295.5t-55.5 300.5q0 219 125 356.5t323 137.5q68 0 155 -34t124 -34q34 0 121.5 35t152.5 35q110 0 198 -40t161 -124q-102 -65 -151.5 -145.5t-49.5 -182.5q0 -113 60 -200t173 -138z"/>
    <glyph glyph-name="Ograve" unicode="Ò" horiz-adv-x="1636" d="M797 1247q-169 0 -270 -147.5t-101 -397.5q0 -295 115 -477t297 -182q169 0 270.5 148t101.5 399q0 293 -116 475t-297 182zM823 1327q145 0 275.5 -46t230.5 -132q117 -98 178.5 -227.5t61.5 -276.5q0 -146 -61.5 -274.5t-178.5 -229.5q-102 -88 -233.5 -134t-282.5 -46 q-143 0 -274 47t-232 133q-118 101 -179.5 230t-61.5 274t61.5 274t179.5 230q102 87 233 132.5t283 45.5zM1014 1438h-91l-313 166q-58 31 -76 53t-18 53q0 40 25 65t65 25q31 0 63 -18.5t72 -61.5z"/>
    <glyph glyph-name="Uacute" unicode="Ú" horiz-adv-x="1516" d="M219 1106q0 48 -18 69t-72 29q-3 1 -6 1q-68 11 -68 42q0 20 13.5 31.5t35.5 11.5q6 0 30 -2q129 -14 257 -14q113 0 236 13q29 3 37 3q22 0 34.5 -11.5t12.5 -33.5q0 -30 -58 -40l-4 -1h-4q-61 -7 -80.5 -27t-19.5 -69v-670q0 -216 72.5 -298.5t254.5 -82.5 q99 0 175.5 35.5t115.5 97.5q25 40 35 99.5t10 222.5v217q0 270 -13.5 353t-47.5 108q-10 7 -25 10.5t-40 3.5q-44 3 -57 13t-13 30q0 23 15.5 32t55.5 9q18 0 77.5 -4t103.5 -4q36 0 92.5 4t77.5 4q40 0 55.5 -9t15.5 -32q0 -21 -12.5 -30.5t-57.5 -12.5q-25 0 -40.5 -3.5 t-26.5 -10.5q-34 -25 -47.5 -111.5t-13.5 -349.5v-270q0 -159 -16 -225.5t-54 -114.5q-65 -81 -180 -119.5t-289 -38.5q-171 0 -288.5 37.5t-186.5 114.5q-40 45 -57 108.5t-17 200.5v86v598zM624 1438l273 282q40 43 72 61.5t63 18.5q40 0 65 -25t25 -65q0 -31 -18 -53 t-76 -53l-313 -166h-91z"/>
    <glyph glyph-name="Ucircumflex" unicode="Û" horiz-adv-x="1516" d="M219 1106q0 48 -18 69t-72 29q-3 1 -6 1q-68 11 -68 42q0 20 13.5 31.5t35.5 11.5q6 0 30 -2q129 -14 257 -14q113 0 236 13q29 3 37 3q22 0 34.5 -11.5t12.5 -33.5q0 -30 -58 -40l-4 -1h-4q-61 -7 -80.5 -27t-19.5 -69v-670q0 -216 72.5 -298.5t254.5 -82.5 q99 0 175.5 35.5t115.5 97.5q25 40 35 99.5t10 222.5v217q0 270 -13.5 353t-47.5 108q-10 7 -25 10.5t-40 3.5q-44 3 -57 13t-13 30q0 23 15.5 32t55.5 9q18 0 77.5 -4t103.5 -4q36 0 92.5 4t77.5 4q40 0 55.5 -9t15.5 -32q0 -21 -12.5 -30.5t-57.5 -12.5q-25 0 -40.5 -3.5 t-26.5 -10.5q-34 -25 -47.5 -111.5t-13.5 -349.5v-270q0 -159 -16 -225.5t-54 -114.5q-65 -81 -180 -119.5t-289 -38.5q-171 0 -288.5 37.5t-186.5 114.5q-40 45 -57 108.5t-17 200.5v86v598zM520 1438l225 348h148l225 -348h-84l-215 180l-215 -180h-84z"/>
    <glyph glyph-name="Ugrave" unicode="Ù" horiz-adv-x="1516" d="M219 1106q0 48 -18 69t-72 29q-3 1 -6 1q-68 11 -68 42q0 20 13.5 31.5t35.5 11.5q6 0 30 -2q129 -14 257 -14q113 0 236 13q29 3 37 3q22 0 34.5 -11.5t12.5 -33.5q0 -30 -58 -40l-4 -1h-4q-61 -7 -80.5 -27t-19.5 -69v-670q0 -216 72.5 -298.5t254.5 -82.5 q99 0 175.5 35.5t115.5 97.5q25 40 35 99.5t10 222.5v217q0 270 -13.5 353t-47.5 108q-10 7 -25 10.5t-40 3.5q-44 3 -57 13t-13 30q0 23 15.5 32t55.5 9q18 0 77.5 -4t103.5 -4q36 0 92.5 4t77.5 4q40 0 55.5 -9t15.5 -32q0 -21 -12.5 -30.5t-57.5 -12.5q-25 0 -40.5 -3.5 t-26.5 -10.5q-34 -25 -47.5 -111.5t-13.5 -349.5v-270q0 -159 -16 -225.5t-54 -114.5q-65 -81 -180 -119.5t-289 -38.5q-171 0 -288.5 37.5t-186.5 114.5q-40 45 -57 108.5t-17 200.5v86v598zM1014 1438h-91l-313 166q-58 31 -76 53t-18 53q0 40 25 65t65 25q31 0 63 -18.5 t72 -61.5z"/>
    <glyph glyph-name="dotlessi" unicode="ı" horiz-adv-x="659" d="M174 586q0 59 -9.5 77t-37.5 29q-13 4 -40 8h-5q-1 1 -4 1q-45 7 -45 34q0 31 76 49h2q39 9 73 20t68 25q71 31 138.5 75t74.5 44q15 0 22 -13.5t7 -43.5v-696q0 -55 11 -76.5t44 -34.5q8 -4 19 -6t32 -2q36 -3 46.5 -12t10.5 -29q0 -19 -10.5 -28t-32.5 -9q-5 0 -31 3 q-108 11 -210 11q-153 0 -295 -12q-22 -2 -27 -2q-12 0 -23.5 11.5t-11.5 25.5q0 20 11 29t49 12q12 0 23.5 2t21.5 6q31 12 42 33t11 78v391z"/>
    <glyph glyph-name="circumflex" unicode="ˆ" d="M213 1059l225 348h148l225 -348h-84l-215 180l-215 -180h-84z"/>
    <glyph glyph-name="tilde" unicode="˜" d="M801 1380q-14 -116 -68 -180.5t-137 -64.5q-16 0 -29.5 2t-27.5 6l-105 26q-14 4 -29 6.5t-28 2.5q-31 0 -52.5 -20.5t-37.5 -65.5h-66q17 123 69.5 184t141.5 61q17 0 32.5 -2t31.5 -6l109 -29q11 -3 20.5 -4.5t17.5 -1.5q32 0 54.5 21t37.5 65h66z"/>
    <glyph glyph-name="macron" unicode="¯" d="M236 1149v147h552v-147h-552z"/>
    <glyph glyph-name="breve" unicode="˘" d="M203 1376h76q17 -65 71.5 -94t161.5 -29q108 0 162.5 29.5t68.5 93.5h76q-20 -139 -99 -212.5t-208 -73.5q-130 0 -209 73t-100 213z"/>
    <glyph glyph-name="dotaccent" unicode="˙" d="M385 1223q0 50 38 88.5t89 38.5q52 0 89.5 -37.5t37.5 -89.5q0 -56 -36 -91.5t-91 -35.5q-54 0 -90.5 36.5t-36.5 90.5z"/>
    <glyph glyph-name="ring" unicode="˚" d="M377 1292q0 -56 39 -94.5t96 -38.5t96 38.5t39 94.5q0 57 -39.5 96t-95.5 39q-57 0 -96 -39t-39 -96zM260 1294q0 106 73 179t179 73t179 -73t73 -179t-73 -180t-179 -74t-179 74t-73 180z"/>
    <glyph glyph-name="cedilla" unicode="¸" d="M231 -375l41 88q73 -39 130.5 -56t117.5 -17q40 0 63 21.5t23 59.5q0 43 -25.5 64.5t-74.5 21.5q-14 0 -29.5 -1.5t-32.5 -3.5v198h70v-112q16 2 32.5 3.5t33.5 2.5q86 0 136 -46t50 -124q0 -86 -60 -133.5t-169 -47.5q-55 0 -125 18.5t-181 63.5z"/>
    <glyph glyph-name="hungarumlaut" unicode="˝" d="M565 1059l197 282q39 54 59 68t45 14q34 0 57 -22.5t23 -54.5q0 -26 -17 -52.5t-48 -50.5l-242 -184h-74zM313 1059l144 272q31 57 52.5 75.5t49.5 18.5q33 0 55.5 -21.5t22.5 -53.5q0 -25 -13 -50t-38 -49l-199 -192h-74z"/>
    <glyph glyph-name="ogonek" unicode="˛" d="M678 31q-91 -73 -132.5 -136.5t-41.5 -127.5q0 -54 24.5 -83.5t67.5 -29.5q35 0 63.5 17.5t53.5 54.5l32 -19q-41 -84 -100 -124t-139 -40q-65 0 -107.5 42t-42.5 108q0 84 67 168.5t202 169.5h53z"/>
    <glyph glyph-name="caron" unicode="ˇ" d="M811 1407l-225 -348h-148l-225 348h84l215 -178l215 178h84z"/>
    <glyph glyph-name="Lslash" unicode="Ł" horiz-adv-x="1126" d="M563 823l279 193v-131l-279 -191v-448q0 -100 31 -135t117 -35q65 0 127.5 27.5t101.5 72.5q25 29 61 81q52 75 82 75q19 0 28 -10.5t9 -30.5q0 -6 -3 -29.5t-5 -36.5l-25 -172q-6 -39 -21.5 -51t-55.5 -12q-37 0 -228 10t-344 10q-163 0 -306 -14q-20 -2 -23 -2 q-23 0 -36.5 12t-13.5 33q1 30 61 39q8 1 13 2q54 8 72 29t18 69v338l-223 -158v131l223 156v461q0 48 -18 69t-72 29q-2 0 -3.5 0.5t-2.5 1.5q-45 6 -56.5 14.5t-11.5 26.5q0 20 13.5 31.5t36.5 11.5q5 0 29 -2q129 -12 257 -12q122 0 258 11q35 3 43 3q27 0 40.5 -10.5 t13.5 -32.5q0 -32 -70 -41h-2h-3q-69 -9 -90.5 -29.5t-21.5 -68.5v-285z"/>
    <glyph glyph-name="lslash" unicode="ł" horiz-adv-x="659" d="M170 575l-170 -114v114l170 119v430q0 42 -12 64.5t-41 36.5q-14 6 -40 11q-48 10 -48 38q0 37 102 58l8 1q15 2 49 8q9 2 13 2q79 16 161 48t91 32q20 0 29.5 -12t9.5 -41q0 -17 -2.5 -55t-2.5 -60v-385l172 119v-119l-172 -120v-555q0 -55 11.5 -76.5t44.5 -34.5 q8 -4 19 -6t31 -2q39 -3 49.5 -12t10.5 -29q0 -18 -10 -27.5t-31 -9.5q-5 0 -30 2q-119 12 -232 12q-142 0 -278 -12q-23 -2 -27 -2q-12 0 -22.5 11.5t-10.5 25.5q0 20 11 29t49 12q12 0 23.5 2t21.5 6q31 12 42 33t11 78v380z"/>
    <glyph glyph-name="Scaron" unicode="Š" horiz-adv-x="1171" d="M119 348q0 20 13 32.5t34 12.5q36 0 58 -84q11 -41 20 -65q35 -100 102 -149.5t166 -49.5q127 0 203 58t76 153q0 84 -56.5 141.5t-245.5 139.5q-201 87 -276.5 172.5t-75.5 212.5q0 171 144 288t356 117q92 0 172.5 -17.5t120.5 -43.5q17 -12 24 -29t7 -72v-174 q0 -20 -10 -31.5t-27 -11.5q-39 0 -77 93l-9 21q-43 101 -90.5 136t-131.5 35q-93 0 -151.5 -49t-58.5 -127q0 -113 191 -188l81 -33q208 -93 294.5 -190.5t86.5 -233.5q0 -192 -157.5 -321.5t-397.5 -129.5q-108 0 -207 26t-145 62q-19 15 -26 38.5t-7 88.5v172zM885 1786 l-225 -348h-148l-225 348h84l215 -178l215 178h84z"/>
    <glyph glyph-name="scaron" unicode="š" horiz-adv-x="930" d="M109 301q35 0 71 -74q15 -31 25 -49q43 -75 99 -110t134 -35q82 0 135.5 39t53.5 98q0 48 -34 80t-153 80l-28 11q-338 131 -338 304q0 137 115 220t307 83q66 0 133 -9.5t125 -27.5q31 -9 41 -23t10 -44v-23q0 -84 -10 -105.5t-37 -21.5q-30 0 -73 59l-21 27 q-44 54 -86.5 76.5t-98.5 22.5q-66 0 -109.5 -30t-43.5 -75q0 -70 205 -141l47 -17q158 -57 222 -126t64 -177q0 -156 -130 -254t-341 -98q-152 0 -242 37t-90 98q0 120 10.5 162.5t37.5 42.5zM764 1407l-225 -348h-148l-225 348h84l215 -178l215 178h84z"/>
    <glyph glyph-name="Zcaron" unicode="Ž" horiz-adv-x="1335" d="M502 102h227q164 0 242 33t123 117q12 23 27 70q24 75 61 75q25 0 39 -21.5t14 -60.5q0 -14 -2 -72t-2 -102q0 -27 1 -60.5t1 -39.5q0 -27 -12.5 -37t-44.5 -10q-33 0 -189.5 7t-279.5 7q-250 0 -506 -12q-52 -2 -64 -2q-66 0 -81 9t-15 34q0 13 8 29.5t33 52.5l711 1041 q4 5 6 9.5t2 8.5q-1 6 -6.5 9t-16.5 3h-147q-119 0 -202 -22.5t-128 -67.5q-25 -25 -62 -67q-55 -62 -81 -62q-22 0 -35.5 13t-13.5 34q0 9 26.5 97.5t46.5 170.5q13 52 27.5 70t40.5 18q33 0 47 -34t19 -38q15 -11 70.5 -15.5t256.5 -4.5h279q55 0 142 7t118 7 q30 0 44.5 -6t14.5 -18q0 -13 -10 -35t-29 -49l-715 -1043q-5 -8 -8.5 -15.5t-3.5 -10.5q0 -7 7.5 -12t19.5 -5zM967 1786l-225 -348h-148l-225 348h84l215 -178l215 178h84z"/>
    <glyph glyph-name="zcaron" unicode="ž" horiz-adv-x="1026" d="M469 123q-6 -8 -9 -16t-3 -13t6 -7.5t22 -2.5h76q102 0 167.5 17.5t98.5 54.5q20 21 43.5 82t57.5 61q22 0 31.5 -15t9.5 -51q0 -26 -4 -75t-4 -72q0 -16 1 -34.5t1 -20.5q0 -25 -10 -32t-44 -7q-7 0 -46 2q-236 12 -478 12q-91 0 -180.5 -6l-89.5 -6q-38 0 -58 12.5 t-20 36.5q0 20 24 55q6 9 9 13l468 691q4 6 5.5 10t1.5 7q0 5 -5.5 7.5t-21.5 2.5h-112q-68 0 -109.5 -11.5t-83.5 -39.5q-25 -17 -67.5 -55.5t-63.5 -38.5q-15 0 -24 9.5t-9 25.5t17.5 67.5t48.5 122.5q22 52 36.5 69t32.5 17q26 0 35 -36q2 -10 4 -15q10 -22 49 -30.5 t154 -8.5h256q66 0 138.5 5t78.5 5q32 0 49 -11.5t17 -33.5q0 -20 -25 -55q-5 -8 -8 -12zM813 1407l-225 -348h-148l-225 348h84l215 -178l215 178h84z"/>
    <glyph glyph-name="brokenbar" unicode="¦" d="M410 408h206v-758h-206v758zM410 1432h206v-758h-206v758z"/>
    <glyph glyph-name="Eth" unicode="Ð" horiz-adv-x="1606" d="M223 1100q0 35 -19 54.5t-54 19.5q-11 0 -37.5 -3.5t-42.5 -3.5q-11 0 -19 9.5t-8 23.5q0 24 20.5 37t94.5 29q120 26 247.5 39.5t262.5 13.5q400 0 636 -182t236 -488q0 -139 -65 -264t-187 -221q-109 -87 -253 -128.5t-335 -41.5q-78 0 -187 9t-138 9q-85 0 -175 -9 t-94 -9q-22 0 -34.5 12t-12.5 33q0 29 58 40q11 2 16 3q54 7 72 27.5t18 68.5v463h-223v107h223v352zM557 1122v-374h291v-107h-291v-375q0 -110 33 -149t125 -39q204 0 334.5 160.5t130.5 418.5q0 266 -124 423t-333 157q-97 0 -131.5 -23t-34.5 -92z"/>
    <glyph glyph-name="eth" unicode="ð" horiz-adv-x="1237" d="M633 47q92 0 148.5 92t56.5 248q0 201 -65.5 322.5t-170.5 121.5q-94 0 -148.5 -90.5t-54.5 -251.5q0 -199 65 -320.5t169 -121.5zM729 887q-37 73 -75.5 130.5t-75.5 96.5l-345 -172q-4 -2 -9 -5q-18 -9 -23 -9q-15 0 -25 10t-10 25q0 23 31 37q7 3 12 6l323 159 q-53 48 -131.5 110t-78.5 77q0 13 8 19.5t24 6.5q35 0 111.5 -40t179.5 -113l307 151q17 9 22.5 11t8.5 2q14 0 23.5 -10.5t9.5 -24.5q0 -12 -7 -20.5t-32 -20.5l-266 -135q231 -187 333.5 -357.5t102.5 -365.5q0 -225 -145 -351.5t-404 -126.5q-228 0 -368 128.5 t-140 334.5q0 207 145 335t381 128q25 0 53.5 -4t59.5 -12z"/>
    <glyph glyph-name="Yacute" unicode="Ý" horiz-adv-x="1268" d="M461 569l-342 510q-1 2 -3 4q-52 81 -118 109q-10 4 -28 10q-46 16 -46 47q0 17 13.5 29t31.5 12q4 0 21 -1q133 -13 282 -13q96 0 194 7t101 7q27 0 41.5 -10t14.5 -29q0 -18 -10.5 -29.5t-37.5 -21.5q-11 -4 -33 -8q-48 -10 -48 -39q0 -9 5.5 -21t16.5 -28l240 -353 q5 -8 11 -13t11 -5q8 0 14.5 5t12.5 14l170 268q19 30 30 59.5t11 48.5q0 24 -16.5 40t-53.5 28q-10 3 -28 7q-52 13 -52 44q0 23 14 32t52 9q22 0 88 -5t110 -5q48 0 103.5 5t64.5 5q28 0 41 -9.5t13 -31.5q0 -32 -52 -49q-27 -9 -44 -16q-28 -12 -66.5 -56.5t-91.5 -124.5 l-252 -374q-12 -19 -17.5 -34.5t-5.5 -31.5v-385q0 -49 19.5 -69t80.5 -27q3 -1 5.5 -1.5t7.5 -0.5q1 0 2 -1q53 -8 53 -36q0 -22 -13 -34.5t-36 -12.5q-6 0 -31 3q-128 13 -256 13t-257 -14q-24 -2 -29 -2q-23 0 -36.5 12t-13.5 33q0 30 57 38l3 1q3 1 6 1.5t8 0.5 q54 8 72 29t18 69v320q0 17 -6 37t-16 34zM440 1438l273 282q40 43 72 61.5t63 18.5q40 0 65 -25t25 -65q0 -31 -18 -53t-76 -53l-313 -166h-91z"/>
    <glyph glyph-name="yacute" unicode="ý" horiz-adv-x="1108" d="M834 645q16 36 25 67t9 50q0 25 -13.5 40t-42.5 21l-39 8q-64 12 -64 43q0 19 9.5 27t33.5 8q4 0 21 -1q86 -7 169 -7q61 0 123.5 4t64.5 4q19 0 27 -7.5t8 -24.5q0 -35 -42 -42q-15 -3 -24 -6q-40 -12 -70.5 -42.5t-57.5 -86.5l-301 -616q-105 -216 -181 -422 q-13 -36 -16 -41q-23 -41 -54.5 -56.5t-109.5 -15.5q-87 0 -116 25t-29 96q0 70 26.5 98.5t90.5 28.5q19 0 44.5 -1t32.5 -1q56 0 96 43.5t40 98.5q0 20 -9.5 47.5t-31.5 72.5l-342 693q-18 35 -44.5 54t-68.5 27q-35 8 -45 17t-10 26q0 18 11 26.5t34 8.5q5 0 26 -1 q118 -9 236 -9q128 0 258 9q25 1 31 1q21 0 31 -8t10 -27q-1 -17 -13 -27t-36 -13q-6 -1 -19 -3q-63 -6 -63 -40q0 -8 7 -28.5t19 -47.5l180 -397q4 -8 8.5 -11.5t10.5 -3.5q4 0 9 4.5t9 14.5zM360 1059l273 282q40 43 72 61.5t63 18.5q40 0 65 -25t25 -65q0 -31 -18 -53 t-76 -53l-313 -166h-91z"/>
    <glyph glyph-name="Thorn" unicode="Þ" horiz-adv-x="1266" d="M555 727v-203q0 -75 25 -101t90 -26q97 0 154 72t57 197q0 126 -63 208t-156 82q-62 0 -84.5 -34t-22.5 -179v-16zM600 334q-5 2 -10 3t-12 1q-9 0 -12 -5t-3 -22v-135q0 -48 19 -68.5t82 -29.5h2q1 0 3 -1q62 -8 62 -38q0 -21 -13 -33t-36 -12q-7 0 -34 3 q-128 13 -253 13q-124 0 -252 -13q-28 -3 -34 -3q-23 0 -36.5 12t-13.5 33q0 30 57 38l3 1q3 1 6 1.5t8 0.5q54 8 72 29t18 69v928q0 48 -18 69t-72 29q-3 1 -6 1q-68 11 -68 42q0 26 19 36.5t63 10.5q4 0 22 -1q113 -7 232 -7t231 7q17 1 21 1q45 0 64.5 -11t19.5 -36 q0 -20 -13.5 -28.5t-60.5 -14.5q-53 -7 -73.5 -29t-20.5 -69v-33q0 -17 13 -25t45 -8q15 0 61.5 3.5t77.5 3.5q219 0 343 -99.5t124 -273.5q0 -169 -110.5 -286.5t-262.5 -117.5q-33 0 -64.5 5.5t-58.5 15.5z"/>
    <glyph glyph-name="thorn" unicode="þ" horiz-adv-x="1274" d="M492 580v-385q0 -76 37 -113t112 -37q115 0 181.5 104.5t66.5 286.5q0 163 -70.5 264t-181.5 101q-82 0 -113.5 -44.5t-31.5 -176.5zM500 12l-8 -6v-262q0 -55 11.5 -77t45.5 -34q11 -4 24 -6t27 -2h3q56 -7 56 -41q0 -14 -10.5 -25.5t-23.5 -11.5q-5 0 -32 3 q-132 12 -263 12q-126 0 -256 -12q-26 -3 -31 -3q-14 0 -25.5 11.5t-11.5 25.5q0 20 11.5 29.5t47.5 11.5q15 0 28 2t24 6q34 12 45.5 33t11.5 78v1380q0 42 -12 64.5t-41 36.5q-14 6 -40 11q-48 10 -48 38q0 37 101 57l9 2q15 2 49 8q9 2 13 2q79 16 162 48t92 32 q21 0 30 -12t9 -41q0 -20 -3 -58t-3 -57l-5 -413q1 -15 3.5 -20t9.5 -5q3 0 7.5 2t6.5 4l25 23q58 50 125.5 76t140.5 26q182 0 297 -135.5t115 -353.5q0 -217 -133.5 -357.5t-335.5 -140.5q-67 0 -128 12.5t-120 38.5z"/>
    <glyph glyph-name="minus" unicode="−" horiz-adv-x="1706" d="M254 713h1198v-203h-1198v203z"/>
    <glyph glyph-name="multiply" unicode="×" horiz-adv-x="1706" d="M416 1202l450 -450l451 450l141 -139l-450 -453l450 -450l-141 -140l-451 451l-450 -451l-140 140l451 450l-451 453z"/>
    <glyph glyph-name="onesuperior" unicode="¹" horiz-adv-x="795" d="M330 649v492q0 26 -7 34.5t-26 8.5q-17 0 -68 -15.5t-82 -15.5q-12 0 -20 6.5t-8 16.5q0 24 85 43q42 9 68 16q86 22 167 50t83 28q11 0 16 -5t5 -16v-637q0 -38 12.5 -55t47.5 -25q11 -1 29 -2q66 -5 66 -30q0 -15 -9 -21t-34 -6q-11 0 -82.5 3t-132.5 3 q-41 0 -120.5 -3t-116.5 -3q-23 0 -34 6.5t-11 20.5q0 29 64 32q4 0 6 1q17 2 26.5 3t17.5 1q36 4 47 17t11 52z"/>
    <glyph glyph-name="twosuperior" unicode="²" horiz-adv-x="795" d="M129 516q-38 0 -48.5 4.5t-10.5 18.5q0 24 114 146l84 91q125 137 164 201.5t39 116.5q0 66 -42 106.5t-112 40.5q-39 0 -75.5 -16t-69.5 -47q-12 -13 -30 -36q-30 -36 -48 -36q-8 0 -13 6t-5 16q0 15 23.5 46.5t58.5 58.5q50 41 107 60.5t128 19.5q134 0 211.5 -56 t77.5 -151q0 -48 -19 -88t-61 -78q-37 -35 -145 -100t-156 -113l-24 -24q-5 -4 -7 -7t-2 -6q0 -4 4 -7t11 -3h264q26 0 42.5 6.5t26.5 19.5q4 5 13 27.5t28 22.5q13 0 19 -9.5t6 -29.5v-8l-6 -164q-2 -23 -6.5 -28t-24.5 -5h-41q-6 0 -30 1q-104 3 -203 3h-242z"/>
    <glyph glyph-name="threesuperior" unicode="³" horiz-adv-x="795" d="M356 985l5 -6q20 3 38.5 4.5t36.5 1.5q122 0 197.5 -57t75.5 -148q0 -61 -34 -120.5t-100 -112.5q-78 -64 -169.5 -98.5t-180.5 -34.5q-76 0 -119 25t-43 71q0 32 23.5 53t58.5 21q24 0 45.5 -11t34.5 -30q7 -9 17 -29q24 -47 59 -47q72 0 135.5 69.5t63.5 159.5 t-58 145.5t-151 55.5q-57 0 -115 -16.5t-59 -16.5q-10 0 -16.5 5t-6.5 14q0 22 78 54q39 17 61 28q93 42 140 89.5t47 98.5q0 45 -30 71.5t-79 26.5q-33 0 -62.5 -11.5t-62.5 -37.5l-24 -22q-24 -23 -37 -23q-11 0 -17 5.5t-6 15.5q0 43 87 89t198 46q112 0 175 -35t63 -96 q0 -54 -66 -102t-203 -95z"/>
    <glyph glyph-name="onequarter" unicode="¼" horiz-adv-x="1860" d="M1477 205q0 14 -4.5 18t-18.5 4h-262q-33 0 -42 7.5t-9 29.5q0 16 5 29t15 24l449 512q6 7 9.5 9t12.5 2h8h35q9 0 13 -2t4 -7q0 -6 -34 -40q-30 -29 -48 -50l-200 -215.5t-124 -144.5l-49 -64q-1 -2 -2.5 -6.5t-1.5 -5.5q0 -3 3.5 -5.5t8.5 -2.5h207q16 0 22.5 6t6.5 21 v186q0 11 24 21q3 1 4 1q27 13 63.5 23t49.5 10q5 0 21.5 1t27.5 1q6 0 8 -3.5t2 -14.5v-12v-218q1 -15 5 -18.5t18 -3.5h84q11 0 16.5 -6t5.5 -17v-22q0 -12 -6 -18.5t-18 -6.5h-84q-13 0 -19 -6t-6 -20v-103q1 -18 12 -27.5t44 -17.5h4q29 -6 37 -11.5t8 -16.5 q0 -14 -10 -19.5t-37 -5.5q-20 0 -71.5 2t-84.5 2q-46 0 -101 -2t-63 -2q-28 0 -41.5 6.5t-13.5 20.5q0 12 8 18t32 8q5 0 11 1l18 3q29 8 38.5 20t9.5 46v82zM532 -39h-116l907 1366h117zM313 692v459q0 25 -6.5 33t-23.5 8q-18 0 -66 -15.5t-78 -15.5q-12 0 -20 6.5 t-8 16.5q0 22 86 41q37 8 61 14q83 20 160 46t80 26q9 0 13.5 -5t4.5 -16v-594q0 -34 13 -50.5t44 -22.5q12 -2 31 -3q61 -5 62 -28q-1 -12 -7 -16t-34 -5q-12 0 -80.5 1t-124.5 1q-40 0 -116.5 -1t-113.5 -1q-25 1 -32.5 5t-7.5 16q0 28 60 30q4 1 6 1q16 2 25.5 3t17.5 1 q33 3 43.5 14.5t10.5 50.5z"/>
    <glyph glyph-name="onehalf" unicode="½" horiz-adv-x="1860" d="M1223 0q-36 0 -46.5 4.5t-11.5 18.5q0 20 106 129l85 90q123 133 158.5 191t35.5 106q0 63 -40 100t-107 37q-38 0 -73 -15t-65 -45q-13 -13 -31 -34q-27 -31 -44 -31q-8 0 -13 5.5t-6 14.5q0 14 22.5 43t55.5 56q49 38 103.5 55.5t122.5 17.5q128 0 202 -51.5t74 -140.5 q0 -46 -18.5 -83.5t-57.5 -72.5q-35 -32 -138 -93t-151 -105l-22 -23q-4 -3 -6 -6t-2 -6q0 -4 4.5 -7t9.5 -3h252q25 0 41 6.5t25 20.5q3 3 11.5 23.5t26.5 20.5q13 0 19 -8t6 -27v-8l-6 -153q-2 -22 -6.5 -26.5t-22.5 -4.5h-39q-6 0 -31 1q-100 3 -192 3h-231zM532 -39 h-116l907 1366h117zM313 692v459q0 25 -6.5 33t-23.5 8q-18 0 -66 -15.5t-78 -15.5q-12 0 -20 6.5t-8 16.5q0 22 86 41q37 8 61 14q83 20 160 46t80 26q9 0 13.5 -5t4.5 -16v-594q0 -34 13 -50.5t44 -22.5q12 -2 31 -3q61 -5 62 -28q-1 -12 -7 -16t-34 -5q-12 0 -80.5 1 t-124.5 1q-40 0 -116.5 -1t-113.5 -1q-25 1 -32.5 5t-7.5 16q0 28 60 30q4 1 6 1q16 2 25.5 3t17.5 1q33 3 43.5 14.5t10.5 50.5z"/>
    <glyph glyph-name="threequarters" unicode="¾" horiz-adv-x="1860" d="M1477 205q0 14 -4.5 18t-18.5 4h-262q-33 0 -42 7.5t-9 29.5q0 16 5 29t15 24l449 512q6 7 9.5 9t12.5 2h8h35q9 0 13 -2t4 -7q0 -6 -34 -40q-30 -29 -48 -50l-200 -215.5t-124 -144.5l-49 -64q-1 -2 -2.5 -6.5t-1.5 -5.5q0 -3 3.5 -5.5t8.5 -2.5h207q16 0 22.5 6t6.5 21 v186q0 11 24 21q3 1 4 1q27 13 63.5 23t49.5 10q5 0 21.5 1t27.5 1q6 0 8 -3.5t2 -14.5v-12v-218q1 -15 5 -18.5t18 -3.5h84q11 0 16.5 -6t5.5 -17v-22q0 -12 -6 -18.5t-18 -6.5h-84q-13 0 -19 -6t-6 -20v-103q1 -18 12 -27.5t44 -17.5h4q29 -6 37 -11.5t8 -16.5 q0 -14 -10 -19.5t-37 -5.5q-20 0 -71.5 2t-84.5 2q-46 0 -101 -2t-63 -2q-28 0 -41.5 6.5t-13.5 20.5q0 12 8 18t32 8q5 0 11 1l18 3q29 8 38.5 20t9.5 46v82zM532 -39h-116l907 1366h117zM340 1006l4 -7q13 3 28 4t44 1q117 0 188.5 -53t71.5 -138q0 -57 -32 -111.5 t-95 -105.5q-75 -59 -162 -91t-172 -32q-74 0 -114 23t-40 65q0 31 21.5 50.5t54.5 19.5q24 0 44 -10t34 -29q7 -9 18 -28q22 -42 54 -42q70 0 129 64t59 149q0 84 -55 136.5t-144 52.5q-54 0 -108.5 -16.5l-54.5 -16.5q-10 0 -16.5 5.5t-6.5 12.5q0 22 78 53q35 14 55 23 q91 42 134.5 86t43.5 92q0 41 -28.5 65.5t-75.5 24.5q-33 0 -61 -10.5t-58 -34.5q-10 -8 -25 -22q-22 -21 -32 -21q-11 0 -17 5t-6 14q0 40 83.5 83.5t189.5 43.5t165.5 -32t59.5 -89q0 -51 -62 -95.5t-194 -88.5z"/>
    <glyph glyph-name="franc" unicode="₣" horiz-adv-x="2036" d="M563 176q0 -48 23.5 -68.5t107.5 -29.5q8 -1 19 -2q67 -6 67 -37q0 -21 -17 -33t-46 -12q-12 0 -119 9t-203 9t-196.5 -9t-104.5 -9q-26 0 -40.5 11.5t-14.5 31.5q0 32 65 40l3 1q3 1 6 1.5t8 0.5q62 8 82 29t20 69v928q0 48 -20.5 69t-81.5 29q-5 1 -15 2q-69 10 -69 41 q0 21 15 33t40 12q8 0 41 -3q137 -13 262 -13h234q105 0 245 8t175 8q38 0 46.5 -7t8.5 -30v-227q0 -27 -8.5 -35t-28.5 -8q-29 0 -77 72q-24 36 -40 57q-31 42 -85 63t-130 21q-94 0 -133 -26t-39 -91v-297q0 -28 23 -39.5t84 -11.5q92 0 132 10t58 33q21 28 45 82.5 t56 54.5q20 0 31.5 -13t11.5 -36q-1 -4 -2 -18q-9 -72 -9 -139q0 -64 3 -129.5t3 -67.5q0 -42 -9.5 -56t-35.5 -14q-37 0 -66 65q-12 26 -20 40q-31 56 -69 76t-113 20q-25 0 -38.5 -0.5t-25.5 -1.5l-28 -4q-16 -2 -23.5 -9t-7.5 -20v-430zM1317 608v27q0 47 -9.5 62.5 t-35.5 25.5q-12 3 -40 7q-4 1 -5 1t-4 1q-47 7 -47 34q0 32 73 50l4 1q46 11 74 20t54 21q55 25 121 73t87 48t29 -9.5t8 -41.5v-92q0 -12 2 -16.5t6 -4.5q5 0 10 3t11 9l22 25q41 42 88 64t97 22q82 0 133 -43.5t51 -112.5q0 -73 -44.5 -117t-117.5 -44q-33 0 -59.5 10.5 t-48.5 32.5q-7 7 -19 20q-49 53 -71 53q-26 0 -37.5 -24.5t-11.5 -77.5v-440q0 -55 10.5 -76.5t42.5 -34.5q8 -4 18 -6t28 -2q36 -3 46 -12t10 -29q0 -16 -8 -26.5t-21 -10.5q-4 0 -27 2q-128 12 -259 12q-126 0 -253 -12q-25 -2 -30 -2q-12 0 -22.5 11.5t-10.5 25.5 q0 20 11 29t49 12q12 0 23.5 2t21.5 6q30 12 40.5 31.5t10.5 79.5v413z"/>
    <glyph glyph-name="Gbreve" unicode="Ğ" horiz-adv-x="1542" d="M1280 1040v-14q0 -21 -9 -31t-28 -10q-34 0 -72 64l-22 34q-57 84 -123.5 122t-155.5 38q-191 0 -316.5 -172.5t-125.5 -439.5q0 -261 126.5 -424.5t324.5 -163.5q80 0 109.5 32.5t29.5 151.5v92v50q0 103 -12 135.5t-45 46.5q-18 8 -60 12h-1q-41 3 -52.5 11.5 t-11.5 27.5t14.5 31t38.5 12q9 0 42 -3q132 -13 251 -13q129 0 253 14q19 2 23 2q18 0 29.5 -12t11.5 -31q0 -37 -45 -40q-28 -3 -43 -7q-32 -7 -44.5 -36.5t-12.5 -119.5v-57q0 -58 3 -121t3 -67q0 -82 -153.5 -137.5t-393.5 -55.5q-337 0 -542 182t-205 478 q0 150 64.5 287t182.5 237q103 86 246.5 134t300.5 48q109 0 206 -17.5t155 -45.5q40 -20 50 -107q2 -16 3 -25zM463 1755h76q17 -65 71.5 -94t161.5 -29q108 0 162.5 29.5t68.5 93.5h76q-20 -139 -99 -212.5t-208 -73.5q-130 0 -209 73t-100 213z"/>
    <glyph glyph-name="gbreve" unicode="ğ" horiz-adv-x="1133" d="M860 -199q0 62 -57 88.5t-207 28.5q-171 2 -259 51q-7 4 -9 4q-22 0 -46 -43t-24 -90q0 -98 82 -157.5t219 -59.5q132 0 216.5 51.5t84.5 126.5zM553 360q79 0 126.5 71.5t47.5 191.5q0 118 -47.5 189t-126.5 71t-127.5 -71.5t-48.5 -188.5q0 -119 48.5 -191t127.5 -72z M971 756q22 -38 33.5 -76.5t11.5 -77.5q0 -146 -130.5 -234.5t-348.5 -88.5q-8 0 -28 1t-32 1q-33 0 -51 -12.5t-18 -35.5q0 -45 228 -54q7 -1 11 -1q243 -10 351 -72.5t108 -191.5q0 -149 -174 -257t-430 -108q-203 0 -337 72t-134 172q0 40 24.5 70.5t89.5 66.5l93 54 q16 9 23 14t7 8q0 6 -2.5 10.5t-8.5 9.5l-44 35q-57 48 -84 80.5t-27 55.5q0 25 69 49q14 5 21 8l103 39q15 5 20.5 8t6.5 6q0 3 -4.5 7.5t-13.5 10.5l-42 23q-95 56 -134.5 116.5t-39.5 147.5q0 144 128.5 241t324.5 97q147 0 286 -55q6 -2 11 -4l17 -7q39 -18 77 -18 q4 0 12 1t12 1l70 6q4 0 13.5 1.5t15.5 1.5q44 0 56.5 -20t12.5 -81q0 -7 -8.5 -10.5t-23.5 -3.5q-34 0 -62.5 -1.5t-58.5 -4.5zM258 1376h76q17 -65 71.5 -94t161.5 -29q108 0 162.5 29.5t68.5 93.5h76q-20 -139 -99 -212.5t-208 -73.5q-130 0 -209 73t-100 213z"/>
    <glyph glyph-name="Idotaccent" unicode="İ" horiz-adv-x="786" d="M223 1106q0 48 -18 69t-72 29q-4 0 -5.5 0.5t-2.5 1.5q-43 6 -54.5 14.5t-11.5 26.5q0 20 13.5 31.5t36.5 11.5q5 0 29 -2q129 -12 257 -12t257 12q24 2 30 2q23 0 36 -11.5t13 -33.5q0 -30 -62 -38l-3 -1h-2q-63 -9 -82 -29.5t-19 -68.5v-932q0 -48 19 -68.5t82 -29.5 q4 -1 11 -2q56 -7 56 -35q0 -22 -13 -34.5t-36 -12.5q-6 0 -31 3q-128 13 -256 13t-257 -14q-24 -2 -29 -2q-23 0 -36.5 12t-13.5 33q0 30 57 38l3 1q3 1 6 1.5t8 0.5q54 8 72 29t18 69v928zM266 1602q0 50 38 88.5t89 38.5q52 0 89.5 -37.5t37.5 -89.5q0 -56 -36 -91.5 t-91 -35.5q-54 0 -90.5 36.5t-36.5 90.5z"/>
    <glyph glyph-name="Scedilla" unicode="Ş" horiz-adv-x="1171" d="M119 348q0 20 13 32.5t34 12.5q36 0 58 -84q11 -41 20 -65q35 -100 102 -149.5t166 -49.5q127 0 203 58t76 153q0 84 -56.5 141.5t-245.5 139.5q-201 87 -276.5 172.5t-75.5 212.5q0 171 144 288t356 117q92 0 172.5 -17.5t120.5 -43.5q17 -12 24 -29t7 -72v-174 q0 -20 -10 -31.5t-27 -11.5q-39 0 -77 93l-9 21q-43 101 -90.5 136t-131.5 35q-93 0 -151.5 -49t-58.5 -127q0 -113 191 -188l81 -33q208 -93 294.5 -190.5t86.5 -233.5q0 -192 -157.5 -321.5t-397.5 -129.5q-108 0 -207 26t-145 62q-19 15 -26 38.5t-7 88.5v172zM305 -375 l41 88q73 -39 130.5 -56t117.5 -17q40 0 63 21.5t23 59.5q0 43 -25.5 64.5t-74.5 21.5q-14 0 -29.5 -1.5t-32.5 -3.5v198h70v-112q16 2 32.5 3.5t33.5 2.5q86 0 136 -46t50 -124q0 -86 -60 -133.5t-169 -47.5q-55 0 -125 18.5t-181 63.5z"/>
    <glyph glyph-name="scedilla" unicode="ş" horiz-adv-x="930" d="M109 301q35 0 71 -74q15 -31 25 -49q43 -75 99 -110t134 -35q82 0 135.5 39t53.5 98q0 48 -34 80t-153 80l-28 11q-338 131 -338 304q0 137 115 220t307 83q66 0 133 -9.5t125 -27.5q31 -9 41 -23t10 -44v-23q0 -84 -10 -105.5t-37 -21.5q-30 0 -73 59l-21 27 q-44 54 -86.5 76.5t-98.5 22.5q-66 0 -109.5 -30t-43.5 -75q0 -70 205 -141l47 -17q158 -57 222 -126t64 -177q0 -156 -130 -254t-341 -98q-152 0 -242 37t-90 98q0 120 10.5 162.5t37.5 42.5zM184 -375l41 88q73 -39 130.5 -56t117.5 -17q40 0 63 21.5t23 59.5 q0 43 -25.5 64.5t-74.5 21.5q-14 0 -29.5 -1.5t-32.5 -3.5v198h70v-112q16 2 32.5 3.5t33.5 2.5q86 0 136 -46t50 -124q0 -86 -60 -133.5t-169 -47.5q-55 0 -125 18.5t-181 63.5z"/>
    <glyph glyph-name="Cacute" unicode="Ć" horiz-adv-x="1384" d="M66 645q0 146 62 275.5t179 228.5q108 89 244.5 133.5t302.5 44.5q127 0 237 -23t148 -53q14 -9 26.5 -75.5t12.5 -143.5q0 -23 -10.5 -35t-30.5 -12q-31 0 -71 65q-19 31 -31 48q-56 76 -119 110.5t-146 34.5q-189 0 -315.5 -171.5t-126.5 -434.5q0 -258 125 -426 t313 -168q97 0 179 53t131 148l22 45q38 78 64 78q23 0 30.5 -18.5t7.5 -94.5v-27q0 -73 -7 -104.5t-25 -48.5q-59 -53 -171.5 -83t-252.5 -30q-351 0 -564.5 189t-213.5 495zM610 1438l273 282q40 43 72 61.5t63 18.5q40 0 65 -25t25 -65q0 -31 -18 -53t-76 -53l-313 -166 h-91z"/>
    <glyph glyph-name="cacute" unicode="ć" horiz-adv-x="1040" d="M623 948q148 0 248 -40t100 -95q0 -87 -26 -142t-66 -55q-29 0 -56 24t-63 85q-11 18 -28 50q-54 99 -111 99q-94 0 -172 -107.5t-78 -254.5q0 -175 103 -291.5t257 -116.5q74 0 147 40t76 40q16 0 26.5 -9.5t10.5 -24.5q0 -17 -22 -40t-66 -51q-82 -51 -159.5 -75.5 t-159.5 -24.5q-230 0 -378.5 140.5t-148.5 357.5q0 222 154.5 356.5t411.5 134.5zM391 1059l273 282q40 43 72 61.5t63 18.5q40 0 65 -25t25 -65q0 -31 -18 -53t-76 -53l-313 -166h-91z"/>
    <glyph glyph-name="Ccaron" unicode="Č" horiz-adv-x="1384" d="M66 645q0 146 62 275.5t179 228.5q108 89 244.5 133.5t302.5 44.5q127 0 237 -23t148 -53q14 -9 26.5 -75.5t12.5 -143.5q0 -23 -10.5 -35t-30.5 -12q-31 0 -71 65q-19 31 -31 48q-56 76 -119 110.5t-146 34.5q-189 0 -315.5 -171.5t-126.5 -434.5q0 -258 125 -426 t313 -168q97 0 179 53t131 148l22 45q38 78 64 78q23 0 30.5 -18.5t7.5 -94.5v-27q0 -73 -7 -104.5t-25 -48.5q-59 -53 -171.5 -83t-252.5 -30q-351 0 -564.5 189t-213.5 495zM1104 1786l-225 -348h-148l-225 348h84l215 -178l215 178h84z"/>
    <glyph glyph-name="ccaron" unicode="č" horiz-adv-x="1040" d="M623 948q148 0 248 -40t100 -95q0 -87 -26 -142t-66 -55q-29 0 -56 24t-63 85q-11 18 -28 50q-54 99 -111 99q-94 0 -172 -107.5t-78 -254.5q0 -175 103 -291.5t257 -116.5q74 0 147 40t76 40q16 0 26.5 -9.5t10.5 -24.5q0 -17 -22 -40t-66 -51q-82 -51 -159.5 -75.5 t-159.5 -24.5q-230 0 -378.5 140.5t-148.5 357.5q0 222 154.5 356.5t411.5 134.5zM885 1407l-225 -348h-148l-225 348h84l215 -178l215 178h84z"/>
    <glyph glyph-name="dcroat" unicode="đ" horiz-adv-x="1274" d="M787 72l-5 -3q-180 -108 -301 -108q-193 0 -308.5 134t-115.5 358q0 221 135 358t353 137q79 0 160 -29l9 -3l36 -13q3 -1 5.5 -1.5t8.5 -0.5q8 0 12 7.5t4 25.5v115h-278v96h278q-6 69 -88 91q-3 1 -4 1q-28 4 -38.5 12.5t-10.5 24.5q0 38 108 57h2q14 3 29.5 6t33.5 7 q80 15 162 47t91 32q21 0 30 -12t9 -41q0 -21 -3 -59.5t-3 -55.5v-110h176v-96h-176v-869q0 -25 8.5 -39t23.5 -14q13 0 45 24.5t48 24.5q14 0 21 -11.5t7 -33.5q0 -79 -75 -90q-9 -1 -15 -2q-98 -15 -198.5 -46.5t-106.5 -31.5q-23 0 -33.5 10.5t-15.5 38.5l-10 62h-10z M780 332v370q0 86 -35.5 124t-113.5 38q-114 0 -181 -104t-67 -287q0 -163 70.5 -263.5t181.5 -100.5q80 0 112.5 43.5t32.5 179.5z"/>
    <glyph glyph-name="sfthyphen" unicode="­" horiz-adv-x="621" d="M580 584q9 0 13.5 -3.5t4.5 -11.5q0 -3 -0.5 -6t-1.5 -6l-63 -202q-4 -12 -14 -19.5t-21 -7.5h-453q-9 0 -13.5 3t-4.5 9q0 5 0.5 8t1.5 5l63 204q3 10 13.5 18.5t21.5 8.5h453z"/>
    <glyph glyph-name="periodcentered" unicode="∙" horiz-adv-x="602" d="M139 645q0 67 47 113.5t115 46.5t115 -46.5t47 -113.5t-47 -114.5t-115 -47.5t-115 47.5t-47 114.5z"/>
    </font>
</defs>
</svg>
