<?xml version="1.0" encoding="UTF-8" standalone="no"?>
<!DOCTYPE svg PUBLIC "-//W3C//DTD SVG 1.1//EN" "http://www.w3.org/Graphics/SVG/1.1/DTD/svg11.dtd">
<svg>
<metadata>
Created by FontForge 20090622 at Wed Aug 12 11:30:21 2015
 By deploy user
(C) 1994 Brendel Informatik GmbH
</metadata>
<defs>
<font id="Kolibri" horiz-adv-x="321">
  <font-face font-family="Kolibri" font-weight="100" font-stretch="normal" units-per-em="1000" panose-1="0 0 0 0 0 0 0 0 0 0" ascent="800" descent="-200" x-height="212" cap-height="605" bbox="-249 -325 945 687" underline-thickness="50" underline-position="25" unicode-range="U+0020-U+2219"/>
<missing-glyph horiz-adv-x="687" d="M42 0v687h603v-687h-603zM603 42v603h-519v-603h519z"/>
    <glyph glyph-name=".notdef" horiz-adv-x="687" d="M42 0v687h603v-687h-603zM603 42v603h-519v-603h519z"/>
    <glyph glyph-name=".null" horiz-adv-x="0"/>
    <glyph glyph-name="nonmarkingreturn" horiz-adv-x="188"/>
    <glyph glyph-name="space" unicode=" " horiz-adv-x="188"/>
    <glyph glyph-name="exclam" unicode="!" horiz-adv-x="215" d="M253 502q38 24 53 24q9 0 9 -8q0 -7 -28 -36q-26 -29 -67 -97q-35 -61 -62 -135q-23 -69 -23 -110l-4 -5q-3 2 -4.5 4.5t-1.5 3.5q0 18 6 49t20 80q25 91 102 230zM120 0q-17 -11 -24 -13q-9 0 -10 16q0 15 5 35l12 43q20 20 28 20q6 0 6 -8l-5 -22l-9 -34z"/>
    <glyph glyph-name="quotedbl" unicode="&quot;" horiz-adv-x="150" d="M80 277l20 50q13 36 22 49t19 14q14 0 14 -16q0 -6 -8.5 -21.5t-31.5 -44.5l-22 -27l-5 -7zM144 277l20 50q16 41 23 52t18 11q15 0 15 -16q0 -8 -9 -23l-32 -43l-22 -27l-6 -7z"/>
    <glyph glyph-name="dollar" unicode="$" horiz-adv-x="291" d="M286 377l16 -2l18 3l15 9l9 5l3 -1q-20 -39 -56 -39l-16 2l-50 -110q63 -33 63 -93q0 -51 -42.5 -90.5t-101.5 -39.5l-7 1l-21 -73l-17 -6l26 79l-20 3l-15 -50l-16 -4l18 58q-41 13 -58 23q-17 12 -17 25q0 7 8 26q16 -22 31 -36q17 -12 42 -21l6 15l59 158l6 14 q-43 28 -43 68q0 36 27.5 60.5t73.5 24.5h13l4 7l6 12l13 26l15 4l-26 -50l11 -3l8 -2l3 -1l28 54l14 3l-14 -29l-10 -20zM231 368l-24 4q-24 0 -42.5 -14.5t-18.5 -36.5q0 -23 39 -53zM242 364l-35 -77l-8 -17l-3 -9l18 -11l49 106zM181 226l-3 -4q-12 -35 -14 -40 q-6 -17 -21 -53l-30 -83l-2 -4l20 -3l4 13q11 31 25 67l33 81l7 18zM211 212l-16 -39l-50 -129l-2 -6l9 -1q49 0 83.5 27.5t34.5 68.5q0 45 -59 79z"/>
    <glyph glyph-name="percent" unicode="%" horiz-adv-x="369" d="M79 -26l-7 -4l-15 -6l-6 6q0 15 45 81l52 75l35 44l41 51l37 41l35 37l9 10q-14 -4 -23.5 -5.5t-19.5 -1.5l-18 1q-18 -46 -55 -78.5t-69 -32.5q-19 0 -34 15q-13 16 -13 38q0 45 39.5 91.5t81.5 46.5h6q8 5 18 7q16 0 24 -14q10 -13 10 -34q0 -15 -5 -29l13 -1 q38 0 59 11l8 7l9 10q33 33 55 50q16 12 27 14l5 -5q0 -12 -28 -39q-28 -25 -71 -45q-73 -75 -145.5 -175.5t-99.5 -165.5zM279 176q16 25 39 25q17 0 31 -15q3 -4 8 -13.5t5 -24.5q0 -53 -44.5 -106t-91.5 -53q-21 0 -35.5 15.5t-14.5 39.5q0 41 30 79t73 53zM236 315l2 14 q0 19 -7.5 31.5t-18.5 14.5q-10 0 -11 -16q0 -29 35 -44zM234 306q-43 14 -43 52l2 13l-6 1q-30 0 -62 -36q-30 -36 -30 -75q0 -22 11 -33.5t30 -11.5q27 0 56.5 26.5t41.5 63.5zM301 141l-1 -6q-26 0 -26 25q-29 -4 -51.5 -32t-22.5 -62q0 -23 13.5 -38.5t34.5 -15.5 q33 0 65 41t32 83q0 17 -9 31q-9 11 -21 13q-11 0 -19 -6.5t-8 -18.5q0 -7 13 -14z"/>
    <glyph glyph-name="ampersand" unicode="&amp;" horiz-adv-x="717" d="M319 320l-1 -17q0 -80 33.5 -154t91.5 -118q37 23 62 66q23 43 23 90q0 31 -11 59q-66 24 -66 55q0 12 12 12q15 0 33.5 -17.5t29.5 -41.5l33 -4q31 0 63 12l3 -10q-29 -12 -65 -12l-29 3q8 -30 8 -54q0 -95 -87 -166q52 -40 114 -40q54 0 91.5 31.5t37.5 75.5 q0 25 -21 43l3 3l6 5l4 2q8 0 17 -13q7 -14 7 -31q0 -52 -46 -91.5t-112 -39.5q-59 0 -125 39q-72 -45 -157 -45q-79 0 -129 42.5t-50 110.5q0 72 43 108q18 15 41.5 31t48.5 31l43 22l19 9l8 4l1 7l4 14q18 75 68 126.5t102 51.5q20 0 34.5 -12t14.5 -30q0 -30 -32 -62 q-30 -28 -91 -59l-66 -30zM320 332l8 4q93 41 130.5 70.5t37.5 60.5q0 15 -11.5 25.5t-27.5 10.5q-48 0 -87 -48.5t-50 -122.5zM419 13q-127 97 -127 257l1 39l-7 -4q-71 -35 -116 -71.5t-45 -103.5q0 -64 48 -109q24 -22 54 -33t68 -11q62 0 124 36z"/>
    <glyph glyph-name="quotesingle" unicode="'" horiz-adv-x="90" d="M80 277l20 50q13 36 22 49t19 14q14 0 14 -16q0 -6 -8.5 -21.5t-31.5 -44.5l-22 -27l-5 -7z"/>
    <glyph glyph-name="parenleft" unicode="(" horiz-adv-x="364" d="M651 687l2 -9q-111 -51 -197 -122t-149.5 -160.5t-100.5 -195.5t-37 -186q0 -91 40 -153l-8 -7q-28 30 -46 80t-18 106q0 144 89.5 294.5t186.5 218.5q93 64 148 93.5t90 40.5z"/>
    <glyph glyph-name="parenright" unicode=")" horiz-adv-x="369" d="M311 684q61 -82 61 -192q0 -118 -69.5 -249.5t-155.5 -206t-158.5 -117.5t-134.5 -64l-3 9l9 3l62 31l59 36q35 23 67.5 49.5t57.5 52.5l12 11l9 9q92 94 153 227q29 65 45 127.5t16 115.5q0 87 -38 151z"/>
    <glyph glyph-name="asterisk" unicode="*" horiz-adv-x="215" d="M238 601l-8 -12l-36 -55l13 6l53 24l15 7l5 -12l-7 -3l-60 -25l-8 -4l73 -6l-5 -10l-70 3l-14 1l31 -55l-17 -11l-26 52l-3 -7l-10 -31l-8 -31l-2 -9l-15 -7l3 11l10 33l11 36l3 7l-70 -62l-5 14l70 59l-64 -10l14 17q16 0 25 2l31 2l-13 39l14 15l14 -43l5 9l17 29 l16 24z"/>
    <glyph glyph-name="comma" unicode="," horiz-adv-x="181" d="M20 -50q35 17 52 32q19 14 19 25q0 7 -7 8l-3 -1l-6 -1l-5 -1q-13 0 -14 16q0 13 15 25t34 12q26 0 26 -23q0 -25 -32 -54q-29 -29 -74 -47z"/>
    <glyph glyph-name="hyphen" unicode="-" horiz-adv-x="242" d="M200 121q-15 -29 -40 -29l-3 1l-28 1q-17 0 -43 -6q11 19 20.5 25t26.5 6l46 -2z"/>
    <glyph glyph-name="period" unicode="." horiz-adv-x="184" d="M95 65q15 0 15 -16q0 -21 -19.5 -40.5t-35.5 -21.5q-15 0 -15 17q0 26 22 44q8 6 17.5 11t15.5 6z"/>
    <glyph glyph-name="slash" unicode="/" horiz-adv-x="467" d="M551 612l-62 -65l-71 -83l-75 -94q-11 -14 -28.5 -39l-39.5 -58q-17 -24 -41 -64l-42 -71l-38.5 -76l-39.5 -85l-8 -18l-22 12l6 15q128 273 333 522l67 77q19 23 26 27q6 6 15 6q8 0 20 -6z"/>
    <glyph glyph-name="zero" unicode="0" horiz-adv-x="315" d="M145 278l5 -8q-97 -88 -97 -183q0 -37 21 -62t54 -25q67 0 130.5 81.5t63.5 170.5q0 39 -15.5 62t-45.5 23q-65 0 -89 -124l-9 2q6 60 39.5 103.5t73.5 43.5q29 0 46.5 -24.5t17.5 -64.5q0 -104 -74 -201.5t-154 -97.5q-36 0 -57 24.5t-21 69.5q0 105 111 210z"/>
    <glyph glyph-name="one" unicode="1" horiz-adv-x="198" d="M83 301l36 15q31 13 60 29q20 10 42.5 23t43.5 27l10 -5q-41 -53 -82 -124q-36 -64 -63.5 -141.5t-27.5 -141.5q-27 -24 -38 -25q-10 0 -10 11q0 5 0.5 9t7.5 30l19 62l30 71l34 71l21 40l18 28l37 56l20 30l5 7l-8 -5l-31 -21l-91 -52l-26 -10q-7 0 -8 8z"/>
    <glyph glyph-name="two" unicode="2" horiz-adv-x="324" d="M184 45q42 -56 76 -56q20 0 34.5 15.5t14.5 39.5t-16 47l7 5q17 -25 17 -51q0 -31 -21 -54q-10 -10 -23 -16t-29 -6q-39 0 -85 55l-7 -5q-63 -42 -101 -42q-22 0 -33.5 14t-11.5 39q0 38 24 65.5t54 27.5q22 0 43 -15.5t51 -55.5q45 36 91 102t46 118q0 42 -24.5 70.5 t-63.5 28.5t-68.5 -34t-29.5 -84q-9 9 -9 16q0 16 15 48t46.5 55.5t65.5 23.5q39 0 64.5 -28t25.5 -68q0 -118 -153 -255zM153 33q-48 69 -82 69q-20 0 -38 -19q-15 -18 -15 -44q0 -20 12 -35q13 -13 32 -13q34 0 91 42z"/>
    <glyph glyph-name="three" unicode="3" horiz-adv-x="299" d="M253 219q35 -38 35 -80q0 -68 -53.5 -120t-124.5 -52q-46 0 -75 27.5t-29 67.5q0 53 49 80l4 -6q-16 -10 -25 -23.5t-9 -33.5q0 -35 33.5 -61.5t79.5 -26.5q54 0 95 41t41 96q0 45 -40 79l-45 -17l-37 -4q-14 0 -19.5 1t-17 7.5t-12.5 19.5q0 15 19.5 25.5t46.5 10.5 q44 0 76 -25q52 34 52 87q0 31 -20.5 52t-51.5 21q-44 0 -86 -48l-9 4q49 61 107 61q34 0 56.5 -21.5t22.5 -54.5q0 -62 -63 -107zM225 215q-9 5 -14.5 7t-23 7.5t-36.5 5.5q-36 0 -36 -20t38 -20h17q12 3 23.5 5t31.5 15z"/>
    <glyph glyph-name="four" unicode="4" horiz-adv-x="312" d="M229 150l67 4h21q11 -3 17 -4l-19 -31q-14 3 -27.5 5t-28.5 2l-40 -2q-14 -30 -24 -63.5t-10 -50.5l2 -22l-25 -17l-6 -6l-3 -2q-7 0 -8 16q0 47 43 140l-9 -2l-51 -9l-24 -4l-17 -2q-46 0 -46 41q0 58 77 124.5t122 91t76 24.5q30 0 30 -20q0 -10 -30 -57 q-25 -40 -67 -117zM201 144l3 5l15 28l17 30l51 76l29 44q8 17 10 28q0 14 -21 14q-25 0 -69.5 -24.5t-110 -83t-65.5 -102.5q0 -35 36 -35q14 0 52 9l25 5l21 4z"/>
    <glyph glyph-name="five" unicode="5" horiz-adv-x="322" d="M370 389q-55 -41 -127 -41l-25 1q-12 0 -27 5q-34 -41 -59 -108q49 49 106 49q39 0 62.5 -27.5t23.5 -71.5q0 -35 -11.5 -68t-41 -71t-73 -61.5t-89.5 -23.5q-45 0 -74 26t-29 65q0 36 31 67l7 -5q-17 -20 -17 -40q0 -35 31 -62q33 -25 76 -25t82 23.5t66 68.5t27 90 q0 43 -24.5 69.5t-64.5 26.5q-51 0 -92 -50l-15 6q37 96 86 150q38 -11 72 -11h29q12 3 25.5 5t28.5 11l12 5z"/>
    <glyph glyph-name="six" unicode="6" horiz-adv-x="300" d="M343 339q-21 33 -52 33q-38 0 -83.5 -27.5t-95.5 -89.5t-50 -147q0 -48 26 -78.5t64 -30.5q49 0 95 50t46 104q0 33 -19 55t-48 22q-33 0 -63 -29t-45 -80l-10 3q15 53 53 90t77 37q30 0 49.5 -20.5t19.5 -54.5q0 -74 -54 -139.5t-118 -65.5q-41 0 -68 30q-24 30 -24 83 q0 47 19 95.5t57 98t89.5 81t94.5 31.5q23 0 40 -8t17 -19q0 -10 -17 -24z"/>
    <glyph glyph-name="seven" unicode="7" horiz-adv-x="241" d="M346 385l8 -12l-9 -6l-22 -18q-20 -17 -35 -32l-90 -94q-62 -67 -89 -136q-23 -62 -28 -96l-33 -25l-5 -3q-6 0 -8 12q0 11 12 44q8 19 14.5 33t20.5 37l48 73q24 33 68 80t69 69l37 33l8 8q-12 -5 -28.5 -9t-28.5 -4l-23 2q-15 2 -22 5l-40 13l-25 4q-18 0 -31.5 -11 t-31.5 -46l-4 -9l-9 2l5 11q40 79 89 79l28 -3l55 -17l18 -4l19 -1q30 0 63 21z"/>
    <glyph glyph-name="eight" unicode="8" horiz-adv-x="254" d="M275 344q-18 33 -50 33q-27 0 -47.5 -20.5t-20.5 -46.5q0 -22 17 -52l10 6l28 18q63 38 145 73l4 -12q-20 -7 -37.5 -14t-44.5 -20q-40 -19 -92 -54l-8 -5l5 -8l27 -40q16 -25 23.5 -47t7.5 -44q0 -55 -39.5 -95.5t-92.5 -40.5q-38 0 -65.5 25.5t-27.5 62.5q0 40 33 86 t94 89q-10 25 -10 46q0 40 30 72.5t71 32.5q19 0 37.5 -9.5t18.5 -21.5q0 -5 -16 -14zM148 230q-108 -78 -108 -160q0 -34 23 -57.5t57 -23.5q41 0 70 27.5t29 68.5q0 22 -7 37l-10 23q-3 9 -22 38l-27 40z"/>
    <glyph glyph-name="nine" unicode="9" horiz-adv-x="220" d="M271 346q0 23 -13 36t-36 13q-14 0 -26.5 -4t-31.5 -16q-31 -19 -53 -50t-22 -64q0 -24 12.5 -38t33.5 -14q61 0 133 111l16 4l3 -4l-6 -8l-7 -9l-3 -4q-35 -44 -77 -126q-38 -72 -47 -110q-4 -18 -6 -32.5t-2 -32.5v-15l1 -3l-10 -9q-17 -15 -26 -16q-6 3 -8.5 6.5 t-2.5 12.5q0 26 18 73q10 24 21.5 47.5t28.5 51.5l50 81l4 9q-55 -52 -96 -52q-24 0 -41 14q-15 15 -15 40q0 59 56.5 114t117.5 55q21 0 36.5 -9.5t15.5 -26.5q0 -13 -18 -25z"/>
    <glyph glyph-name="colon" unicode=":" horiz-adv-x="217" d="M118 65q16 0 16 -16q0 -10 -8 -22q-4 -7 -8 -13t-13.5 -15.5t-25.5 -11.5q-16 0 -16 17q0 26 22 44q8 6 17.5 11t15.5 6zM152 203q15 0 15 -15q0 -9 -5.5 -21t-21.5 -28q-14 -12 -27 -14q-15 0 -15 16q0 26 21 44t33 18z"/>
    <glyph glyph-name="semicolon" unicode=";" horiz-adv-x="217" d="M152 203q15 0 15 -15q0 -9 -5.5 -21t-21.5 -28q-14 -12 -27 -14q-15 0 -15 16q0 26 21 44t33 18zM20 -50q35 17 52 32q19 14 19 25q0 7 -7 8l-3 -1l-6 -1l-5 -1q-13 0 -14 16q0 11 15 25q15 12 33 12q27 0 27 -23q0 -25 -32 -54q-29 -29 -74 -47z"/>
    <glyph glyph-name="question" unicode="?" horiz-adv-x="272" d="M113 81q20 12 29 12l5 -6l-3 -11q-18 -39 -18 -66l-18 -16q-9 -9 -14 -10q-6 0 -8 12q0 16 6 37t21 48zM200 167q-6 -44 -40 -44q-37 0 -37 38q0 34 34 69l34 33l43 36l48 38q40 32 56 56t16 50q0 25 -19 42.5t-48 17.5q-43 0 -78.5 -29t-35.5 -64q0 -10 7 -21 q-17 -18 -22 -18q-11 0 -11 17q0 9 9 30.5t26.5 43t54 40.5t73.5 19q78 0 78 -64q0 -54 -71 -107l-83 -63q-91 -70 -91 -108q0 -25 23 -25q11 0 16.5 2t17.5 11z"/>
    <glyph glyph-name="A" unicode="A" horiz-adv-x="619" d="M509 277q13 0 27 -1t29 -4q19 -2 28 -3.5t21 -4.5q21 -3 21 -12l-5 -11l-4 -7q-30 12 -55 16.5t-40 6.5t-32 2l-7 -15l-7 -14q-56 -115 -56 -180q0 -33 13.5 -52.5t35.5 -19.5q17 0 38.5 11t49.5 36q56 47 126 132l6 8l7 -6q-24 -33 -61.5 -73.5t-93 -88.5t-101.5 -48 q-27 0 -43 23.5t-16 61.5q0 86 74 219l4 8h-11q-36 0 -87 -6q-29 -3 -44.5 -6t-29.5 -8l-5 -5l-14 -16l-17 -19l-28 -33l-17 -23q-81 -96 -129 -136.5t-79 -40.5q-32 0 -32 35q0 56 87.5 130t199.5 109l28 9l6 7l36 43l39 41l115 118q37 35 97.5 81.5t95.5 46.5q19 0 19 -15 q0 -8 -6 -20l-13 -20l-19 -28l-31 -44l-69 -99l-47 -78zM308 256l81 15q36 6 80 6l9 1l3 5l17 30q23 36 52.5 78t75.5 102l33 41q15 20 17 32q0 9 -11 9q-7 0 -24.5 -8.5t-49.5 -31.5l-31 -22l-30 -25l-57 -53l-48 -49l-44 -48q-11 -11 -30.5 -32.5t-35.5 -41.5zM280 238 q-36 -9 -74 -26t-87 -48t-83.5 -72.5t-34.5 -71.5q0 -25 26 -25q44 0 126 95l121 140z"/>
    <glyph glyph-name="B" unicode="B" horiz-adv-x="529" d="M424 351q85 -55 85 -162q0 -106 -84.5 -187.5t-197.5 -81.5q-70 0 -114 33.5t-44 85.5q0 18 9 37.5t25 30.5l4 -7q-25 -25 -25 -53q0 -49 42.5 -82.5t108.5 -33.5q75 0 130.5 40t83.5 90t28 103q0 102 -80 163l-7 -5l-79 -49q-28 -15 -79 -35q-25 -8 -44 -12t-41 -4 l-29 3l-23 -34l-27 -47q-59 -101 -59 -147q-12 -12 -20 -13l-4 6l6 21l19 44q10 25 37 72q23 41 26 46q14 24 27 44l8 11q-23 15 -23 38q0 30 36 62q36 30 96 48q9 13 17.5 23.5t26.5 30.5l51 56l80 77q61 56 125 56q55 0 55 -52q0 -43 -40 -101.5t-106 -114.5zM230 381 q39 6 61 6q65 0 124 -31q30 24 79 79t49 112q0 47 -47 47q-30 0 -64.5 -19t-70 -52t-68.5 -69zM385 334q-46 35 -113 35q-16 0 -26 -2q-15 0 -31 -5l-35 -44l-19 -25l-40 -60l24 -3q47 0 112 29t128 75zM200 359q-44 -12 -75.5 -39t-31.5 -53q0 -20 19 -30l2 3l14 22l15 22 l18 24l24 30l13 17z"/>
    <glyph glyph-name="C" unicode="C" horiz-adv-x="530" d="M503 471l4 -6q-88 -32 -88 -88q0 -21 15.5 -35.5t38.5 -14.5q49 0 92.5 48.5t43.5 104.5q0 54 -38 86q-36 33 -100 33q-116 0 -214 -82t-138 -167q-20 -43 -30 -84.5t-10 -88.5q0 -120 68.5 -174.5t136.5 -54.5q84 0 153 63t90 160h9q-23 -109 -103.5 -180t-181.5 -71 q-90 0 -148 61t-58 156q0 81 36 166t100 154.5t149 114t158 44.5q62 0 100 -32t38 -85q0 -72 -52 -130.5t-113 -58.5q-26 0 -44.5 16.5t-18.5 38.5q0 32 30 63t75 43z"/>
    <glyph glyph-name="D" unicode="D" horiz-adv-x="640" d="M117 89q0 -45 33 -92.5t121 -47.5q146 0 284 163.5t138 338.5q0 65 -32.5 103.5t-90.5 38.5q-101 0 -208 -88q-103 -85 -164 -154l-4 -9l-13 -35q-11 -29 -26 -59.5t-34 -65.5q-33 -60 -66 -110l-46 -64q-14 -18 -21 -20q-5 4 -5 7q0 8 5 19l18 44l31 68l26 50 q16 25 23 37q30 48 66 97l10 11l14 18l14 17q12 39 22 88q8 48 8 81l-3 42l9 7l5 2q6 0 7 -16q0 -28 -1.5 -39.5t-6.5 -40.5q-8 -47 -22 -98l-3 -9l8 8l36 37q7 8 36 34.5l81 72.5q102 93 232 93q55 0 86.5 -36.5t31.5 -101.5q0 -191 -153 -374.5t-316 -183.5 q-81 0 -123.5 44t-42.5 72q0 10 8 21t28 30z"/>
    <glyph glyph-name="E" unicode="E" horiz-adv-x="580" d="M643 498l1 8h10q20 0 34.5 7.5t14.5 18.5q0 39 -122 39q-42 0 -79 -3t-82 -11q-83 -14 -123.5 -31t-56 -27.5t-17.5 -18.5l5 -5h5l5 1q-9 -20 -21 -22q-11 0 -13 15q0 27 65 54.5t145.5 42.5t167.5 15q141 0 141 -42q0 -18 -20.5 -29.5t-51.5 -11.5h-8zM396 521l-7 -6 q-67 -51 -104 -85t-71.5 -76t-57.5 -86l9 3q216 63 350 63h18h7q19 0 19 -9q0 -6 -5 -14q-42 4 -59 4.5t-27 0.5q-114 0 -268 -44l-48 -15q-5 -8 -9.5 -21.5t-10.5 -35.5q-9 -36 -9 -64q0 -80 48.5 -129.5t127.5 -49.5q84 0 173.5 51t178.5 152l6 7l7 -8 q-211 -238 -397 -238q-81 0 -130 50.5t-49 130.5q0 73 41 148l-84 -26l3 9l36 12l28 9l14 4l9 3l2 5q40 60 78 104l35 38l37 36q18 17 35 31t29 23l34 25l4 3z"/>
    <glyph glyph-name="F" unicode="F" horiz-adv-x="471" d="M604 505v9q45 12 45 33q0 32 -74 32q-90 0 -172.5 -27t-122.5 -43l-26 -9t-32 -14q-10 -4 -17.5 -7.5t-16.5 -9.5l-24 -13q2 14 8.5 19t138 60t281.5 55q37 0 58 -9.5t21 -26.5q0 -33 -67 -49zM370 521l-7 -8q-41 -47 -85 -109t-72 -112l10 2l58 14l98 16q25 3 48.5 5 t41.5 2h25q19 0 20 -7q0 -5 -9 -16l-2 -3q-40 10 -83 10q-57 0 -114 -12l-66 -14l-34 -10l-24 -46l-36 -82q-20 -51 -36 -117.5t-16 -128.5q0 -35 10 -71l-7 -6l-12 -11l-14 -13l-5 -3l-4 -2q-10 0 -10 32q0 83 33.5 200t85.5 209l15 26l5 9q-38 -10 -77 -24t-85 -35l-10 -5 l2 14l9 2l33 14l48 18l58 20l21 6l8 3l6 9l16 26l27 42l20 31l14 19l40 56l32 43q9 9 17 9z"/>
    <glyph glyph-name="G" unicode="G" horiz-adv-x="582" d="M538 503q-76 -26 -76 -77q0 -21 16.5 -35.5t41.5 -14.5q52 0 97.5 45t45.5 94q0 40 -32.5 63.5t-90.5 23.5q-74 0 -151.5 -37.5t-172.5 -128.5t-95 -213q0 -72 43.5 -118t113.5 -46q63 0 133 37t102.5 80.5t32.5 69.5l12 6l13 4q6 0 7 -11q0 -33 -21.5 -104.5 t-139 -209.5t-300.5 -138q-89 0 -146 44.5t-57 115.5q0 54 30.5 94.5t84.5 55.5l3 -7q-94 -36 -94 -118q0 -67 58 -112.5t148 -45.5q91 0 179 52.5t137 123t68.5 120t19.5 81.5l-1 6q-45 -70 -133 -117.5t-173 -47.5q-68 0 -112 42.5t-44 112.5q0 144 159.5 285.5 t320.5 141.5q54 0 86.5 -24t32.5 -65q0 -61 -55 -114.5t-119 -53.5q-28 0 -47 15t-19 39q0 61 86 92z"/>
    <glyph glyph-name="H" unicode="H" horiz-adv-x="629" d="M742 615l-36 -41q-21 -24 -30 -36l-54 -71l-58 -85l-50 -82l-4 -8q51 0 66.5 -3.5t16.5 -11.5l-3 -9l-47 10l-40 2l-5 -9q-49 -93 -72 -153t-23 -97q0 -50 42 -50q43 0 114 51q36 26 72 60t75 80l5 6l7 -6q-28 -33 -87 -90t-114 -96.5t-104 -39.5q-56 0 -56 64 q0 82 91 239l19 33l5 8h-13q-63 0 -137 -16l-3 -3l-8 -12l-20 -24l-13 -17l-28 -34l-18 -23l-35 -39l-10 -12q-64 -73 -122.5 -115.5t-97.5 -42.5q-42 0 -42 44q0 37 36 82t94 86q54 37 119 68q64 27 127 45l9 2l6 2l19 26l62 92l36 62q6 12 10 23t7 25l12 4l5 -6 q0 -6 -16 -35l-13 -24l-33 -56l-28 -41q-7 -11 -21 -31q-9 -13 -20 -27l-6 -8l71 12l77 4l34 54l39 58l48 64l40 49l45 54l31 32zM308 259q-43 -9 -92 -27.5t-112.5 -55t-109.5 -86t-46 -91.5q0 -15 9 -25t25 -12q72 0 156 96l116 134z"/>
    <glyph glyph-name="I" unicode="I" horiz-adv-x="281" d="M355 170l7 -7l-8 -9q-48 -54 -80.5 -85.5t-99 -82t-117.5 -50.5q-23 0 -41 18q-16 19 -16 48q0 28 7 53q3 14 9 30t17 41q17 43 36 79l53 92q34 57 82 122l5 7l-66 -16l-35 -4l-4 1l-2 3l2 5l6 9l21 -1q47 0 88 17l6 8l13 16q48 60 93 100.5t62 40.5q10 0 11 -10 q0 -14 -24.5 -41.5t-61 -58t-86.5 -58.5l-51 -78q-64 -104 -101 -196q-33 -87 -33 -132q0 -59 46 -59q38 0 113 56t149 142z"/>
    <glyph glyph-name="J" unicode="J" horiz-adv-x="522" d="M420 173q-71 24 -147 24q-53 0 -97.5 -11t-86.5 -36q-80 -47 -80 -109q0 -38 31.5 -62t83.5 -24q43 0 88 15.5t93 46.5q95 62 157.5 142t90.5 129t44 91l23 65q6 24 6 50q0 77 -73 77q-29 0 -63 -12t-65 -34l2 10q3 19 18.5 30t51 22.5t63.5 11.5q85 0 85 -88 q0 -41 -17 -90t-81.5 -164t-195 -219.5t-246.5 -104.5q-54 0 -87 24t-33 65q0 74 88.5 129.5t206.5 55.5h27t42 -4q33 -3 53 -9q18 -3 21 -6l6 -4z"/>
    <glyph glyph-name="K" unicode="K" horiz-adv-x="538" d="M328 186l6 -9q114 -177 177 -224t106 -47q25 0 50 11l3 -8q-30 -15 -66 -15q-68 0 -124.5 51t-92.5 97l-83 118l-8 12q-43 -12 -80 -18q-26 -43 -50 -73l-19 -22q-17 -20 -35 -36t-23 -20q-11 -9 -20 -15q-15 -12 -23 -12q-5 0 -17 19q46 21 88 60q38 35 83 99 q-61 0 -102.5 38.5t-41.5 90.5q0 36 22 58t59 22q30 0 55 -16t37 -29q15 -13 37 -41l5 -7l5 9l57 101l49 80l34 50l23 29l13 15l7 5l4 3q5 0 10 -15q-32 -26 -52 -51l-40 -56l-32 -48l-22 -37l-13 -26l-32 -59l-5 -8l46 -67q69 32 138 83.5t140 130.5t98 177l17 3l5 -2l3 -3 q0 -8 -4 -16l-10 -22q-24 -49 -68 -104q-20 -26 -45 -53t-53 -53q-50 -48 -108 -88q-25 -17 -54 -34q-25 -14 -54 -28zM252 238q-43 63 -71 87t-57 24q-24 0 -41.5 -19t-17.5 -47q0 -45 42 -82t101 -37l28 46zM258 229l-36 -64q42 6 68 16z"/>
    <glyph glyph-name="L" unicode="L" horiz-adv-x="704" d="M326 75q-51 -51 -94 -75.5t-88 -24.5q-47 0 -78 34t-31 85q0 56 35.5 91.5t91.5 35.5q40 0 72 -18t58 -40l44 -44l10 -9q26 29 52.5 62.5t49.5 68.5q45 68 85 153l-14 -3h-13q-24 0 -49 12t-25 26l3 8q3 7 13 15q24 -47 75 -47l17 1l5 12l12 25q12 27 19 41q11 22 16 31 q12 20 21 33q3 4 19 24q26 32 52 32q24 0 24 -27q0 -33 -28 -75.5t-66 -69.5q-14 -9 -33.5 -19t-35.5 -16q-29 -62 -48 -95t-52 -81l-42 -58q-7 -10 -11 -15t-14 -15l-20 -23l-6 -7l51 -55l86 -76q59 -51 120 -51q67 0 115 63l7 -4q-48 -71 -135 -71q-46 0 -90 19 q-24 10 -44 22.5t-43 33.5l-17 16l-2 3l-26 22zM551 408q51 16 95.5 64.5t44.5 87.5q0 21 -19 21q-12 0 -33 -21t-39 -51q-8 -13 -19 -35.5t-25 -54.5zM320 83q-55 61 -98 91t-81 30t-66.5 -30.5t-28.5 -70.5q0 -46 33.5 -78.5t80.5 -32.5q72 0 160 91z"/>
    <glyph glyph-name="M" unicode="M" horiz-adv-x="784" d="M725 -52q-23 -18 -32 -20q-15 0 -29.5 30.5t-14.5 60.5q0 56 27 119l26 57.5t21 40.5l40 66l84 127q32 50 32 78q0 40 -40 40q-47 0 -120 -50t-156 -144l-9 -10l-31 -56l-38 -62q-7 -12 -21 -33.5l-26 -38.5l-55 -76l-46 -57l-7 -7q-14 -16 -23 -17l-5 5q0 8 8 21l22 37 q23 40 61 94l64 85l83 100l5 7q26 38 26 76q0 53 -52 53q-70 0 -186 -104q0 -35 -12 -71q-7 -19 -17 -41t-30 -57q-33 -63 -100 -133t-96 -70q-13 0 -13 17q0 50 77 158q38 53 81.5 101.5t91.5 91.5q0 43 -28 71t-71 28t-87 -28.5t-68.5 -68t-30.5 -61.5l-9 -5l-7 4 q0 7 8 22q5 9 12 20.5t23 33.5q27 39 79.5 70.5t103.5 31.5q50 0 69.5 -29t23.5 -73l7 6l61 48q22 16 66 40.5t83 24.5q19 0 31.5 -12.5t12.5 -36.5q0 -25 -19 -69l-4 -9l7 7q60 61 103.5 97.5t97.5 66t87 29.5q40 0 40 -37q0 -33 -48 -107l-79 -118q-47 -69 -75.5 -142 t-28.5 -124q0 -58 50 -98zM92 45q0 -13 13 -14q24 0 78 60t84 114q25 49 37 85t12 63q-88 -78 -156 -171.5t-68 -136.5z"/>
    <glyph glyph-name="N" unicode="N" horiz-adv-x="565" d="M510 -56l-7 -9q-13 -16 -20 -17q-17 0 -32.5 28t-15.5 61q0 29 10 62q5 18 11.5 34.5t17.5 39.5l31 61l54 92q40 68 59.5 110.5t19.5 76.5q0 55 -47 55q-42 0 -87 -32l-31 -22q-26 -19 -44 -34l-75 -69q-51 -50 -72 -74l-21 -24l-8 -10l-10 -18l-18 -32l-10 -18l-41 -71 l-38 -57q-26 -39 -49 -65q-19 -22 -29 -23q-4 3 -5 4.5t-1 2.5q0 23 44 90t142 183l12 15q32 66 32 118q0 35 -23.5 61.5t-57.5 26.5q-48 0 -99.5 -50.5t-63.5 -113.5l-10 -3l-5 4q0 13 17 46q9 17 18 30t20 25q67 82 143 82q36 0 57.5 -25t21.5 -67q0 -11 -1 -22t-4 -21 q-3 -19 -22 -61l-3 -9l7 8q110 121 200.5 187.5t143.5 66.5q46 0 46 -52q0 -29 -17 -71.5t-61 -116.5l-66 -113q-63 -110 -63 -178q0 -63 50 -92z"/>
    <glyph glyph-name="O" unicode="O" horiz-adv-x="592" d="M259 478l2 -10q-92 -57 -147 -142.5t-55 -166.5q0 -50 23 -92t62 -64q35 -18 83 -18q79 0 139 36.5t99 76.5t104.5 133.5t65.5 208.5q0 66 -33 107.5t-88 41.5q-100 0 -180.5 -92t-80.5 -212l-12 -4q-3 2 -5 7q0 10 3 24t11 38q14 46 43.5 103.5t99 109.5t142.5 52 q54 0 87.5 -39t33.5 -101q0 -156 -105.5 -289.5t-187 -184t-161.5 -50.5q-39 0 -76.5 15t-64 48.5t-26.5 111.5q0 123 78.5 217t145.5 135z"/>
    <glyph glyph-name="P" unicode="P" horiz-adv-x="512" d="M213 242l-4 -9l-24.5 -56.5t-22.5 -45.5q-17 -33 -58 -94t-74 -61q-24 0 -24 34q0 37 39 115.5t103 168.5l5 8q-25 44 -25 90q0 11 3 17l13 15v-8q0 -49 27 -93l6 8l35 48l30 36l21 25l6 8q5 17 13 64q6 44 6 72v12l9 3l3 1q6 0 7 -8l-1 -7l-1 -8l-10 -58l-10 -47l-2 -9 q147 150 257 150q46 0 72.5 -29t26.5 -78q0 -37 -15.5 -78.5t-45.5 -85.5q-46 -62 -109 -97.5t-133 -35.5q-66 0 -123 33zM222 265q61 -43 130 -43q98 0 177.5 81.5t79.5 181.5q0 46 -26 73.5t-70 27.5q-50 0 -111.5 -37t-121.5 -104l-5 -12l-14 -50l-7 -26l-6 -16l-22 -63z M264 426l-29 -32l-34 -45l-25 -34q12 -22 39 -43l6 17l25 77zM159 293l-53 -79q-10 -16 -30 -53l-22 -40q-29 -56 -29 -85q0 -28 21 -28q27 0 69 62.5t86 166.5l4 10q-27 18 -46 46z"/>
    <glyph glyph-name="Q" unicode="Q" horiz-adv-x="679" d="M526 45l7 -6l56 -45q100 -78 145 -102.5t86 -24.5q8 0 18.5 0.5t30.5 7.5t44 27l5 -6q-51 -45 -117 -45q-49 0 -109 33l-28 18l-48 35l-22 16l-86 66l-8 6q-126 -87 -248 -87q-93 0 -158 44t-65 108q0 56 45 90.5t115 34.5l33 -2q0 61 28.5 130.5t78.5 134.5t117 106 q34 20 66 30t67 10q69 0 110.5 -49t41.5 -134q0 -51 -13.5 -100t-42.5 -105q-54 -106 -149 -191zM231 212q23 -3 41 -10l46 -19q13 -5 25.5 -11.5t24.5 -14.5l37 -22l9 -6q60 72 60 156q0 17 -7 38l3 2l6 5l4 2q9 0 9 -34q0 -47 -16.5 -90t-49.5 -86l8 -5l58 -42l20 -16 l10 -7q49 46 120 134.5t71 217.5q0 86 -44.5 139.5t-118.5 53.5q-39 0 -83.5 -20.5t-95 -68.5t-94 -134t-43.5 -162zM401 98q-47 -35 -85 -35q-42 0 -68.5 34t-26.5 92l-27 6l-27 1q-55 0 -89.5 -27.5t-34.5 -70.5q0 -60 67 -103q34 -21 73 -32t87 -11q58 0 112 20 q29 9 55.5 23t55.5 36l-14 10l-64 46zM231 187q4 -51 28 -80t61 -29q36 0 71 27q-92 59 -160 82z"/>
    <glyph glyph-name="R" unicode="R" horiz-adv-x="571" d="M379 209l3 -9l35 -107q19 -51 54 -118t121 -67q43 0 93 34l5 -8q-62 -40 -114 -40q-73 0 -117 49.5t-70 115.5l-41 125l-3 10l-9 -3l-28 -10l-32 -8l-19 -4l-6 -2l-16 -25q-20 -36 -44 -68q-21 -31 -49.5 -62.5t-52.5 -31.5q-25 0 -25 34q0 54 62 153l5 8q-80 30 -80 107 q0 55 42.5 97.5t99.5 42.5q51 0 99 -39l9 9l17 18l12 13l6 7q3 12 4 20.5t1 25.5q0 13 -1 25.5t-4 23.5l8 6l6 2q5 0 7 -15q0 -24 -1.5 -35.5t-6.5 -39.5l8 8q80 74 160 121.5t129 47.5q62 0 62 -64q0 -45 -33.5 -101.5t-109 -124.5t-186.5 -121zM346 424l-2 -9 q-3 -20 -9 -37l-7 -26l-3 -12l3 -5q13 -23 24 -50l21 -59l3 -8q67 29 183.5 118.5t116.5 194.5q0 59 -58 59q-46 0 -126 -49q-38 -24 -74 -52.5t-72 -64.5zM141 192l9 13l23 31l42 55l25 29l26 31l10 12q-39 45 -91 45q-45 0 -81.5 -33.5t-36.5 -79.5q0 -66 74 -103z M331 409l-31 -34q11 -9 17 -22l3 8zM283 355q-24 -25 -66 -78l-66 -89q32 -12 70 -12l23 2l5 10l33 68l24 60l-10 21q-5 10 -13 18zM312 302l-24 -57l-27 -57l-4 -8q23 4 43.5 9t41.5 14q-2 13 -4 20t-7 21q-7 26 -19 58zM141 172q-32 -54 -47 -86q-11 -28 -11 -50 q0 -28 21 -28q18 0 57.5 44.5t75.5 113.5l-26 -2l-38 1z"/>
    <glyph glyph-name="S" unicode="S" horiz-adv-x="623" d="M237 253q-35 29 -71 29q-42 0 -74 -33q-30 -33 -30 -82q0 -100 75.5 -144.5t120.5 -57.5q18 -5 43.5 -9t43.5 -4q77 0 131 32l14 7l4 4l16 11q15 11 42 41.5t27 78.5q0 35 -23.5 69t-76.5 74l-36 28q-63 49 -87 83q-25 38 -25 76q0 62 57.5 103t148.5 41 q74 0 126.5 -30.5t52.5 -74.5q0 -20 -16 -34.5t-40 -14.5q-18 0 -30 6l-12 7l-1 3l5 6l2 3l3 -2q17 -12 38 -12q15 0 23.5 8.5t8.5 22.5q0 38 -53.5 69t-117.5 31q-75 0 -122 -30.5t-47 -81.5q0 -57 82 -126l82 -66q80 -66 80 -141q0 -84 -82 -144q-40 -29 -89.5 -45 t-106.5 -16q-119 0 -198.5 60.5t-79.5 150.5q0 60 36 101.5t90 41.5q25 0 46 -9.5t22 -20.5z"/>
    <glyph glyph-name="T" unicode="T" horiz-adv-x="555" d="M572 500l-46 -75l-36 -63l-35 -68l-24 -47l-15 -30l-36 -73l-69 -119q-60 -101 -207 -101q-48 0 -90.5 21.5t-42.5 35.5q0 6 4 10l18 20q54 -57 134 -57q73 0 112 31.5t51 44.5l32 41q18 26 37 58l27 53l21 41l23 45l40.5 79t31.5 57.5l22 38.5q18 30 32 51l6 8 q-40 6 -82 25l-56 25q-52 23 -101 23q-74 0 -138 -65.5t-64 -141.5q0 -50 27 -85.5t68 -35.5q39 0 69.5 32t30.5 76v6l7 5l4 2l3 -7l-6 -31q-13 -43 -47.5 -71.5t-75.5 -28.5q-44 0 -72 32.5t-28 80.5q0 97 78.5 174t180.5 77q50 0 116 -24l64 -26l43 -15q68 81 136 81 q36 0 36 -27q0 -32 -45.5 -58.5t-101.5 -26.5zM592 526l24 -4l23 -2q39 0 71.5 18t32.5 42q0 20 -28 20q-25 0 -60 -21t-63 -53z"/>
    <glyph glyph-name="U" unicode="U" horiz-adv-x="571" d="M51 425q41 51 59 66q14 14 103 78.5t180 64.5q29 0 47 -14t18 -38q0 -45 -60 -117l-131 -153l-25.5 -31t-26.5 -35q-20 -28 -57.5 -89.5t-37.5 -106.5t39 -45q44 0 110 52.5t103 86.5l32.5 30t30.5 32l8 9q25 55 52 103q12 22 28 47l26 39q24 35 41 53.5t25 18.5 q6 0 6 -7q0 -23 -25 -68.5t-49 -76.5l-38 -48l-31 -37l-21 -23q-30 -77 -30 -131q0 -70 42 -70q19 0 48.5 20t65.5 57l24 26l13 14l26 29l6 7l7 -6l-44 -50l-74 -75q-52 -49 -87 -49q-23 0 -36 20.5t-13 56.5q0 53 27 118l3 9l-8 -8l-52 -51l-47 -43l-58 -48 q-27 -21 -66 -45q-36 -24 -74 -24q-45 0 -45 50q0 16 7 38q6 24 20 52.5t27 46.5q6 10 16 24t25 33l47 61l32 38l115 135q56 67 56 110q0 23 -18.5 38t-50.5 15q-58 0 -138 -51.5t-127 -105.5l-17 -20l-5 -6z"/>
    <glyph glyph-name="V" unicode="V" horiz-adv-x="485" d="M35 429q76 85 130 85q42 0 58 -44.5t25 -102.5q4 -28 6 -52.5t2 -54.5q0 -61 -12 -139l25 44q18 32 50 79q13 20 33 48l33 44q33 41 65.5 74t110 97.5t150 94.5t86.5 30t16 -12l-5 -18l-3 -7q-61 -6 -134.5 -42.5t-154 -101.5t-162.5 -175t-125 -216l-5 -15l-10 -25 q-6 -25 -12.5 -33.5t-17.5 -8.5l-18 3q56 117 56 256q0 41 -6 92t-21.5 108t-53.5 57q-37 0 -102 -74z"/>
    <glyph glyph-name="W" unicode="W" horiz-adv-x="869" d="M260 159l7 6l54 54l59 54q62 56 109 90l82 56q34 22 67 36l6 -10q-24 -15 -41.5 -35t-66 -97.5t-48.5 -178.5q0 -70 32 -111.5t85 -41.5q67 0 133 57t118.5 161t52.5 217q0 68 -23 105q-21 38 -51 38l-10 -1l-5 11l-4 17q0 6 10 7q25 0 51 -25q43 -45 43 -144t-42 -202 t-124.5 -188.5t-169.5 -85.5q-55 0 -89 38.5t-34 104.5q0 25 3 49t11 50q16 52 53 122.5t76 112.5l-21 -10l-34 -21l-75 -55l-86 -72q-54 -46 -101.5 -95.5t-81.5 -88.5l-66 -81l-5 -8h-24l7 8l25 27q70 73 166.5 212.5t96.5 250.5q0 47 -32.5 78t-79.5 31q-73 0 -148.5 -72 t-108.5 -173l-7 19q0 11 23 51.5t60 83.5t96.5 77t108.5 34q54 0 86 -30.5t32 -83.5q0 -63 -45 -148.5t-88 -142.5l-36 -50z"/>
    <glyph glyph-name="X" unicode="X" horiz-adv-x="684" d="M727 565q-53 -10 -121 -53t-114.5 -80.5t-89.5 -79.5l2 -33l2 -32q14 -158 36.5 -226t68 -109.5t104.5 -41.5q69 0 119 62l6 -4q-55 -73 -140 -73q-41 0 -82.5 20.5t-71.5 60t-46.5 95t-27.5 159.5l-7 75l-1 10l-7 -5q-189 -192 -222 -349l-23 -15l-9 -5l-4 -2l-4 4 q0 14 14 46l42 82q13 23 33.5 52.5t46.5 61.5q48 59 132 143l-1 11q0 66 -8.5 106t-23.5 65q-24 47 -74 47q-69 0 -130 -75t-61 -164v-7q-12 8 -14 22q0 36 24.5 88t76 105t134.5 53q64 0 91 -69l13 -62l11 -84l15 15l30 26q47 42 86.5 73.5t66.5 48.5l74 43l37 19 q14 6 20 6l6 -6l-6 -16z"/>
    <glyph glyph-name="Y" unicode="Y" horiz-adv-x="443" d="M23 443q42 91 129.5 156.5t166.5 65.5q28 0 46 -12t18 -33t-16 -50.5t-65 -90.5l-74 -93l-43 -63q-20 -34 -20 -69q0 -47 44 -47q28 0 55.5 14t80.5 55l47 38t31 27l8 12l21 33q10 16 18 27.5t23.5 31.5t26 32t20.5 22q20 20 29 20q6 0 6 -7q0 -14 -43 -66 q-19 -23 -46 -53t-55 -58q-44 -79 -68.5 -157t-24.5 -142q0 -41 17 -88l-26 -42l-5 -8l-8 59l-2 45q0 73 19.5 140t69.5 162l4 10l-6 -6q-89 -74 -137 -102.5t-81 -28.5q-22 0 -36 14q-13 16 -13 37q0 40 29 85t78 104l69 86l32 50q13 26 13 48q0 21 -15.5 33.5t-44.5 12.5 q-65 0 -144.5 -62t-107.5 -138z"/>
    <glyph glyph-name="Z" unicode="Z" horiz-adv-x="570" d="M446 315q18 -5 35.5 -8t32.5 -3q52 0 52 41l7 2v-8q0 -25 -23 -42.5t-56 -17.5q-26 0 -66 11l-69 -90q76 -24 118.5 -66.5t42.5 -99.5q0 -38 -17 -69q-16 -33 -50 -63l-6 7q27 25 38.5 47.5t11.5 50.5q0 54 -40.5 98t-117.5 70l-7 -7l-19 -24l-14 -14 q-23 -27 -41.5 -45.5l-44.5 -42.5q-40 -36 -77 -57.5t-75 -21.5q-70 0 -70 64q0 66 78 124t209 58l36 -1q17 0 33 -5l11 14l25 30l23 32l11 14l-40 12l-31 4q-41 0 -59 -39l-6 2q21 57 80 57q18 0 33 -2t41 -9l22 30l79 98l54 60l-45 4l-41 7l-34 9l-54 13q-28 7 -57 7 q-60 0 -101 -33.5t-41 -86.5l-7 -7l-4 -2l-3 5q1 4 1.5 9t3.5 12l18 47q14 31 56.5 61t88.5 30q32 0 77 -18l49 -20q61 -26 99 -26h6l6 4l9 8q42 36 66 36q16 0 17 -13q0 -18 -25 -33q-26 -13 -70 -13l-15 -15l-31 -34l-53 -63l-53 -70zM618 517q26 0 47 9q19 10 19 20 q0 5 -9 7q-15 -1 -57 -36zM327 179q-42 11 -87 11q-93 0 -163.5 -46t-70.5 -105q0 -25 18.5 -42t45.5 -17q42 0 81.5 27t80 67t87.5 96z"/>
    <glyph glyph-name="bracketleft" unicode="[" horiz-adv-x="352" d="M595 679l-6 -11l-40 4l-46 1h-9l-47 -59l-86 -130q-63 -98 -128 -232q-61 -128 -80.5 -181.5t-30.5 -104.5l-8 -39l-2 -33q20 0 41.5 4t43.5 10q38 8 80 24l-13 -34q-29 -11 -48 -17l-52 -15t-46.5 -9t-48.5 -4v12q0 86 59 235.5t152.5 295.5t129.5 195q18 25 37 48 t40 45h17q23 0 46 -1t45 -4z"/>
    <glyph glyph-name="backslash" unicode="\" horiz-adv-x="384" d="M106 617l10 2q13 0 22 -12q5 -7 35 -72q8 -18 30 -73q8 -21 17 -41q21 -51 35.5 -95.5t34.5 -141.5l25 -128l12 -75l2 -17l-24 -5q-13 106 -28 188t-34 137q-36 113 -61 168l-43 97z"/>
    <glyph glyph-name="bracketright" unicode="]" horiz-adv-x="275" d="M-126 -142l6 11l41 -3l45 -1l9 -1q41 46 124 175.5t138 246.5q51 108 77 175q2 7 17 52q10 31 12 38l11 52l4 40q-43 0 -83 -10t-82 -28l12 34q19 8 42.5 15t48 12.5t49 9.5t56.5 8v-11q0 -46 -14 -103t-45 -132q-56 -143 -153 -295q-92 -147 -130 -197l-37 -46.5 l-40 -46.5l-18 -1q-48 0 -90 6z"/>
    <glyph glyph-name="underscore" unicode="_" horiz-adv-x="414" d="M0 -115h430v-31h-430v31z"/>
    <glyph glyph-name="grave" unicode="`" horiz-adv-x="196" d="M66 342l23 5q30 0 48 -72l-7 -1l-8 13q-18 27 -56 55z"/>
    <glyph glyph-name="a" unicode="a" d="M238 141l-2 6q36 20 36 49q0 36 -53 36q-38 0 -82.5 -23t-84 -67t-39.5 -84q0 -15 9.5 -24t25.5 -11q31 0 72 36.5t73 92.5l13 4q3 -1 5.5 -2t6.5 -6q-36 -59 -36 -100q0 -31 26 -31q24 0 65 35l56 49l36 37l12 14l12 12l4 2l4 -4l-8 -10l-42 -48q-19 -21 -38.5 -38.5 t-44.5 -36.5q-46 -35 -71 -35q-17 0 -28.5 13t-11.5 35q0 14 2 22l4 21l-7 -7q-78 -83 -131 -83q-41 0 -41 44q0 31 27.5 72.5t67.5 71.5t83 46.5t72 16.5q65 0 65 -42q0 -39 -57 -63z"/>
    <glyph glyph-name="b" unicode="b" horiz-adv-x="271" d="M76 182l-3 -41q0 -127 58 -127q24 0 41 29t17 73l-1 19q-47 36 -47 70q0 12 10 12q20 0 44 -66l3 -7q24 -16 54 -16q22 0 46 9.5t39 25.5l6 6l3 2l5 -5l-28 -28q-23 -20 -73 -20h-12q-6 0 -13.5 1.5t-25.5 12.5l1 -16q0 -55 -23 -91t-60 -36q-32 0 -53 31q-19 33 -19 85 q0 107 43.5 198.5t75.5 140.5q29 44 55 65q18 18 31 19q12 0 12 -17q0 -24 -18 -66.5t-60.5 -110t-81.5 -118.5l-22 -28zM78 204q64 79 117 171t53 124q0 8 -6 10q-18 0 -52.5 -46.5t-64.5 -114.5t-47 -144z"/>
    <glyph glyph-name="c" unicode="c" horiz-adv-x="230" d="M168 162h5q19 0 34 14t15 32q0 10 -10.5 17t-25.5 7q-24 0 -55.5 -17.5t-61 -56t-29.5 -83.5q0 -24 15 -43t39 -19q39 0 109 58q46 43 82 83l5 7l4 3l4 2l4 -4l-6 -10l-19 -20l-51 -53q-27 -27 -68.5 -59.5t-85.5 -32.5q-26 0 -43 18q-15 18 -15 49q0 30 15 64t61 81 t106 47q39 0 39 -30q0 -25 -25 -50q-25 -23 -51 -23l-4 1l-2 3q2 5 4 6z"/>
    <glyph glyph-name="d" unicode="d" horiz-adv-x="352" d="M182 203l-14 -13q-13 8 -22 10q-22 0 -49.5 -18t-47.5 -43q-16 -22 -25 -41q-5 -15 -7 -32q0 -34 29 -34q14 0 32 9t45 33l35 34l29 32l2 7l6 29q9 44 38.5 115t58.5 119t60 82t48 34q9 0 11 -15q0 -48 -45 -125l-51 -83q-17 -27 -26 -40q-30 -49 -47 -68l-19 -28l-6 -8 l-6 -38l-1 -26q0 -71 36 -71q49 0 159 120l9 10l8 9l5 4l3 2l4 -4l-4 -7l-6 -7l-43 -46l-70 -66q-24 -20 -43.5 -30t-39.5 -10q-48 0 -48 78l1 29l1 11l-8 -9q-48 -52 -82.5 -77.5t-64.5 -25.5q-39 0 -39 40q0 32 23.5 69t66 68t73.5 31q15 0 31 -10zM222 186l43 60l57 88 q28 44 52 94t24 68q0 10 -8 11q-10 0 -29 -20t-45.5 -63.5t-54 -113t-39.5 -124.5z"/>
    <glyph glyph-name="e" unicode="e" horiz-adv-x="225" d="M39 104l-7 -38q0 -23 15.5 -39.5t38.5 -16.5q34 0 78 32q23 17 49.5 42.5t57.5 59.5l12 13l7 8l4 3l3 2l4 -5l-3 -6l-30 -33l-54 -56l-29.5 -26.5t-38.5 -30.5q-43 -32 -81 -32q-27 0 -46 19q-17 19 -17 46q0 32 23.5 75t64 75t70.5 32q32 0 32 -25q0 -35 -43 -67.5 t-91 -32.5zM43 114l17 -2q40 0 75.5 26t35.5 55q0 20 -23 20q-32 0 -61 -32q-25 -29 -44 -67z"/>
    <glyph glyph-name="f" unicode="f" horiz-adv-x="262" d="M119 75q11 -3 21.5 -5t22.5 -2q71 0 137 67l16 18l5 6l9 8l5 -4q-4 -6 -7 -10q-8 -10 -25 -28q-28 -31 -67 -52t-79 -21l-20 2l-16 3v-10q0 -54 -8 -89q-4 -20 -10 -39.5t-16 -40.5t-18.5 -35.5t-19.5 -26.5q-20 -22 -38 -22q-37 0 -37 72q0 29 6 63t24 93 q10 32 21.5 63.5t28 73t34 78.5t40.5 78q43 77 76 122q10 13 22 27q16 19 28 30t26 13q12 0 12 -15q0 -22 -21 -64.5t-76 -116t-91 -112.5l-22 -25l-17 -18l-17 -44l-27 -90q-22 -75 -22 -135q0 -58 29 -58q27 0 55 70q14 36 21 70.5t7 73.5l-1 17l-12 6q-13 8 -24 21 q-8 13 -10 25q0 18 16 19q27 0 39 -56zM77 185l25 25l40 48l51 67l52 78q30 48 30 74q0 7 -7 8q-11 0 -38.5 -34t-73 -110t-79.5 -156zM108 79q-9 40 -26 40l-4 -3l-2 -4q0 -16 32 -33z"/>
    <glyph glyph-name="g" unicode="g" horiz-adv-x="258" d="M220 239q0 -48 -14 -98t-49 -121l-6 -13q32 19 84 67t72 71q15 20 22 24l5 -5l-6 -9l-32 -36l-63 -61q-32 -29 -73 -58l-19 -13q-27 -51 -48.5 -81.5t-63 -75.5t-84.5 -73t-72 -28q-33 0 -33 32q0 29 22.5 54.5t59.5 51.5l87 54l64 37l43 25l8 5q16 30 27 61l25 70l-5 -8 q-32 -48 -71 -78t-69 -30q-42 0 -42 43q0 26 18 59t60 69.5t86 36.5q15 0 39 -9l5 36v5l8 2q7 0 15 -6zM188 178q-19 19 -43 19q-43 0 -85 -43t-42 -86q0 -36 33 -36q35 0 80 46q42 47 57 100zM115 -31l-38 -20l-28 -16q-96 -55 -135.5 -89t-39.5 -64q0 -11 7 -18t22 -9 q18 0 48.5 21.5t75.5 69.5t88 125z"/>
    <glyph glyph-name="h" unicode="h" horiz-adv-x="384" d="M75 185l-2 -8l-8 -37l-8 -42l-5 -37q1 -5 2 -6l3 -2l8 5l40 36q9 8 25 20l30 21q30 21 55 33t43 14q20 0 20 -22l-4 -24l-13 -53l-3 -27q0 -29 24 -29q19 0 57.5 28t80.5 73l16 17l13 13l5 5l3 2l5 -4l-7 -10l-21 -21l-31 -34q-92 -89 -140 -89q-17 0 -26 10.5t-11 27.5 l5 33l8 32l7 36q0 12 -13 13q-10 0 -35 -13t-69.5 -46t-66.5 -61l-24 -30l-5 -2q-10 0 -10 21q0 54 24.5 137.5t55 146t54.5 101.5q22 40 49.5 76t44.5 36q9 0 9 -12q0 -25 -19 -69q-8 -21 -19.5 -44.5t-25.5 -47.5t-28 -45.5t-23 -34l-22.5 -30.5t-29.5 -36l-12 -15z M82 207l19 22l47 64q41 56 77 137q18 45 18 63q0 8 -6 10q-14 0 -51 -60.5t-63 -121.5q-13 -32 -23 -59q-6 -16 -18 -55z"/>
    <glyph glyph-name="i" unicode="i" horiz-adv-x="187" d="M187 313l-4 -4l-16 -11l-46 -42l-2 -2l-7 3l-2 4q0 9 22 31q21 24 40 24zM106 198l-4 -7q-33 -51 -48 -86t-15 -60t20 -25q27 0 75 36t81.5 72.5t37.5 37.5l4 -5l-5 -7l-42 -45q-38 -40 -89 -76t-80 -36q-35 0 -35 39q0 41 27 90t40 65z"/>
    <glyph glyph-name="j" unicode="j" horiz-adv-x="154" d="M137 345l5 -16l-5 -5l-51 -45l-6 -4l-5 -1l-5 6v4l1 8l2 6l34 28zM55 188q18 24 32 24q6 0 6 -14q0 -23 -14.5 -69t-28.5 -78l-25 -57l-4 -7l34 24l40 33l54 51l50 52l8 8l5 7l9 8l4 -5l-13 -17l-26 -28l-31 -34l-31 -30l-73 -59l-26 -19l-13 -10l-6 -9l-15 -26 q-43 -75 -112.5 -139t-106.5 -64q-21 0 -21 18q0 36 49.5 78.5t96.5 75.5l75 53q20 10 27 17l6 14l21 52q14 40 22 83l7 58v9zM-10 -45q-62 -39 -117.5 -83.5t-78 -69t-24.5 -40.5q0 -12 13 -12q21 0 59 28q20 15 38 31.5t40 42.5q38 46 70 103z"/>
    <glyph glyph-name="k" unicode="k" horiz-adv-x="397" d="M58 60q37 62 88 101q24 18 49.5 27.5t51.5 9.5q21 0 33.5 -11t12.5 -29q0 -24 -25 -46t-56 -22h-14q-15 0 -15 -22q0 -25 18 -44t44 -19t49 11q15 7 23 11.5t27 18.5l47 39q21 18 52 52l14 16l8 8l8 6l5 -3l-2 -4l-10 -12l-17 -18l-33 -32q-31 -29 -39 -36 q-41 -35 -73.5 -55t-65.5 -20q-35 0 -58.5 21t-23.5 54q0 17 6 29t17 12l45 -4l19 10q24 14 24 36q0 12 -11 21.5t-28 11.5q-48 0 -99.5 -46t-72.5 -109q-17 -14 -24 -16q-9 0 -9 14l5 36q5 36 22 109t65 163.5t66 118.5l39 52q22 25 37 25q9 0 9 -12q0 -8 -5.5 -27.5 t-22.5 -58.5q-14 -36 -47 -93t-66 -97l-34 -40l-10 -13q-8 -25 -16 -62q-3 -16 -5 -32t-2 -30zM88 207l29 35l31 45l31 49l33 61q6 11 14 30l12 29l7 21l4 17q0 7 -7 8q-16 0 -67.5 -86.5t-86.5 -208.5z"/>
    <glyph glyph-name="l" unicode="l" horiz-adv-x="258" d="M75 179l-4 -44q0 -122 59 -122q47 0 136 90l53 56l6 7l4 2l4 -5l-5 -7l-43 -50q-40 -46 -88 -81.5t-84 -35.5q-32 0 -52 30q-18 30 -18 87q0 47 9 91.5t33 105.5t52 115q25 48 54 82q24 30 44 30q21 0 21 -28q0 -53 -48 -130l-56 -89l-25 -36l-24 -32l-20 -25zM78 199 l23 27l31 43l45 70q19 32 44 85q21 48 21 70q0 18 -14 18q-16 0 -45 -42.5t-61 -117.5q-28 -70 -44 -153z"/>
    <glyph glyph-name="m" unicode="m" horiz-adv-x="548" d="M103 205l-5 -8l-37 -69q-19 -42 -30 -72l4 3l40 32l76 50q28 17 49.5 27t35.5 10q18 0 18 -20l-2 -17l-12 -41l-13 -55l7 7l26 23q47 42 95 70.5t73 28.5q21 0 21 -19l-4 -23l-12 -52l-3 -24q0 -28 24 -28q16 0 38.5 14.5t59.5 48.5l55 55l20 20l3 2l4 -4l-2 -4l-10 -13 l-21 -22q-36 -40 -85 -78t-79 -38q-36 0 -36 42q0 17 1 25.5t7 31.5l8 33q0 14 -13 14q-8 0 -27 -10l-51 -30q-33 -23 -66 -56l-40 -39q-7 -9 -13 -11q-13 0 -13 18l4 31q4 17 6 24t8 24l9 25l4 19q0 10 -10 11q-15 0 -84.5 -44.5t-99.5 -76.5l-29 -31l-4 -1q-6 0 -7 8 q0 12 11 41l25 57l21 43l21 35z"/>
    <glyph glyph-name="n" unicode="n" horiz-adv-x="376" d="M112 206l-34 -57l-23 -45l-13 -30l-4 -14l4 -5l5 2l19 14l34 26l48 33l29 18l31 17q29 14 46 16q18 0 18 -21l-1 -14l-9 -39l-7 -51q0 -28 24 -28q36 0 121 86l43 46l6 6l4 2l4 -4l-3 -5l-12 -15l-31 -31q-99 -105 -152 -105q-34 0 -34 40q0 18 1.5 28.5t3.5 21t8 31.5 l3 15q0 13 -13 14q-12 0 -57 -27q-19 -11 -39.5 -25l-40.5 -29q-38 -29 -54 -47l-22 -22l-7 -3q-6 0 -8 15q0 21 24 76.5t52 97.5q12 6 36 12z"/>
    <glyph glyph-name="o" unicode="o" horiz-adv-x="231" d="M173 130l-8 4q-24 8 -24 19q0 7 10 8q14 0 29 -24l21 -5l20 -1q46 0 63 18l19 19l3 2l4 -4l-5 -9l-22 -19q-21 -16 -62 -16q-19 0 -37 5l2 -23q0 -44 -35.5 -84t-76.5 -40q-29 0 -48.5 21.5t-19.5 53.5q0 58 47 108.5t100 50.5l25 -3q9 -3 10 -8l-4 -5q-2 -5 -4 -6l-4 -3 l-3 -1l-6 2q-12 6 -27 8q-40 0 -72.5 -37t-32.5 -84q0 -29 16 -48t42 -19q33 0 58 28t25 66z"/>
    <glyph glyph-name="p" unicode="p" horiz-adv-x="278" d="M153 267l-6 -8l-37 -48q-51 -74 -83 -136l6 7l22 26l29 29l49 42q32 26 68 26q14 0 25.5 -12.5t11.5 -28.5q0 -44 -42 -103q43 14 87 47t61 56l5 5l6 -4l-6 -9l-10 -11l-40 -34l-45 -33l-34 -17l-37 -15q-57 -54 -96 -54q-15 0 -27 9q-8 8 -10 24q0 31 18 31l4 -1l11 -3 l42 -4q30 0 51 6q18 20 31 45.5t13 45.5q0 36 -35 36q-49 0 -118 -75q-64 -72 -104 -186q-36 -107 -44 -181l-28 -8l2 10q48 270 137 394t95 128l15 4h13zM76 44l-3 -14q0 -20 26 -20q30 0 62 31l-41 -2l-21 1q-10 0 -23 4z"/>
    <glyph glyph-name="q" unicode="q" horiz-adv-x="234" d="M186 184q-22 14 -39 16q-19 0 -40.5 -11.5t-44.5 -33.5q-18 -18 -31 -42t-13 -44q0 -16 8.5 -25.5t24.5 -11.5q27 0 65 27.5t69.5 71t43.5 68.5l14 -3l-5 -8q-79 -120 -125.5 -241.5t-46.5 -207.5q14 32 28 57.5t31 45.5q29 36 48 49l22 11l6 2l4 -4q0 -5 -9 -20 q-22 -8 -41 -21q-16 -13 -37 -41q-8 -12 -15 -24.5t-23 -44.5q-17 -39 -21 -73l-9 -1q-14 0 -14 38q0 62 18 126.5t61 147.5l29 57l17 33l12 23l-7 -8q-27 -29 -49 -47q-17 -14 -41 -27.5t-45 -13.5q-17 0 -30 12t-13 31q0 52 59 108.5t109 56.5q14 0 25.5 -4.5t12.5 -10.5 l-1 -4z"/>
    <glyph glyph-name="r" unicode="r" horiz-adv-x="277" d="M81 181l12 -2l26 4q16 3 27 10l18 8l8 3q12 0 12 -11l-5 -10l-17 -22q-23 -28 -36 -56.5t-13 -47.5q0 -18 12 -30t29 -12q23 0 47 14q12 8 24 17.5l26 21.5l45 45l31 33l14 16l5 5l4 2l4 -4l-10 -14q-71 -80 -121 -118t-87 -38q-23 0 -39 15t-16 40q0 48 54 117l5 8l-4 3 l-12 -3l-28 -5l-21 3l-10 -11l-8 -9l-5 -2l-4 3l2 4l5 5l7 9l6 7q-6 11 -6 18q0 16 12 32t25 17q12 0 12 -14q0 -7 -5 -16l-19 -28z"/>
    <glyph glyph-name="s" unicode="s" horiz-adv-x="240" d="M99 10q87 15 148 86l61 72l3 2l4 -4q-2 -7 -5 -10l-17 -19q-66 -74 -116 -106t-102 -32l-10 -2l-35 -5q-20 0 -35 6t-15 15q0 12 13 12l21 -5q35 -12 48 -12q26 6 43.5 31t17.5 56q0 23 -5 34q-3 12 -24 45l-7 11l-12 -14l-13 -15l-9 -6l-4 4l2 4l6 8l22 24l3 4l-5 23 q0 15 7.5 25t19.5 12q11 0 13 -15q0 -16 -16 -33l-4 -6l-1 -3l2 -4l2 -3l10 -12q24 -27 34 -45q4 -8 6 -17t2 -23q0 -46 -53 -83z"/>
    <glyph glyph-name="t" unicode="t" horiz-adv-x="214" d="M168 309l-12 -20l-49 -83l-9 -16l122 5l-7 -13h-13l-45 1l-52 -1h-9q-45 -83 -45 -125q0 -18 9 -30q10 -10 27 -10t34 7.5t27.5 15.5l21.5 17l17 14q15 13 30 29l51 53l9 10l5 4l3 2l4 -4l-4 -7l-73 -83q-69 -78 -138 -78q-21 0 -37 15t-16 41q0 24 5.5 44t14.5 40 q3 7 18 35l5 9l-62 -4l11 13l55 -1l5 8l33 57l16 26l10 16l4 7z"/>
    <glyph glyph-name="u" unicode="u" horiz-adv-x="349" d="M115 212l-21 -29l-35 -56q-24 -42 -24 -82q0 -26 20 -26q27 0 78 41q62 53 110 113l21 -4q-27 -50 -36.5 -78.5t-9.5 -47.5q0 -25 17 -25q22 0 63.5 31.5t78.5 70.5l41 42l6 5l4 -5l-12 -14l-47 -50q-37 -39 -69 -60q-49 -37 -79 -37q-31 0 -31 41q0 18 4 34.5t15 41.5 l-7 -6l-30 -30q-36 -35 -72.5 -57.5t-61.5 -22.5q-32 0 -32 38q0 18 4 33t16 40q19 43 55 92q17 5 34 7z"/>
    <glyph glyph-name="v" unicode="v" horiz-adv-x="250" d="M222 155q14 -20 41 -20q30 0 42 16.5t19 19.5l4 -4l-1 -4l-18 -20q-15 -18 -46 -18q-25 0 -45 20q-33 -68 -73.5 -105.5t-77.5 -37.5q-21 0 -35.5 16t-14.5 42q0 23 15.5 58t40.5 67l17 7l20 3q-65 -79 -65 -133q0 -16 9.5 -28.5t27.5 -12.5q26 0 61 32.5t59 81.5l6 12 l3 9l-6 17l-3 12l-1 19q0 17 4 27t12 12q14 0 14 -34q0 -21 -9 -54z"/>
    <glyph glyph-name="w" unicode="w" horiz-adv-x="351" d="M329 152q19 -17 39 -17q27 0 51 28l7 4l5 -4l-8 -10l-18 -16q-6 -5 -15 -8t-23 -3q-21 0 -41 14q-21 -59 -59.5 -99.5t-74.5 -40.5q-43 0 -50 62q-57 -62 -97 -62q-16 0 -27.5 12.5t-11.5 30.5q0 33 22.5 76.5t63.5 87.5l4 5l15 3l22 3q-98 -106 -98 -172q0 -27 25 -27 q19 0 42.5 18t38.5 43l1 5q9 44 24 66t26 22q9 0 10 -10q0 -17 -31 -61l-6 -9v-14q0 -26 11 -43t28 -17q31 0 64.5 38.5t49.5 91.5q-10 28 -10 48q0 29 12 31q15 0 15 -35q0 -15 -6 -41z"/>
    <glyph glyph-name="x" unicode="x" horiz-adv-x="318" d="M80 254l-1 -26q0 -72 24 -131l9 9l52 49l40 32l26 19l14 10l4 -5l-1 -7l-1 -3q-41 -26 -72.5 -51.5t-65.5 -62.5q13 -28 36 -50q24 -19 46 -19q39 0 75 30l58 52l35 35l24 26l4 5l6 4l5 -4l-4 -6q-2 -6 -74 -84t-142 -78q-45 0 -89 66l-17 -20t-22 -29q-8 -11 -21 -34 q-9 -14 -17 -29q-9 7 -11 16l3 9l14 19l59 72l6 7q-12 23 -22 63.5t-10 77.5q0 16 4 21t26 17z"/>
    <glyph glyph-name="y" unicode="y" horiz-adv-x="270" d="M114 199q-71 -91 -71 -137q0 -33 30 -33q44 0 89 66q22 33 33 65.5t11 67.5l-1 6l21 13l2 -22q0 -30 -2 -42.5t-10 -39l-10 -33t-11 -28.5q-4 -12 -8 -22.5t-9 -19.5l-10 -21l-4 -10q35 22 83 66t87 89l7 5l4 -5l-3 -6l-9 -10l-23 -26l-43 -42l-44 -39l-30 -24l-40 -28 l-5 -9l-13 -24l-47 -67q-22 -29 -57 -63q-32 -34 -70.5 -64.5t-76.5 -30.5q-33 0 -33 34q0 36 34.5 66t70.5 53l68 39l77 44l33 20l18 43l11 26l7 19l8 26q-61 -88 -115 -88q-20 0 -34 14q-13 16 -13 37q0 26 17 60.5t45 68.5q14 6 36 6zM126 -28l-9 -5l-34 -20l-42 -25 q-89 -52 -124 -83t-35 -60q0 -24 26 -24q39 0 110 70.5t108 146.5z"/>
    <glyph glyph-name="z" unicode="z" horiz-adv-x="296" d="M256 210l-2 -13q-69 -35 -129.5 -83.5t-60.5 -73.5q0 -21 39 -21q61 0 129 38.5t127 103.5l7 7l5 4l4 -4l-3 -6l-7 -7q-69 -76 -146 -120t-143 -44q-41 0 -41 27q0 48 143 145l25 18l11 8l-58 4q-36 0 -51 -4.5t-31 -22.5l-8 -6l-4 5l2 4l7 9l9 9q36 36 95 36 q39 0 81 -13z"/>
    <glyph glyph-name="florin" horiz-adv-x="216" d="M142 176l-17 -54q-48 -147 -92.5 -195.5t-78.5 -48.5q-28 0 -28 24q0 18 19 38l5 3l3 -3q-6 -10 -7 -20q0 -22 21 -22q16 0 39.5 20t51 70.5t68.5 180.5l2 8h-30l4 8h28l3 8l13 44q31 89 59 133.5t52 44.5q16 0 16 -18q0 -16 -12 -36l-15 -21q-3 0 -5 1l2 5q17 25 17 41 q0 12 -9 12q-7 0 -19 -13l-20 -29l-20 -38l-18 -44l-15 -43l-14 -47l27 -1l29 -2l-4 -10l-33 3z"/>
    <glyph glyph-name="florin" unicode="ƒ" horiz-adv-x="216" d="M142 176l-17 -54q-48 -147 -92.5 -195.5t-78.5 -48.5q-28 0 -28 24q0 18 19 38l5 3l3 -3q-6 -10 -7 -20q0 -22 21 -22q16 0 39.5 20t51 70.5t68.5 180.5l2 8h-30l4 8h28l3 8l13 44q31 89 59 133.5t52 44.5q16 0 16 -18q0 -16 -12 -36l-15 -21q-3 0 -5 1l2 5q17 25 17 41 q0 12 -9 12q-7 0 -19 -13l-20 -29l-20 -38l-18 -44l-15 -43l-14 -47l27 -1l29 -2l-4 -10l-33 3z"/>
    <glyph glyph-name="quotedblbase" horiz-adv-x="238" d="M20 -58l-6 7q27 15 45 32.5t18 28.5q-3 4 -4.5 4.5t-2.5 1.5l-5 -1h-7q-13 0 -14 13q0 12 14.5 24.5t31.5 12.5q21 0 21 -20q0 -24 -23.5 -51t-67.5 -52zM105 -58l-6 7q23 13 42.5 32t19.5 29q-1 3 -3 4t-3 2l-5 -1h-7q-13 0 -14 13q0 12 14.5 24.5t31.5 12.5 q21 0 21 -20q0 -24 -23.5 -51t-67.5 -52z"/>
    <glyph glyph-name="quotedblbase" unicode="„" horiz-adv-x="238" d="M20 -58l-6 7q27 15 45 32.5t18 28.5q-3 4 -4.5 4.5t-2.5 1.5l-5 -1h-7q-13 0 -14 13q0 12 14.5 24.5t31.5 12.5q21 0 21 -20q0 -24 -23.5 -51t-67.5 -52zM105 -58l-6 7q23 13 42.5 32t19.5 29q-1 3 -3 4t-3 2l-5 -1h-7q-13 0 -14 13q0 12 14.5 24.5t31.5 12.5 q21 0 21 -20q0 -24 -23.5 -51t-67.5 -52z"/>
    <glyph glyph-name="ellipsis" unicode="" horiz-adv-x="828" d="M143 65q15 0 15 -16q0 -22 -19 -41t-35 -21q-16 0 -16 17q0 26 30 49q14 12 25 12zM430 65q15 0 15 -16q0 -21 -25 -45q-14 -16 -29 -17q-16 0 -16 17q0 26 21 44q20 15 34 17zM716 65q15 0 16 -16q0 -21 -25 -45q-14 -15 -30 -17q-15 0 -15 17q0 25 21 43t33 18z"/>
    <glyph glyph-name="ellipsis" unicode="…" horiz-adv-x="828" d="M143 65q15 0 15 -16q0 -22 -19 -41t-35 -21q-16 0 -16 17q0 26 30 49q14 12 25 12zM430 65q15 0 15 -16q0 -21 -25 -45q-14 -16 -29 -17q-16 0 -16 17q0 26 21 44q20 15 34 17zM716 65q15 0 16 -16q0 -21 -25 -45q-14 -15 -30 -17q-15 0 -15 17q0 25 21 43t33 18z"/>
    <glyph glyph-name="perthousand" horiz-adv-x="570" d="M85 -26l-7 -4q-11 -6 -16 -6l-5 6q0 18 43 79l54 77l34 44l41 49l38 43l35 37l9 10q-28 -7 -44 -7l-17 1q-18 -46 -55 -78.5t-69 -32.5q-20 0 -33.5 15.5t-13.5 37.5q0 45 39.5 91.5t81.5 46.5h6q8 5 18 7q14 0 24 -13.5t10 -34.5q0 -15 -5 -29l13 -1q37 0 59 11l7 7 l10 10q33 33 55 50q16 12 27 14l5 -5q0 -12 -28 -39q-27 -24 -72 -45q-74 -77 -146.5 -177.5t-97.5 -163.5zM285 176q16 25 39 25q17 0 31 -15q12 -15 12 -38q0 -53 -44.5 -106t-91.5 -53q-20 0 -34.5 15.5t-14.5 39.5q0 42 29.5 79.5t73.5 52.5zM483 170q16 25 40 25 q17 0 31 -15q12 -15 12 -38q0 -53 -44.5 -106t-91.5 -53q-20 0 -34.5 15.5t-14.5 39.5q0 42 28.5 79.5t73.5 52.5zM242 315l2 14q0 19 -7.5 31.5t-18.5 14.5q-10 0 -11 -16q0 -31 35 -44zM240 306q-43 14 -43 52l2 13l-6 1q-30 0 -62 -36q-30 -36 -30 -75q0 -22 11 -33.5 t30 -11.5q26 0 56 27t42 63zM307 141l-1 -6q-26 0 -26 25q-31 -4 -52.5 -31.5t-21.5 -62.5q0 -25 12.5 -39.5t34.5 -14.5q33 0 65 41t32 83q0 17 -8.5 30.5t-22.5 13.5q-10 0 -17.5 -7.5t-7.5 -17.5q0 -7 13 -14zM505 135l-1 -5q-15 0 -20 4q-3 4 -5 20q-31 -4 -52.5 -31.5 t-21.5 -62.5q0 -23 13.5 -38.5t33.5 -15.5q32 0 64.5 41.5t32.5 83.5q0 17 -8.5 30t-22.5 13q-10 0 -16.5 -6.5t-8.5 -17.5q0 -7 12 -15z"/>
    <glyph glyph-name="perthousand" unicode="‰" horiz-adv-x="570" d="M85 -26l-7 -4q-11 -6 -16 -6l-5 6q0 18 43 79l54 77l34 44l41 49l38 43l35 37l9 10q-28 -7 -44 -7l-17 1q-18 -46 -55 -78.5t-69 -32.5q-20 0 -33.5 15.5t-13.5 37.5q0 45 39.5 91.5t81.5 46.5h6q8 5 18 7q14 0 24 -13.5t10 -34.5q0 -15 -5 -29l13 -1q37 0 59 11l7 7 l10 10q33 33 55 50q16 12 27 14l5 -5q0 -12 -28 -39q-27 -24 -72 -45q-74 -77 -146.5 -177.5t-97.5 -163.5zM285 176q16 25 39 25q17 0 31 -15q12 -15 12 -38q0 -53 -44.5 -106t-91.5 -53q-20 0 -34.5 15.5t-14.5 39.5q0 42 29.5 79.5t73.5 52.5zM483 170q16 25 40 25 q17 0 31 -15q12 -15 12 -38q0 -53 -44.5 -106t-91.5 -53q-20 0 -34.5 15.5t-14.5 39.5q0 42 28.5 79.5t73.5 52.5zM242 315l2 14q0 19 -7.5 31.5t-18.5 14.5q-10 0 -11 -16q0 -31 35 -44zM240 306q-43 14 -43 52l2 13l-6 1q-30 0 -62 -36q-30 -36 -30 -75q0 -22 11 -33.5 t30 -11.5q26 0 56 27t42 63zM307 141l-1 -6q-26 0 -26 25q-31 -4 -52.5 -31.5t-21.5 -62.5q0 -25 12.5 -39.5t34.5 -14.5q33 0 65 41t32 83q0 17 -8.5 30.5t-22.5 13.5q-10 0 -17.5 -7.5t-7.5 -17.5q0 -7 13 -14zM505 135l-1 -5q-15 0 -20 4q-3 4 -5 20q-31 -4 -52.5 -31.5 t-21.5 -62.5q0 -23 13.5 -38.5t33.5 -15.5q32 0 64.5 41.5t32.5 83.5q0 17 -8.5 30t-22.5 13q-10 0 -16.5 -6.5t-8.5 -17.5q0 -7 12 -15z"/>
    <glyph glyph-name="guilsinglleft" horiz-adv-x="210" d="M201 178l6 -6q-29 -12 -53 -30q-19 -14 -20 -26l1 -5l10 -22q7 -21 7 -44l-2 -25h-11q0 29 -18 57t-18 33q0 11 26 29t72 39z"/>
    <glyph glyph-name="guilsinglleft" unicode="‹" horiz-adv-x="210" d="M201 178l6 -6q-29 -12 -53 -30q-19 -14 -20 -26l1 -5l10 -22q7 -21 7 -44l-2 -25h-11q0 29 -18 57t-18 33q0 11 26 29t72 39z"/>
    <glyph glyph-name="quoteleft" horiz-adv-x="92" d="M159 613l6 -7q-29 -19 -44.5 -33.5t-17.5 -27.5q1 -3 3 -4.5t3 -1.5l5 1h7q13 0 14 -13q0 -12 -15 -26q-14 -11 -31 -11q-21 0 -21 20q0 24 25 53q22 25 66 50z"/>
    <glyph glyph-name="quoteleft" unicode="‘" horiz-adv-x="92" d="M159 613l6 -7q-29 -19 -44.5 -33.5t-17.5 -27.5q1 -3 3 -4.5t3 -1.5l5 1h7q13 0 14 -13q0 -12 -15 -26q-14 -11 -31 -11q-21 0 -21 20q0 24 25 53q22 25 66 50z"/>
    <glyph glyph-name="quoteright" horiz-adv-x="92" d="M74 490l-5 6q16 10 25 17q13 10 21 18q15 14 17 27l-3 5l-3 1h-6l-7 -1q-15 0 -15 14q0 12 15 24t31 12q21 0 21 -21q0 -24 -25 -52t-66 -50z"/>
    <glyph glyph-name="quoteright" unicode="’" horiz-adv-x="92" d="M74 490l-5 6q16 10 25 17q13 10 21 18q15 14 17 27l-3 5l-3 1h-6l-7 -1q-15 0 -15 14q0 12 15 24t31 12q21 0 21 -21q0 -24 -25 -52t-66 -50z"/>
    <glyph glyph-name="quotedblleft" horiz-adv-x="174" d="M244 613l6 -7q-29 -18 -45 -33t-18 -28l6 -6l6 1h7q15 0 15 -13q0 -11 -15 -25q-15 -12 -32 -12q-21 0 -21 20q0 24 25 53q22 25 66 50zM159 613l6 -7q-29 -19 -44.5 -33.5t-17.5 -27.5q1 -3 3 -4.5t3 -1.5l5 1h7q13 0 14 -13q0 -12 -15 -26q-14 -11 -31 -11 q-21 0 -21 20q0 24 25 53q22 25 66 50z"/>
    <glyph glyph-name="quotedblleft" unicode="“" horiz-adv-x="174" d="M244 613l6 -7q-29 -18 -45 -33t-18 -28l6 -6l6 1h7q15 0 15 -13q0 -11 -15 -25q-15 -12 -32 -12q-21 0 -21 20q0 24 25 53q22 25 66 50zM159 613l6 -7q-29 -19 -44.5 -33.5t-17.5 -27.5q1 -3 3 -4.5t3 -1.5l5 1h7q13 0 14 -13q0 -12 -15 -26q-14 -11 -31 -11 q-21 0 -21 20q0 24 25 53q22 25 66 50z"/>
    <glyph glyph-name="quotedblright" horiz-adv-x="174" d="M74 490l-5 6q16 10 25 17q13 10 21 18q15 14 17 27l-3 5l-3 1h-6l-7 -1q-15 0 -15 14q0 12 15 24t31 12q21 0 21 -21q0 -24 -25 -52t-66 -50zM159 490l-6 6l25 17q9 7 20 18q18 17 18 27q0 6 -6 6h-5l-7 -1q-15 0 -15 14q0 12 15 24t31 12q21 0 21 -21q0 -24 -25 -52 t-66 -50z"/>
    <glyph glyph-name="quotedblright" unicode="”" horiz-adv-x="174" d="M74 490l-5 6q16 10 25 17q13 10 21 18q15 14 17 27l-3 5l-3 1h-6l-7 -1q-15 0 -15 14q0 12 15 24t31 12q21 0 21 -21q0 -24 -25 -52t-66 -50zM159 490l-6 6l25 17q9 7 20 18q18 17 18 27q0 6 -6 6h-5l-7 -1q-15 0 -15 14q0 12 15 24t31 12q21 0 21 -21q0 -24 -25 -52 t-66 -50z"/>
    <glyph glyph-name="bullet" horiz-adv-x="231" d="M143 367q30 0 53 -22q10 -10 16 -23t6 -29q0 -32 -21.5 -53.5t-53.5 -21.5q-31 0 -53 21t-22 54q0 30 22 52t53 22z"/>
    <glyph glyph-name="bullet" unicode="•" horiz-adv-x="231" d="M143 367q30 0 53 -22q10 -10 16 -23t6 -29q0 -32 -21.5 -53.5t-53.5 -21.5q-31 0 -53 21t-22 54q0 30 22 52t53 22z"/>
    <glyph glyph-name="endash" horiz-adv-x="316" d="M277 121q-25 -34 -76 -34h-11l-41 3l-12 1q-21 0 -51 -9q18 35 56 35l11 -1l51 -3l13 -1l25 1z"/>
    <glyph glyph-name="endash" unicode="–" horiz-adv-x="316" d="M277 121q-25 -34 -76 -34h-11l-41 3l-12 1q-21 0 -51 -9q18 35 56 35l11 -1l51 -3l13 -1l25 1z"/>
    <glyph glyph-name="emdash" horiz-adv-x="961" d="M85 82q15 27 30 30l30 4l37 1h43h27h108l144 -1l123 -1l120 -1l56 -1l62 -1q47 0 80 9q-15 -20 -32 -27t-49 -7h-6l-114 2l-282 3l-122 1l-81 1l-123 -3l-28 -3z"/>
    <glyph glyph-name="emdash" unicode="—" horiz-adv-x="961" d="M85 82q15 27 30 30l30 4l37 1h43h27h108l144 -1l123 -1l120 -1l56 -1l62 -1q47 0 80 9q-15 -20 -32 -27t-49 -7h-6l-114 2l-282 3l-122 1l-81 1l-123 -3l-28 -3z"/>
    <glyph glyph-name="guilsinglright" horiz-adv-x="197" d="M75 21l-6 7q78 45 78 72q0 21 -45 63q13 9 20 11q9 0 21.5 -14.5t20.5 -29.5q5 -11 7 -24q0 -13 -18 -31l-37 -29z"/>
    <glyph glyph-name="guilsinglright" unicode="›" horiz-adv-x="197" d="M75 21l-6 7q78 45 78 72q0 21 -45 63q13 9 20 11q9 0 21.5 -14.5t20.5 -29.5q5 -11 7 -24q0 -13 -18 -31l-37 -29z"/>
    <glyph glyph-name="oe" horiz-adv-x="384" d="M203 107q-6 -20 -6 -39q0 -24 14 -40.5t38 -16.5q52 0 104 49l71 70l31 36l5 4l5 -4l-2 -5l-38 -46q-36 -43 -97 -88q-30 -22 -55 -33t-46 -11q-26 0 -41.5 17.5t-15.5 47.5q-51 -66 -101 -66q-28 0 -45.5 19t-17.5 51q0 59 46 111t97 52q56 0 56 -60v-13q66 89 121 89 q30 0 30 -26q0 -19 -16.5 -41.5t-39.5 -36.5q-8 -5 -18.5 -9.5t-22 -8t-19.5 -4t-12 -0.5zM207 116l19 -2q39 0 74 26t35 56q0 19 -21 19q-26 0 -57.5 -29t-49.5 -70zM138 200q-36 0 -70 -39t-34 -84q0 -28 15 -47t41 -19q35 0 66 41.5t31 87.5q0 60 -49 60z"/>
    <glyph glyph-name="oe" unicode="œ" horiz-adv-x="384" d="M203 107q-6 -20 -6 -39q0 -24 14 -40.5t38 -16.5q52 0 104 49l71 70l31 36l5 4l5 -4l-2 -5l-38 -46q-36 -43 -97 -88q-30 -22 -55 -33t-46 -11q-26 0 -41.5 17.5t-15.5 47.5q-51 -66 -101 -66q-28 0 -45.5 19t-17.5 51q0 59 46 111t97 52q56 0 56 -60v-13q66 89 121 89 q30 0 30 -26q0 -19 -16.5 -41.5t-39.5 -36.5q-8 -5 -18.5 -9.5t-22 -8t-19.5 -4t-12 -0.5zM207 116l19 -2q39 0 74 26t35 56q0 19 -21 19q-26 0 -57.5 -29t-49.5 -70zM138 200q-36 0 -70 -39t-34 -84q0 -28 15 -47t41 -19q35 0 66 41.5t31 87.5q0 60 -49 60z"/>
    <glyph glyph-name="nonbreakingspace" unicode=" " horiz-adv-x="188"/>
    <glyph glyph-name="exclamdown" unicode="¡" horiz-adv-x="263" d="M115 46l5 16q34 123 76.5 203.5t60.5 101.5l27 28l6 -5l-2 -4q-11 -11 -31 -40l-41 -75q-24 -46 -44.5 -120t-20.5 -138q0 -22 -11 -23q-12 0 -25 56zM376 495l-25 -28l-19 -31q-6 -15 -10 -18l-6 -3q-10 0 -10 36q5 13 7.5 17t9.5 14l21 31q12 12 17 12q9 0 15 -30z"/>
    <glyph glyph-name="cent" unicode="¢" horiz-adv-x="256" d="M219 354l14 3l-31 -68l15 2q34 0 34 -32q0 -22 -19 -40q-16 -18 -29 -19l-4 4q1 3 1.5 5.5t5.5 10.5l2 2q31 3 31 31q0 22 -29 22l-16 -2l-32 -80l-19 -54l-23 -69h7q42 0 111 62l4 3l4 2l4 -4q-2 -2 -3 -4q-5 -6 -12 -13l-50 -38q-33 -24 -71 -33l-9 -30l-8 -31l-22 -8 l22 69q-56 6 -56 59q0 50 42.5 103t103.5 78l4 8l12 26l13 27zM181 270q-42 -13 -78 -59t-36 -87q0 -39 38 -52l4 9l15 42l36 98l17 40z"/>
    <glyph glyph-name="sterling" unicode="£" horiz-adv-x="489" d="M337 267l-3 -9l-26 -66h13l42 -1q52 0 89 -10l-14 -14q-58 14 -135 14l-7 -16h7h30.5t32.5 -4q26 -3 30 -4q15 -5 21 -6l-12 -14l-55 13l-60 4l-5 -10l-18 -32l-23 -35l-3 -5l6 -6l48 -39q35 -29 54.5 -40t40.5 -11q53 0 100 83l6 -4q-45 -92 -115 -92q-34 0 -63 16 q-14 7 -36.5 22.5t-53.5 41.5l-6 5q-71 -73 -137 -73q-36 0 -60 21t-24 53t30 59q31 25 73 25q55 0 117 -45l38 65l-43 -4l10 13h6l22 2l11 1l9 16h-5l-21 -2l-23 -1l-6 -1l9 12l46 3h5l10 18l15 28l8 16l2 4q-56 -15 -94 -15q-14 0 -14 8q0 7 5 12q20 -6 31 -6q38 0 79 14 l4 8q36 72 73 112t64 40q20 0 20 -22q0 -35 -40.5 -74.5t-104.5 -67.5zM342 279q50 24 85.5 57.5t35.5 62.5q0 13 -16 14q-20 0 -50.5 -39.5t-54.5 -94.5zM204 62l-7 6q-33 26 -57 36q-10 4 -23 7t-26 3q-36 0 -58.5 -19t-22.5 -47q0 -27 21 -45t53 -18q31 0 60 19t60 58z "/>
    <glyph glyph-name="yen" unicode="¥" horiz-adv-x="270" d="M146 145h17l8 16h-26l-65 -3h-7l10 11l72 3h21l15 24l17 28q-56 -31 -91 -31q-39 0 -39 33q0 15 10 32l52 71q41 55 41 76q0 23 -28 23q-21 0 -45.5 -22.5t-39.5 -56.5l-11 -4q12 23 25 41.5t28 31.5q29 26 57 26q31 0 31 -29q0 -15 -10 -32l-39 -54q-30 -36 -39 -54.5 t-11 -33.5q0 -32 40 -32q36 0 78 27l4 4l6 11q26 35 55 64.5t38 29.5l4 -4l-5 -11l-21 -29q-17 -22 -62 -58l-14 -12q-8 -11 -20 -33l-15 -27l66 -3q26 -3 32.5 -3.5t21.5 -4.5l-14 -14q-48 12 -84 12l-27 2l-7 -16l30 -2l66 -11l-13 -14l-43 11q-27 5 -46 5 q-25 -66 -25 -115l1 -26q0 -11 5 -22l2 -5l-22 -34q-3 15 -4 24.5t-1 28.5q0 77 32 150h-20l-68 -3l11 11z"/>
    <glyph glyph-name="dieresis" unicode="¨" horiz-adv-x="220" d="M163 343l-2 -6l-9 -25l-4 -23l-9 -2l-8 -1q-7 0 -8 11q0 18 11.5 32t28.5 14zM106 343l-2 -6l-10 -29l-3 -19l-9 -2l-9 -1q-6 0 -7 11q0 18 11.5 32t28.5 14z"/>
    <glyph glyph-name="guillemotleft" unicode="«" horiz-adv-x="266" d="M201 178l6 -6q-29 -12 -53 -30q-19 -14 -20 -26l1 -5l10 -22q7 -21 7 -44l-2 -25h-11q0 29 -18 57t-18 33q0 11 26 29t72 39zM258 177l7 -6q-33 -15 -51.5 -31t-20.5 -25l8 -19q11 -25 11 -48q0 -13 -4 -29h-9q-3 24 -8 33q-1 4 -5.5 12.5t-10.5 17.5l-12 21l-2 5 q0 9 29 31q28 19 68 38z"/>
    <glyph glyph-name="acute" unicode="´" horiz-adv-x="196" d="M66 274q18 73 49 73q9 0 22 -5q-21 -15 -33.5 -27.5t-21.5 -27.5l-7 -11z"/>
    <glyph glyph-name="guillemotright" unicode="»" horiz-adv-x="251" d="M75 20l-6 8q78 45 78 72q0 21 -45 63q13 9 20 11q9 0 21.5 -14.5t20.5 -29.5q5 -11 7 -24q0 -13 -18 -31l-38 -30zM134 21l-8 6l9 7q19 12 31.5 21.5t21.5 17.5q13 13 14 26q0 20 -43 62l8 7l11 4q12 0 30 -25l14 -23l4 -20q0 -15 -18.5 -32t-66.5 -46z"/>
    <glyph glyph-name="questiondown" unicode="¿" horiz-adv-x="344" d="M338 425q-17 -12 -29 -13l-5 7l4 10q18 39 18 66l17 17q8 8 15 10q5 0 7 -12q0 -35 -27 -85zM252 338q5 46 40 46q17 0 27 -11.5t10 -27.5q0 -30 -26 -59t-62 -59l-73 -59q-36 -28 -54 -54q-9 -14 -12.5 -25t-3.5 -27q0 -25 19 -42.5t47 -17.5q43 0 78.5 29t35.5 64 q0 11 -6 22q17 18 22 18q10 0 10 -16q0 -12 -9 -32t-26.5 -43.5t-54 -41.5t-72.5 -18q-37 0 -57.5 17t-20.5 47q0 55 70 107l83 64q91 70 91 108q0 25 -23 25q-13 0 -33 -14z"/>
    <glyph glyph-name="Ccedilla" unicode="Ç" horiz-adv-x="530" d="M503 471l4 -6q-88 -32 -88 -88q0 -21 15.5 -35.5t38.5 -14.5q49 0 92.5 48.5t43.5 104.5q0 54 -38 86q-36 33 -100 33q-116 0 -214 -82t-138 -167q-20 -43 -30 -84.5t-10 -88.5q0 -120 68.5 -174.5t136.5 -54.5q84 0 153 63t90 160h9q-15 -72 -60 -133t-106 -89.5 t-125 -28.5l-10 -10q-18 -17 -18 -23v-4l8 -16l2 -7q0 -17 -21 -34.5t-58 -28.5l-6 7q60 18 60 45l-3 8l-8 8l-3 8q0 7 7 15.5t32 26.5l7 6q-62 6 -106 39q-39 29 -61 75t-22 102q0 80 36 166.5t100 155t149 113t158 44.5q62 0 100 -32t38 -85q0 -72 -52 -130.5t-113 -58.5 q-26 0 -44.5 16.5t-18.5 38.5q0 32 30 63t75 43z"/>
    <glyph glyph-name="germandbls" unicode="ß" horiz-adv-x="315" d="M174 9q16 0 36 9t40 24q39 29 66 54l50 50l12 14l8 5l4 -4q-5 -7 -9 -11q-12 -15 -27 -30q-35 -35 -67 -61t-55.5 -39.5t-42.5 -19.5t-53 -6l-29 -4q-20 0 -35 8q-15 6 -15 17q0 9 12 11l20 -6l26 -9l22 -4q62 23 62 79q0 20 -6 37t-22 42l-19 34l-4 18q0 9 7 17l39 30 q31 22 59.5 53.5t47.5 68.5t19 64q0 32 -24 32q-34 0 -89 -80.5t-87.5 -144t-62.5 -152t-30 -155.5v-9l-3 -5l-13 -16l-8 -4q-9 0 -9 18q0 26 10 66q5 22 15 55.5t29 82.5q33 96 98 193t103 139q37 37 64 37q28 0 28 -33q0 -44 -34.5 -103t-81.5 -95l-28 -22 q-24 -17 -26 -31l3 -11l29 -45q27 -39 27 -75q0 -46 -56 -83z"/>
    <glyph glyph-name="agrave" unicode="à" d="M238 141l-2 6q36 20 36 49q0 36 -53 36q-38 0 -82.5 -23t-84 -67t-39.5 -84q0 -15 9.5 -24t25.5 -11q31 0 72 36.5t73 92.5l13 4q3 -1 5.5 -2t6.5 -6q-36 -59 -36 -100q0 -31 26 -31q24 0 65 35l56 49l36 37l12 14l12 12l4 2l4 -4l-8 -10l-42 -48q-19 -21 -38.5 -38.5 t-44.5 -36.5q-46 -35 -71 -35q-17 0 -28.5 13t-11.5 35q0 14 2 22l4 21l-7 -7q-78 -83 -131 -83q-41 0 -41 44q0 31 27.5 72.5t67.5 71.5t83 46.5t72 16.5q65 0 65 -42q0 -39 -57 -63zM179 342l23 5q30 0 48 -72l-7 -1l-8 13q-18 27 -56 55z"/>
    <glyph glyph-name="aacute" unicode="á" d="M238 141l-2 6q36 20 36 49q0 36 -53 36q-38 0 -82.5 -23t-84 -67t-39.5 -84q0 -15 9.5 -24t25.5 -11q31 0 72 36.5t73 92.5l13 4q3 -1 5.5 -2t6.5 -6q-36 -59 -36 -100q0 -31 26 -31q24 0 65 35l56 49l36 37l12 14l12 12l4 2l4 -4l-8 -10l-42 -48q-19 -21 -38.5 -38.5 t-44.5 -36.5q-46 -35 -71 -35q-17 0 -28.5 13t-11.5 35q0 14 2 22l4 21l-7 -7q-78 -83 -131 -83q-41 0 -41 44q0 31 27.5 72.5t67.5 71.5t83 46.5t72 16.5q65 0 65 -42q0 -39 -57 -63zM226 274q18 73 49 73q9 0 22 -5q-21 -15 -33.5 -27.5t-21.5 -27.5l-7 -11z"/>
    <glyph glyph-name="acircumflex" unicode="â" d="M238 141l-2 6q36 20 36 49q0 36 -53 36q-38 0 -82.5 -23t-84 -67t-39.5 -84q0 -15 9.5 -24t25.5 -11q31 0 72 36.5t73 92.5l13 4q3 -1 5.5 -2t6.5 -6q-36 -59 -36 -100q0 -31 26 -31q24 0 65 35l56 49l36 37l12 14l12 12l4 2l4 -4l-8 -10l-42 -48q-19 -21 -38.5 -38.5 t-44.5 -36.5q-46 -35 -71 -35q-17 0 -28.5 13t-11.5 35q0 14 2 22l4 21l-7 -7q-78 -83 -131 -83q-41 0 -41 44q0 31 27.5 72.5t67.5 71.5t83 46.5t72 16.5q65 0 65 -42q0 -39 -57 -63zM244 347l2 -3l8 -8q20 -23 55 -42l-7 -6q-13 0 -19 1t-19 7q-19 10 -39 28l-33 -19 l-27 -21l-12 8l13 9l38 23z"/>
    <glyph glyph-name="atilde" unicode="ã" d="M238 141l-2 6q36 20 36 49q0 36 -53 36q-38 0 -82.5 -23t-84 -67t-39.5 -84q0 -15 9.5 -24t25.5 -11q31 0 72 36.5t73 92.5l13 4q3 -1 5.5 -2t6.5 -6q-36 -59 -36 -100q0 -31 26 -31q24 0 65 35l56 49l36 37l12 14l12 12l4 2l4 -4l-8 -10l-42 -48q-19 -21 -38.5 -38.5 t-44.5 -36.5q-46 -35 -71 -35q-17 0 -28.5 13t-11.5 35q0 14 2 22l4 21l-7 -7q-78 -83 -131 -83q-41 0 -41 44q0 31 27.5 72.5t67.5 71.5t83 46.5t72 16.5q65 0 65 -42q0 -39 -57 -63zM311 336l6 -5q-32 -39 -56 -39q-11 0 -25 7l-25 11l-17 4q-15 0 -34 -20l-8 6 q33 35 55 35q12 0 27 -6l15 -8l14 -5l14 -1q9 0 16 4t18 17z"/>
    <glyph glyph-name="adieresis" unicode="ä" d="M238 141l-2 6q36 20 36 49q0 36 -53 36q-38 0 -82.5 -23t-84 -67t-39.5 -84q0 -15 9.5 -24t25.5 -11q31 0 72 36.5t73 92.5l13 4q3 -1 5.5 -2t6.5 -6q-36 -59 -36 -100q0 -31 26 -31q24 0 65 35l56 49l36 37l12 14l12 12l4 2l4 -4l-8 -10l-42 -48q-19 -21 -38.5 -38.5 t-44.5 -36.5q-46 -35 -71 -35q-17 0 -28.5 13t-11.5 35q0 14 2 22l4 21l-7 -7q-78 -83 -131 -83q-41 0 -41 44q0 31 27.5 72.5t67.5 71.5t83 46.5t72 16.5q65 0 65 -42q0 -39 -57 -63zM283 343l-2 -6l-9 -25l-4 -23l-9 -2l-8 -1q-7 0 -8 11q0 18 11.5 32t28.5 14zM226 343 l-2 -6l-10 -29l-3 -19l-9 -2l-9 -1q-6 0 -7 11q0 18 11.5 32t28.5 14z"/>
    <glyph glyph-name="aring" unicode="å" d="M238 141l-2 6q36 20 36 49q0 36 -53 36q-38 0 -82.5 -23t-84 -67t-39.5 -84q0 -15 9.5 -24t25.5 -11q31 0 72 36.5t73 92.5l13 4q3 -1 5.5 -2t6.5 -6q-36 -59 -36 -100q0 -31 26 -31q24 0 65 35l56 49l36 37l12 14l12 12l4 2l4 -4l-8 -10l-42 -48q-19 -21 -38.5 -38.5 t-44.5 -36.5q-46 -35 -71 -35q-17 0 -28.5 13t-11.5 35q0 14 2 22l4 21l-7 -7q-78 -83 -131 -83q-41 0 -41 44q0 31 27.5 72.5t67.5 71.5t83 46.5t72 16.5q65 0 65 -42q0 -39 -57 -63zM258 347q17 0 17 -23q0 -17 -12 -31.5t-29 -14.5q-21 0 -21 23q0 15 15.5 30t29.5 16z M248 335l-3 -3q-15 -14 -17 -24q0 -16 14 -17q12 0 12 19l-1 10q0 7 -5 15z"/>
    <glyph glyph-name="ae" unicode="æ" horiz-adv-x="402" d="M100 182q70 53 122 53q45 0 45 -33v-5l2 2q21 16 39 23.5t35 7.5q31 0 31 -25q0 -31 -34 -61q-21 -17 -43 -33q-14 -10 -31 -21l-49 -32q0 -45 50 -45q53 0 103 48l67 65l28 31l6 7l8 6l5 -3l-80 -95q-76 -88 -156 -88q-24 0 -39 15t-21 44q-90 -46 -141 -46 q-18 0 -28.5 8.5t-12.5 25.5q0 42 51.5 78t111.5 36q22 0 46 -10l6 9q21 37 23 53q0 11 -9 19q-8 5 -24 7q-24 0 -47.5 -10t-52.5 -34l-2 -2zM216 69q31 17 54 33t43 35q36 33 36 59q0 19 -24 19q-34 0 -68.5 -46.5t-40.5 -99.5zM188 53l3 29l15 37l1 3l-20 10l-24 3 q-43 0 -84.5 -28t-41.5 -59q0 -30 40 -30q42 0 111 35z"/>
    <glyph glyph-name="ccedilla" unicode="ç" horiz-adv-x="223" d="M290 155l-45 -51q-27 -28 -76.5 -70.5t-98.5 -42.5l-13 1q-21 -18 -22 -26l2 -6l8 -12l3 -11q0 -14 -17.5 -30.5t-49.5 -27.5l-7 6q53 20 53 44l-3 6q-3 7 -5 9l-5 8l-2 4q1 3 1.5 5t5.5 9l26 25q-34 17 -34 62q0 38 21.5 78t61.5 72q11 9 24.5 17l26.5 15q25 11 47 11 q39 0 39 -31q0 -33 -31 -54q-29 -17 -45 -19l-5 1l-2 2l3 4l12 13l8 -1q17 0 32 14t15 31q0 10 -9 17.5t-26 9.5q-34 0 -90.5 -44t-56.5 -116q0 -23 15 -43q15 -17 38 -17t48 13q12 6 25 15t28 21l53 51l35 37l12 14l5 -4l-3 -6z"/>
    <glyph glyph-name="egrave" unicode="è" horiz-adv-x="225" d="M39 104l-7 -38q0 -23 15.5 -39.5t38.5 -16.5q34 0 78 32q23 17 49.5 42.5t57.5 59.5l12 13l7 8l4 3l3 2l4 -5l-3 -6l-30 -33l-54 -56l-29.5 -26.5t-38.5 -30.5q-43 -32 -81 -32q-27 0 -46 19q-17 19 -17 46q0 32 23.5 75t64 75t70.5 32q32 0 32 -25q0 -35 -43 -67.5 t-91 -32.5zM43 114l17 -2q40 0 75.5 26t35.5 55q0 20 -23 20q-32 0 -61 -32q-25 -29 -44 -67zM112 342l23 5q30 0 48 -72l-7 -1l-8 13q-18 27 -56 55z"/>
    <glyph glyph-name="eacute" unicode="é" horiz-adv-x="225" d="M39 104l-7 -38q0 -23 15.5 -39.5t38.5 -16.5q34 0 78 32q23 17 49.5 42.5t57.5 59.5l12 13l7 8l4 3l3 2l4 -5l-3 -6l-30 -33l-54 -56l-29.5 -26.5t-38.5 -30.5q-43 -32 -81 -32q-27 0 -46 19q-17 19 -17 46q0 32 23.5 75t64 75t70.5 32q32 0 32 -25q0 -35 -43 -67.5 t-91 -32.5zM43 114l17 -2q40 0 75.5 26t35.5 55q0 20 -23 20q-32 0 -61 -32q-25 -29 -44 -67zM165 274q18 73 49 73q9 0 22 -5q-21 -15 -33.5 -27.5t-21.5 -27.5l-7 -11z"/>
    <glyph glyph-name="ecircumflex" unicode="ê" horiz-adv-x="225" d="M39 104l-7 -38q0 -23 15.5 -39.5t38.5 -16.5q34 0 78 32q23 17 49.5 42.5t57.5 59.5l12 13l7 8l4 3l3 2l4 -5l-3 -6l-30 -33l-54 -56l-29.5 -26.5t-38.5 -30.5q-43 -32 -81 -32q-27 0 -46 19q-17 19 -17 46q0 32 23.5 75t64 75t70.5 32q32 0 32 -25q0 -35 -43 -67.5 t-91 -32.5zM43 114l17 -2q40 0 75.5 26t35.5 55q0 20 -23 20q-32 0 -61 -32q-25 -29 -44 -67zM183 347l2 -3l8 -8q20 -23 55 -42l-7 -6q-13 0 -19 1t-19 7q-19 10 -39 28l-33 -19l-27 -21l-12 8l13 9l38 23z"/>
    <glyph glyph-name="edieresis" unicode="ë" horiz-adv-x="225" d="M39 104l-7 -38q0 -23 15.5 -39.5t38.5 -16.5q34 0 78 32q23 17 49.5 42.5t57.5 59.5l12 13l7 8l4 3l3 2l4 -5l-3 -6l-30 -33l-54 -56l-29.5 -26.5t-38.5 -30.5q-43 -32 -81 -32q-27 0 -46 19q-17 19 -17 46q0 32 23.5 75t64 75t70.5 32q32 0 32 -25q0 -35 -43 -67.5 t-91 -32.5zM43 114l17 -2q40 0 75.5 26t35.5 55q0 20 -23 20q-32 0 -61 -32q-25 -29 -44 -67zM222 343l-2 -6l-9 -25l-4 -23l-9 -2l-8 -1q-7 0 -8 11q0 18 11.5 32t28.5 14zM165 343l-2 -6l-10 -29l-3 -19l-9 -2l-9 -1q-6 0 -7 11q0 18 11.5 32t28.5 14z"/>
    <glyph glyph-name="igrave" unicode="ì" horiz-adv-x="187" d="M106 198l-4 -7q-33 -51 -48 -86t-15 -60t20 -25q27 0 75 36t81.5 72.5t37.5 37.5l4 -5l-5 -7l-42 -45q-38 -40 -89 -76t-80 -36q-35 0 -35 39q0 41 27 90t40 65zM54 342l23 5q30 0 48 -72l-7 -1l-8 13q-18 27 -56 55z"/>
    <glyph glyph-name="iacute" unicode="í" horiz-adv-x="187" d="M106 198l-4 -7q-33 -51 -48 -86t-15 -60t20 -25q27 0 75 36t81.5 72.5t37.5 37.5l4 -5l-5 -7l-42 -45q-38 -40 -89 -76t-80 -36q-35 0 -35 39q0 41 27 90t40 65zM113 274q18 73 49 73q9 0 22 -5q-21 -15 -33.5 -27.5t-21.5 -27.5l-7 -11z"/>
    <glyph glyph-name="icircumflex" unicode="î" horiz-adv-x="187" d="M106 198l-4 -7q-33 -51 -48 -86t-15 -60t20 -25q27 0 75 36t81.5 72.5t37.5 37.5l4 -5l-5 -7l-42 -45q-38 -40 -89 -76t-80 -36q-35 0 -35 39q0 41 27 90t40 65zM145 347l2 -3l8 -8q20 -23 55 -42l-7 -6q-13 0 -19 1t-19 7q-19 10 -39 28l-33 -19l-27 -21l-12 8l13 9 l38 23z"/>
    <glyph glyph-name="idieresis" unicode="ï" horiz-adv-x="187" d="M106 198l-4 -7q-33 -51 -48 -86t-15 -60t20 -25q27 0 75 36t81.5 72.5t37.5 37.5l4 -5l-5 -7l-42 -45q-38 -40 -89 -76t-80 -36q-35 0 -35 39q0 41 27 90t40 65zM176 343l-2 -6l-9 -25l-4 -23l-9 -2l-8 -1q-7 0 -8 11q0 18 11.5 32t28.5 14zM119 343l-2 -6l-10 -29 l-3 -19l-9 -2l-9 -1q-6 0 -7 11q0 18 11.5 32t28.5 14z"/>
    <glyph glyph-name="ntilde" unicode="ñ" horiz-adv-x="376" d="M112 206l-34 -57l-23 -45l-13 -30l-4 -14l4 -5l5 2l19 14l34 26l48 33l29 18l31 17q29 14 46 16q18 0 18 -21l-1 -14l-9 -39l-7 -51q0 -28 24 -28q36 0 121 86l43 46l6 6l4 2l4 -4l-3 -5l-12 -15l-31 -31q-99 -105 -152 -105q-34 0 -34 40q0 18 1.5 28.5t3.5 21t8 31.5 l3 15q0 13 -13 14q-12 0 -57 -27q-19 -11 -39.5 -25l-40.5 -29q-38 -29 -54 -47l-22 -22l-7 -3q-6 0 -8 15q0 21 24 76.5t52 97.5q12 6 36 12zM304 336l6 -5q-32 -39 -56 -39q-11 0 -25 7l-25 11l-17 4q-15 0 -34 -20l-8 6q33 35 55 35q12 0 27 -6l15 -8l14 -5l14 -1 q9 0 16 4t18 17z"/>
    <glyph glyph-name="ograve" unicode="ò" horiz-adv-x="231" d="M173 130l-8 4q-24 8 -24 19q0 7 10 8q14 0 29 -24l21 -5l20 -1q46 0 63 18l19 19l3 2l4 -4l-5 -9l-22 -19q-21 -16 -62 -16q-19 0 -37 5l2 -23q0 -44 -35.5 -84t-76.5 -40q-29 0 -48.5 21.5t-19.5 53.5q0 58 47 108.5t100 50.5l25 -3q9 -3 10 -8l-4 -5q-2 -5 -4 -6l-4 -3 l-3 -1l-6 2q-12 6 -27 8q-40 0 -72.5 -37t-32.5 -84q0 -29 16 -48t42 -19q33 0 58 28t25 66zM93 342l23 5q30 0 48 -72l-7 -1l-8 13q-18 27 -56 55z"/>
    <glyph glyph-name="oacute" unicode="ó" horiz-adv-x="231" d="M173 130l-8 4q-24 8 -24 19q0 7 10 8q14 0 29 -24l21 -5l20 -1q46 0 63 18l19 19l3 2l4 -4l-5 -9l-22 -19q-21 -16 -62 -16q-19 0 -37 5l2 -23q0 -44 -35.5 -84t-76.5 -40q-29 0 -48.5 21.5t-19.5 53.5q0 58 47 108.5t100 50.5l25 -3q9 -3 10 -8l-4 -5q-2 -5 -4 -6l-4 -3 l-3 -1l-6 2q-12 6 -27 8q-40 0 -72.5 -37t-32.5 -84q0 -29 16 -48t42 -19q33 0 58 28t25 66zM146 274q18 73 49 73q9 0 22 -5q-21 -15 -33.5 -27.5t-21.5 -27.5l-7 -11z"/>
    <glyph glyph-name="ocircumflex" unicode="ô" horiz-adv-x="231" d="M173 130l-8 4q-24 8 -24 19q0 7 10 8q14 0 29 -24l21 -5l20 -1q46 0 63 18l19 19l3 2l4 -4l-5 -9l-22 -19q-21 -16 -62 -16q-19 0 -37 5l2 -23q0 -44 -35.5 -84t-76.5 -40q-29 0 -48.5 21.5t-19.5 53.5q0 58 47 108.5t100 50.5l25 -3q9 -3 10 -8l-4 -5q-2 -5 -4 -6l-4 -3 l-3 -1l-6 2q-12 6 -27 8q-40 0 -72.5 -37t-32.5 -84q0 -29 16 -48t42 -19q33 0 58 28t25 66zM184 347l2 -3l8 -8q20 -23 55 -42l-7 -6q-13 0 -19 1t-19 7q-19 10 -39 28l-33 -19l-27 -21l-12 8l13 9l38 23z"/>
    <glyph glyph-name="otilde" unicode="õ" horiz-adv-x="231" d="M173 130l-8 4q-24 8 -24 19q0 7 10 8q14 0 29 -24l21 -5l20 -1q46 0 63 18l19 19l3 2l4 -4l-5 -9l-22 -19q-21 -16 -62 -16q-19 0 -37 5l2 -23q0 -44 -35.5 -84t-76.5 -40q-29 0 -48.5 21.5t-19.5 53.5q0 58 47 108.5t100 50.5l25 -3q9 -3 10 -8l-4 -5q-2 -5 -4 -6l-4 -3 l-3 -1l-6 2q-12 6 -27 8q-40 0 -72.5 -37t-32.5 -84q0 -29 16 -48t42 -19q33 0 58 28t25 66zM257 336l6 -5q-32 -39 -56 -39q-11 0 -25 7l-25 11l-17 4q-15 0 -34 -20l-8 6q33 35 55 35q12 0 27 -6l15 -8l14 -5l14 -1q9 0 16 4t18 17z"/>
    <glyph glyph-name="odieresis" unicode="ö" horiz-adv-x="231" d="M173 130l-8 4q-24 8 -24 19q0 7 10 8q14 0 29 -24l21 -5l20 -1q46 0 63 18l19 19l3 2l4 -4l-5 -9l-22 -19q-21 -16 -62 -16q-19 0 -37 5l2 -23q0 -44 -35.5 -84t-76.5 -40q-29 0 -48.5 21.5t-19.5 53.5q0 58 47 108.5t100 50.5l25 -3q9 -3 10 -8l-4 -5q-2 -5 -4 -6l-4 -3 l-3 -1l-6 2q-12 6 -27 8q-40 0 -72.5 -37t-32.5 -84q0 -29 16 -48t42 -19q33 0 58 28t25 66zM209 343l-2 -6l-9 -25l-4 -23l-9 -2l-8 -1q-7 0 -8 11q0 18 11.5 32t28.5 14zM152 343l-2 -6l-10 -29l-3 -19l-9 -2l-9 -1q-6 0 -7 11q0 18 11.5 32t28.5 14z"/>
    <glyph glyph-name="oslash" unicode="ø" horiz-adv-x="214" d="M10 -91l-16 6l15 32l25 45q-28 28 -28 62t18 68t52 62q40 29 77 29l27 -3l6 7l8 9l18 21q14 15 21 15l12 -4l-33 -35l-48 -57l-4 -6q25 -13 25 -48q0 -51 -35 -91.5t-80 -40.5q-11 0 -25 6zM147 143q-34 -43 -80 -117l-4 -8q13 -6 30 -8q33 0 57 27t24 66q0 31 -27 40z M130 144q-9 0 -18 -6q3 24 32 27l21 27q-9 3 -28 5q-39 0 -72 -36.5t-33 -80.5q0 -29 21 -53l7 12q37 60 70 105z"/>
    <glyph glyph-name="ugrave" unicode="ù" horiz-adv-x="349" d="M115 212l-21 -29l-35 -56q-24 -42 -24 -82q0 -26 20 -26q27 0 78 41q62 53 110 113l21 -4q-27 -50 -36.5 -78.5t-9.5 -47.5q0 -25 17 -25q22 0 63.5 31.5t78.5 70.5l41 42l6 5l4 -5l-12 -14l-47 -50q-37 -39 -69 -60q-49 -37 -79 -37q-31 0 -31 41q0 18 4 34.5t15 41.5 l-7 -6l-30 -30q-36 -35 -72.5 -57.5t-61.5 -22.5q-32 0 -32 38q0 18 4 33t16 40q19 43 55 92q17 5 34 7zM139 342l23 5q30 0 48 -72l-7 -1l-8 13q-18 27 -56 55z"/>
    <glyph glyph-name="uacute" unicode="ú" horiz-adv-x="349" d="M115 212l-21 -29l-35 -56q-24 -42 -24 -82q0 -26 20 -26q27 0 78 41q62 53 110 113l21 -4q-27 -50 -36.5 -78.5t-9.5 -47.5q0 -25 17 -25q22 0 63.5 31.5t78.5 70.5l41 42l6 5l4 -5l-12 -14l-47 -50q-37 -39 -69 -60q-49 -37 -79 -37q-31 0 -31 41q0 18 4 34.5t15 41.5 l-7 -6l-30 -30q-36 -35 -72.5 -57.5t-61.5 -22.5q-32 0 -32 38q0 18 4 33t16 40q19 43 55 92q17 5 34 7zM193 274q18 73 49 73q9 0 22 -5q-21 -15 -33.5 -27.5t-21.5 -27.5l-7 -11z"/>
    <glyph glyph-name="ucircumflex" unicode="û" horiz-adv-x="349" d="M115 212l-21 -29l-35 -56q-24 -42 -24 -82q0 -26 20 -26q27 0 78 41q62 53 110 113l21 -4q-27 -50 -36.5 -78.5t-9.5 -47.5q0 -25 17 -25q22 0 63.5 31.5t78.5 70.5l41 42l6 5l4 -5l-12 -14l-47 -50q-37 -39 -69 -60q-49 -37 -79 -37q-31 0 -31 41q0 18 4 34.5t15 41.5 l-7 -6l-30 -30q-36 -35 -72.5 -57.5t-61.5 -22.5q-32 0 -32 38q0 18 4 33t16 40q19 43 55 92q17 5 34 7zM217 347l2 -3l8 -8q20 -23 55 -42l-7 -6q-13 0 -19 1t-19 7q-19 10 -39 28l-33 -19l-27 -21l-12 8l13 9l38 23z"/>
    <glyph glyph-name="udieresis" unicode="ü" horiz-adv-x="349" d="M115 212l-21 -29l-35 -56q-24 -42 -24 -82q0 -26 20 -26q27 0 78 41q62 53 110 113l21 -4q-27 -50 -36.5 -78.5t-9.5 -47.5q0 -25 17 -25q22 0 63.5 31.5t78.5 70.5l41 42l6 5l4 -5l-12 -14l-47 -50q-37 -39 -69 -60q-49 -37 -79 -37q-31 0 -31 41q0 18 4 34.5t15 41.5 l-7 -6l-30 -30q-36 -35 -72.5 -57.5t-61.5 -22.5q-32 0 -32 38q0 18 4 33t16 40q19 43 55 92q17 5 34 7zM243 343l-2 -6l-9 -25l-4 -23l-9 -2l-8 -1q-7 0 -8 11q0 18 11.5 32t28.5 14zM186 343l-2 -6l-10 -29l-3 -19l-9 -2l-9 -1q-6 0 -7 11q0 18 11.5 32t28.5 14z"/>
    <glyph glyph-name="ydieresis" unicode="ÿ" horiz-adv-x="270" d="M114 199q-71 -91 -71 -137q0 -33 30 -33q44 0 89 66q22 33 33 65.5t11 67.5l-1 6l21 13l2 -22q0 -30 -2 -42.5t-10 -39l-10 -33t-11 -28.5q-4 -12 -8 -22.5t-9 -19.5l-10 -21l-4 -10q35 22 83 66t87 89l7 5l4 -5l-3 -6l-9 -10l-23 -26l-43 -42l-44 -39l-30 -24l-40 -28 l-5 -9l-13 -24l-47 -67q-22 -29 -57 -63q-32 -34 -70.5 -64.5t-76.5 -30.5q-33 0 -33 34q0 36 34.5 66t70.5 53l68 39l77 44l33 20l18 43l11 26l7 19l8 26q-61 -88 -115 -88q-20 0 -34 14q-13 16 -13 37q0 26 17 60.5t45 68.5q14 6 36 6zM126 -28l-9 -5l-34 -20l-42 -25 q-89 -52 -124 -83t-35 -60q0 -24 26 -24q39 0 110 70.5t108 146.5zM230 343l-2 -6l-9 -25l-4 -23l-9 -2l-8 -1q-7 0 -8 11q0 18 11.5 32t28.5 14zM173 343l-2 -6l-10 -29l-3 -19l-9 -2l-9 -1q-6 0 -7 11q0 18 11.5 32t28.5 14z"/>
    <glyph glyph-name="dotlessi" unicode="ı" horiz-adv-x="187" d="M106 198l-4 -7q-33 -51 -48 -86t-15 -60t20 -25q27 0 75 36t81.5 72.5t37.5 37.5l4 -5l-5 -7l-42 -45q-38 -40 -89 -76t-80 -36q-35 0 -35 39q0 41 27 90t40 65z"/>
    <glyph glyph-name="ring" unicode="˚" horiz-adv-x="186" d="M111 347q17 0 17 -23q0 -17 -12 -31.5t-29 -14.5q-21 0 -21 23q0 15 15.5 30t29.5 16zM101 335l-3 -3q-15 -14 -17 -24q0 -16 14 -17q12 0 12 19l-1 10q0 7 -5 15z"/>
    <glyph glyph-name="c128" horiz-adv-x="675" d="M771 499q0 54 -37.5 85.5t-100.5 31.5q-73 0 -158 -45q-84 -43 -149 -114q-64 -69 -100 -154t-36 -166q0 -96 58 -155q58 -61 148 -61q101 0 181 71q82 71 104 179h-9q-21 -97 -90 -160q-70 -62 -153 -62q-68 0 -137 54q-68 54 -68 174q0 48 10 89t30 84q40 84 138 167 q97 82 214 82q64 0 100 -33q38 -32 38 -86q0 -55 -44 -105q-44 -48 -92 -48q-23 0 -38.5 14.5t-15.5 35.5q0 57 88 88l-4 6q-23 -6 -42 -17.5t-33 -25.5t-22 -30.5t-8 -32.5q0 -22 18.5 -38.5t44.5 -16.5q61 0 113 58t52 131zM489 360h-423l-20 -24h423zM457 308h-333 l-20 -24h333z"/>
    <glyph glyph-name="c128" unicode="€" horiz-adv-x="675" d="M771 499q0 54 -37.5 85.5t-100.5 31.5q-73 0 -158 -45q-84 -43 -149 -114q-64 -69 -100 -154t-36 -166q0 -96 58 -155q58 -61 148 -61q101 0 181 71q82 71 104 179h-9q-21 -97 -90 -160q-70 -62 -153 -62q-68 0 -137 54q-68 54 -68 174q0 48 10 89t30 84q40 84 138 167 q97 82 214 82q64 0 100 -33q38 -32 38 -86q0 -55 -44 -105q-44 -48 -92 -48q-23 0 -38.5 14.5t-15.5 35.5q0 57 88 88l-4 6q-23 -6 -42 -17.5t-33 -25.5t-22 -30.5t-8 -32.5q0 -22 18.5 -38.5t44.5 -16.5q61 0 113 58t52 131zM489 360h-423l-20 -24h423zM457 308h-333 l-20 -24h333z"/>
    <glyph glyph-name="periodcentered" unicode="∙" horiz-adv-x="134" d="M124 224q12 0 14 -15q0 -24 -20 -44q-19 -17 -34 -19q-15 0 -15 16q0 26 21.5 44t33.5 18z"/>
    <glyph glyph-name="fraction" unicode="∕" horiz-adv-x="195" d="M-38 -26l-7 -4l-8 -4l-7 -2l-6 6q0 10 17 37q16 29 59 89l62 82l44 53l35 39q14 17 40 42l50 49l37 32q12 9 23 11l5 -5q0 -12 -22.5 -33t-37.5 -30l-39 -21q-37 -37 -73 -79.5t-76 -97.5q-73 -102 -96 -164z"/>
    <glyph glyph-name="circumflex" unicode="̂" horiz-adv-x="276" d="M157 347l2 -3l8 -8q20 -23 55 -42l-7 -6q-13 0 -19 1t-19 7q-19 10 -39 28l-33 -19l-27 -21l-12 8l13 9l38 23z"/>
    <glyph glyph-name="tilde" unicode="̃" horiz-adv-x="286" d="M224 336l6 -5q-32 -39 -56 -39q-11 0 -25 7l-25 11l-17 4q-15 0 -34 -20l-8 6q33 35 55 35q12 0 27 -6l15 -8l14 -5l14 -1q9 0 16 4t18 17z"/>
    <glyph glyph-name=".null" horiz-adv-x="0"/>
    </font>
</defs>
</svg>
