<?xml version="1.0" encoding="UTF-8" standalone="no"?>
<!DOCTYPE svg PUBLIC "-//W3C//DTD SVG 1.1//EN" "http://www.w3.org/Graphics/SVG/1.1/DTD/svg11.dtd">
<svg>
<metadata>
Created by FontForge 20090622 at Wed Aug  5 12:56:30 2015
 By deploy user
Copyright 1997 International Typeface Corporation. All rights reserved.
</metadata>
<defs>
<font id="OfficinaSansITCPro-Bold" horiz-adv-x="500">
  <font-face font-family="OfficinaSansITCPro Book" font-weight="700" font-stretch="normal" units-per-em="1000" panose-1="2 0 8 6 5 0 0 2 0 4" ascent="724" descent="-276" x-height="494" cap-height="686" bbox="-130 -263 1142 961" underline-thickness="50" underline-position="-50" unicode-range="U+0020-U+FB04"/>
<missing-glyph d="M12 0v665h475v-665h-475zM88 618l162 -243l161 243h-323zM60 575v-484l161 242zM440 575l-162 -242l162 -243v485zM411 48l-161 242l-162 -242h323z"/>
    <glyph glyph-name="IJ" unicode="IJ" horiz-adv-x="778" d="M320 21q0 -13 -4 -17t-17 -4h-245q-14 0 -17.5 3.5t-3.5 17.5v57q0 14 3.5 17.5t17.5 3.5h54v488h-54q-14 0 -17.5 3.5t-3.5 17.5v57q0 14 3.5 17.5t17.5 3.5h245q13 0 17 -4t4 -17v-57q0 -14 -4 -17.5t-17 -3.5h-54v-488h54q13 0 17 -3.5t4 -17.5v-57zM712 211 q0 -102 -28 -150q-47 -78 -164 -78q-61 0 -98 22t-60 71q-21 46 -21 102q0 24 14 24h96q11 0 11 -14v-13q0 -81 60 -81q33 0 44 25q9 19 9 73v395h-138q-13 0 -17 3.5t-4 17.5v57q0 13 4 17t17 4h255q13 0 16.5 -4t3.5 -17v-454z"/>
    <glyph glyph-name="ij" unicode="ij" horiz-adv-x="587" d="M235 641q0 -34 -23.5 -57.5t-57.5 -23.5t-57.5 24t-23.5 58q0 33 24 56.5t58 23.5q33 0 56.5 -24t23.5 -57zM221 17q0 -11 -3 -14t-14 -3h-93q-11 0 -14 3t-3 14v384h-76q-11 0 -14 3t-3 14v59q0 11 3 14t14 3h186q11 0 14 -3t3 -14v-460zM526 641q0 -34 -23.5 -57.5 t-57.5 -23.5t-57.5 24t-23.5 58q0 33 24 56.5t58 23.5q33 0 56.5 -24t23.5 -57zM512 10q0 -129 -25 -176q-39 -70 -146 -70q-42 0 -76.5 8.5t-34.5 19.5q0 2 2 10l22 75q2 7 9 7l8 -2q29 -13 56 -13q43 0 54 49q4 21 4 92v391h-76q-11 0 -14 3t-3 14v59q0 11 3 14t14 3h186 q11 0 14 -3t3 -14v-467z"/>
    <glyph glyph-name="napostrophe" unicode="'n" horiz-adv-x="597" d="M261 368v-351q0 -11 -3 -14t-14 -3h-93q-11 0 -14 3t-3 14v336q0 64 -21 109q-3 6 -3 10q0 6 8 9l89 33q6 2 10 2q19 0 36 -69q70 64 150 64q67 0 98 -38t31 -120v-336q0 -11 -3 -14t-14 -3h-93q-11 0 -14 3t-3 14v308q0 44 -13.5 64t-43.5 20q-39 0 -87 -41zM181 704 q0 -2 -6 -14l-119 -224q-8 -14 -14 -14q-2 0 -12 3l-38 13q-16 5 -16 13q0 4 3 13l62 204q5 17 23 17h96q21 0 21 -11z"/>
    <glyph glyph-name="f_f" unicode="ff" horiz-adv-x="625" d="M98 494v39q0 93 30 134q42 57 117 57q36 0 69.5 -11.5t33.5 -23.5v-4q0 -2 -1 -5l-19 -69q-3 -9 -9 -9q-4 0 -22 8q-13 7 -29 7q-26 0 -36 -21q-7 -13 -7 -58v-44h146v42q0 92 33 133q45 55 127 55q46 0 84 -11t38 -25q0 -2 -2 -8l-18 -71q-4 -9 -9 -9q-4 0 -10 3 q-31 14 -60 14q-34 0 -48 -21q-8 -13 -8 -60v-42h114q17 0 17 -10q0 -4 -2 -10l-14 -58q-4 -15 -19 -15h-96v-384q0 -11 -3 -14t-14 -3h-93q-11 0 -14 3t-3 14v384h-146v-384q0 -11 -3 -14t-14 -3h-93q-11 0 -14 3t-3 14v384h-76q-13 0 -15 3t-2 21v55q0 14 17 14h76z"/>
    <glyph glyph-name="fi" unicode="fi" horiz-adv-x="574" d="M522 644q0 -31 -21.5 -52.5t-51.5 -21.5q-31 0 -52.5 21.5t-21.5 52.5t21.5 52t53.5 21q29 0 50.5 -21.5t21.5 -51.5zM498 17q0 -11 -3 -14t-14 -3h-93q-11 0 -14 3t-3 14v384h-146v-384q0 -11 -3 -14t-14 -3h-93q-11 0 -14 3t-3 14v384h-76q-11 0 -14 3t-3 14v59 q0 11 3 14t14 3h76v39q0 93 30 134q42 57 118 57q37 0 70.5 -11.5t33.5 -24.5q0 -2 -2 -8l-18 -69q-2 -9 -8 -9q-5 0 -11 3q-25 12 -40 12q-27 0 -38 -21q-8 -15 -8 -58v-44h256q11 0 14 -3t3 -14v-460z"/>
    <glyph glyph-name="fl" unicode="fl" horiz-adv-x="593" d="M604 11q0 -10 -32.5 -19t-68.5 -9q-89 0 -114 72q-9 26 -9 122v508q0 16 15 19l90 18q10 2 12 2q10 0 10 -17v-521q0 -58 2 -66q6 -20 25 -20q15 0 33 6q3 1 7 1q6 0 8 -6l20 -82l1 -4q1 -2 1 -4zM348 689q0 -3 -2 -9l-18 -69q-2 -9 -9 -9q-4 0 -22 8q-13 7 -29 7 q-26 0 -36 -21q-7 -13 -7 -58v-44h102q17 0 17 -10q0 -3 -1 -5l-1 -5l-16 -59q-4 -14 -18 -14h-83v-384q0 -11 -3 -14t-14 -3h-93q-11 0 -14 3t-3 14v384h-76q-11 0 -14 3t-3 14v59q0 11 3 14t14 3h76v39q0 93 30 134q42 57 117 57q36 0 69.5 -11.5t33.5 -23.5z"/>
    <glyph glyph-name="f_f_i" unicode="ffi" horiz-adv-x="847" d="M795 644q0 -31 -21.5 -52.5t-51.5 -21.5q-31 0 -52.5 21.5t-21.5 52.5t21.5 52t53.5 21q29 0 50.5 -21.5t21.5 -51.5zM371 494v39q0 93 30 134q42 57 118 57q37 0 70.5 -11.5t33.5 -24.5q0 -2 -2 -8l-18 -69q-1 -9 -8 -9q-5 0 -11 3q-25 12 -40 12q-28 0 -38 -21 q-8 -15 -8 -58v-44h256q11 0 14 -3t3 -14v-460q0 -11 -3 -14t-14 -3h-93q-11 0 -14 3t-3 14v384h-146v-384q0 -11 -3 -14t-14 -3h-93q-11 0 -14 3t-3 14v384h-146v-384q0 -11 -3 -14t-14 -3h-93q-11 0 -14 3t-3 14v384h-76q-13 0 -15 3t-2 21v55q0 14 17 14h76v39 q0 93 30 134q42 57 117 57q36 0 69.5 -11.5t33.5 -23.5v-4q0 -2 -1 -5l-19 -69q-3 -9 -9 -9q-4 0 -22 8q-13 7 -29 7q-26 0 -36 -21q-7 -13 -7 -58v-44h146z"/>
    <glyph glyph-name="f_f_l" unicode="ffl" horiz-adv-x="866" d="M877 11q0 -10 -32.5 -19t-68.5 -9q-89 0 -114 72q-9 26 -9 122v508q0 16 15 19l90 18q10 2 12 2q10 0 10 -17v-521q0 -58 2 -66q6 -20 25 -20q15 0 33 6q3 1 7 1q7 0 8 -6l20 -82l1 -4q1 -2 1 -4zM371 494v39q0 93 30 134q42 57 117 57q36 0 69.5 -11.5t33.5 -23.5 q0 -3 -2 -9l-18 -69q-1 -9 -9 -9q-4 0 -22 8q-13 7 -29 7q-25 0 -36 -21q-7 -13 -7 -58v-44h102q17 0 17 -10q0 -3 -1 -5l-1 -5l-16 -59q-4 -14 -18 -14h-83v-384q0 -11 -3 -14t-14 -3h-93q-11 0 -14 3t-3 14l1 384h-147v-384q0 -11 -3 -14t-14 -3h-93q-11 0 -14 3t-3 14 v384h-76q-13 0 -15 3t-2 21v55q0 14 17 14h76v39q0 93 30 134q42 57 117 57q36 0 69.5 -11.5t33.5 -23.5v-4q0 -2 -1 -5l-19 -69q-3 -9 -9 -9q-4 0 -22 8q-13 7 -29 7q-26 0 -36 -21q-7 -13 -7 -58v-44h146z"/>
    <glyph glyph-name=".notdef" d="M12 0v665h475v-665h-475zM88 618l162 -243l161 243h-323zM60 575v-484l161 242zM440 575l-162 -242l162 -243v485zM411 48l-161 242l-162 -242h323z"/>
    <glyph glyph-name=".null" horiz-adv-x="0"/>
    <glyph glyph-name="nonmarkingreturn" horiz-adv-x="333"/>
    <glyph glyph-name="space" unicode=" " horiz-adv-x="206"/>
    <glyph glyph-name="exclam" unicode="!" horiz-adv-x="352" d="M249 685l-1 -9l-22 -403q-1 -13 -4.5 -16.5t-16.5 -3.5h-60q-13 0 -16.5 3t-4.5 17l-23 403v7q0 8 4 11t16 3h107q21 0 21 -10v-2zM261 57q0 -35 -24.5 -59.5t-59.5 -24.5t-60 25t-25 60t25 59.5t61 24.5q34 0 58.5 -25t24.5 -60z"/>
    <glyph glyph-name="quotedbl" unicode="&quot;" horiz-adv-x="537" d="M434 673l-1 -9l-20 -231q-1 -12 -4.5 -15.5t-16.5 -3.5h-42q-13 0 -16 3t-5 16l-22 231v6q0 10 4 13t16 3h86q21 0 21 -11v-2zM230 673q0 -4 -1 -9l-20 -231q-1 -12 -4.5 -15.5t-16.5 -3.5h-42q-13 0 -16 3t-5 16l-21 231q-1 4 -1 9q0 13 20 13h87q20 0 20 -13z"/>
    <glyph glyph-name="numbersign" unicode="#" horiz-adv-x="537" d="M492 399q0 -13 -4 -16.5t-17 -3.5h-60l-18 -168h51q14 0 17.5 -3.5t3.5 -17.5v-53q0 -13 -3.5 -17t-17.5 -4h-60l-19 -177q-2 -11 -6 -15t-15 -4h-48q-12 0 -16 3t-4 13v6l19 174h-101l-19 -177q-2 -11 -6 -15t-15 -4h-48q-20 0 -20 13q0 4 1 9l18 174h-39 q-14 0 -17.5 3.5t-3.5 17.5v53q0 14 3.5 17.5t17.5 3.5h49l18 168h-40q-14 0 -17.5 3.5t-3.5 16.5v57q0 13 4 16.5t17 3.5h50l17 163q1 12 5.5 15.5t15.5 3.5h48q12 0 16 -3t4 -11v-8l-17 -160h100l18 163q2 12 5.5 15.5t15.5 3.5h47q21 0 21 -11v-2l-1 -9l-17 -160h50 q13 0 17 -3.5t4 -16.5v-57zM322 379h-100l-18 -168h101z"/>
    <glyph glyph-name="dollar" unicode="$" horiz-adv-x="537" d="M476 185q0 -78 -47 -130.5t-129 -65.5v-44q0 -13 -4 -17t-17 -4h-20q-13 0 -17 4t-4 17v42q-65 5 -119.5 22.5t-54.5 33.5l1 9l30 84q3 8 9 8q5 0 21 -8q64 -33 113 -37v195q-89 39 -120 64q-56 49 -56 130q0 79 45.5 127.5t130.5 60.5v51q0 13 4 17t17 4h20q13 0 17 -4 t4 -17v-49q57 -3 107 -21.5t50 -35.5q0 -8 -3 -11l-31 -68q-3 -8 -9 -8q-4 0 -20 9q-44 24 -94 29v-184q94 -44 127 -78q49 -50 49 -125zM245 406v168q-69 -16 -69 -79q0 -55 69 -89zM361 180q0 32 -16 54t-52 42v-180q68 15 68 84z"/>
    <glyph glyph-name="percent" unicode="%" horiz-adv-x="833" d="M787 166q0 -85 -41.5 -133t-115.5 -48q-69 0 -109 46t-40 126q0 84 42 133.5t115 49.5q67 0 108 -47.5t41 -126.5zM602 665q0 -5 -3 -13l-281 -674q-7 -18 -24 -18h-51q-20 0 -20 11q0 5 4 14l282 677q7 15 23 15h51q19 0 19 -12zM353 488q0 -85 -41.5 -133t-115.5 -48 q-69 0 -109 46.5t-40 126.5q0 84 42.5 133.5t114.5 49.5q68 0 108.5 -48t40.5 -127zM692 159q0 107 -59 107q-25 0 -40 -27.5t-15 -74.5q0 -105 57 -105t57 100zM258 482q0 107 -59 107q-26 0 -40.5 -27t-14.5 -74q0 -107 57 -107t57 101z"/>
    <glyph glyph-name="ampersand" unicode="&amp;" horiz-adv-x="611" d="M607 39q0 -5 -10 -14l-51 -43q-8 -6 -14 -6t-15 10l-55 62q-43 -40 -87 -57t-106 -17q-104 0 -165.5 51.5t-61.5 139.5q0 62 31 105t114 95q-54 64 -73 99.5t-19 72.5q0 71 57 120.5t139 49.5q79 0 129 -44t50 -115q0 -54 -28 -96.5t-99 -97.5l107 -127q26 48 32 123 q1 11 9 11q2 0 10 -2l74 -20q12 -3 12 -15q0 -32 -18 -87t-42 -97l71 -86q9 -10 9 -15zM350 540q0 33 -17.5 52t-48.5 19t-51 -20t-20 -51q0 -24 10 -41.5t48 -62.5q1 -1 2.5 -3t4 -5t4.5 -5q38 34 53 59.5t15 57.5zM387 134l-136 160q-76 -50 -76 -114q0 -43 29 -71.5 t73 -28.5q62 0 110 54z"/>
    <glyph glyph-name="quotesingle" unicode="'" horiz-adv-x="352" d="M239 673q0 -4 -1 -9l-20 -231q-1 -12 -4.5 -15.5t-16.5 -3.5h-42q-13 0 -16 3t-5 16l-21 231q-1 4 -1 9q0 13 20 13h87q20 0 20 -13z"/>
    <glyph glyph-name="parenleft" unicode="(" horiz-adv-x="444" d="M406 -215q0 -8 -8 -13l-52 -32q-4 -3 -11 -3q-17 0 -93 115q-125 189 -125 392q0 114 33.5 212t111.5 210q37 53 50.5 69t22.5 16q10 0 46 -24q25 -15 25 -24q0 -6 -8 -18q-65 -91 -100 -176q-50 -118 -50 -265q0 -122 35 -225.5t115 -215.5q8 -12 8 -18z"/>
    <glyph glyph-name="parenright" unicode=")" horiz-adv-x="444" d="M328 244q0 -114 -33.5 -212t-111.5 -210q-35 -51 -50 -68t-23 -17q-10 0 -46 24q-25 17 -25 24t8 18q22 31 53.5 86t46.5 90q50 121 50 265q0 165 -64 297q-11 24 -42 75.5t-44 68.5q-8 11 -8 18t8 13l53 32q5 3 10 3q17 0 93 -115q125 -188 125 -392z"/>
    <glyph glyph-name="asterisk" unicode="*" horiz-adv-x="537" d="M459 513q0 -6 -4 -8t-15 -4l-124 -17l89 -88q9 -8 9 -14q0 -8 -11 -15l-52 -38q-10 -7 -15 -7q-7 0 -13 14l-55 113l-56 -112q-6 -14 -13 -14t-15 7l-52 38q-11 7 -11 14t9 15l90 87l-124 18q-18 3 -18 12q0 4 3 13l20 61q5 17 13 17q4 0 14 -6l110 -59l-20 124l-1 5 q-1 2 -1 6q0 11 21 11h64q20 0 20 -12l-1 -11l-22 -123l111 58q9 5 14 5q8 0 13 -16l20 -61q3 -10 3 -13z"/>
    <glyph glyph-name="plus" unicode="+" d="M196 386v155q0 13 3.5 17t16.5 4h67q13 0 17 -4t4 -17v-155h153q13 0 17 -4t4 -17v-63q0 -13 -4 -16.5t-17 -3.5h-153v-155q0 -13 -4 -16.5t-17 -3.5h-67q-13 0 -16.5 3.5t-3.5 16.5v155h-153q-14 0 -17.5 3.5t-3.5 16.5v63q0 13 4 17t17 4h153z"/>
    <glyph glyph-name="comma" unicode="," horiz-adv-x="296" d="M235 114q0 -6 -5 -14l-119 -224q-8 -14 -14 -14q-3 0 -12 3l-38 13q-16 6 -16 14q0 3 3 12l62 204q5 17 23 17h96q20 0 20 -11z"/>
    <glyph glyph-name="hyphen" unicode="-" horiz-adv-x="370" d="M60 315h250q13 0 17 -3.5t4 -16.5v-79q0 -14 -3.5 -17t-17.5 -3h-250q-14 0 -17.5 3.5t-3.5 16.5v79q0 14 3.5 17t17.5 3z"/>
    <glyph glyph-name="period" unicode="." horiz-adv-x="296" d="M243 79q0 -40 -27.5 -67.5t-67.5 -27.5t-67.5 28t-27.5 68q0 39 28.5 66.5t68.5 27.5q38 0 65.5 -28t27.5 -67z"/>
    <glyph glyph-name="slash" unicode="/" horiz-adv-x="444" d="M414 734q0 -4 -3 -13l-325 -966q-6 -18 -27 -18h-58q-12 0 -16 2.5t-4 10.5q0 3 3 11l326 967q6 18 27 18h59q18 0 18 -12z"/>
    <glyph glyph-name="zero" unicode="0" horiz-adv-x="537" d="M506 343q0 -107 -14.5 -171t-49.5 -109q-63 -80 -177 -80q-113 0 -173.5 89t-60.5 257q0 198 77 284q63 73 172 73q93 0 153 -69q39 -45 56 -109t17 -165zM377 315q0 155 -24 210q-25 54 -83 54q-56 0 -83 -60t-27 -186q0 -127 26 -185t83 -58q61 0 87 59q21 49 21 166z "/>
    <glyph glyph-name="one" unicode="1" horiz-adv-x="537" d="M228 93v420l-104 -57q-11 -6 -15 -6q-5 0 -13 14l-26 44q-6 10 -6 15t12 14l188 132h70q13 0 16.5 -4t3.5 -17v-555h72q14 0 17.5 -3.5t3.5 -17.5v-51q0 -14 -3.5 -17.5t-17.5 -3.5h-293q-13 0 -17 4t-4 17v51q0 14 4 17.5t17 3.5h95z"/>
    <glyph glyph-name="two" unicode="2" horiz-adv-x="537" d="M474 495q0 -95 -59 -160q-5 -5 -8.5 -9t-7 -7.5t-8 -7.5t-7.5 -7t-9.5 -8t-10.5 -8.5t-14.5 -11.5t-17 -13.5t-22 -17t-26.5 -20.5q-38 -30 -54 -55.5t-17 -57.5h234q13 0 17 -4t4 -17v-70q0 -13 -4 -17t-17 -4h-360q-14 0 -14 14v8q0 63 6.5 98t24.5 68q22 39 51 68 t109 91q51 39 70.5 70.5t19.5 73.5q0 40 -21.5 62t-60.5 22q-37 0 -59 -18.5t-42 -66.5q-6 -15 -15 -15q-5 0 -11 2l-64 24q-12 5 -12 15q0 17 16.5 50t36.5 55q57 65 162 65q90 0 140 -50t50 -141z"/>
    <glyph glyph-name="three" unicode="3" horiz-adv-x="537" d="M464 189q0 -94 -71 -153q-63 -53 -158 -53q-89 0 -161 33q-29 13 -29 22q0 2 2 10l20 72q2 9 11 9q4 0 10 -3q77 -37 136 -37q53 0 82 28t29 79q0 52 -30.5 76t-95.5 24h-30q-13 0 -17 4t-4 17v66q0 13 4 17t17 4h32q50 0 73 17q35 25 35 77q0 37 -22.5 60t-59.5 23 q-49 0 -90 -51q-9 -10 -13 -10q-3 0 -9 4l-55 50q-5 5 -5 10q0 10 21 34q63 68 158 68q88 0 142.5 -49t54.5 -129q0 -54 -22.5 -89.5t-72.5 -59.5q118 -38 118 -170z"/>
    <glyph glyph-name="four" unicode="4" horiz-adv-x="537" d="M296 132h-245q-14 0 -17.5 3t-3.5 17v105l249 416q8 13 13 13t14 -4l60 -25q15 -7 15 -14q0 -5 -6 -14l-233 -396h156l13 161q1 13 4.5 16t16.5 3h68q14 0 17.5 -3.5t3.5 -17.5v-162h57q14 0 17.5 -4t3.5 -20v-54q0 -13 -4 -16.5t-17 -3.5h-57v-130q0 -14 -3.5 -17 t-17.5 -3h-83q-14 0 -17.5 3t-3.5 17v130z"/>
    <glyph glyph-name="five" unicode="5" horiz-adv-x="537" d="M486 227q0 -110 -71 -177t-189 -67q-75 0 -147 26q-18 7 -18 19q0 6 1 11l14 73q2 9 9 9q2 0 8 -2q71 -26 127 -26q68 0 108.5 36t40.5 96q0 50 -26.5 78t-73.5 28q-61 0 -100 -46q-8 -9 -14 -9q-4 0 -10 2l-60 19q-16 5 -16 14q0 5 1 10l31 329q1 9 2.5 12.5t5.5 5 t13 1.5h293q14 0 17.5 -3.5t3.5 -17.5v-67q0 -14 -3.5 -17t-17.5 -3h-206l-18 -156q44 29 103 29q86 0 139 -57.5t53 -149.5z"/>
    <glyph glyph-name="six" unicode="6" horiz-adv-x="537" d="M488 235q0 -129 -70 -196q-57 -56 -146 -56q-103 0 -158 76t-55 219q0 186 80 297t214 111q39 0 71.5 -10.5t32.5 -22.5q0 -4 -2 -9l-21 -70q-2 -8 -8 -8q-1 0 -7 2q-35 13 -64 13q-128 0 -167 -165q29 29 54.5 40.5t62.5 11.5q69 0 118 -46q65 -61 65 -187zM367 231 q0 132 -87 132q-42 0 -65.5 -35t-23.5 -99q0 -65 22 -100.5t63 -35.5q43 0 67 36.5t24 101.5z"/>
    <glyph glyph-name="seven" unicode="7" horiz-adv-x="537" d="M464 609l-226 -609q-4 -10 -6.5 -12.5t-9.5 -2.5q-6 0 -9 1l-77 14q-18 3 -18 12q0 7 4 14l203 525h-243q-14 0 -17.5 3.5t-3.5 17.5v76q0 14 3.5 17.5t17.5 3.5h361q13 0 17 -3.5t4 -17.5v-39z"/>
    <glyph glyph-name="eight" unicode="8" horiz-adv-x="537" d="M501 177q0 -67 -47 -120q-64 -74 -190 -74q-105 0 -164 47q-32 26 -50 64.5t-18 79.5q0 60 37 106.5t105 71.5q-117 51 -117 159q0 74 60.5 124.5t150.5 50.5q89 0 148.5 -50t59.5 -125q0 -96 -114 -157q139 -60 139 -177zM350 497q0 38 -23.5 62t-60.5 24 q-36 0 -59.5 -23.5t-23.5 -60.5q0 -34 19.5 -56.5t68.5 -43.5q42 18 60.5 41t18.5 57zM375 181q0 60 -55 94q-21 12 -59 29q-55 -26 -79 -55t-24 -68q0 -43 29.5 -69t78.5 -26q48 0 78.5 26.5t30.5 68.5z"/>
    <glyph glyph-name="nine" unicode="9" horiz-adv-x="537" d="M477 391q0 -189 -80 -298.5t-219 -109.5q-39 0 -66.5 7.5t-27.5 18.5v10l14 70q2 10 10 10q3 0 11 -2q32 -9 64 -9q128 0 167 172q-30 -33 -56.5 -46t-63.5 -13q-68 0 -117 46q-65 61 -65 193q0 112 58.5 179t156.5 67q104 0 159 -76t55 -219zM345 440q0 136 -87 136 q-41 0 -65 -36.5t-24 -99.5q0 -65 22.5 -99.5t65.5 -34.5t65.5 34.5t22.5 99.5z"/>
    <glyph glyph-name="colon" unicode=":" horiz-adv-x="296" d="M243 409q0 -40 -27.5 -67.5t-67.5 -27.5t-67.5 28t-27.5 68q0 39 28.5 66.5t68.5 27.5q38 0 65.5 -28t27.5 -67zM243 79q0 -40 -27.5 -67.5t-67.5 -27.5t-67.5 28t-27.5 68q0 39 28.5 66.5t68.5 27.5q38 0 65.5 -28t27.5 -67z"/>
    <glyph glyph-name="semicolon" unicode=";" horiz-adv-x="296" d="M251 409q0 -40 -27.5 -67.5t-67.5 -27.5t-67.5 28t-27.5 68q0 39 28.5 66.5t68.5 27.5q38 0 65.5 -28t27.5 -67zM235 114q0 -6 -5 -14l-119 -224q-8 -14 -14 -14q-3 0 -12 3l-38 13q-16 6 -16 14q0 3 3 12l62 204q5 17 23 17h96q20 0 20 -11z"/>
    <glyph glyph-name="less" unicode="&lt;" d="M473 52l-446 227v111l446 226v-123l-319 -159l319 -159v-123z"/>
    <glyph glyph-name="equal" unicode="=" d="M478 387q0 -13 -4 -17t-17 -4h-414q-13 0 -17 4t-4 17v62q0 14 3.5 17.5t17.5 3.5h414q13 0 17 -4t4 -17v-62zM478 220q0 -14 -4 -17.5t-17 -3.5h-414q-14 0 -17.5 3.5t-3.5 17.5v63q0 13 3.5 16.5t17.5 3.5h414q13 0 17 -3.5t4 -16.5v-63z"/>
    <glyph glyph-name="greater" unicode="&gt;" d="M473 279l-446 -227v123l319 159l-319 159v123l446 -226v-111z"/>
    <glyph glyph-name="question" unicode="?" d="M441 521q0 -95 -77 -145q-29 -19 -88 -38v-68q0 -13 -3.5 -17t-16.5 -4h-71q-13 0 -17 3.5t-4 17.5v125q0 11 4 15t19 8q130 28 130 104q0 34 -24.5 53t-69.5 19t-110 -28q-14 -6 -17 -6q-7 0 -10 10l-26 68q-2 6 -2 11q0 18 64 38.5t121 20.5q89 0 143.5 -51t54.5 -136z M309 57q0 -35 -24.5 -59.5t-59.5 -24.5t-60 25t-25 60t25 59.5t61 24.5q34 0 58.5 -25t24.5 -60z"/>
    <glyph glyph-name="at" unicode="@" horiz-adv-x="1000" d="M925 357q0 -130 -79.5 -219t-195.5 -89q-81 0 -94 69q-52 -69 -120 -69q-41 0 -64.5 31.5t-23.5 87.5q0 62 22 120t60 99q40 43 97 43q49 0 80 -34l5 11q6 11 16 11h58q12 0 12 -10l-1 -10l-45 -214q-3 -9 -3 -26q0 -30 40 -30q59 0 101 65.5t42 156.5q0 109 -70.5 170.5 t-193.5 61.5q-162 0 -264 -103q-53 -55 -84 -133.5t-31 -160.5q0 -133 84 -211q76 -70 222 -70q157 0 287 64q11 6 18 6t9 -6l17 -45q1 -4 3 -8q1 -2 1 -4q0 -7 -15 -16q-49 -32 -140 -52.5t-186 -20.5q-192 0 -290 95q-50 49 -78 120t-28 151q0 97 39.5 190t107.5 158 q134 128 333 128q84 0 156 -25.5t116 -70.5q80 -83 80 -211zM585 334q-28 24 -51 24q-30 0 -51 -37q-14 -26 -25 -72.5t-11 -81.5q0 -39 28 -39q34 0 62 35q15 19 24 59z"/>
    <glyph glyph-name="A" unicode="A" horiz-adv-x="556" d="M552 11q0 -11 -20 -11h-109q-13 0 -16.5 2.5t-6.5 14.5l-43 164h-169l-43 -164q-3 -12 -6 -14.5t-16 -2.5h-99q-20 0 -20 11q0 1 3 13l197 645q4 12 7 14.5t15 2.5h104q12 0 15 -2.5t7 -14.5l197 -645q3 -11 3 -13zM331 275l-37 171q-9 39 -25 135q-12 -76 -26 -135 l-40 -171h128z"/>
    <glyph glyph-name="B" unicode="B" horiz-adv-x="574" d="M525 194q0 -55 -27 -103.5t-70 -69.5q-42 -21 -152 -21h-170q-14 0 -17.5 3.5t-3.5 17.5v644q0 13 3.5 17t17.5 4h162q72 0 104 -6t58 -23q32 -22 51 -61.5t19 -85.5q0 -55 -24 -91t-77 -60q60 -16 93 -59.5t33 -105.5zM367 496q0 56 -39 79q-19 11 -60 11h-53v-185h42 q54 0 78 17q32 24 32 78zM387 202q0 52 -28 74t-95 22h-49v-189h47q68 0 96.5 21.5t28.5 71.5z"/>
    <glyph glyph-name="C" unicode="C" horiz-adv-x="480" d="M465 51q0 -12 -22 -27q-61 -41 -145 -41q-112 0 -171 68q-87 99 -87 302q0 179 79 271q67 79 172 79q81 0 151 -51q21 -15 21 -24q0 -6 -2 -8l-41 -74q-4 -8 -10 -8q-7 0 -30 18q-40 31 -81 31q-115 0 -115 -214q0 -149 39 -223q27 -51 90 -51q25 0 43.5 7.5t46.5 28.5 q8 4 10 4q5 0 9 -9l40 -70q3 -4 3 -9z"/>
    <glyph glyph-name="D" unicode="D" horiz-adv-x="593" d="M553 342q0 -252 -127 -317q-30 -15 -61.5 -20t-101.5 -5h-157q-14 0 -17.5 4t-3.5 17v644q0 13 3.5 17t17.5 4h157q72 0 104 -6q95 -18 140.5 -100.5t45.5 -237.5zM409 336q0 97 -14.5 147.5t-48.5 73.5q-29 20 -89 20h-35v-468h35q75 0 104 26q48 42 48 201z"/>
    <glyph glyph-name="E" unicode="E" horiz-adv-x="482" d="M460 675q0 -3 -2 -13l-20 -68q-5 -17 -22 -17h-194v-164h167q13 0 17 -3.5t4 -17.5v-67q0 -13 -4 -17t-17 -4h-167v-195h210q14 0 17.5 -3.5t3.5 -17.5v-67q0 -14 -3.5 -17.5t-17.5 -3.5h-326q-14 0 -17.5 3.5t-3.5 17.5v644q0 14 3.5 17.5t17.5 3.5h334q20 0 20 -11z "/>
    <glyph glyph-name="F" unicode="F" horiz-adv-x="445" d="M460 675q0 -1 -0.5 -3t-1 -4.5t-0.5 -5.5l-20 -68q-3 -11 -6.5 -14t-15.5 -3h-194v-164h167q13 0 17 -3.5t4 -17.5v-67q0 -13 -4 -17t-17 -4h-167v-283q0 -13 -4 -17t-17 -4h-95q-14 0 -17.5 3.5t-3.5 17.5v644q0 14 3.5 17.5t17.5 3.5h334q20 0 20 -11z"/>
    <glyph glyph-name="G" unicode="G" horiz-adv-x="556" d="M385 251h-75q-14 0 -17.5 3.5t-3.5 17.5v67q0 14 3.5 17.5t17.5 3.5h177q14 0 17.5 -3.5t3.5 -17.5v-280q0 -11 -2.5 -15.5t-13.5 -11.5q-76 -49 -187 -49q-265 0 -265 359q0 178 68.5 269.5t200.5 91.5q95 0 166 -44q19 -12 19 -20q0 -4 -2 -8l-37 -75q-3 -5 -7 -5t-9 3 q-46 25 -70.5 33t-53.5 8q-64 0 -93 -44q-42 -61 -42 -203q0 -139 32 -197q14 -25 42.5 -40.5t61.5 -15.5q36 0 69 16v140z"/>
    <glyph glyph-name="H" unicode="H" horiz-adv-x="630" d="M222 406h187v259q0 13 3.5 17t16.5 4h96q14 0 17.5 -3.5t3.5 -17.5v-644q0 -14 -3.5 -17.5t-17.5 -3.5h-96q-14 0 -17 3.5t-3 17.5v283h-187v-283q0 -13 -4 -17t-17 -4h-95q-14 0 -17.5 3.5t-3.5 17.5v644q0 14 3.5 17.5t17.5 3.5h95q13 0 17 -4t4 -17v-259z"/>
    <glyph glyph-name="I" unicode="I" horiz-adv-x="352" d="M108 99v488h-54q-14 0 -17.5 3.5t-3.5 17.5v57q0 14 3.5 17.5t17.5 3.5h245q13 0 17 -4t4 -17v-57q0 -14 -4 -17.5t-17 -3.5h-54v-488h54q13 0 17 -3.5t4 -17.5v-57q0 -13 -4 -17t-17 -4h-245q-14 0 -17.5 3.5t-3.5 17.5v57q0 14 3.5 17.5t17.5 3.5h54z"/>
    <glyph glyph-name="J" unicode="J" horiz-adv-x="426" d="M223 587h-138q-13 0 -17 3.5t-4 17.5v57q0 13 4 17t17 4h255q13 0 16.5 -4t3.5 -17v-454q0 -102 -28 -150q-47 -78 -164 -78q-61 0 -98 22t-60 71q-21 46 -21 102q0 24 14 24h96q11 0 11 -14v-13q0 -81 60 -81q33 0 44 25q9 19 9 73v395z"/>
    <glyph glyph-name="K" unicode="K" horiz-adv-x="574" d="M582 45q0 -7 -14 -14l-86 -44q-8 -4 -14 -4t-13 10l-233 309v-281q0 -13 -4 -17t-17 -4h-95q-14 0 -17.5 3.5t-3.5 17.5v644q0 14 3.5 17.5t17.5 3.5h95q13 0 17 -4t4 -17v-281l217 300q8 11 15 11q5 0 13 -4l73 -37q14 -7 14 -15q0 -5 -7 -14l-207 -274l234 -291 q8 -8 8 -15z"/>
    <glyph glyph-name="L" unicode="L" horiz-adv-x="482" d="M480 113q0 -2 -2 -12l-18 -83q-2 -11 -6.5 -14.5t-16.5 -3.5h-331q-14 0 -17.5 3.5t-3.5 17.5v644q0 14 3.5 17.5t17.5 3.5h95q13 0 17 -4t4 -17v-541h238q20 0 20 -11z"/>
    <glyph glyph-name="M" unicode="M" horiz-adv-x="704" d="M603 666l32 -627q1 -15 1 -26q0 -13 -21 -13h-90q-13 0 -17 3.5t-4 16.5l-7 353v34q0 53 1 110q-22 -98 -37 -145l-64 -205q-4 -11 -7 -13.5t-16 -2.5h-61q-12 0 -15 2.5t-7 14.5l-56 195q-17 60 -37 154l1 -141v-16l-8 -340q0 -13 -4 -16.5t-17 -3.5h-81q-20 0 -20 15v6 l29 645q1 13 4.5 16.5t16.5 3.5h99q11 0 14.5 -2.5t7.5 -13.5l80 -253q9 -27 27 -115q18 69 34 116l85 252q4 11 7 13.5t15 2.5h94q13 0 16.5 -3.5t4.5 -16.5z"/>
    <glyph glyph-name="N" unicode="N" horiz-adv-x="611" d="M538 665v-644q0 -14 -3.5 -17.5t-17.5 -3.5h-64q-13 0 -18 3t-12 16l-172 324q-41 77 -64 142q3 -70 3 -122v-342q0 -13 -4 -17t-17 -4h-75q-14 0 -17.5 3.5t-3.5 17.5v644q0 14 3.5 17.5t17.5 3.5h78q14 0 18 -2.5t11 -14.5l158 -294q34 -62 64 -154q-2 76 -2 126v318 q0 13 3.5 17t17.5 4h75q14 0 17.5 -3.5t3.5 -17.5z"/>
    <glyph glyph-name="O" unicode="O" horiz-adv-x="574" d="M535 351q0 -368 -251 -368q-244 0 -244 363q0 109 21 179.5t67 115.5q65 62 164 62q50 0 95.5 -19t73.5 -52q74 -84 74 -281zM391 340q0 131 -25.5 193t-79.5 62q-50 0 -76 -65t-26 -188q0 -251 103 -251q104 0 104 249z"/>
    <glyph glyph-name="P" unicode="P" horiz-adv-x="519" d="M501 498q0 -101 -62.5 -162.5t-165.5 -61.5h-51v-253q0 -13 -4 -17t-17 -4h-95q-14 0 -17.5 3.5t-3.5 17.5v644q0 14 3.5 17.5t17.5 3.5h162q111 0 157 -28q35 -22 55.5 -64.5t20.5 -95.5zM369 490q0 53 -23.5 73.5t-84.5 20.5h-39v-197h28q66 0 92.5 23t26.5 80z"/>
    <glyph glyph-name="Q" unicode="Q" horiz-adv-x="574" d="M566 -19q0 -3 -4 -7l-73 -51q-9 -6 -13 -6q-29 0 -104 80q-38 -14 -84 -14q-125 0 -186.5 90t-61.5 274q0 205 86 294q60 62 160 62q249 0 249 -346q0 -210 -69 -295q32 -29 88 -67q12 -7 12 -14zM391 343q0 129 -25.5 190.5t-79.5 61.5q-102 0 -102 -254 q0 -250 103 -250q104 0 104 252z"/>
    <glyph glyph-name="R" unicode="R" horiz-adv-x="556" d="M544 22q0 -8 -16 -12l-89 -25q-9 -3 -12 -3q-6 0 -14 14l-141 285h-53v-260q0 -13 -3.5 -17t-17.5 -4h-92q-14 0 -17.5 4t-3.5 20v641q0 14 3.5 17.5t17.5 3.5h163q100 0 148 -26q85 -48 85 -171q0 -69 -26.5 -114.5t-85.5 -76.5l149 -261q5 -8 5 -15zM366 490 q0 53 -23.5 73.5t-84.5 20.5h-39v-197h28q66 0 92.5 23t26.5 80z"/>
    <glyph glyph-name="S" unicode="S" horiz-adv-x="482" d="M451 194q0 -93 -60.5 -150.5t-157.5 -57.5q-61 0 -135 21.5t-74 38.5q0 3 2 11l33 86q3 9 9 9q3 0 9 -3q89 -49 153 -49q43 0 66.5 21.5t23.5 61.5q0 38 -21 61q-19 22 -114 69q-90 45 -123 86t-33 108q0 89 59.5 141t159.5 52q59 0 125 -21.5t66 -41.5q0 -2 -3 -8 l-36 -76q-4 -7 -9 -7q-3 0 -39 18q-50 26 -100 26q-42 0 -66.5 -19.5t-24.5 -53.5q0 -37 39 -63q17 -11 105 -55q77 -39 111.5 -87t34.5 -118z"/>
    <glyph glyph-name="T" unicode="T" horiz-adv-x="407" d="M437 675q0 -6 -2 -12l-21 -79q-3 -11 -7 -14t-15 -3h-123v-546q0 -14 -3.5 -17.5t-17.5 -3.5h-97q-14 0 -17.5 3.5t-3.5 17.5v546h-126q-14 0 -17.5 3t-3.5 17v78q0 14 3.5 17.5t17.5 3.5h413q20 0 20 -11z"/>
    <glyph glyph-name="U" unicode="U" horiz-adv-x="611" d="M548 665v-433q0 -66 -12 -105t-43 -71q-70 -73 -198 -73q-139 0 -195 87q-34 54 -34 162v433q0 14 3.5 17.5t17.5 3.5h95q14 0 17.5 -4t3.5 -17v-433q0 -49 4 -69.5t16 -36.5q26 -35 82 -35q59 0 85 32.5t26 106.5v435q0 13 4 17t17 4h90q14 0 17.5 -3.5t3.5 -17.5z"/>
    <glyph glyph-name="V" unicode="V" horiz-adv-x="518" d="M522 667q0 -3 -2 -12l-183 -652q-3 -11 -7 -14t-15 -3h-117q-13 0 -16 2.5t-6 14.5l-177 650q-2 10 -2 12q0 8 18 12l105 19q4 1 8 1h3q9 0 13 -18l87 -407l12 -63l6.5 -41.5t7.5 -43.5q13 68 31 148l94 403q4 17 14 17l10 -1l97 -11q19 -3 19 -13z"/>
    <glyph glyph-name="W" unicode="W" horiz-adv-x="778" d="M767 659q0 -6 -2 -12l-146 -643q-2 -11 -6.5 -14.5t-15.5 -3.5h-89q-13 0 -16.5 3t-5.5 15l-65 341q-18 94 -24 169q-5 -44 -13 -92q-6 -30 -8 -44q-4 -8 -7 -34l-77 -340q-3 -13 -6 -15.5t-16 -2.5h-90q-13 0 -16.5 2.5t-5.5 15.5l-132 646q-2 5 -2 10q0 10 18 14l88 17 q10 1 11 1q9 0 13 -18l60 -332q11 -65 21 -171l5 31.5l4 24.5q1 5 3 19.5t5 33t7 37.5l79 348q3 13 6.5 15.5t16.5 2.5h80q13 0 16 -2.5t6 -15.5l68 -315q13 -61 23 -137l6 -47q10 106 24 184l58 324q2 11 4.5 14.5t8.5 3.5q3 0 11 -2l84 -18q17 -4 17 -13z"/>
    <glyph glyph-name="X" unicode="X" horiz-adv-x="519" d="M528 23q0 -9 -17 -13l-98 -24q-5 -1 -8 -2t-4 -1q-6 0 -14 14l-93 184q-18 36 -30 66q-11 -26 -32 -66l-94 -183q-6 -13 -14 -13q-4 0 -12 2l-96 27q-17 5 -17 12q0 4 6 15l184 322l-168 282q-6 11 -6 15q0 9 18 13l99 23l6 2q3 1 7 1q5 0 13 -15l75 -150q17 -34 32 -74 q13 41 29 75l69 151q6 15 14 15q1 0 2.5 -0.5t4.5 -1t5 -0.5l94 -27q17 -4 17 -13q0 -6 -5 -14l-159 -284l186 -324q6 -10 6 -14z"/>
    <glyph glyph-name="Y" unicode="Y" horiz-adv-x="482" d="M502 662q0 -5 -5 -14l-184 -367v-260q0 -13 -3.5 -17t-17.5 -4h-95q-14 0 -17.5 3.5t-3.5 17.5v261l-192 368q-5 10 -5 14q0 10 19 13l104 17q7 2 10 2q5 0 8 -2.5t7 -12.5l80 -170q14 -29 42 -110q18 64 44 117l78 164q6 14 13 14q4 0 7 -1l5 -1l89 -19q17 -4 17 -13z "/>
    <glyph glyph-name="Z" unicode="Z" d="M485 111q-1 -4 -1 -10l-12 -82q-2 -13 -5.5 -16t-16.5 -3h-398q-14 0 -17.5 3.5t-3.5 17.5v80l272 471h-241q-20 0 -20 11q0 3 2 12l18 74q3 12 6.5 14.5t15.5 2.5h344q14 0 17.5 -3.5t3.5 -17.5v-90l-265 -452h280q21 0 21 -12z"/>
    <glyph glyph-name="bracketleft" unicode="[" horiz-adv-x="426" d="M256 612v-714h90q13 0 16.5 -4t3.5 -17v-61q0 -14 -3 -17.5t-17 -3.5h-196q-14 0 -17.5 3.5t-3.5 17.5v878q0 14 3.5 17.5t17.5 3.5h196q13 0 16.5 -4t3.5 -17v-61q0 -13 -3.5 -17t-16.5 -4h-90z"/>
    <glyph glyph-name="backslash" unicode="\" horiz-adv-x="445" d="M463 -251q0 -12 -18 -12h-59q-20 0 -26 18l-327 967q-3 8 -3 11q0 13 20 13h58q20 0 27 -18l325 -966q3 -8 3 -13z"/>
    <glyph glyph-name="bracketright" unicode="]" horiz-adv-x="426" d="M171 612h-90q-14 0 -17.5 3.5t-3.5 17.5v61q0 14 3.5 17.5t17.5 3.5h196q14 0 17.5 -3.5t3.5 -17.5v-878q0 -14 -3.5 -17.5t-17.5 -3.5h-196q-14 0 -17.5 3.5t-3.5 17.5v61q0 13 4 17t17 4h90v714z"/>
    <glyph glyph-name="asciicircum" unicode="^" d="M488 366h-123l-115 230l-115 -230h-123l161 323h154z"/>
    <glyph glyph-name="underscore" unicode="_" horiz-adv-x="514" d="M514 -145h-514v83h514v-83z"/>
    <glyph glyph-name="grave" unicode="`" d="M301 629q0 -5 -5 -13l-15 -32q-6 -14 -14 -14q-1 0 -13 3l-177 70q-16 7 -16 14q0 4 5 14l31 61q8 14 14 14q4 0 14 -6l163 -97q13 -8 13 -14z"/>
    <glyph glyph-name="a" unicode="a" horiz-adv-x="482" d="M439 28q0 -7 -8 -10l-78 -31q-5 -3 -12 -3q-14 0 -30 59q-56 -57 -128 -57q-69 0 -109.5 41t-40.5 110q0 131 149 161q40 8 112 9v31q0 43 -14 59t-52 16q-45 0 -112 -26q-6 -3 -11 -3q-7 0 -10 10l-21 60q-2 6 -2 11q0 16 55.5 31t115.5 15q121 0 156 -77q14 -29 14 -83 v-204q0 -61 23 -108q3 -6 3 -11zM294 114v110q-75 0 -107.5 -18.5t-32.5 -61.5q0 -29 18.5 -49t45.5 -20q40 0 76 39z"/>
    <glyph glyph-name="b" unicode="b" horiz-adv-x="519" d="M485 260q0 -134 -57 -205q-56 -72 -142 -72q-55 0 -102 44q-10 -25 -15.5 -33t-13.5 -8q-4 0 -14 2l-81 20q-9 2 -9 8q0 3 3 9q19 42 19 105v556q0 10 2.5 13t12.5 5l93 19q3 1 9 1q10 0 10 -17v-240q65 44 121 44q78 0 121 -66t43 -185zM358 254q0 76 -21 116t-60 40 q-33 0 -77 -32v-277q28 -21 59 -21q46 0 72.5 46.5t26.5 127.5z"/>
    <glyph glyph-name="c" unicode="c" horiz-adv-x="407" d="M406 454q0 -5 -3 -11l-35 -64q-4 -7 -9 -7t-10 4q-47 34 -85 34q-51 0 -75 -40.5t-24 -127.5q0 -82 24 -120t76 -38q39 0 82 28q7 5 11 5t8 -7l24 -61q3 -8 3 -12q0 -19 -47 -36.5t-98 -17.5q-102 0 -158.5 66.5t-56.5 187.5q0 127 62 200.5t169 73.5q46 0 94 -19t48 -38 z"/>
    <glyph glyph-name="d" unicode="d" horiz-adv-x="519" d="M445 707v-584q0 -30 2.5 -42t12.5 -37q5 -10 5 -13q0 -6 -9 -9l-83 -33q-6 -3 -10 -3q-17 0 -27 51q-66 -54 -140 -54q-78 0 -120.5 66.5t-42.5 188.5q0 142 59 213q51 60 127 60q49 0 99 -28v203q0 10 2.5 13t12.5 5l93 19l9 1q10 0 10 -17zM318 116v276q-36 18 -72 18 q-47 0 -66.5 -37t-19.5 -128q0 -87 18.5 -125.5t59.5 -38.5q47 0 80 35z"/>
    <glyph glyph-name="e" unicode="e" horiz-adv-x="481" d="M450 238q0 -15 -4.5 -20t-17.5 -5h-269q2 -65 29 -95.5t82 -30.5t114 31q7 4 13 4q7 0 11 -9l25 -60q3 -6 3 -11q0 -8 -8 -14t-33 -17q-65 -28 -138 -28q-95 0 -149 49q-75 69 -75 211q0 121 60 194.5t159 73.5q198 0 198 -273zM317 306q-1 62 -18 88t-55 26t-57 -26 t-26 -88h156z"/>
    <glyph glyph-name="f" unicode="f" horiz-adv-x="352" d="M380 688q0 -2 -2 -8l-18 -71q-4 -9 -9 -9q-4 0 -10 3q-31 14 -60 14q-35 0 -48 -21q-8 -13 -8 -60v-42h114q17 0 17 -10q0 -4 -2 -10l-14 -58q-4 -15 -19 -15h-96v-384q0 -11 -3 -14t-14 -3h-93q-11 0 -14 3t-3 14v384h-76q-13 0 -15 3t-2 21v55q0 14 17 14h76v42 q0 92 33 133q45 55 127 55q46 0 84 -11t38 -25z"/>
    <glyph glyph-name="g" unicode="g" d="M464 474q0 -3 -6 -18q-22 -51 -22 -113v-148q0 -82 3 -163q2 -54 2 -63q0 -86 -48.5 -132t-139.5 -46q-64 0 -133.5 19t-69.5 36q0 4 2 10l21 69q3 10 11 10q4 0 9 -3q81 -37 148 -37q42 0 59.5 19t17.5 64q0 22 -5 65q-53 -37 -116 -37q-76 0 -120 65.5t-44 177.5 q0 121 49.5 191.5t133.5 70.5q61 0 115 -46q20 49 35 49q6 0 10 -2l79 -28q9 -4 9 -10zM313 141v236q-39 29 -71 29q-40 0 -61 -39t-21 -113q0 -147 74 -147q46 0 79 34z"/>
    <glyph glyph-name="h" unicode="h" horiz-adv-x="537" d="M204 368v-351q0 -11 -3 -14t-14 -3h-93q-11 0 -14 3t-3 14v669q0 10 2 13t13 5l93 19q3 1 9 1q10 0 10 -17v-254q61 58 138 58t110 -54q20 -33 20 -103v-337q0 -11 -3 -14t-14 -3h-93q-11 0 -14 3t-3 14v308q0 46 -12.5 65t-42.5 19q-41 0 -86 -41z"/>
    <glyph glyph-name="i" unicode="i" horiz-adv-x="296" d="M235 641q0 -34 -23.5 -57.5t-57.5 -23.5t-57.5 24t-23.5 58q0 33 24 56.5t58 23.5q33 0 56.5 -24t23.5 -57zM221 17q0 -11 -3 -14t-14 -3h-93q-11 0 -14 3t-3 14v384h-76q-11 0 -14 3t-3 14v59q0 11 3 14t14 3h186q11 0 14 -3t3 -14v-460z"/>
    <glyph glyph-name="j" unicode="j" horiz-adv-x="296" d="M235 641q0 -34 -23.5 -57.5t-57.5 -23.5t-57.5 24t-23.5 58q0 33 24 56.5t58 23.5q33 0 56.5 -24t23.5 -57zM221 10q0 -129 -25 -176q-39 -70 -146 -70q-42 0 -76.5 8.5t-34.5 19.5q0 2 2 10l22 75q2 7 9 7l8 -2q29 -13 56 -13q43 0 54 49q4 21 4 92v391h-76q-11 0 -14 3 t-3 14v59q0 11 3 14t14 3h186q11 0 14 -3t3 -14v-467z"/>
    <glyph glyph-name="k" unicode="k" d="M503 43q0 -6 -10 -12l-79 -44q-7 -4 -10 -4q-7 0 -13 9l-187 240v-215q0 -11 -3 -14t-14 -3h-93q-11 0 -14 3t-3 14v669q0 10 2.5 13t12.5 5l93 19l9 1q10 0 10 -17v-401l194 195q8 8 12 8t12 -7l54 -43q8 -6 8 -12q0 -5 -7 -12l-164 -158l184 -222q6 -6 6 -12z"/>
    <glyph glyph-name="l" unicode="l" horiz-adv-x="278" d="M289 11q0 -10 -32.5 -19t-68.5 -9q-89 0 -114 72q-9 26 -9 122v508q0 16 15 19l90 18q10 2 12 2q10 0 10 -17v-521q0 -58 2 -66q6 -20 25 -20q14 0 33 6q3 1 7 1q7 0 8 -6l20 -82l1 -4q1 -2 1 -4z"/>
    <glyph glyph-name="m" unicode="m" horiz-adv-x="778" d="M199 366v-349q0 -11 -3 -14t-14 -3h-91q-11 0 -14 3t-3 14v336q0 62 -18 108q-3 6 -3 11q0 9 11 12l81 27l10 2q17 0 32 -72q41 38 75 54t74 16q77 0 109 -70q42 39 77 54.5t77 15.5q69 0 96 -50q18 -36 18 -115v-329q0 -11 -3 -14t-14 -3h-92q-11 0 -14 3t-3 14v317 q0 42 -10 59.5t-35 17.5q-37 0 -86 -45v-349q0 -11 -3 -14t-14 -3h-91q-11 0 -14 3t-3 14v307q0 50 -9.5 67.5t-36.5 17.5q-37 0 -86 -43z"/>
    <glyph glyph-name="n" unicode="n" horiz-adv-x="537" d="M201 368v-351q0 -11 -3 -14t-14 -3h-93q-11 0 -14 3t-3 14v336q0 64 -21 109q-3 6 -3 10q0 6 8 9l89 33q6 2 10 2q19 0 36 -69q70 64 150 64q67 0 98 -38t31 -120v-336q0 -11 -3 -14t-14 -3h-93q-11 0 -14 3t-3 14v308q0 44 -13.5 64t-43.5 20q-39 0 -87 -41z"/>
    <glyph glyph-name="o" unicode="o" d="M468 248q0 -122 -58.5 -193.5t-158.5 -71.5q-103 0 -160.5 70t-57.5 194q0 121 58 191q62 73 164 73q98 0 155.5 -71t57.5 -192zM333 246q0 88 -19.5 126t-64.5 38q-43 0 -62 -38.5t-19 -124.5q0 -87 19 -125t63 -38t63.5 38t19.5 124z"/>
    <glyph glyph-name="p" unicode="p" horiz-adv-x="519" d="M486 255q0 -272 -183 -272q-54 0 -102 26v-181q0 -10 -2 -13t-13 -5l-93 -20l-10 -1q-9 0 -9 16v550q0 50 -20 99q-2 6 -2 8q0 5 10 9l87 37q6 3 9 3q15 0 28 -52q58 52 127 52q85 0 129 -65.5t44 -190.5zM359 251q0 82 -19.5 120.5t-60.5 38.5q-38 0 -78 -36v-276 q35 -19 70 -19q49 0 68.5 38t19.5 134z"/>
    <glyph glyph-name="q" unicode="q" d="M470 473q0 -6 -4 -13q-24 -47 -24 -117v-512q0 -10 -2 -13t-13 -5l-93 -20l-10 -1q-9 0 -9 17v213q-49 -39 -111 -39q-82 0 -127 67.5t-45 189.5q0 126 49 198.5t134 72.5q64 0 117 -46q25 48 40 48q4 0 12 -3l75 -26q11 -3 11 -11zM315 118v255q-36 30 -73 30 q-80 0 -80 -165q0 -159 76 -159q41 0 77 39z"/>
    <glyph glyph-name="r" unicode="r" horiz-adv-x="352" d="M365 489q0 -3 -2 -11l-31 -81q-3 -9 -8 -9q-1 0 -7 2q-22 8 -40 8q-32 0 -76 -48v-333q0 -11 -3 -14t-14 -3h-93q-11 0 -14 3t-3 14v304q0 43 -6 71t-24 68q-2 6 -2 9q0 7 10 10l81 29q8 3 12 3q20 0 38 -78l15 17.5l11 13t8 8.5q39 39 91 39q22 0 39.5 -7t17.5 -15z"/>
    <glyph glyph-name="s" unicode="s" horiz-adv-x="426" d="M393 145q0 -68 -46 -116q-45 -46 -123 -46q-89 0 -170 42q-22 11 -22 19q0 3 3 12l23 61q4 10 10 10q3 0 9 -3q79 -43 136 -43q26 0 42 14.5t16 37.5q0 21 -14 32.5t-63 30.5q-78 29 -104 54q-40 38 -40 98q0 72 50 117.5t128 45.5q47 0 100 -16t53 -30q0 -5 -3 -11 l-25 -57q-5 -9 -10 -9q-2 0 -8 2q-58 26 -101 26q-64 0 -64 -51q0 -20 12.5 -31t53.5 -27q90 -35 116 -60q41 -41 41 -102z"/>
    <glyph glyph-name="t" unicode="t" horiz-adv-x="370" d="M366 22q0 -7 -6 -11.5t-25 -10.5q-53 -17 -101 -17q-78 0 -113 51q-22 32 -22 106v261h-69q-11 0 -14 3t-3 14v59q0 11 3 14t14 3h69v126q0 10 2.5 13t13.5 5l92 13h9q10 0 10 -16v-141h114q17 0 17 -10q0 -6 -1 -9l-13 -59q-2 -9 -5.5 -12t-12.5 -3h-99v-243 q0 -40 7 -52t30 -12q24 0 66 17q6 2 9 2q7 0 10 -10l16 -70q2 -7 2 -11z"/>
    <glyph glyph-name="u" unicode="u" horiz-adv-x="537" d="M485 15q0 -5 -10 -8l-84 -19q-8 -2 -11 -2q-17 0 -30 55q-34 -32 -64.5 -45t-73.5 -13q-76 0 -113 43q-21 23 -27.5 53t-6.5 99v293q0 10 2 13t13 5l93 20q2 1 8 1q11 0 11 -16v-310q0 -56 9 -73q14 -27 52 -27q40 0 83 36v351q0 10 2 13t13 5l93 20l10 1q9 0 9 -16v-368 q0 -64 19 -102q3 -4 3 -9z"/>
    <glyph glyph-name="v" unicode="v" horiz-adv-x="444" d="M449 480q0 -3 -2 -11l-166 -475q-3 -9 -6 -11t-13 -2h-82q-10 0 -13 2t-6 11l-163 475q-3 7 -3 11q0 9 16 10l98 10q7 1 8 1q8 0 12 -14l64 -229q14 -47 33 -144q19 92 35 144l70 229q4 14 12 14q4 0 8 -1l83 -10q15 -1 15 -10z"/>
    <glyph glyph-name="w" unicode="w" horiz-adv-x="667" d="M658 477q0 -1 -0.5 -1.5t-1 -3t-1.5 -5.5l-138 -461q-3 -10 -6 -12t-13 -2h-83q-10 0 -13 2.5t-5 13.5l-47 253q-4 20 -7 51l-4 37l-3 24q-13 -91 -18 -112l-59 -254q-2 -10 -5 -12.5t-13 -2.5h-82q-10 0 -12.5 2t-5.5 13l-121 460q-2 9 -2 11q0 7 15 10l88 13q1 1 8 1 q9 0 12 -14l47 -230q8 -40 21 -157q9 106 18 144l50 234q2 11 5 13t13 2h90q10 0 13 -2.5t5 -12.5l45 -225q10 -45 20 -153q13 127 22 166l51 221q4 14 11 14q8 0 9 -1l82 -13q15 -3 15 -11z"/>
    <glyph glyph-name="x" unicode="x" horiz-adv-x="463" d="M460 21q0 -6 -14 -10l-84 -25q-7 -2 -10 -2q-6 0 -12 10l-70 107l-38 61q-14 -24 -38 -61l-73 -107q-7 -10 -12 -10q-3 0 -11 3l-82 29q-13 5 -13 11q0 5 6 13l151 210l-133 193q-6 8 -6 12q0 7 13 11l82 31q7 3 11 3q5 0 11 -11l56 -91l10 -18q8 -14 10 -16l15 -27 l41 61l63 92q6 10 13 10q3 0 10 -3l81 -30q13 -5 13 -12q0 -4 -6 -12l-139 -193l149 -216q6 -7 6 -13z"/>
    <glyph glyph-name="y" unicode="y" horiz-adv-x="444" d="M450 480q0 -3 -2 -10l-100 -366q-4 -12 -10 -36.5t-7 -29.5q-25 -104 -39.5 -143t-36.5 -65q-43 -52 -121 -52q-42 0 -89.5 16t-47.5 31q0 3 4 11l31 64q4 7 9 7q3 0 8 -3q45 -22 77 -22t48.5 16.5t29.5 59.5l12 42h-42q-10 0 -13 2t-6 11l-157 456q-3 10 -3 11 q0 9 16 10l102 11h7q8 0 12 -14l66 -246q19 -71 39 -173l15 84q5 30 9 46l10 43l56 245q4 15 11 15q4 0 8 -1l88 -10q16 -1 16 -10z"/>
    <glyph glyph-name="z" unicode="z" horiz-adv-x="426" d="M414 95q0 -3 -3 -11l-30 -71q-5 -13 -19 -13h-320q-11 0 -14 3t-3 14v69l233 308h-195q-11 0 -14 3t-3 14v66q0 11 3 14t14 3h315q10 0 13.5 -3t3.5 -14v-73l-226 -299h229q16 0 16 -10z"/>
    <glyph glyph-name="braceleft" unicode="{" horiz-adv-x="444" d="M388 -120v-64q0 -13 -3.5 -17t-13.5 -4q-102 0 -151 45t-49 139v161q0 38 -16 54.5t-54 16.5h-17q-13 0 -17 3.5t-4 16.5v69q0 14 3.5 17t17.5 3h17q38 0 54 16.5t16 54.5v140q0 94 48.5 139t150.5 45q11 0 14.5 -4t3.5 -16v-65q0 -13 -3.5 -16.5t-17.5 -3.5h-4 q-36 0 -52 -16.5t-16 -53.5v-154q0 -48 -16 -74t-56 -46q41 -20 56.5 -46.5t15.5 -74.5v-175q0 -37 16 -53t52 -16h4q13 0 17 -3.5t4 -17.5z"/>
    <glyph glyph-name="bar" unicode="|" horiz-adv-x="366" d="M237 -171h-108v857h108v-857z"/>
    <glyph glyph-name="braceright" unicode="}" horiz-adv-x="444" d="M381 279v-68q0 -13 -3.5 -17t-17.5 -4h-17q-38 0 -54 -16.5t-16 -54.5v-140q0 -94 -48.5 -139t-150.5 -45q-11 0 -14.5 4t-3.5 16v65q0 14 3.5 17t17.5 3h4q36 0 52 16.5t16 53.5v154q0 48 15.5 74.5t56.5 46.5q-41 20 -56.5 46.5t-15.5 74.5v175q0 37 -16 53t-52 16h-4 q-14 0 -17.5 3.5t-3.5 17.5v64q0 13 3.5 17t13.5 4q102 0 151 -45t49 -139v-161q0 -38 16 -54.5t54 -16.5h17q14 0 17.5 -4t3.5 -17z"/>
    <glyph glyph-name="asciitilde" unicode="~" d="M430 429l68 -56q-31 -71 -66.5 -103.5t-82.5 -32.5q-28 0 -108 34q-70 31 -94 31q-22 0 -39 -14.5t-38 -52.5l-68 57q57 135 149 135q38 0 114 -35q65 -29 88 -29q22 0 39.5 15t37.5 51z"/>
    <glyph glyph-name="uni00A0" unicode=" " horiz-adv-x="206"/>
    <glyph glyph-name="exclamdown" unicode="¡" horiz-adv-x="352" d="M261 376q0 -34 -24.5 -59t-59.5 -25t-60 25t-25 60t25 59.5t61 24.5q34 0 58.5 -25t24.5 -60zM252 -249q0 -14 -20 -14h-107q-21 0 -21 11v2l1 8l22 403q1 13 4.5 16.5t16.5 3.5h60q13 0 16.5 -3t4.5 -17l23 -403v-7z"/>
    <glyph glyph-name="cent" unicode="¢" horiz-adv-x="537" d="M459 553q0 -4 -3 -9l-37 -69q-3 -5 -6 -5t-29 16q-14 8 -38 12v-321q27 3 57 18q6 2 7 2q5 0 7 -5l28 -70q3 -7 3 -10q0 -12 -31.5 -24.5t-70.5 -16.5v-52q0 -14 -3.5 -17t-17.5 -3h-18q-13 0 -17 3.5t-4 16.5v50q-65 4 -107 35q-93 69 -93 223q0 118 52.5 188.5 t147.5 81.5v53q0 14 3.5 17.5t17.5 3.5h18q13 0 17 -3.5t4 -17.5v-53q44 -5 78.5 -18t34.5 -26zM286 175v326q-75 -20 -75 -169q0 -138 75 -157z"/>
    <glyph glyph-name="sterling" unicode="£" horiz-adv-x="537" d="M530 98q0 -4 -2 -12l-18 -69q-4 -17 -22 -17h-435q-14 0 -17.5 3.5t-3.5 17.5v68q0 13 4 17t17 4h70q11 47 11 85q0 43 -13 98h-79q-14 0 -17.5 3.5t-3.5 17.5v50q0 14 3.5 17.5t17.5 3.5h61q-14 48 -14 94q0 91 61.5 145t165.5 54q60 0 119 -20t59 -40q0 -4 -3 -10 l-33 -62q-6 -10 -12 -10q-5 0 -24 9q-58 27 -103 27q-50 0 -79 -28t-29 -75q0 -35 14 -82h138q13 0 16.5 -4t3.5 -17v-52q0 -14 -3 -17.5t-17 -3.5h-121q15 -53 15 -98q0 -36 -10 -85h263q20 0 20 -12z"/>
    <glyph glyph-name="currency" unicode="¤" horiz-adv-x="627" d="M544 175l-57 -58l-69 67q-52 -35 -115 -35q-65 0 -116 35l-68 -67q-9 8 -18.5 18l-21.5 22l-18 18l69 66q-35 54 -35 113q0 63 35 113l-69 67l58 58l68 -67q53 35 116 35q64 0 115 -35l69 67l57 -58l-69 -67q35 -52 35 -113q0 -60 -35 -113zM428 355q0 52 -38 88t-87 36 q-53 0 -89.5 -36.5t-36.5 -87.5t37 -88t89 -37t88.5 36.5t36.5 88.5z"/>
    <glyph glyph-name="yen" unicode="¥" horiz-adv-x="537" d="M364 349l-25 -51h156q14 0 17.5 -3.5t3.5 -17.5v-10q0 -13 -4 -17t-17 -4h-164v-225q0 -13 -3.5 -17t-17.5 -4h-75q-13 0 -17 4t-4 17v225h-171q-13 0 -17 4t-4 17v10q0 13 4 17t17 4h163l-26 51h-137q-13 0 -17 3.5t-4 17.5v10q0 14 4 17.5t17 3.5h112l-123 249 q-4 12 -4 14q0 9 18 13l90 17l11 1q9 0 14 -15l67 -170q24 -62 49 -144q20 74 51 152l65 162q6 16 14 16q3 0 5 -1l6 -2l75 -18q18 -4 18 -12q0 -5 -5 -15l-118 -247h107q13 0 17 -3.5t4 -17.5v-10q0 -14 -4 -17.5t-17 -3.5h-131z"/>
    <glyph glyph-name="brokenbar" unicode="¦" horiz-adv-x="366" d="M237 328h-108v358h108v-358zM237 -171h-108v329h108v-329z"/>
    <glyph glyph-name="section" unicode="§" horiz-adv-x="537" d="M470 226q0 -95 -100 -145q78 -43 78 -124q0 -70 -54.5 -119.5t-131.5 -49.5q-58 0 -125 24.5t-67 46.5q0 7 3 11l31 61q5 8 9 8q6 0 11 -4q78 -50 141 -50q27 0 43 14t16 38q0 23 -20 40t-87 48q-85 41 -113 69q-37 35 -37 98q0 53 25 88.5t80 58.5q-76 42 -76 117 q0 68 52 112t132 44q81 0 145 -42q14 -8 14 -18q0 -6 -4 -11l-29 -56q-4 -7 -11 -7q-5 0 -12 4q-65 35 -105 35q-30 0 -48 -12t-18 -32q0 -18 14 -28t98 -53q83 -42 111 -72q35 -38 35 -94zM347 211q0 22 -16 38t-67 43q-75 -40 -75 -83q0 -22 18 -38.5t73 -42.5 q67 39 67 83z"/>
    <glyph glyph-name="dieresis" unicode="¨" d="M407 637q0 -29 -20.5 -49t-48.5 -20t-48.5 20t-20.5 49t20.5 49t49.5 20q28 0 48 -20.5t20 -48.5zM230 637q0 -29 -20 -49t-49 -20t-49 20t-20 49t20.5 49t49.5 20q28 0 48 -20.5t20 -48.5z"/>
    <glyph glyph-name="copyright" unicode="©" horiz-adv-x="739" d="M705 343q0 -147 -98 -251.5t-237 -104.5t-237.5 104.5t-98.5 250.5q0 150 98.5 253.5t241.5 103.5q136 0 233.5 -105t97.5 -251zM623 342q0 122 -74.5 206.5t-181.5 84.5q-103 0 -177 -85.5t-74 -204.5q0 -120 74.5 -205t179.5 -85q104 0 178.5 85t74.5 204zM496 174 q0 -17 -35.5 -32t-76.5 -15q-83 0 -126.5 57t-43.5 165q0 98 44.5 154t121.5 56q36 0 75.5 -17.5t39.5 -33.5q0 -4 -3 -8l-26 -43q-5 -8 -12 -8q-6 0 -23 12q-23 17 -47 17q-66 0 -66 -118q0 -152 75 -152q24 0 53 20q4 4 10 4t12 -9l25 -40q3 -6 3 -9z"/>
    <glyph glyph-name="ordfeminine" unicode="ª" horiz-adv-x="296" d="M276 452q0 -7 -9 -10l-49 -19q-6 -2 -9 -2q-11 0 -21 30q-36 -29 -78 -29q-46 0 -73 25.5t-27 67.5q0 55 38 79.5t126 26.5v13q0 23 -8 31.5t-30 8.5q-21 0 -71 -15q-6 -2 -9 -2q-8 0 -11 8l-13 36l-1 8q0 13 36 23t81 10q58 0 85 -24t27 -76v-120q0 -30 14 -61 q2 -8 2 -9zM174 504v72q-41 0 -59 -13t-18 -41q0 -17 9.5 -27.5t25.5 -10.5q22 0 42 20z"/>
    <glyph glyph-name="guillemotleft" unicode="«" horiz-adv-x="593" d="M531 447q0 -5 -7 -16l-120 -187l120 -182q6 -9 6 -15q0 -5 -13 -14l-49 -31q-10 -6 -14 -6q-6 0 -14 12l-170 228q-6 7 -6 14q0 6 6 14l170 222q9 11 13 11q6 0 15 -6l50 -31q13 -8 13 -13zM301 47q0 -5 -13 -14l-49 -31q-10 -6 -14 -6q-6 0 -14 12l-170 228q-6 8 -6 14 t6 14l170 222q9 11 13 11q6 0 15 -6l50 -31q12 -8 12 -13q0 -7 -6 -16l-120 -187l120 -182q6 -10 6 -15z"/>
    <glyph glyph-name="logicalnot" unicode="¬" d="M370 366h-327q-13 0 -17 4t-4 17v62q0 14 3.5 17.5t17.5 3.5h414q13 0 17 -4t4 -17v-229q0 -14 -3.5 -17.5t-17.5 -3.5h-67q-13 0 -16.5 3.5t-3.5 17.5v146z"/>
    <glyph glyph-name="uni00AD" unicode="­" horiz-adv-x="370" d="M39 216v79q0 14 3.5 17t17.5 3h250q13 0 17 -3.5t4 -16.5v-79q0 -14 -3.5 -17t-17.5 -3h-250q-14 0 -17.5 3.5t-3.5 16.5z"/>
    <glyph glyph-name="registered" unicode="®" horiz-adv-x="443" d="M423 564q0 -89 -59 -151.5t-142 -62.5t-142.5 62.5t-59.5 150.5q0 90 59 152t145 62q82 0 140.5 -63t58.5 -150zM374 563q0 73 -44.5 124t-109.5 51q-61 0 -105.5 -51.5t-44.5 -122.5q0 -72 44.5 -123t107.5 -51q62 0 107 51t45 122zM316 458q0 -5 -9 -8l-31 -8 q-3 -1 -5 -1q-7 0 -9 6l-51 95h-15v-84q0 -11 -12 -11h-33q-7 0 -9 2.5t-2 9.5v217q0 11 11 11h60q47 0 68.5 -17t21.5 -54q0 -46 -40 -67l53 -84q2 -4 2 -7zM244 617q0 16 -7.5 21.5t-29.5 5.5h-11v-59h7q23 0 32 7t9 25z"/>
    <glyph glyph-name="macron" unicode="¯" d="M148 681h204q14 0 17 -3.5t3 -17.5v-45q0 -13 -3 -16.5t-17 -3.5h-204q-13 0 -17 3.5t-4 16.5v45q0 14 3.5 17.5t17.5 3.5z"/>
    <glyph glyph-name="degree" unicode="°" horiz-adv-x="537" d="M426 545q0 -65 -46 -111t-112 -46q-65 0 -111 46t-46 111q0 66 46.5 112t113.5 46q63 0 109 -46.5t46 -111.5zM343 545q0 31 -21.5 53t-53.5 22q-31 0 -52.5 -22t-21.5 -53t21.5 -53t52.5 -22q32 0 53.5 22t21.5 53z"/>
    <glyph glyph-name="plusminus" unicode="±" d="M478 302q0 -13 -4 -16.5t-17 -3.5h-153v-106q0 -14 -3.5 -17.5t-17.5 -3.5h-67q-13 0 -16.5 4t-3.5 17v106h-153q-14 0 -17.5 3.5t-3.5 16.5v63q0 13 4 17t17 4h153v155q0 13 3.5 17t16.5 4h67q13 0 17 -4t4 -17v-155h153q13 0 17 -4t4 -17v-63zM478 35q0 -13 -4 -17 t-17 -4h-414q-13 0 -17 4t-4 17v63q0 13 4 16.5t17 3.5h414q13 0 17 -3.5t4 -16.5v-63z"/>
    <glyph glyph-name="two.superior" unicode="²" horiz-adv-x="370" d="M324 726q0 -43 -21 -73.5t-80 -70.5q-68 -47 -68 -72v-2h146q12 0 15.5 -3t3.5 -14v-41q0 -11 -3.5 -14.5t-15.5 -3.5h-234q-14 0 -14 13v5q0 62 22 101q13 22 32.5 39t71.5 54q57 42 57 80q0 44 -48 44q-21 0 -34.5 -10.5t-26.5 -36.5q-7 -13 -16 -13q-1 0 -7 2l-45 16 q-8 3 -8 13q0 13 10.5 33.5t24.5 32.5q44 39 108 39q62 0 96 -31t34 -87z"/>
    <glyph glyph-name="three.superior" unicode="³" horiz-adv-x="370" d="M317 547q0 -58 -45.5 -91.5t-108.5 -33.5q-62 0 -105 20q-23 10 -23 18q0 5 1 7l13 43q3 8 12 8q6 0 12 -2q50 -22 83 -22q67 0 67 58q0 55 -77 55h-19q-12 0 -15.5 2.5t-3.5 14.5v38q0 11 3.5 13.5t15.5 2.5h20q66 0 66 51q0 20 -13.5 31.5t-35.5 11.5q-29 0 -53 -28 q-7 -8 -13 -8q-4 0 -11 5l-33 26q-6 5 -6 11q0 9 12 21q45 45 109 45q60 0 96.5 -30t36.5 -79q0 -53 -52 -87h-1q68 -28 68 -101z"/>
    <glyph glyph-name="acute" unicode="´" d="M439 657q0 -9 -15 -14l-177 -70q-2 0 -5 -1t-5.5 -1.5t-3.5 -0.5q-7 0 -13 14l-16 32q-5 9 -5 14t13 13l163 97q10 6 14 6q8 0 14 -14l31 -61q5 -10 5 -14z"/>
    <glyph glyph-name="mu" unicode="µ" horiz-adv-x="537" d="M485 15q0 -5 -10 -8l-84 -19q-8 -2 -11 -2q-17 0 -30 55q-48 -58 -105 -58q-19 0 -53 11v-166q0 -10 -2 -13t-13 -5l-93 -20l-10 -1q-9 0 -9 16v666q0 10 2 13t13 5l93 20q2 1 8 1q11 0 11 -16v-310q0 -56 9 -73q14 -27 52 -27q40 0 83 36v351q0 10 2 13t13 5l93 20l10 1 q9 0 9 -16v-368q0 -64 19 -102q3 -4 3 -9z"/>
    <glyph glyph-name="paragraph" unicode="¶" horiz-adv-x="667" d="M624 617q0 -14 -3 -17.5t-17 -3.5h-56v-761q0 -13 -4 -17.5t-17 -4.5h-61q-12 0 -16 4t-4 17v762h-67v-761q0 -13 -3.5 -17t-17.5 -4h-61q-14 0 -17 3.5t-3 17.5v326q-36 -7 -60 -7q-98 0 -158 65q-60 66 -60 200q0 183 109 241q30 16 63 21t100 5h333q14 0 17 -3.5 t3 -17.5v-48zM277 251v345q-87 0 -120.5 -35.5t-33.5 -127.5q0 -100 26.5 -143.5t88.5 -43.5q18 0 39 5z"/>
    <glyph glyph-name="periodcentered" unicode="·" horiz-adv-x="296" d="M220 334q0 -29 -21 -50t-50 -21q-30 0 -51.5 21t-21.5 50q0 31 21 51.5t51 20.5q29 0 50.5 -21t21.5 -51z"/>
    <glyph glyph-name="cedilla" unicode="¸" d="M342 -128q0 -40 -30 -64t-79 -24q-31 0 -52.5 5t-21.5 13l1 9l9 42q2 4 5 4t5 -1q18 -6 38 -6q30 0 30 23t-39 23q-14 0 -18 2t-4 10v6l9 86h79l-4 -55q72 -7 72 -73z"/>
    <glyph glyph-name="one.superior" unicode="¹" horiz-adv-x="370" d="M153 497v232l-60 -30q-8 -4 -12 -4q-7 0 -13 9l-16 28q-4 7 -4 11q0 5 9 11l124 79h46q12 0 15.5 -2.5t3.5 -14.5v-319h41q13 0 16 -2.5t3 -15.5v-29q0 -13 -3 -15.5t-16 -2.5h-190q-12 0 -15.5 3.5t-3.5 14.5v29q0 11 3.5 14.5t15.5 3.5h56z"/>
    <glyph glyph-name="ordmasculine" unicode="º" horiz-adv-x="333" d="M309 583q0 -74 -38 -117.5t-104 -43.5q-67 0 -105 42.5t-38 118.5q0 75 39 117.5t107 42.5q64 0 101.5 -43t37.5 -117zM213 581q0 51 -10.5 72t-36.5 21q-25 0 -35.5 -21.5t-10.5 -70.5t11 -70t36 -21q24 0 35 21t11 69z"/>
    <glyph glyph-name="guillemotright" unicode="»" horiz-adv-x="593" d="M558 250q0 -6 -6 -14l-170 -228q-8 -12 -14 -12q-4 0 -14 6l-50 31q-13 8 -13 15q0 4 7 14l120 182l-120 187q-7 11 -7 15q0 6 13 14l50 31q9 6 14 6t14 -11l170 -222q6 -7 6 -14zM328 250q0 -7 -5 -14l-170 -228q-8 -12 -14 -12t-15 6l-49 31q-13 8 -13 15q0 4 7 14 l120 182l-120 187q-7 11 -7 16t13 13l49 31q9 6 15 6q5 0 14 -11l170 -222q5 -7 5 -14z"/>
    <glyph glyph-name="onequarter" unicode="¼" horiz-adv-x="871" d="M828 94q0 -10 -4 -13.5t-15 -3.5h-31v-70q0 -11 -3.5 -14.5t-15.5 -3.5h-53q-11 0 -15 3.5t-4 14.5v70h-151q-12 0 -15.5 3t-3.5 14v63l160 244q7 10 13 10q5 0 11 -3l38 -14q14 -5 14 -13q0 -4 -5 -12l-144 -222h85l8 89q1 10 4.5 13t14.5 3h43q11 0 15 -3.5t4 -14.5 v-89h31q12 0 15.5 -3.5t3.5 -14.5v-33zM603 664q0 -1 -4 -12l-281 -674q-8 -18 -23 -18h-51q-21 0 -21 11q0 5 4 14l282 677q7 15 23 15h51q20 0 20 -13zM294 286q0 -11 -3.5 -14.5t-15.5 -3.5h-187q-11 0 -15 3.5t-4 14.5v30q0 10 4 13.5t15 3.5h55v231l-52 -26 q-8 -4 -12 -4q-6 0 -13 10l-16 26q-5 6 -5 12t10 12l115 75h46q11 0 15 -3.5t4 -14.5v-318h40q12 0 15.5 -3t3.5 -14v-30z"/>
    <glyph glyph-name="onehalf" unicode="½" horiz-adv-x="871" d="M809 294q0 -59 -39 -97q-19 -19 -85 -65q-42 -30 -43 -56h144q11 0 15 -3.5t4 -13.5v-42q0 -10 -4 -13.5t-15 -3.5h-231q-14 0 -14 14v4q0 64 21 99q14 24 33.5 42t70.5 53q32 23 43.5 39.5t11.5 39.5q0 44 -47 44q-22 0 -34 -9.5t-26 -37.5q-6 -12 -14 -12q-4 0 -15 4 l-35 12q-12 5 -12 14q0 11 11 31t25 34q40 40 107 40q60 0 94 -31t34 -86zM596 664q0 -4 -3 -12l-281 -674q-8 -18 -24 -18h-51q-20 0 -20 11q0 5 4 14l282 677q7 15 22 15h52q19 0 19 -13zM291 286q0 -11 -3.5 -14.5t-15.5 -3.5h-187q-11 0 -15 3.5t-4 14.5v30q0 10 4 13.5 t15 3.5h55v231l-52 -26q-8 -4 -12 -4q-6 0 -13 10l-16 26q-5 6 -5 12t10 12l115 75h46q11 0 15 -3.5t4 -14.5v-318h40q12 0 15.5 -3t3.5 -14v-30z"/>
    <glyph glyph-name="threequarters" unicode="¾" horiz-adv-x="871" d="M836 94q0 -10 -4 -13.5t-15 -3.5h-31v-70q0 -11 -3.5 -14.5t-15.5 -3.5h-53q-11 0 -15 3.5t-4 14.5v70h-151q-12 0 -15.5 3t-3.5 14v63l160 244q7 10 13 10q5 0 11 -3l38 -14q14 -5 14 -13q0 -4 -5 -12l-144 -222h85l8 89q1 10 4.5 13t14.5 3h43q11 0 15 -3.5t4 -14.5 v-89h31q12 0 15.5 -3.5t3.5 -14.5v-33zM618 665q0 -4 -3 -13l-281 -674q-8 -18 -24 -18h-51q-20 0 -20 11q0 7 3 14l282 677q7 15 23 15h51q20 0 20 -12zM314 383q0 -56 -43 -91t-110 -35q-42 0 -84.5 12.5t-42.5 24.5q0 3 3 12l12 38q3 10 11 10q5 0 23 -8q39 -16 71 -16 q66 0 66 57q0 28 -17.5 40.5t-57.5 12.5h-19q-11 0 -15 3.5t-4 14.5v39q0 10 4 13.5t15 3.5h20q64 0 64 50q0 20 -12.5 31.5t-34.5 11.5q-27 0 -54 -28q-7 -8 -12 -8t-10 4l-34 28q-6 6 -6 11q0 8 15 23q42 42 105 42q59 0 95.5 -30.5t36.5 -79.5q0 -29 -11.5 -48.5 t-39.5 -37.5q66 -30 66 -100z"/>
    <glyph glyph-name="questiondown" unicode="¿" d="M361 387q0 -35 -25 -59.5t-60 -24.5t-59.5 25t-24.5 60t25 59.5t61 24.5q34 0 58.5 -25t24.5 -60zM441 -204q0 -18 -64.5 -38.5t-121.5 -20.5q-88 0 -142.5 51.5t-54.5 135.5q0 70 38.5 112.5t126.5 70.5v68q0 13 3.5 17t16.5 4h71q14 0 17.5 -4t3.5 -17v-125 q0 -11 -4 -15t-19 -8q-130 -30 -130 -104q0 -34 24.5 -53t69.5 -19q47 0 110 28q14 6 17 6q7 0 10 -10l26 -68q2 -8 2 -11z"/>
    <glyph glyph-name="Agrave" unicode="À" horiz-adv-x="556" d="M335 804q0 -3 -4 -13l-13 -33q-4 -10 -7 -13t-8 -3q-3 0 -12 3l-188 54q-17 5 -17 13q0 4 4 13l27 63q7 16 13 16q4 0 15 -5l175 -81q15 -8 15 -14zM552 11q0 -11 -20 -11h-109q-13 0 -16.5 2.5t-6.5 14.5l-43 164h-169l-43 -164q-3 -12 -6 -14.5t-16 -2.5h-99 q-20 0 -20 11q0 1 3 13l197 645q4 12 7 14.5t15 2.5h104q12 0 15 -2.5t7 -14.5l197 -645q3 -11 3 -13zM331 275l-37 171q-9 39 -25 135q-12 -76 -26 -135l-40 -171h128z"/>
    <glyph glyph-name="Aacute" unicode="Á" horiz-adv-x="556" d="M470 812q0 -8 -17 -13l-188 -54q-10 -3 -13 -3q-7 0 -14 16l-13 33q-4 8 -4 13q0 6 15 14l175 81q11 5 15 5q7 0 13 -16l27 -63q4 -11 4 -13zM552 11q0 -11 -20 -11h-109q-13 0 -16.5 2.5t-6.5 14.5l-43 164h-169l-43 -164q-3 -12 -6 -14.5t-16 -2.5h-99q-20 0 -20 11 q0 1 3 13l197 645q4 12 7 14.5t15 2.5h104q12 0 15 -2.5t7 -14.5l197 -645q3 -11 3 -13zM331 275l-37 171q-9 39 -25 135q-12 -76 -26 -135l-40 -171h128z"/>
    <glyph glyph-name="Acircumflex" unicode="Â" horiz-adv-x="556" d="M427 793q0 -4 -6 -14l-20 -31q-8 -12 -14 -12q-4 0 -15 5l-94 43l-95 -43q-10 -5 -16 -5t-13 12l-19 31q-6 10 -6 15q0 6 11 14l124 84q6 4 15 4q8 0 14 -4l125 -87q9 -5 9 -12zM552 11q0 -11 -20 -11h-109q-13 0 -16.5 2.5t-6.5 14.5l-43 164h-169l-43 -164 q-3 -12 -6 -14.5t-16 -2.5h-99q-20 0 -20 11q0 1 3 13l197 645q4 12 7 14.5t15 2.5h104q12 0 15 -2.5t7 -14.5l197 -645q3 -11 3 -13zM331 275l-37 171q-9 39 -25 135q-12 -76 -26 -135l-40 -171h128z"/>
    <glyph glyph-name="Atilde" unicode="Ã" horiz-adv-x="556" d="M437 853q0 -9 -21 -40q-36 -54 -88 -54q-28 0 -68 26q-17 11 -30 11q-21 0 -38 -29q-4 -9 -9 -9q-3 0 -9 4l-48 23q-8 4 -8 9q0 11 23 44q19 28 37.5 39t45.5 11q32 0 73 -24q20 -12 33 -12q10 0 17 6t19 25q2 5 8 5q3 0 8 -3l47 -23q8 -3 8 -9zM552 11q0 -11 -20 -11 h-109q-13 0 -16.5 2.5t-6.5 14.5l-43 164h-169l-43 -164q-3 -12 -6 -14.5t-16 -2.5h-99q-20 0 -20 11q0 1 3 13l197 645q4 12 7 14.5t15 2.5h104q12 0 15 -2.5t7 -14.5l197 -645q3 -11 3 -13zM331 275l-37 171q-9 39 -25 135q-12 -76 -26 -135l-40 -171h128z"/>
    <glyph glyph-name="Adieresis" unicode="Ä" horiz-adv-x="556" d="M441 821q0 -30 -21 -51t-50 -21q-30 0 -51 21t-21 51q0 29 21 50t52 21q28 0 49 -21t21 -50zM552 11q0 -11 -20 -11h-109q-13 0 -16.5 2.5t-6.5 14.5l-43 164h-169l-43 -164q-3 -12 -6 -14.5t-16 -2.5h-99q-20 0 -20 11q0 1 3 13l197 645q4 12 7 14.5t15 2.5h104 q12 0 15 -2.5t7 -14.5l197 -645q3 -11 3 -13zM331 275l-37 171q-9 39 -25 135q-12 -76 -26 -135l-40 -171h128zM258 821q0 -30 -21 -51t-50 -21q-30 0 -51 21t-21 51q0 29 21 50t52 21q28 0 49 -21t21 -50z"/>
    <glyph glyph-name="Aring" unicode="Å" horiz-adv-x="556" d="M386 853q0 -44 -32 -76t-76 -32q-45 0 -76.5 31.5t-31.5 76.5t31.5 76.5t77.5 31.5q44 0 75.5 -32t31.5 -76zM552 11q0 -11 -20 -11h-109q-13 0 -16.5 2.5t-6.5 14.5l-43 164h-169l-43 -164q-3 -12 -6 -14.5t-16 -2.5h-99q-20 0 -20 11q0 1 3 13l197 645q4 12 7 14.5 t15 2.5h104q12 0 15 -2.5t7 -14.5l197 -645q3 -11 3 -13zM321 853q0 19 -12.5 31.5t-31.5 12.5q-17 0 -30 -13t-13 -31t13 -31t31 -13q17 0 30 13t13 31zM331 275l-37 171q-9 39 -25 135q-12 -76 -26 -135l-40 -171h128z"/>
    <glyph glyph-name="AE" unicode="Æ" horiz-adv-x="741" d="M719 674q0 -5 -2 -11l-16 -69q-4 -17 -22 -17h-199v-164h172q14 0 17.5 -3.5t3.5 -17.5v-67q0 -13 -3.5 -17t-17.5 -4h-172v-195h215q13 0 17 -3.5t4 -17.5v-67q0 -13 -4 -17t-17 -4h-327q-13 0 -16.5 4t-3.5 17v160h-168l-64 -165q-7 -16 -23 -16h-95q-20 0 -20 12 q0 4 4 13l276 646q4 11 7.5 13t15.5 2h418q20 0 20 -12zM349 623q-2 -6 -7 -19.5l-9.5 -25.5l-8.5 -23l-16 -40l-14 -33l-85 -207h139v208q0 97 1 140z"/>
    <glyph glyph-name="Ccedilla" unicode="Ç" horiz-adv-x="480" d="M465 51q0 -14 -28 -31q-54 -32 -113 -36l-3 -41q74 -8 74 -74q0 -42 -30.5 -66.5t-81.5 -24.5q-77 0 -77 19q0 2 2 8l9 43q0 4 5 4q3 0 5 -1q22 -5 39 -5q31 0 31 23t-41 24q-14 0 -18 2t-4 8q0 4 1 8l7 77q-74 17 -115 62q-87 96 -87 304q0 178 79 270q67 79 172 79 q81 0 151 -51q21 -15 21 -25q0 -3 -2 -7l-36 -74q-5 -9 -10 -9t-32 19q-44 31 -84 31q-115 0 -115 -214q0 -149 39 -223q27 -51 91 -51q47 0 95 37q7 5 10 5q5 0 8 -7l35 -74q3 -5 3 -9z"/>
    <glyph glyph-name="Egrave" unicode="È" horiz-adv-x="482" d="M350 811q0 -3 -4 -13l-13 -33q-4 -10 -7 -13t-8 -3q-3 0 -12 3l-188 54q-17 5 -17 13q0 4 4 13l27 63q7 16 13 16q4 0 15 -5l175 -81q15 -7 15 -14zM460 675q0 -3 -2 -13l-20 -68q-5 -17 -22 -17h-194v-164h167q13 0 17 -3.5t4 -17.5v-67q0 -13 -4 -17t-17 -4h-167v-195 h210q14 0 17.5 -3.5t3.5 -17.5v-67q0 -14 -3.5 -17.5t-17.5 -3.5h-326q-14 0 -17.5 3.5t-3.5 17.5v644q0 14 3.5 17.5t17.5 3.5h334q20 0 20 -11z"/>
    <glyph glyph-name="Eacute" unicode="É" horiz-adv-x="482" d="M430 819q0 -8 -17 -13l-188 -54q-10 -3 -13 -3q-7 0 -14 16l-13 33q-4 8 -4 13q0 7 15 14l175 81q11 5 15 5q7 0 13 -16l27 -63q4 -11 4 -13zM460 675q0 -3 -2 -13l-20 -68q-5 -17 -22 -17h-194v-164h167q13 0 17 -3.5t4 -17.5v-67q0 -13 -4 -17t-17 -4h-167v-195h210 q14 0 17.5 -3.5t3.5 -17.5v-67q0 -14 -3.5 -17.5t-17.5 -3.5h-326q-14 0 -17.5 3.5t-3.5 17.5v644q0 14 3.5 17.5t17.5 3.5h334q20 0 20 -11z"/>
    <glyph glyph-name="Ecircumflex" unicode="Ê" horiz-adv-x="482" d="M411 793q0 -4 -6 -14l-20 -31q-8 -12 -14 -12q-4 0 -15 5l-94 43l-95 -43q-10 -5 -16 -5t-13 12l-19 31q-6 10 -6 15q0 6 11 14l124 84q6 4 15 4q8 0 14 -4l125 -87q9 -5 9 -12zM460 675q0 -3 -2 -13l-20 -68q-5 -17 -22 -17h-194v-164h167q13 0 17 -3.5t4 -17.5v-67 q0 -13 -4 -17t-17 -4h-167v-195h210q14 0 17.5 -3.5t3.5 -17.5v-67q0 -14 -3.5 -17.5t-17.5 -3.5h-326q-14 0 -17.5 3.5t-3.5 17.5v644q0 14 3.5 17.5t17.5 3.5h334q20 0 20 -11z"/>
    <glyph glyph-name="Edieresis" unicode="Ë" horiz-adv-x="482" d="M438 821q0 -30 -21 -51t-50 -21q-30 0 -51 21t-21 51q0 29 21 50t52 21q28 0 49 -21t21 -50zM460 675q0 -3 -2 -13l-20 -68q-5 -17 -22 -17h-194v-164h167q13 0 17 -3.5t4 -17.5v-67q0 -13 -4 -17t-17 -4h-167v-195h210q14 0 17.5 -3.5t3.5 -17.5v-67q0 -14 -3.5 -17.5 t-17.5 -3.5h-326q-14 0 -17.5 3.5t-3.5 17.5v644q0 14 3.5 17.5t17.5 3.5h334q20 0 20 -11zM255 821q0 -30 -21 -51t-50 -21q-30 0 -51 21t-21 51q0 29 21 50t52 21q28 0 49 -21t21 -50z"/>
    <glyph glyph-name="Igrave" unicode="Ì" horiz-adv-x="352" d="M233 804q0 -3 -4 -13l-13 -33q-4 -10 -7 -13t-8 -3q-3 0 -12 3l-188 54q-17 5 -17 13q0 4 4 13l27 63q7 16 13 16q4 0 15 -5l175 -81q15 -8 15 -14zM320 21q0 -13 -4 -17t-17 -4h-245q-14 0 -17.5 3.5t-3.5 17.5v57q0 14 3.5 17.5t17.5 3.5h54v488h-54q-14 0 -17.5 3.5 t-3.5 17.5v57q0 14 3.5 17.5t17.5 3.5h245q13 0 17 -4t4 -17v-57q0 -14 -4 -17.5t-17 -3.5h-54v-488h54q13 0 17 -3.5t4 -17.5v-57z"/>
    <glyph glyph-name="Iacute" unicode="Í" horiz-adv-x="352" d="M368 812q0 -8 -17 -13l-188 -54q-10 -3 -13 -3q-7 0 -14 16l-13 33q-4 8 -4 13q0 6 15 14l175 81q11 5 15 5q7 0 13 -16l27 -63q4 -11 4 -13zM320 21q0 -13 -4 -17t-17 -4h-245q-14 0 -17.5 3.5t-3.5 17.5v57q0 14 3.5 17.5t17.5 3.5h54v488h-54q-14 0 -17.5 3.5 t-3.5 17.5v57q0 14 3.5 17.5t17.5 3.5h245q13 0 17 -4t4 -17v-57q0 -14 -4 -17.5t-17 -3.5h-54v-488h54q13 0 17 -3.5t4 -17.5v-57z"/>
    <glyph glyph-name="Icircumflex" unicode="Î" horiz-adv-x="352" d="M325 793q0 -4 -6 -14l-20 -31q-8 -12 -14 -12q-4 0 -15 5l-94 43l-95 -43q-10 -5 -16 -5t-13 12l-19 31q-6 10 -6 15q0 6 11 14l124 84q6 4 15 4q8 0 14 -4l125 -87q9 -5 9 -12zM320 21q0 -13 -4 -17t-17 -4h-245q-14 0 -17.5 3.5t-3.5 17.5v57q0 14 3.5 17.5t17.5 3.5 h54v488h-54q-14 0 -17.5 3.5t-3.5 17.5v57q0 14 3.5 17.5t17.5 3.5h245q13 0 17 -4t4 -17v-57q0 -14 -4 -17.5t-17 -3.5h-54v-488h54q13 0 17 -3.5t4 -17.5v-57z"/>
    <glyph glyph-name="Idieresis" unicode="Ï" horiz-adv-x="352" d="M339 821q0 -30 -21 -51t-50 -21q-30 0 -51 21t-21 51q0 29 21 50t52 21q28 0 49 -21t21 -50zM320 21q0 -13 -4 -17t-17 -4h-245q-14 0 -17.5 3.5t-3.5 17.5v57q0 14 3.5 17.5t17.5 3.5h54v488h-54q-14 0 -17.5 3.5t-3.5 17.5v57q0 14 3.5 17.5t17.5 3.5h245q13 0 17 -4 t4 -17v-57q0 -14 -4 -17.5t-17 -3.5h-54v-488h54q13 0 17 -3.5t4 -17.5v-57zM156 821q0 -30 -21 -51t-50 -21q-30 0 -51 21t-21 51q0 29 21 50t52 21q28 0 49 -21t21 -50z"/>
    <glyph glyph-name="Eth" unicode="Ð" horiz-adv-x="593" d="M553 343q0 -254 -127 -318q-30 -16 -61 -20.5t-103 -4.5h-158q-13 0 -16.5 4t-3.5 17v291h-49q-14 0 -17.5 3.5t-3.5 17.5v47q0 14 4 17.5t17 3.5h49v264q0 13 3.5 17t16.5 4h158q73 0 105 -6q186 -35 186 -337zM416 335q0 97 -15.5 148t-50.5 74q-31 20 -94 20h-35v-176 h100q14 0 17.5 -3.5t3.5 -17.5v-47q0 -14 -3.5 -17.5t-17.5 -3.5h-100v-203h35q79 0 109 26q51 41 51 200z"/>
    <glyph glyph-name="Ntilde" unicode="Ñ" horiz-adv-x="611" d="M478 853q0 -9 -21 -40q-36 -54 -88 -54q-28 0 -68 26q-17 11 -30 11q-21 0 -38 -29q-4 -9 -9 -9q-3 0 -9 4l-48 23q-8 4 -8 9q0 11 23 44q19 28 37.5 39t45.5 11q32 0 73 -24q20 -12 33 -12q10 0 17 6t19 25q3 5 8 5q3 0 8 -3l47 -23q8 -3 8 -9zM538 21q0 -14 -3.5 -17.5 t-17.5 -3.5h-64q-13 0 -18 3t-12 16l-172 324q-41 77 -64 142q3 -70 3 -122v-342q0 -13 -4 -17t-17 -4h-75q-14 0 -17.5 3.5t-3.5 17.5v644q0 14 3.5 17.5t17.5 3.5h78q14 0 18 -2.5t11 -14.5l158 -294q34 -62 64 -154q-2 76 -2 126v318q0 13 3.5 17t17.5 4h75 q14 0 17.5 -3.5t3.5 -17.5v-644z"/>
    <glyph glyph-name="Ograve" unicode="Ò" horiz-adv-x="574" d="M345 804q0 -3 -4 -13l-13 -33q-4 -10 -7 -13t-8 -3q-3 0 -12 3l-188 54q-17 5 -17 13q0 4 4 13l27 63q7 16 13 16q4 0 15 -5l175 -81q15 -8 15 -14zM535 351q0 -368 -251 -368q-244 0 -244 363q0 109 21 179.5t67 115.5q65 62 164 62q50 0 95.5 -19t73.5 -52 q74 -84 74 -281zM391 340q0 131 -25.5 193t-79.5 62q-50 0 -76 -65t-26 -188q0 -251 103 -251q104 0 104 249z"/>
    <glyph glyph-name="Oacute" unicode="Ó" horiz-adv-x="574" d="M479 812q0 -8 -17 -13l-188 -54q-10 -3 -13 -3q-7 0 -14 16l-13 33q-4 8 -4 13q0 6 15 14l175 81q11 5 15 5q7 0 13 -16l27 -63q4 -11 4 -13zM535 351q0 -368 -251 -368q-244 0 -244 363q0 109 21 179.5t67 115.5q65 62 164 62q50 0 95.5 -19t73.5 -52q74 -84 74 -281z M391 340q0 131 -25.5 193t-79.5 62q-50 0 -76 -65t-26 -188q0 -251 103 -251q104 0 104 249z"/>
    <glyph glyph-name="Ocircumflex" unicode="Ô" horiz-adv-x="574" d="M437 793q0 -4 -6 -14l-20 -31q-8 -12 -14 -12q-4 0 -15 5l-94 43l-95 -43q-10 -5 -16 -5t-13 12l-19 31q-6 10 -6 15q0 6 11 14l124 84q6 4 15 4q8 0 14 -4l125 -87q9 -5 9 -12zM535 351q0 -368 -251 -368q-244 0 -244 363q0 109 21 179.5t67 115.5q65 62 164 62 q50 0 95.5 -19t73.5 -52q74 -84 74 -281zM391 340q0 131 -25.5 193t-79.5 62q-50 0 -76 -65t-26 -188q0 -251 103 -251q104 0 104 249z"/>
    <glyph glyph-name="Otilde" unicode="Õ" horiz-adv-x="574" d="M447 853q0 -9 -21 -40q-36 -54 -88 -54q-28 0 -68 26q-17 11 -30 11q-21 0 -38 -29q-4 -9 -9 -9q-3 0 -9 4l-48 23q-8 4 -8 9q0 11 23 44q19 28 37.5 39t45.5 11q32 0 73 -24q20 -12 33 -12q10 0 17 6t19 25q2 5 8 5q3 0 8 -3l47 -23q8 -3 8 -9zM535 351 q0 -368 -251 -368q-244 0 -244 363q0 109 21 179.5t67 115.5q65 62 164 62q50 0 95.5 -19t73.5 -52q74 -84 74 -281zM391 340q0 131 -25.5 193t-79.5 62q-50 0 -76 -65t-26 -188q0 -251 103 -251q104 0 104 249z"/>
    <glyph glyph-name="Odieresis" unicode="Ö" horiz-adv-x="574" d="M450 821q0 -30 -21 -51t-50 -21q-30 0 -51 21t-21 51q0 29 21 50t52 21q28 0 49 -21t21 -50zM535 351q0 -368 -251 -368q-244 0 -244 363q0 109 21 179.5t67 115.5q65 62 164 62q50 0 95.5 -19t73.5 -52q74 -84 74 -281zM391 340q0 131 -25.5 193t-79.5 62q-50 0 -76 -65 t-26 -188q0 -251 103 -251q104 0 104 249zM267 821q0 -30 -21 -51t-50 -21q-30 0 -51 21t-21 51q0 29 21 50t52 21q28 0 49 -21t21 -50z"/>
    <glyph glyph-name="multiply" unicode="×" d="M444 212q0 -6 -9 -15l-47 -47q-10 -9 -15 -9q-6 0 -14 9l-110 112l-108 -110q-10 -10 -14 -10q-6 0 -15 9l-45 45q-9 9 -9 15t8 14l112 108l-112 110q-10 9 -10 14q0 6 9 15l47 47q10 9 15 9q6 0 14 -9l110 -112l108 111q9 9 14 9q7 0 15 -9l45 -45q9 -9 9 -14 q0 -7 -8 -15l-112 -108l112 -110q10 -9 10 -14z"/>
    <glyph glyph-name="Oslash" unicode="Ø" horiz-adv-x="574" d="M534 342q0 -359 -249 -359q-79 0 -134 37l-41 -77q-7 -14 -13 -14q-5 0 -15 5l-31 16q-14 7 -14 14q0 5 5 14l54 102q-57 97 -57 262q0 105 18.5 171.5t61.5 116.5q64 73 166 73q69 0 123 -30l31 59q7 14 14 14q5 0 14 -5l31 -16q14 -7 14 -13q0 -7 -5 -15l-39 -75 q66 -95 66 -280zM353 569q-27 31 -68 31q-56 0 -86.5 -67t-30.5 -192q0 -59 10 -143zM405 345q0 77 -11 159l-179 -380q30 -38 73 -38q117 0 117 259z"/>
    <glyph glyph-name="Ugrave" unicode="Ù" horiz-adv-x="611" d="M363 804q0 -3 -4 -13l-13 -33q-4 -10 -7 -13t-8 -3q-3 0 -12 3l-188 54q-17 5 -17 13q0 4 4 13l27 63q7 16 13 16q4 0 15 -5l175 -81q15 -8 15 -14zM548 232q0 -66 -12 -105t-43 -71q-70 -73 -198 -73q-139 0 -195 87q-34 54 -34 162v433q0 14 3.5 17.5t17.5 3.5h95 q14 0 17.5 -4t3.5 -17v-433q0 -49 4 -69.5t16 -36.5q26 -35 82 -35q59 0 85 32.5t26 106.5v435q0 13 4 17t17 4h90q14 0 17.5 -3.5t3.5 -17.5v-433z"/>
    <glyph glyph-name="Uacute" unicode="Ú" horiz-adv-x="611" d="M498 812q0 -8 -17 -13l-188 -54q-10 -3 -13 -3q-7 0 -14 16l-13 33q-4 8 -4 13q0 6 15 14l175 81q11 5 15 5q7 0 13 -16l27 -63q4 -11 4 -13zM548 232q0 -66 -12 -105t-43 -71q-70 -73 -198 -73q-139 0 -195 87q-34 54 -34 162v433q0 14 3.5 17.5t17.5 3.5h95 q14 0 17.5 -4t3.5 -17v-433q0 -49 4 -69.5t16 -36.5q26 -35 82 -35q59 0 85 32.5t26 106.5v435q0 13 4 17t17 4h90q14 0 17.5 -3.5t3.5 -17.5v-433z"/>
    <glyph glyph-name="Ucircumflex" unicode="Û" horiz-adv-x="611" d="M455 793q0 -4 -6 -14l-20 -31q-8 -12 -14 -12q-4 0 -15 5l-94 43l-95 -43q-10 -5 -16 -5t-13 12l-19 31q-6 10 -6 15q0 6 11 14l124 84q6 4 15 4q8 0 14 -4l125 -87q9 -5 9 -12zM548 232q0 -66 -12 -105t-43 -71q-70 -73 -198 -73q-139 0 -195 87q-34 54 -34 162v433 q0 14 3.5 17.5t17.5 3.5h95q14 0 17.5 -4t3.5 -17v-433q0 -49 4 -69.5t16 -36.5q26 -35 82 -35q59 0 85 32.5t26 106.5v435q0 13 4 17t17 4h90q14 0 17.5 -3.5t3.5 -17.5v-433z"/>
    <glyph glyph-name="Udieresis" unicode="Ü" horiz-adv-x="611" d="M470 821q0 -30 -21 -51t-50 -21q-30 0 -51 21t-21 51q0 29 21 50t52 21q28 0 49 -21t21 -50zM548 232q0 -66 -12 -105t-43 -71q-70 -73 -198 -73q-139 0 -195 87q-34 54 -34 162v433q0 14 3.5 17.5t17.5 3.5h95q14 0 17.5 -4t3.5 -17v-433q0 -49 4 -69.5t16 -36.5 q26 -35 82 -35q59 0 85 32.5t26 106.5v435q0 13 4 17t17 4h90q14 0 17.5 -3.5t3.5 -17.5v-433zM287 821q0 -30 -21 -51t-50 -21q-30 0 -51 21t-21 51q0 29 21 50t52 21q28 0 49 -21t21 -50z"/>
    <glyph glyph-name="Yacute" unicode="Ý" horiz-adv-x="482" d="M450 819q0 -8 -17 -13l-188 -54q-10 -3 -13 -3q-7 0 -14 16l-13 33q-4 8 -4 13q0 7 15 14l175 81q11 5 15 5q7 0 13 -16l27 -63q4 -11 4 -13zM502 662q0 -5 -5 -14l-184 -367v-260q0 -13 -3.5 -17t-17.5 -4h-95q-14 0 -17.5 3.5t-3.5 17.5v261l-192 368q-5 10 -5 14 q0 10 19 13l104 17q7 2 10 2q5 0 8 -2.5t7 -12.5l80 -170q14 -29 42 -110q18 64 44 117l78 164q6 14 13 14q4 0 7 -1l5 -1l89 -19q17 -4 17 -13z"/>
    <glyph glyph-name="Thorn" unicode="Þ" horiz-adv-x="519" d="M501 391q0 -101 -62.5 -162.5t-165.5 -61.5h-51v-146q0 -14 -3.5 -17.5t-17.5 -3.5h-95q-14 0 -17.5 3.5t-3.5 17.5v644q0 13 3.5 17t17.5 4h95q13 0 17 -4t4 -17v-85h46q111 0 157 -28q36 -22 56 -64.5t20 -96.5zM369 384q0 53 -23.5 73.5t-84.5 20.5h-39v-198h28 q66 0 92.5 23t26.5 81z"/>
    <glyph glyph-name="germandbls" unicode="ß" horiz-adv-x="593" d="M566 147q0 -77 -46 -120t-128 -43q-67 0 -120 22q-14 6 -14 15l1 10l17 65q2 7 9 7q5 0 12 -4q51 -23 93 -23q29 0 44.5 15t15.5 43q0 26 -13.5 44.5t-62.5 56.5q-60 47 -78 71q-23 31 -23 72q0 29 13 54t46 59q37 38 37 72q0 64 -79 64q-56 0 -79 -31q-10 -13 -13.5 -31 t-3.5 -59v-489q0 -11 -3 -14t-14 -3h-93q-11 0 -14 3t-3 14v478q0 63 11 100t38 66q61 64 175 64q91 0 144 -39t53 -107q0 -35 -15 -61t-58 -68q-28 -27 -28 -47q0 -18 10 -29t71 -60q58 -46 78 -80.5t20 -86.5z"/>
    <glyph glyph-name="agrave" unicode="à" horiz-adv-x="482" d="M322 629q0 -5 -5 -13l-15 -32q-6 -14 -14 -14q-1 0 -13 3l-177 70q-16 7 -16 14q0 4 5 14l31 61q8 14 14 14q4 0 14 -6l163 -97q13 -8 13 -14zM439 28q0 -7 -8 -10l-78 -31q-5 -3 -12 -3q-14 0 -30 59q-56 -57 -128 -57q-69 0 -109.5 41t-40.5 110q0 131 149 161 q40 8 112 9v31q0 43 -14 59t-52 16q-45 0 -112 -26q-6 -3 -11 -3q-7 0 -10 10l-21 60q-2 6 -2 11q0 16 55.5 31t115.5 15q121 0 156 -77q14 -29 14 -83v-204q0 -61 23 -108q3 -6 3 -11zM294 114v110q-75 0 -107.5 -18.5t-32.5 -61.5q0 -29 18.5 -49t45.5 -20q40 0 76 39z "/>
    <glyph glyph-name="aacute" unicode="á" horiz-adv-x="482" d="M404 657q0 -9 -15 -14l-177 -70q-2 0 -5 -1t-5.5 -1.5t-3.5 -0.5q-7 0 -13 14l-16 32q-5 9 -5 14t13 13l163 97q10 6 14 6q8 0 14 -14l31 -61q5 -10 5 -14zM439 28q0 -7 -8 -10l-78 -31q-5 -3 -12 -3q-14 0 -30 59q-56 -57 -128 -57q-69 0 -109.5 41t-40.5 110 q0 131 149 161q40 8 112 9v31q0 43 -14 59t-52 16q-45 0 -112 -26q-6 -3 -11 -3q-7 0 -10 10l-21 60q-2 6 -2 11q0 16 55.5 31t115.5 15q121 0 156 -77q14 -29 14 -83v-204q0 -61 23 -108q3 -6 3 -11zM294 114v110q-75 0 -107.5 -18.5t-32.5 -61.5q0 -29 18.5 -49t45.5 -20 q40 0 76 39z"/>
    <glyph glyph-name="acircumflex" unicode="â" horiz-adv-x="482" d="M379 628q0 -2 -6 -13l-19 -32q-8 -13 -15 -13q-3 0 -13 6l-85 50l-86 -50q-10 -6 -13 -6q-8 0 -15 13l-18 32q-6 9 -6 13q0 6 11 15l113 89q10 8 14 8q5 0 15 -8l112 -89q11 -9 11 -15zM439 28q0 -7 -8 -10l-78 -31q-5 -3 -12 -3q-14 0 -30 59q-56 -57 -128 -57 q-69 0 -109.5 41t-40.5 110q0 131 149 161q40 8 112 9v31q0 43 -14 59t-52 16q-45 0 -112 -26q-6 -3 -11 -3q-7 0 -10 10l-21 60q-2 6 -2 11q0 16 55.5 31t115.5 15q121 0 156 -77q14 -29 14 -83v-204q0 -61 23 -108q3 -6 3 -11zM294 114v110q-75 0 -107.5 -18.5 t-32.5 -61.5q0 -29 18.5 -49t45.5 -20q40 0 76 39z"/>
    <glyph glyph-name="atilde" unicode="ã" horiz-adv-x="482" d="M396 675q0 -9 -21 -40q-36 -54 -85 -54q-28 0 -66 25q-16 11 -30 11q-20 0 -36 -29q-5 -8 -9 -8q-1 0 -9 3l-47 24q-7 4 -7 9q0 9 22 44q33 49 81 49q31 0 71 -23q21 -12 32 -12q10 0 17 6t18 25q3 5 7 5q3 0 8 -3l46 -23q8 -3 8 -9zM439 28q0 -7 -8 -10l-78 -31 q-5 -3 -12 -3q-14 0 -30 59q-56 -57 -128 -57q-69 0 -109.5 41t-40.5 110q0 131 149 161q40 8 112 9v31q0 43 -14 59t-52 16q-45 0 -112 -26q-6 -3 -11 -3q-7 0 -10 10l-21 60q-2 6 -2 11q0 16 55.5 31t115.5 15q121 0 156 -77q14 -29 14 -83v-204q0 -61 23 -108q3 -6 3 -11 zM294 114v110q-75 0 -107.5 -18.5t-32.5 -61.5q0 -29 18.5 -49t45.5 -20q40 0 76 39z"/>
    <glyph glyph-name="adieresis" unicode="ä" horiz-adv-x="482" d="M393 637q0 -29 -20.5 -49t-48.5 -20t-48.5 20t-20.5 49t20.5 49t49.5 20q28 0 48 -20.5t20 -48.5zM216 637q0 -29 -20 -49t-49 -20t-49 20t-20 49t20.5 49t49.5 20q28 0 48 -20.5t20 -48.5zM439 28q0 -7 -8 -10l-78 -31q-5 -3 -12 -3q-14 0 -30 59q-56 -57 -128 -57 q-69 0 -109.5 41t-40.5 110q0 131 149 161q40 8 112 9v31q0 43 -14 59t-52 16q-45 0 -112 -26q-6 -3 -11 -3q-7 0 -10 10l-21 60q-2 6 -2 11q0 16 55.5 31t115.5 15q121 0 156 -77q14 -29 14 -83v-204q0 -61 23 -108q3 -6 3 -11zM294 114v110q-75 0 -107.5 -18.5 t-32.5 -61.5q0 -29 18.5 -49t45.5 -20q40 0 76 39z"/>
    <glyph glyph-name="aring" unicode="å" horiz-adv-x="482" d="M340 669q0 -43 -31 -74t-74 -31t-73.5 31t-30.5 74q0 44 31 74.5t75 30.5q42 0 72.5 -31t30.5 -74zM439 28q0 -7 -8 -10l-78 -31q-5 -3 -12 -3q-14 0 -30 59q-56 -57 -128 -57q-69 0 -109.5 41t-40.5 110q0 131 149 161q40 8 112 9v31q0 43 -14 59t-52 16q-45 0 -112 -26 q-6 -3 -11 -3q-7 0 -10 10l-21 60q-2 6 -2 11q0 16 55.5 31t115.5 15q121 0 156 -77q14 -29 14 -83v-204q0 -61 23 -108q3 -6 3 -11zM277 669q0 17 -12.5 29.5t-29.5 12.5t-29.5 -12.5t-12.5 -30.5q0 -17 12.5 -29.5t29.5 -12.5t29.5 12.5t12.5 30.5zM294 114v110 q-75 0 -107.5 -18.5t-32.5 -61.5q0 -29 18.5 -49t45.5 -20q40 0 76 39z"/>
    <glyph glyph-name="ae" unicode="æ" horiz-adv-x="722" d="M691 242q0 -29 -19 -29h-265q2 -67 27 -96.5t78 -29.5q48 0 115 31q6 3 11 3q7 0 10 -9l25 -60q3 -3 3 -11q0 -19 -59 -38.5t-115 -19.5q-107 0 -163 66q-69 -63 -159 -63q-69 0 -108 39.5t-39 109.5q0 89 58.5 128.5t195.5 42.5v42q0 65 -61 65q-52 0 -115 -26 q-6 -3 -11 -3q-8 0 -11 11l-21 59q-2 7 -2 10q0 12 30 23q65 24 130 24q95 0 131 -66q51 66 142 66q124 0 169 -113q23 -56 23 -156zM559 306q-1 60 -18 87t-53 27q-48 0 -67 -45q-7 -17 -14 -69h152zM287 112v110q-64 0 -90 -11q-43 -19 -43 -70q0 -29 16 -47.5t41 -18.5 q44 0 76 37z"/>
    <glyph glyph-name="ccedilla" unicode="ç" horiz-adv-x="407" d="M406 454q0 -6 -3 -11l-35 -64q-4 -7 -9 -7t-10 4q-47 34 -85 34q-51 0 -75 -40.5t-24 -127.5q0 -82 24 -120.5t76 -38.5q40 0 82 29q7 5 11 5t8 -7l24 -61q3 -8 3 -12q0 -15 -37 -32q-29 -14 -80 -21l-2 -39q71 -9 71 -72q0 -41 -29.5 -65t-79.5 -24q-32 0 -53 5t-21 13 q0 2 2 9l9 42q0 4 4 4q3 0 5 -1q18 -6 38 -6q30 0 30 23q0 21 -39 23q-22 0 -22 10q0 3 1 7l7 75q-164 36 -164 249q0 127 62 200.5t169 73.5q46 0 94 -19t48 -38z"/>
    <glyph glyph-name="egrave" unicode="è" horiz-adv-x="481" d="M334 629q0 -5 -5 -13l-15 -32q-6 -14 -14 -14q-1 0 -13 3l-177 70q-16 7 -16 14q0 4 5 14l31 61q8 14 14 14q4 0 14 -6l163 -97q13 -8 13 -14zM450 238q0 -15 -4.5 -20t-17.5 -5h-269q2 -65 29 -95.5t82 -30.5t114 31q7 4 13 4q7 0 11 -9l25 -60q3 -6 3 -11q0 -8 -8 -14 t-33 -17q-65 -28 -138 -28q-95 0 -149 49q-75 69 -75 211q0 121 60 194.5t159 73.5q198 0 198 -273zM317 306q-1 62 -18 88t-55 26t-57 -26t-26 -88h156z"/>
    <glyph glyph-name="eacute" unicode="é" horiz-adv-x="481" d="M430 657q0 -9 -15 -14l-177 -70q-2 0 -5 -1t-5.5 -1.5t-3.5 -0.5q-7 0 -13 14l-16 32q-5 9 -5 14t13 13l163 97q10 6 14 6q8 0 14 -14l31 -61q5 -10 5 -14zM450 238q0 -15 -4.5 -20t-17.5 -5h-269q2 -65 29 -95.5t82 -30.5t114 31q7 4 13 4q7 0 11 -9l25 -60q3 -6 3 -11 q0 -8 -8 -14t-33 -17q-65 -28 -138 -28q-95 0 -149 49q-75 69 -75 211q0 121 60 194.5t159 73.5q198 0 198 -273zM317 306q-1 62 -18 88t-55 26t-57 -26t-26 -88h156z"/>
    <glyph glyph-name="ecircumflex" unicode="ê" horiz-adv-x="481" d="M392 628q0 -2 -6 -13l-19 -32q-8 -13 -15 -13q-3 0 -13 6l-85 50l-86 -50q-10 -6 -13 -6q-8 0 -15 13l-18 32q-6 9 -6 13q0 6 11 15l113 89q10 8 14 8q5 0 15 -8l112 -89q11 -9 11 -15zM450 238q0 -15 -4.5 -20t-17.5 -5h-269q2 -65 29 -95.5t82 -30.5t114 31q7 4 13 4 q7 0 11 -9l25 -60q3 -6 3 -11q0 -8 -8 -14t-33 -17q-65 -28 -138 -28q-95 0 -149 49q-75 69 -75 211q0 121 60 194.5t159 73.5q198 0 198 -273zM317 306q-1 62 -18 88t-55 26t-57 -26t-26 -88h156z"/>
    <glyph glyph-name="edieresis" unicode="ë" horiz-adv-x="481" d="M398 637q0 -29 -20 -49t-49 -20t-49 20t-20 49t20.5 49t49.5 20q28 0 48 -20.5t20 -48.5zM221 637q0 -29 -20.5 -49t-48.5 -20t-48.5 20t-20.5 49t20.5 49t49.5 20q28 0 48 -20.5t20 -48.5zM450 238q0 -15 -4.5 -20t-17.5 -5h-269q2 -65 29 -95.5t82 -30.5t114 31 q7 4 13 4q7 0 11 -9l25 -60q3 -6 3 -11q0 -8 -8 -14t-33 -17q-65 -28 -138 -28q-95 0 -149 49q-75 69 -75 211q0 121 60 194.5t159 73.5q198 0 198 -273zM317 306q-1 62 -18 88t-55 26t-57 -26t-26 -88h156z"/>
    <glyph glyph-name="igrave" unicode="ì" horiz-adv-x="296" d="M204 629q0 -5 -5 -13l-15 -32q-6 -14 -14 -14q-1 0 -13 3l-177 70q-16 7 -16 14q0 4 5 14l31 61q8 14 14 14q4 0 14 -6l163 -97q13 -8 13 -14zM221 17q0 -11 -3 -14t-14 -3h-93q-11 0 -14 3t-3 14v384h-76q-11 0 -14 3t-3 14v59q0 11 3 14t14 3h186q11 0 14 -3t3 -14 v-460z"/>
    <glyph glyph-name="iacute" unicode="í" horiz-adv-x="296" d="M333 657q0 -9 -15 -14l-177 -70q-2 0 -5 -1t-5.5 -1.5t-3.5 -0.5q-7 0 -13 14l-16 32q-5 9 -5 14t13 13l163 97q10 6 14 6q8 0 14 -14l31 -61q5 -10 5 -14zM220 17q0 -11 -3 -14t-14 -3h-93q-11 0 -14 3t-3 14v384h-76q-11 0 -14 3t-3 14v59q0 11 3 14t14 3h186 q11 0 14 -3t3 -14v-460z"/>
    <glyph glyph-name="icircumflex" unicode="î" horiz-adv-x="296" d="M286 628q0 -2 -6 -13l-19 -32q-8 -13 -15 -13q-3 0 -13 6l-85 50l-86 -50q-10 -6 -13 -6q-8 0 -15 13l-18 32q-6 9 -6 13q0 6 11 15l113 89q10 8 14 8q5 0 15 -8l112 -89q11 -9 11 -15zM221 17q0 -11 -3 -14t-14 -3h-93q-11 0 -14 3t-3 14v384h-76q-11 0 -14 3t-3 14v59 q0 11 3 14t14 3h186q11 0 14 -3t3 -14v-460z"/>
    <glyph glyph-name="idieresis" unicode="ï" horiz-adv-x="296" d="M296 637q0 -29 -20 -49t-49 -20t-49 20t-20 49t20.5 49t49.5 20q28 0 48 -20.5t20 -48.5zM138 637q0 -29 -20 -49t-49 -20t-49 20t-20 49t20.5 49t49.5 20q28 0 48 -20.5t20 -48.5zM221 17q0 -11 -3 -14t-14 -3h-93q-11 0 -14 3t-3 14v384h-76q-11 0 -14 3t-3 14v59 q0 11 3 14t14 3h186q11 0 14 -3t3 -14v-460z"/>
    <glyph glyph-name="eth" unicode="ð" d="M468 244q0 -119 -59 -190t-158 -71q-103 0 -160.5 70t-57.5 196q0 119 58 189q28 34 66.5 54t77.5 20q29 0 62 -18q-25 60 -48 97l-91 -43q-6 -3 -9 -3t-8 8l-17 37q-3 6 -3 10t8 8l88 40q-17 31 -41 61q-7 8 -7 13q0 9 13 11l61 8q4 1 10 1q16 0 55 -52l93 43q6 2 8 2 q3 0 8 -9l15 -32q5 -11 5 -12q0 -4 -12 -9l-84 -40q60 -101 93.5 -203.5t33.5 -185.5zM340 246q0 88 -21 126.5t-69 38.5q-44 0 -63 -38.5t-19 -125.5t19.5 -125t64.5 -38q46 0 67 38.5t21 123.5z"/>
    <glyph glyph-name="ntilde" unicode="ñ" horiz-adv-x="537" d="M437 675q0 -9 -21 -40q-36 -54 -85 -54q-29 0 -66 25q-16 11 -30 11q-20 0 -36 -29q-5 -8 -9 -8q-2 0 -9 3l-47 24q-7 4 -7 9q0 9 22 44q33 49 81 49q31 0 71 -23q21 -12 32 -12q10 0 17 6t18 25q2 5 7 5q3 0 8 -3l46 -23q8 -3 8 -9zM472 17q0 -11 -3 -14t-14 -3h-93 q-11 0 -14 3t-3 14v308q0 44 -13.5 64t-43.5 20q-39 0 -87 -41v-351q0 -11 -3 -14t-14 -3h-93q-11 0 -14 3t-3 14v336q0 64 -21 109q-3 6 -3 10q0 6 8 9l89 33q6 2 10 2q19 0 36 -69q70 64 150 64q67 0 98 -38t31 -120v-336z"/>
    <glyph glyph-name="ograve" unicode="ò" d="M322 629q0 -5 -5 -13l-15 -32q-6 -14 -14 -14q-1 0 -13 3l-177 70q-16 7 -16 14q0 4 5 14l31 61q8 14 14 14q4 0 14 -6l163 -97q13 -8 13 -14zM468 248q0 -122 -58.5 -193.5t-158.5 -71.5q-103 0 -160.5 70t-57.5 194q0 121 58 191q62 73 164 73q98 0 155.5 -71 t57.5 -192zM333 246q0 88 -19.5 126t-64.5 38q-43 0 -62 -38.5t-19 -124.5q0 -87 19 -125t63 -38t63.5 38t19.5 124z"/>
    <glyph glyph-name="oacute" unicode="ó" d="M439 657q0 -9 -15 -14l-177 -70q-2 0 -5 -1t-5.5 -1.5t-3.5 -0.5q-7 0 -13 14l-16 32q-5 9 -5 14t13 13l163 97q10 6 14 6q8 0 14 -14l31 -61q5 -10 5 -14zM468 248q0 -122 -58.5 -193.5t-158.5 -71.5q-103 0 -160.5 70t-57.5 194q0 121 58 191q62 73 164 73 q98 0 155.5 -71t57.5 -192zM333 246q0 88 -19.5 126t-64.5 38q-43 0 -62 -38.5t-19 -124.5q0 -87 19 -125t63 -38t63.5 38t19.5 124z"/>
    <glyph glyph-name="ocircumflex" unicode="ô" d="M468 248q0 -122 -58.5 -193.5t-158.5 -71.5q-103 0 -160.5 70t-57.5 194q0 121 58 191q62 73 164 73q98 0 155.5 -71t57.5 -192zM333 246q0 88 -19.5 126t-64.5 38q-43 0 -62 -38.5t-19 -124.5q0 -87 19 -125t63 -38t63.5 38t19.5 124zM388 628q0 -2 -6 -13l-19 -32 q-8 -13 -15 -13q-3 0 -13 6l-85 50l-86 -50q-10 -6 -13 -6q-8 0 -15 13l-18 32q-6 9 -6 13q0 6 11 15l113 89q10 8 14 8q5 0 15 -8l112 -89q11 -9 11 -15z"/>
    <glyph glyph-name="otilde" unicode="õ" d="M405 675q0 -9 -21 -40q-36 -54 -85 -54q-29 0 -66 25q-16 11 -30 11q-20 0 -36 -29q-5 -8 -9 -8q-2 0 -9 3l-47 24q-7 4 -7 9q0 9 22 44q33 49 81 49q31 0 71 -23q21 -12 32 -12q10 0 17 6t18 25q2 5 7 5q3 0 8 -3l46 -23q8 -3 8 -9zM468 248q0 -122 -58.5 -193.5 t-158.5 -71.5q-103 0 -160.5 70t-57.5 194q0 121 58 191q62 73 164 73q98 0 155.5 -71t57.5 -192zM333 246q0 88 -19.5 126t-64.5 38q-43 0 -62 -38.5t-19 -124.5q0 -87 19 -125t63 -38t63.5 38t19.5 124z"/>
    <glyph glyph-name="odieresis" unicode="ö" d="M408 637q0 -29 -20 -49t-49 -20t-49 20t-20 49t20.5 49t49.5 20q28 0 48 -20.5t20 -48.5zM231 637q0 -29 -20.5 -49t-48.5 -20t-48.5 20t-20.5 49t20.5 49t49.5 20q28 0 48 -20.5t20 -48.5zM468 248q0 -122 -58.5 -193.5t-158.5 -71.5q-103 0 -160.5 70t-57.5 194 q0 121 58 191q62 73 164 73q98 0 155.5 -71t57.5 -192zM333 246q0 88 -19.5 126t-64.5 38q-43 0 -62 -38.5t-19 -124.5q0 -87 19 -125t63 -38t63.5 38t19.5 124z"/>
    <glyph glyph-name="divide" unicode="÷" d="M321 505q0 -29 -21 -50t-50 -21q-30 0 -51 21t-21 50q0 31 21 51.5t51 20.5q29 0 50 -21t21 -51zM478 302q0 -13 -3.5 -16.5t-16.5 -3.5h-415q-14 0 -17.5 3t-3.5 17v63q0 13 4 17t17 4h415q13 0 16.5 -4t3.5 -17v-63zM321 162q0 -29 -21 -50t-50 -21q-30 0 -51 21 t-21 50q0 31 20.5 51.5t51.5 20.5q29 0 50 -21t21 -51z"/>
    <glyph glyph-name="oslash" unicode="ø" d="M468 248q0 -122 -58 -193.5t-158 -71.5q-58 0 -103 22l-27 -48q-6 -11 -11 -11q-3 0 -12 4l-26 14q-11 6 -11 12q0 3 5 12l31 56q-65 75 -65 204q0 122 59 192.5t160 70.5q56 0 99 -22l25 44q7 12 11 12q3 0 12 -5l26 -14q11 -6 11 -11q0 -4 -4 -12l-30 -53 q66 -76 66 -202zM298 396q-21 17 -49 17q-50 0 -72.5 -38.5t-22.5 -124.5q0 -52 10 -111zM347 242q0 58 -12 110l-132 -254q24 -17 47 -17q51 0 74 38t23 123z"/>
    <glyph glyph-name="ugrave" unicode="ù" horiz-adv-x="537" d="M320 629q0 -5 -5 -13l-15 -32q-6 -14 -14 -14q-1 0 -13 3l-177 70q-16 7 -16 14q0 4 5 14l31 61q8 14 14 14q4 0 14 -6l163 -97q13 -8 13 -14zM485 15q0 -5 -10 -8l-84 -19q-8 -2 -11 -2q-17 0 -30 55q-34 -32 -64.5 -45t-73.5 -13q-76 0 -113 43q-21 23 -27.5 53 t-6.5 99v293q0 10 2 13t13 5l93 20q2 1 8 1q11 0 11 -16v-310q0 -56 9 -73q14 -27 52 -27q40 0 83 36v351q0 10 2 13t13 5l93 20l10 1q9 0 9 -16v-368q0 -64 19 -102q3 -4 3 -9z"/>
    <glyph glyph-name="uacute" unicode="ú" horiz-adv-x="537" d="M464 657q0 -9 -15 -14l-177 -70q-2 0 -5 -1t-5.5 -1.5t-3.5 -0.5q-7 0 -13 14l-16 32q-5 9 -5 14t13 13l163 97q10 6 14 6q8 0 14 -14l31 -61q5 -10 5 -14zM485 15q0 -5 -10 -8l-84 -19q-8 -2 -11 -2q-17 0 -30 55q-34 -32 -64.5 -45t-73.5 -13q-76 0 -113 43 q-21 23 -27.5 53t-6.5 99v293q0 10 2 13t13 5l93 20q2 1 8 1q11 0 11 -16v-310q0 -56 9 -73q14 -27 52 -27q40 0 83 36v351q0 10 2 13t13 5l93 20l10 1q9 0 9 -16v-368q0 -64 19 -102q3 -4 3 -9z"/>
    <glyph glyph-name="ucircumflex" unicode="û" horiz-adv-x="537" d="M406 628q0 -2 -6 -13l-19 -32q-8 -13 -15 -13q-3 0 -13 6l-85 50l-86 -50q-11 -6 -13 -6q-8 0 -15 13l-18 32q-6 9 -6 13q0 6 11 15l113 89q10 8 14 8q5 0 15 -8l112 -89q11 -9 11 -15zM485 15q0 -5 -10 -8l-84 -19q-8 -2 -11 -2q-17 0 -30 55q-34 -32 -64.5 -45 t-73.5 -13q-76 0 -113 43q-21 23 -27.5 53t-6.5 99v293q0 10 2 13t13 5l93 20q2 1 8 1q11 0 11 -16v-310q0 -56 9 -73q14 -27 52 -27q40 0 83 36v351q0 10 2 13t13 5l93 20l10 1q9 0 9 -16v-368q0 -64 19 -102q3 -4 3 -9z"/>
    <glyph glyph-name="udieresis" unicode="ü" horiz-adv-x="537" d="M432 637q0 -29 -20 -49t-49 -20t-49 20t-20 49t20.5 49t49.5 20q28 0 48 -20.5t20 -48.5zM255 637q0 -29 -20.5 -49t-48.5 -20t-48.5 20t-20.5 49t20.5 49t49.5 20q28 0 48 -20.5t20 -48.5zM485 15q0 -5 -10 -8l-84 -19q-8 -2 -11 -2q-17 0 -30 55q-34 -32 -64.5 -45 t-73.5 -13q-76 0 -113 43q-21 23 -27.5 53t-6.5 99v293q0 10 2 13t13 5l93 20q2 1 8 1q11 0 11 -16v-310q0 -56 9 -73q14 -27 52 -27q40 0 83 36v351q0 10 2 13t13 5l93 20l10 1q9 0 9 -16v-368q0 -64 19 -102q3 -4 3 -9z"/>
    <glyph glyph-name="yacute" unicode="ý" horiz-adv-x="444" d="M411 657q0 -9 -15 -14l-177 -70q-2 0 -5 -1t-5.5 -1.5t-3.5 -0.5q-7 0 -13 14l-16 32q-5 9 -5 14t13 13l163 97q10 6 14 6q8 0 14 -14l31 -61q5 -10 5 -14zM450 480q0 -3 -2 -10l-100 -366q-4 -12 -10 -36.5t-7 -29.5q-25 -104 -39.5 -143t-36.5 -65q-43 -52 -121 -52 q-42 0 -89.5 16t-47.5 31q0 3 4 11l31 64q4 7 9 7q3 0 8 -3q45 -22 77 -22t48.5 16.5t29.5 59.5l12 42h-42q-10 0 -13 2t-6 11l-157 456q-3 10 -3 11q0 9 16 10l102 11h7q8 0 12 -14l66 -246q19 -71 39 -173l15 84q5 30 9 46l10 43l56 245q4 15 11 15q4 0 8 -1l88 -10 q16 -1 16 -10z"/>
    <glyph glyph-name="thorn" unicode="þ" horiz-adv-x="519" d="M486 255q0 -272 -183 -272q-54 0 -102 26v-181q0 -10 -2.5 -13t-12.5 -5l-90 -19q-8 -2 -12 -2q-10 0 -10 16v876q0 12 4 17t16 7l85 17q10 2 13 2q9 0 9 -17v-237q48 41 112 41q85 0 129 -65.5t44 -190.5zM359 251q0 82 -19.5 120.5t-60.5 38.5q-38 0 -78 -36v-276 q35 -19 70 -19q49 0 68.5 38t19.5 134z"/>
    <glyph glyph-name="ydieresis" unicode="ÿ" horiz-adv-x="444" d="M393 637q0 -29 -20.5 -49t-48.5 -20t-48.5 20t-20.5 49t20.5 49t49.5 20q28 0 48 -20.5t20 -48.5zM216 637q0 -29 -20 -49t-49 -20t-49 20t-20 49t20.5 49t49.5 20q28 0 48 -20.5t20 -48.5zM450 480q0 -3 -2 -10l-100 -366q-4 -12 -10 -36.5t-7 -29.5 q-25 -104 -39.5 -143t-36.5 -65q-43 -52 -121 -52q-42 0 -89.5 16t-47.5 31q0 3 4 11l31 64q4 7 9 7q3 0 8 -3q45 -22 77 -22t48.5 16.5t29.5 59.5l12 42h-42q-10 0 -13 2t-6 11l-157 456q-3 10 -3 11q0 9 16 10l102 11h7q8 0 12 -14l66 -246q19 -71 39 -173l15 84 q5 30 9 46l10 43l56 245q4 15 11 15q4 0 8 -1l88 -10q16 -1 16 -10z"/>
    <glyph glyph-name="Amacron" unicode="Ā" horiz-adv-x="556" d="M176 853h204q14 0 17 -3.5t3 -17.5v-45q0 -13 -3 -16.5t-17 -3.5h-204q-13 0 -17 3.5t-4 16.5v45q0 14 3.5 17.5t17.5 3.5zM552 11q0 -11 -20 -11h-109q-13 0 -16.5 2.5t-6.5 14.5l-43 164h-169l-43 -164q-3 -12 -6 -14.5t-16 -2.5h-99q-20 0 -20 11q0 1 3 13l197 645 q4 12 7 14.5t15 2.5h104q12 0 15 -2.5t7 -14.5l197 -645q3 -11 3 -13zM331 275l-37 171q-9 39 -25 135q-12 -76 -26 -135l-40 -171h128z"/>
    <glyph glyph-name="amacron" unicode="ā" horiz-adv-x="482" d="M139 681h204q14 0 17 -3.5t3 -17.5v-45q0 -13 -3.5 -16.5t-16.5 -3.5h-204q-13 0 -17 3.5t-4 16.5v45q0 14 3.5 17.5t17.5 3.5zM439 28q0 -7 -8 -10l-78 -31q-5 -3 -12 -3q-14 0 -30 59q-56 -57 -128 -57q-69 0 -109.5 41t-40.5 110q0 131 149 161q40 8 112 9v31 q0 43 -14 59t-52 16q-45 0 -112 -26q-6 -3 -11 -3q-7 0 -10 10l-21 60q-2 6 -2 11q0 16 55.5 31t115.5 15q121 0 156 -77q14 -29 14 -83v-204q0 -61 23 -108q3 -6 3 -11zM294 114v110q-75 0 -107.5 -18.5t-32.5 -61.5q0 -29 18.5 -49t45.5 -20q40 0 76 39z"/>
    <glyph glyph-name="Abreve" unicode="Ă" horiz-adv-x="556" d="M418 856q0 -33 -25 -70q-36 -51 -114 -51q-91 0 -126 64q-16 30 -16 55q0 14 11 15l67 8l5 1q4 0 5 -2t3 -15q9 -47 50 -47t49 47q2 17 6 17h2l5 -1l67 -8q11 -1 11 -13zM552 11q0 -11 -20 -11h-109q-13 0 -16.5 2.5t-6.5 14.5l-43 164h-169l-43 -164q-3 -12 -6 -14.5 t-16 -2.5h-99q-20 0 -20 11q0 1 3 13l197 645q4 12 7 14.5t15 2.5h104q12 0 15 -2.5t7 -14.5l197 -645q3 -11 3 -13zM331 275l-37 171q-9 39 -25 135q-12 -76 -26 -135l-40 -171h128z"/>
    <glyph glyph-name="abreve" unicode="ă" horiz-adv-x="482" d="M381 684q0 -33 -25 -70q-36 -51 -114 -51q-91 0 -126 64q-16 30 -16 55q0 14 11 15l67 8l5 1q4 0 5 -2t3 -15q9 -47 50 -47t49 47q2 17 6 17h2l5 -1l67 -8q11 -1 11 -13zM439 28q0 -7 -8 -10l-78 -31q-5 -3 -12 -3q-14 0 -30 59q-56 -57 -128 -57q-69 0 -109.5 41 t-40.5 110q0 131 149 161q40 8 112 9v31q0 43 -14 59t-52 16q-45 0 -112 -26q-6 -3 -11 -3q-7 0 -10 10l-21 60q-2 6 -2 11q0 16 55.5 31t115.5 15q121 0 156 -77q14 -29 14 -83v-204q0 -61 23 -108q3 -6 3 -11zM294 114v110q-75 0 -107.5 -18.5t-32.5 -61.5q0 -29 18.5 -49 t45.5 -20q40 0 76 39z"/>
    <glyph glyph-name="Aogonek" unicode="Ą" horiz-adv-x="556" d="M548 -152q0 -10 -30.5 -21t-58.5 -11q-44 0 -71.5 23t-27.5 61q0 56 50 101q-7 1 -10 16l-43 164h-169l-43 -164q-3 -12 -6 -14.5t-16 -2.5h-99q-20 0 -20 11q0 1 3 13l197 645q4 12 7 14.5t15 2.5h104q12 0 15 -2.5t7 -14.5l197 -645q3 -11 3 -13q0 -11 -20 -11h-60 q-28 -37 -28 -82q0 -24 28 -24q20 0 43 12q8 4 11 4q4 0 6 -6l14 -45q2 -6 2 -9v-2zM331 275l-37 171q-9 39 -25 135q-12 -76 -26 -135l-40 -171h128z"/>
    <glyph glyph-name="aogonek" unicode="ą" horiz-adv-x="482" d="M453 -152q0 -10 -30.5 -21t-58.5 -11q-44 0 -71.5 23t-27.5 61q0 55 61 100q-7 13 -15 43q-56 -57 -128 -57q-69 0 -109.5 41t-40.5 110q0 131 149 161q40 8 112 9v31q0 43 -14 59t-52 16q-45 0 -112 -26q-6 -3 -11 -3q-7 0 -10 10l-21 60q-2 6 -2 11q0 16 55.5 31 t115.5 15q121 0 156 -77q14 -29 14 -83v-204q0 -61 23 -108q3 -6 3 -11q0 -7 -8 -10l-51 -20q-31 -35 -31 -80q0 -24 28 -24q21 0 43 12q8 4 11 4q5 0 6 -6l14 -45q2 -6 2 -9v-2zM294 114v110q-75 0 -107.5 -18.5t-32.5 -61.5q0 -29 18.5 -49t45.5 -20q40 0 76 39z"/>
    <glyph glyph-name="Cacute" unicode="Ć" horiz-adv-x="480" d="M444 829q0 -9 -15 -14l-177 -70q-2 0 -5 -1t-5.5 -1.5t-3.5 -0.5q-7 0 -13 14l-16 32q-5 9 -5 14t13 13l163 97q10 6 14 6q8 0 14 -14l31 -61q5 -10 5 -14zM465 51q0 -12 -22 -27q-61 -41 -145 -41q-112 0 -171 68q-87 99 -87 302q0 179 79 271q67 79 172 79 q81 0 151 -51q21 -15 21 -24q0 -6 -2 -8l-41 -74q-4 -8 -10 -8q-7 0 -30 18q-40 31 -81 31q-115 0 -115 -214q0 -149 39 -223q27 -51 90 -51q25 0 43.5 7.5t46.5 28.5q8 4 10 4q5 0 9 -9l40 -70q3 -4 3 -9z"/>
    <glyph glyph-name="cacute" unicode="ć" horiz-adv-x="407" d="M394 657q0 -9 -15 -14l-177 -70q-2 0 -5 -1t-5.5 -1.5t-3.5 -0.5q-7 0 -13 14l-16 32q-5 9 -5 14t13 13l163 97q10 6 14 6q8 0 14 -14l31 -61q5 -10 5 -14zM406 454q0 -5 -3 -11l-35 -64q-4 -7 -9 -7t-10 4q-47 34 -85 34q-51 0 -75 -40.5t-24 -127.5q0 -82 24 -120 t76 -38q39 0 82 28q7 5 11 5t8 -7l24 -61q3 -8 3 -12q0 -19 -47 -36.5t-98 -17.5q-102 0 -158.5 66.5t-56.5 187.5q0 127 62 200.5t169 73.5q46 0 94 -19t48 -38z"/>
    <glyph glyph-name="Ccircumflex" unicode="Ĉ" horiz-adv-x="480" d="M423 800q0 -2 -6 -13l-19 -32q-8 -13 -15 -13q-3 0 -13 6l-85 50l-86 -50q-11 -6 -13 -6q-8 0 -15 13l-18 32q-6 9 -6 13q0 6 11 15l113 89q10 8 14 8q5 0 15 -8l112 -89q11 -9 11 -15zM465 51q0 -12 -22 -27q-61 -41 -145 -41q-112 0 -171 68q-87 99 -87 302 q0 179 79 271q67 79 172 79q81 0 151 -51q21 -15 21 -24q0 -6 -2 -8l-41 -74q-4 -8 -10 -8q-7 0 -30 18q-40 31 -81 31q-115 0 -115 -214q0 -149 39 -223q27 -51 90 -51q25 0 43.5 7.5t46.5 28.5q8 4 10 4q5 0 9 -9l40 -70q3 -4 3 -9z"/>
    <glyph glyph-name="ccircumflex" unicode="ĉ" horiz-adv-x="407" d="M393 628q0 -2 -6 -13l-19 -32q-8 -13 -15 -13q-3 0 -13 6l-85 50l-86 -50q-10 -6 -13 -6q-8 0 -15 13l-18 32q-6 9 -6 13q0 6 11 15l113 89q10 8 14 8q5 0 15 -8l112 -89q11 -9 11 -15zM406 454q0 -5 -3 -11l-35 -64q-4 -7 -9 -7t-10 4q-47 34 -85 34q-51 0 -75 -40.5 t-24 -127.5q0 -82 24 -120t76 -38q39 0 82 28q7 5 11 5t8 -7l24 -61q3 -8 3 -12q0 -19 -47 -36.5t-98 -17.5q-102 0 -158.5 66.5t-56.5 187.5q0 127 62 200.5t169 73.5q46 0 94 -19t48 -38z"/>
    <glyph glyph-name="Cdotaccent" unicode="Ċ" horiz-adv-x="480" d="M362 809q0 -31 -23 -54t-54 -23q-33 0 -55.5 23t-22.5 55t23 54.5t56 22.5q31 0 53.5 -23t22.5 -55zM465 51q0 -12 -22 -27q-61 -41 -145 -41q-112 0 -171 68q-87 99 -87 302q0 179 79 271q67 79 172 79q81 0 151 -51q21 -15 21 -24q0 -6 -2 -8l-41 -74q-4 -8 -10 -8 q-7 0 -30 18q-40 31 -81 31q-115 0 -115 -214q0 -149 39 -223q27 -51 90 -51q25 0 43.5 7.5t46.5 28.5q8 4 10 4q5 0 9 -9l40 -70q3 -4 3 -9z"/>
    <glyph glyph-name="cdotaccent" unicode="ċ" horiz-adv-x="407" d="M332 637q0 -31 -23 -54t-54 -23q-33 0 -55.5 23t-22.5 55t23 54.5t56 22.5q31 0 53.5 -23t22.5 -55zM406 454q0 -5 -3 -11l-35 -64q-4 -7 -9 -7t-10 4q-47 34 -85 34q-51 0 -75 -40.5t-24 -127.5q0 -82 24 -120t76 -38q39 0 82 28q7 5 11 5t8 -7l24 -61q3 -8 3 -12 q0 -19 -47 -36.5t-98 -17.5q-102 0 -158.5 66.5t-56.5 187.5q0 127 62 200.5t169 73.5q46 0 94 -19t48 -38z"/>
    <glyph glyph-name="Ccaron" unicode="Č" horiz-adv-x="480" d="M423 854q0 -6 -11 -15l-113 -89q-10 -8 -15 -8q-4 0 -14 8l-112 89q-11 9 -11 15q0 4 6 14l19 31q8 13 15 13q3 0 13 -6l85 -50l86 50q10 6 13 6q8 0 15 -13l18 -31q6 -12 6 -14zM465 51q0 -12 -22 -27q-61 -41 -145 -41q-112 0 -171 68q-87 99 -87 302q0 179 79 271 q67 79 172 79q81 0 151 -51q21 -15 21 -24q0 -6 -2 -8l-41 -74q-4 -8 -10 -8q-7 0 -30 18q-40 31 -81 31q-115 0 -115 -214q0 -149 39 -223q27 -51 90 -51q25 0 43.5 7.5t46.5 28.5q8 4 10 4q5 0 9 -9l40 -70q3 -4 3 -9z"/>
    <glyph glyph-name="ccaron" unicode="č" horiz-adv-x="407" d="M393 682q0 -6 -11 -15l-113 -89q-10 -8 -15 -8q-4 0 -14 8l-112 89q-11 9 -11 15q0 4 6 14l19 31q8 13 15 13q3 0 13 -6l85 -50l86 50q11 6 13 6q8 0 15 -13l18 -31q6 -12 6 -14zM406 454q0 -5 -3 -11l-35 -64q-4 -7 -9 -7t-10 4q-47 34 -85 34q-51 0 -75 -40.5 t-24 -127.5q0 -82 24 -120t76 -38q39 0 82 28q7 5 11 5t8 -7l24 -61q3 -8 3 -12q0 -19 -47 -36.5t-98 -17.5q-102 0 -158.5 66.5t-56.5 187.5q0 127 62 200.5t169 73.5q46 0 94 -19t48 -38z"/>
    <glyph glyph-name="Dcaron" unicode="Ď" horiz-adv-x="593" d="M424 854q0 -6 -11 -15l-113 -89q-10 -8 -15 -8q-4 0 -14 8l-112 89q-11 9 -11 15q0 4 6 14l19 31q8 13 15 13q2 0 13 -6l85 -50l86 50q10 6 13 6q8 0 15 -13l18 -31q6 -12 6 -14zM553 342q0 -252 -127 -317q-30 -15 -61.5 -20t-101.5 -5h-157q-14 0 -17.5 4t-3.5 17v644 q0 13 3.5 17t17.5 4h157q72 0 104 -6q95 -18 140.5 -100.5t45.5 -237.5zM409 336q0 97 -14.5 147.5t-48.5 73.5q-29 20 -89 20h-35v-468h35q75 0 104 26q48 42 48 201z"/>
    <glyph glyph-name="dcaron" unicode="ď" horiz-adv-x="519" d="M519 520l-20 7q-13 4 -13 15q0 8 1 11l25 139q3 17 22 17h70q20 0 20 -9q0 -3 -5 -16l-70 -152q-7 -15 -17 -15q-6 0 -13 3zM445 707v-584q0 -30 2.5 -42t12.5 -37q5 -10 5 -13q0 -6 -9 -9l-83 -33q-6 -3 -10 -3q-17 0 -27 51q-66 -54 -140 -54q-78 0 -120.5 66.5 t-42.5 188.5q0 142 59 213q51 60 127 60q49 0 99 -28v203q0 10 2.5 13t12.5 5l93 19l9 1q10 0 10 -17zM318 116v276q-36 18 -72 18q-47 0 -66.5 -37t-19.5 -128q0 -87 18.5 -125.5t59.5 -38.5q47 0 80 35z"/>
    <glyph glyph-name="Dcroat" unicode="Đ" horiz-adv-x="593" d="M553 343q0 -254 -127 -318q-30 -16 -61 -20.5t-103 -4.5h-158q-13 0 -16.5 4t-3.5 17v291h-49q-14 0 -17.5 3.5t-3.5 17.5v47q0 14 4 17.5t17 3.5h49v264q0 13 3.5 17t16.5 4h158q73 0 105 -6q186 -35 186 -337zM416 335q0 97 -15.5 148t-50.5 74q-31 20 -94 20h-35v-176 h100q14 0 17.5 -3.5t3.5 -17.5v-47q0 -14 -3.5 -17.5t-17.5 -3.5h-100v-203h35q79 0 109 26q51 41 51 200z"/>
    <glyph glyph-name="dcroat" unicode="đ" horiz-adv-x="519" d="M445 707v-71h60q9 0 11.5 -2.5t2.5 -11.5v-47q0 -8 -3 -11t-11 -3h-60v-438q0 -30 2.5 -42t12.5 -37q5 -10 5 -13q0 -6 -9 -9l-83 -33q-6 -3 -10 -3q-17 0 -27 51q-66 -54 -140 -54q-78 0 -120.5 66.5t-42.5 188.5q0 142 59 213q51 60 127 60q49 0 99 -28v78h-126 q-9 0 -11.5 2.5t-2.5 11.5v47q0 9 2.5 11.5t11.5 2.5h126v50q0 10 2.5 13t12.5 5l93 19l9 1q10 0 10 -17zM318 116v276q-36 18 -72 18q-47 0 -66.5 -37t-19.5 -128q0 -87 18.5 -125.5t59.5 -38.5q47 0 80 35z"/>
    <glyph glyph-name="Emacron" unicode="Ē" horiz-adv-x="482" d="M167 853h204q14 0 17 -3.5t3 -17.5v-45q0 -13 -3.5 -16.5t-16.5 -3.5h-204q-13 0 -17 3.5t-4 16.5v45q0 14 3.5 17.5t17.5 3.5zM460 675q0 -3 -2 -13l-20 -68q-5 -17 -22 -17h-194v-164h167q13 0 17 -3.5t4 -17.5v-67q0 -13 -4 -17t-17 -4h-167v-195h210q14 0 17.5 -3.5 t3.5 -17.5v-67q0 -14 -3.5 -17.5t-17.5 -3.5h-326q-14 0 -17.5 3.5t-3.5 17.5v644q0 14 3.5 17.5t17.5 3.5h334q20 0 20 -11z"/>
    <glyph glyph-name="emacron" unicode="ē" horiz-adv-x="481" d="M374 614q0 -14 -3 -17t-17 -3h-204q-13 0 -17 3.5t-4 16.5v45q0 14 3.5 17.5t17.5 3.5h204q14 0 17 -3.5t3 -17.5v-45zM450 238q0 -15 -4.5 -20t-17.5 -5h-269q2 -65 29 -95.5t82 -30.5t114 31q7 4 13 4q7 0 11 -9l25 -60q3 -6 3 -11q0 -8 -8 -14t-33 -17 q-65 -28 -138 -28q-95 0 -149 49q-75 69 -75 211q0 121 60 194.5t159 73.5q198 0 198 -273zM317 306q-1 62 -18 88t-55 26t-57 -26t-26 -88h156z"/>
    <glyph glyph-name="Ebreve" unicode="Ĕ" horiz-adv-x="482" d="M409 856q0 -33 -25 -70q-36 -51 -114 -51q-91 0 -126 64q-16 30 -16 55q0 14 11 15l67 8l5 1q4 0 5 -2t3 -15q9 -47 50 -47t49 47q2 17 6 17h2l5 -1l67 -8q11 -1 11 -13zM460 675q0 -3 -2 -13l-20 -68q-5 -17 -22 -17h-194v-164h167q13 0 17 -3.5t4 -17.5v-67 q0 -13 -4 -17t-17 -4h-167v-195h210q14 0 17.5 -3.5t3.5 -17.5v-67q0 -14 -3.5 -17.5t-17.5 -3.5h-326q-14 0 -17.5 3.5t-3.5 17.5v644q0 14 3.5 17.5t17.5 3.5h334q20 0 20 -11z"/>
    <glyph glyph-name="ebreve" unicode="ĕ" horiz-adv-x="481" d="M392 683q0 -33 -25 -70q-36 -51 -114 -51q-91 0 -126 64q-16 30 -16 55q0 14 11 15l67 8l5 1q4 0 5 -2t3 -15q9 -47 50 -47t49 47q2 17 6 17h2l5 -1l67 -8q11 -1 11 -13zM450 238q0 -15 -4.5 -20t-17.5 -5h-269q2 -65 29 -95.5t82 -30.5t114 31q7 4 13 4q7 0 11 -9 l25 -60q3 -6 3 -11q0 -8 -8 -14t-33 -17q-65 -28 -138 -28q-95 0 -149 49q-75 69 -75 211q0 121 60 194.5t159 73.5q198 0 198 -273zM317 306q-1 62 -18 88t-55 26t-57 -26t-26 -88h156z"/>
    <glyph glyph-name="Edotaccent" unicode="Ė" horiz-adv-x="482" d="M346 809q0 -31 -23 -54t-54 -23q-33 0 -55.5 23t-22.5 55t23 54.5t56 22.5q31 0 53.5 -23t22.5 -55zM460 675q0 -3 -2 -13l-20 -68q-5 -17 -22 -17h-194v-164h167q13 0 17 -3.5t4 -17.5v-67q0 -13 -4 -17t-17 -4h-167v-195h210q14 0 17.5 -3.5t3.5 -17.5v-67 q0 -14 -3.5 -17.5t-17.5 -3.5h-326q-14 0 -17.5 3.5t-3.5 17.5v644q0 14 3.5 17.5t17.5 3.5h334q20 0 20 -11z"/>
    <glyph glyph-name="edotaccent" unicode="ė" horiz-adv-x="481" d="M329 636q0 -32 -22.5 -54.5t-54.5 -22.5q-33 0 -55.5 23t-22.5 55t23 54.5t56 22.5q31 0 53.5 -23t22.5 -55zM450 238q0 -15 -4.5 -20t-17.5 -5h-269q2 -65 29 -95.5t82 -30.5t114 31q7 4 13 4q7 0 11 -9l25 -60q3 -6 3 -11q0 -8 -8 -14t-33 -17q-65 -28 -138 -28 q-95 0 -149 49q-75 69 -75 211q0 121 60 194.5t159 73.5q198 0 198 -273zM317 306q-1 62 -18 88t-55 26t-57 -26t-26 -88h156z"/>
    <glyph glyph-name="Eogonek" unicode="Ę" horiz-adv-x="482" d="M453 88v-67q0 -14 -3.5 -17.5t-17.5 -3.5h-90q-33 -36 -33 -82q0 -24 28 -24q21 0 43 12q8 4 11 4q5 0 6 -6l14 -45q2 -6 2 -9v-2q0 -10 -30.5 -21t-58.5 -11q-44 0 -71.5 23t-27.5 61q0 55 61 100h-180q-14 0 -17.5 3.5t-3.5 17.5v644q0 14 3.5 17.5t17.5 3.5h334 q20 0 20 -11q0 -3 -2 -13l-20 -68q-5 -17 -22 -17h-194v-164h167q13 0 17 -3.5t4 -17.5v-67q0 -13 -4 -17t-17 -4h-167v-195h210q14 0 17.5 -3.5t3.5 -17.5z"/>
    <glyph glyph-name="eogonek" unicode="ę" horiz-adv-x="481" d="M413 -152q0 -10 -30.5 -21t-58.5 -11q-44 0 -71.5 23t-27.5 61q0 46 40 83h-8q-95 0 -149 49q-75 69 -75 211q0 121 60 194.5t159 73.5q198 0 198 -273q0 -15 -4.5 -20t-17.5 -5h-269q2 -65 29 -95.5t82 -30.5t114 31q7 4 13 4q7 0 11 -9l25 -60q3 -6 3 -11q0 -8 -8 -14 t-33 -17q-28 -13 -60 -19q-26 -31 -26 -74q0 -24 28 -24q21 0 43 12q8 4 11 4q5 0 6 -6l14 -45q2 -6 2 -9v-2zM317 306q-1 62 -18 88t-55 26t-57 -26t-26 -88h156z"/>
    <glyph glyph-name="Ecaron" unicode="Ě" horiz-adv-x="482" d="M407 854q0 -6 -11 -15l-113 -89q-10 -8 -15 -8q-4 0 -14 8l-112 89q-11 9 -11 15q0 4 6 14l19 31q8 13 15 13q3 0 13 -6l85 -50l86 50q11 6 13 6q8 0 15 -13l18 -31q6 -12 6 -14zM460 675q0 -3 -2 -13l-20 -68q-5 -17 -22 -17h-194v-164h167q13 0 17 -3.5t4 -17.5v-67 q0 -13 -4 -17t-17 -4h-167v-195h210q14 0 17.5 -3.5t3.5 -17.5v-67q0 -14 -3.5 -17.5t-17.5 -3.5h-326q-14 0 -17.5 3.5t-3.5 17.5v644q0 14 3.5 17.5t17.5 3.5h334q20 0 20 -11z"/>
    <glyph glyph-name="ecaron" unicode="ě" horiz-adv-x="481" d="M390 681q0 -6 -11 -15l-113 -89q-10 -8 -15 -8q-4 0 -14 8l-112 89q-11 9 -11 15q0 3 6 14l19 31q8 13 15 13q2 0 13 -6l85 -50l86 50q11 6 13 6q8 0 15 -13l18 -31q6 -12 6 -14zM450 238q0 -15 -4.5 -20t-17.5 -5h-269q2 -65 29 -95.5t82 -30.5t114 31q7 4 13 4 q7 0 11 -9l25 -60q3 -6 3 -11q0 -8 -8 -14t-33 -17q-65 -28 -138 -28q-95 0 -149 49q-75 69 -75 211q0 121 60 194.5t159 73.5q198 0 198 -273zM317 306q-1 62 -18 88t-55 26t-57 -26t-26 -88h156z"/>
    <glyph glyph-name="Gcircumflex" unicode="Ĝ" horiz-adv-x="556" d="M439 800q0 -2 -6 -13l-19 -32q-8 -13 -15 -13q-3 0 -13 6l-85 50l-86 -50q-10 -6 -13 -6q-8 0 -15 13l-18 32q-6 9 -6 13q0 6 11 15l113 89q10 8 14 8q5 0 15 -8l112 -89q11 -9 11 -15zM385 251h-75q-14 0 -17.5 3.5t-3.5 17.5v67q0 14 3.5 17.5t17.5 3.5h177 q14 0 17.5 -3.5t3.5 -17.5v-280q0 -11 -2.5 -15.5t-13.5 -11.5q-76 -49 -187 -49q-265 0 -265 359q0 178 68.5 269.5t200.5 91.5q95 0 166 -44q19 -12 19 -20q0 -4 -2 -8l-37 -75q-3 -5 -7 -5t-9 3q-46 25 -70.5 33t-53.5 8q-64 0 -93 -44q-42 -61 -42 -203q0 -139 32 -197 q14 -25 42.5 -40.5t61.5 -15.5q36 0 69 16v140z"/>
    <glyph glyph-name="gcircumflex" unicode="ĝ" d="M388 628q0 -2 -6 -13l-19 -32q-8 -13 -15 -13q-3 0 -13 6l-85 50l-86 -50q-10 -6 -13 -6q-8 0 -15 13l-18 32q-6 9 -6 13q0 6 11 15l113 89q10 8 14 8q5 0 15 -8l112 -89q11 -9 11 -15zM464 474q0 -3 -6 -18q-22 -51 -22 -113v-148q0 -82 3 -163q2 -54 2 -63 q0 -86 -48.5 -132t-139.5 -46q-64 0 -133.5 19t-69.5 36q0 4 2 10l21 69q3 10 11 10q4 0 9 -3q81 -37 148 -37q42 0 59.5 19t17.5 64q0 22 -5 65q-53 -37 -116 -37q-76 0 -120 65.5t-44 177.5q0 121 49.5 191.5t133.5 70.5q61 0 115 -46q20 49 35 49q6 0 10 -2l79 -28 q9 -4 9 -10zM313 141v236q-39 29 -71 29q-40 0 -61 -39t-21 -113q0 -147 74 -147q46 0 79 34z"/>
    <glyph glyph-name="Gbreve" unicode="Ğ" horiz-adv-x="556" d="M441 856q0 -33 -25 -70q-36 -51 -114 -51q-91 0 -126 64q-16 30 -16 55q0 14 11 15l67 8l5 1q4 0 5 -2t3 -15q9 -47 50 -47t49 47q2 17 6 17h2l5 -1l67 -8q11 -1 11 -13zM385 251h-75q-14 0 -17.5 3.5t-3.5 17.5v67q0 14 3.5 17.5t17.5 3.5h177q14 0 17.5 -3.5t3.5 -17.5 v-280q0 -11 -2.5 -15.5t-13.5 -11.5q-76 -49 -187 -49q-265 0 -265 359q0 178 68.5 269.5t200.5 91.5q95 0 166 -44q19 -12 19 -20q0 -4 -2 -8l-37 -75q-3 -5 -7 -5t-9 3q-46 25 -70.5 33t-53.5 8q-64 0 -93 -44q-42 -61 -42 -203q0 -139 32 -197q14 -25 42.5 -40.5 t61.5 -15.5q36 0 69 16v140z"/>
    <glyph glyph-name="gbreve" unicode="ğ" d="M390 684q0 -33 -25 -70q-36 -51 -114 -51q-91 0 -126 64q-16 30 -16 55q0 14 11 15l67 8l5 1q4 0 5 -2t3 -15q9 -47 50 -47t49 47q2 17 6 17h2l5 -1l67 -8q11 -1 11 -13zM464 474q0 -3 -6 -18q-22 -51 -22 -113v-148q0 -82 3 -163q2 -54 2 -63q0 -86 -48.5 -132 t-139.5 -46q-64 0 -133.5 19t-69.5 36q0 4 2 10l21 69q3 10 11 10q4 0 9 -3q81 -37 148 -37q42 0 59.5 19t17.5 64q0 22 -5 65q-53 -37 -116 -37q-76 0 -120 65.5t-44 177.5q0 121 49.5 191.5t133.5 70.5q61 0 115 -46q20 49 35 49q6 0 10 -2l79 -28q9 -4 9 -10zM313 141 v236q-39 29 -71 29q-40 0 -61 -39t-21 -113q0 -147 74 -147q46 0 79 34z"/>
    <glyph glyph-name="Gdotaccent" unicode="Ġ" horiz-adv-x="556" d="M385 251h-75q-14 0 -17.5 3.5t-3.5 17.5v67q0 14 3.5 17.5t17.5 3.5h177q14 0 17.5 -3.5t3.5 -17.5v-280q0 -11 -2.5 -15.5t-13.5 -11.5q-76 -49 -187 -49q-265 0 -265 359q0 178 68.5 269.5t200.5 91.5q95 0 166 -44q19 -12 19 -20q0 -4 -2 -8l-37 -75q-3 -5 -7 -5t-9 3 q-46 25 -70.5 33t-53.5 8q-64 0 -93 -44q-42 -61 -42 -203q0 -139 32 -197q14 -25 42.5 -40.5t61.5 -15.5q36 0 69 16v140zM378 809q0 -31 -23 -54t-54 -23q-33 0 -55.5 23t-22.5 55t23 54.5t56 22.5q31 0 53.5 -23t22.5 -55z"/>
    <glyph glyph-name="gdotaccent" unicode="ġ" d="M327 637q0 -31 -22.5 -54t-54.5 -23q-33 0 -55.5 23t-22.5 55t23 54.5t56 22.5q31 0 53.5 -23t22.5 -55zM464 474q0 -3 -6 -18q-22 -51 -22 -113v-148q0 -82 3 -163q2 -54 2 -63q0 -86 -48.5 -132t-139.5 -46q-64 0 -133.5 19t-69.5 36q0 4 2 10l21 69q3 10 11 10 q4 0 9 -3q81 -37 148 -37q42 0 59.5 19t17.5 64q0 22 -5 65q-53 -37 -116 -37q-76 0 -120 65.5t-44 177.5q0 121 49.5 191.5t133.5 70.5q61 0 115 -46q20 49 35 49q6 0 10 -2l79 -28q9 -4 9 -10zM313 141v236q-39 29 -71 29q-40 0 -61 -39t-21 -113q0 -147 74 -147 q46 0 79 34z"/>
    <glyph glyph-name="Gcommaaccent" unicode="Ģ" horiz-adv-x="556" d="M385 251h-75q-14 0 -17.5 3.5t-3.5 17.5v67q0 14 3.5 17.5t17.5 3.5h177q14 0 17.5 -3.5t3.5 -17.5v-280q0 -11 -2.5 -15.5t-13.5 -11.5q-76 -49 -187 -49q-265 0 -265 359q0 178 68.5 269.5t200.5 91.5q95 0 166 -44q19 -12 19 -20q0 -4 -2 -8l-37 -75q-3 -5 -7 -5t-9 3 q-46 25 -70.5 33t-53.5 8q-64 0 -93 -44q-42 -61 -42 -203q0 -139 32 -197q14 -25 42.5 -40.5t61.5 -15.5q36 0 69 16v140zM369 -75l-80 -152q-8 -14 -18 -14q-2 0 -12 2l-35 9q-15 4 -15 13q0 4 3 13l35 137q5 17 22 17h85q21 0 21 -10q0 -6 -6 -15z"/>
    <glyph glyph-name="gcommaaccent" unicode="ģ" d="M177 583l80 152q8 14 18 14q2 0 12 -2l35 -9q14 -4 14 -13q0 -1 -2 -13l-35 -137q-5 -17 -22 -17h-85q-21 0 -21 10q0 6 6 15zM464 474q0 -3 -6 -18q-22 -51 -22 -113v-148q0 -82 3 -163q2 -54 2 -63q0 -86 -48.5 -132t-139.5 -46q-64 0 -133.5 19t-69.5 36q0 4 2 10 l21 69q3 10 11 10q4 0 9 -3q81 -37 148 -37q42 0 59.5 19t17.5 64q0 22 -5 65q-53 -37 -116 -37q-76 0 -120 65.5t-44 177.5q0 121 49.5 191.5t133.5 70.5q61 0 115 -46q20 49 35 49q6 0 10 -2l79 -28q9 -4 9 -10zM313 141v236q-39 29 -71 29q-40 0 -61 -39t-21 -113 q0 -147 74 -147q46 0 79 34z"/>
    <glyph glyph-name="Hcircumflex" unicode="Ĥ" horiz-adv-x="630" d="M453 800q0 -2 -6 -13l-19 -32q-8 -13 -15 -13q-3 0 -13 6l-85 50l-86 -50q-10 -6 -13 -6q-8 0 -15 13l-18 32q-6 9 -6 13q0 6 11 15l113 89q10 8 14 8q5 0 15 -8l112 -89q11 -9 11 -15zM222 406h187v259q0 13 3.5 17t16.5 4h96q14 0 17.5 -3.5t3.5 -17.5v-644 q0 -14 -3.5 -17.5t-17.5 -3.5h-96q-14 0 -17 3.5t-3 17.5v283h-187v-283q0 -13 -4 -17t-17 -4h-95q-14 0 -17.5 3.5t-3.5 17.5v644q0 14 3.5 17.5t17.5 3.5h95q13 0 17 -4t4 -17v-259z"/>
    <glyph glyph-name="hcircumflex" unicode="ĥ" horiz-adv-x="537" d="M277 837q0 -3 -6 -13l-19 -32q-8 -13 -15 -13q-3 0 -13 6l-85 50l-86 -50q-11 -6 -13 -6q-8 0 -15 13l-18 32q-6 9 -6 13q0 6 11 15l113 89q10 8 14 8q5 0 15 -8l112 -89q11 -9 11 -15zM204 368v-351q0 -11 -3 -14t-14 -3h-93q-11 0 -14 3t-3 14v669q0 10 2 13t13 5 l93 19q3 1 9 1q10 0 10 -17v-254q61 58 138 58t110 -54q20 -33 20 -103v-337q0 -11 -3 -14t-14 -3h-93q-11 0 -14 3t-3 14v308q0 46 -12.5 65t-42.5 19q-41 0 -86 -41z"/>
    <glyph glyph-name="Hbar" unicode="Ħ" horiz-adv-x="630" d="M546 21q0 -14 -3.5 -17.5t-17.5 -3.5h-96q-14 0 -17 3.5t-3 17.5v283h-187v-283q0 -13 -4 -17t-17 -4h-95q-14 0 -17.5 3.5t-3.5 17.5v476h-54q-14 0 -17.5 3.5t-3.5 17.5v47q0 13 4 17t17 4h54v79q0 14 3.5 17.5t17.5 3.5h95q13 0 17 -4t4 -17v-79h187v79q0 13 3.5 17 t16.5 4h96q14 0 17.5 -3.5t3.5 -17.5v-79h53q14 0 17.5 -3.5t3.5 -17.5v-47q0 -14 -3.5 -17.5t-17.5 -3.5h-53v-476zM222 406h187v91h-187v-91z"/>
    <glyph glyph-name="hbar" unicode="ħ" horiz-adv-x="537" d="M77 17v544h-63q-9 0 -11.5 2.5t-2.5 11.5v47q0 9 2.5 11.5t11.5 2.5h63v50q0 10 2 13t13 5l93 19q3 1 9 1q10 0 10 -17v-71h123q9 0 11.5 -2.5t2.5 -11.5v-47q0 -8 -3 -11t-11 -3h-123v-108q61 58 138 58t110 -54q20 -33 20 -103v-337q0 -11 -3 -14t-14 -3h-93 q-11 0 -14 3t-3 14v308q0 46 -12.5 65t-42.5 19q-41 0 -86 -41v-351q0 -11 -3 -14t-14 -3h-93q-11 0 -14 3t-3 14z"/>
    <glyph glyph-name="Itilde" unicode="Ĩ" horiz-adv-x="352" d="M331 847q0 -9 -21 -40q-36 -54 -85 -54q-29 0 -66 25q-16 11 -30 11q-20 0 -36 -29q-5 -8 -9 -8q-2 0 -9 3l-47 24q-7 4 -7 9q0 9 22 44q33 49 81 49q31 0 71 -23q21 -12 32 -12q10 0 17 6t18 25q2 5 7 5q3 0 8 -3l46 -23q8 -3 8 -9zM108 99v488h-54q-14 0 -17.5 3.5 t-3.5 17.5v57q0 14 3.5 17.5t17.5 3.5h245q13 0 17 -4t4 -17v-57q0 -14 -4 -17.5t-17 -3.5h-54v-488h54q13 0 17 -3.5t4 -17.5v-57q0 -13 -4 -17t-17 -4h-245q-14 0 -17.5 3.5t-3.5 17.5v57q0 14 3.5 17.5t17.5 3.5h54z"/>
    <glyph glyph-name="itilde" unicode="ĩ" horiz-adv-x="296" d="M94 401h-76q-11 0 -14 3t-3 14v59q0 11 3 14t14 3h186q11 0 14 -3t3 -14v-460q0 -11 -3 -14t-14 -3h-93q-11 0 -14 3t-3 14v384zM274 675q0 -9 -21 -40q-36 -54 -85 -54q-28 0 -66 25q-16 11 -30 11q-20 0 -36 -29q-5 -8 -9 -8q-1 0 -9 3l-47 24q-7 4 -7 9q0 9 22 44 q33 49 81 49q31 0 71 -23q21 -12 32 -12q10 0 17 6t18 25q3 5 7 5q3 0 8 -3l46 -23q8 -3 8 -9z"/>
    <glyph glyph-name="Imacron" unicode="Ī" horiz-adv-x="352" d="M74 853h204q14 0 17 -3.5t3 -17.5v-45q0 -13 -3 -16.5t-17 -3.5h-204q-13 0 -17 3.5t-4 16.5v45q0 14 3.5 17.5t17.5 3.5zM108 99v488h-54q-14 0 -17.5 3.5t-3.5 17.5v57q0 14 3.5 17.5t17.5 3.5h245q13 0 17 -4t4 -17v-57q0 -14 -4 -17.5t-17 -3.5h-54v-488h54 q13 0 17 -3.5t4 -17.5v-57q0 -13 -4 -17t-17 -4h-245q-14 0 -17.5 3.5t-3.5 17.5v57q0 14 3.5 17.5t17.5 3.5h54z"/>
    <glyph glyph-name="imacron" unicode="ī" horiz-adv-x="296" d="M241 615q0 -13 -3.5 -16.5t-16.5 -3.5h-204q-13 0 -17 3.5t-4 16.5v45q0 14 3.5 17.5t17.5 3.5h204q14 0 17 -3.5t3 -17.5v-45zM94 401h-76q-11 0 -14 3t-3 14v59q0 11 3 14t14 3h186q11 0 14 -3t3 -14v-460q0 -11 -3 -14t-14 -3h-93q-11 0 -14 3t-3 14v384z"/>
    <glyph glyph-name="Ibreve" unicode="Ĭ" horiz-adv-x="352" d="M316 856q0 -33 -25 -70q-36 -51 -114 -51q-91 0 -126 64q-16 30 -16 55q0 14 11 15l67 8l5 1q4 0 5 -2t3 -15q9 -47 50 -47t49 47q2 17 6 17h2l5 -1l67 -8q11 -1 11 -13zM108 99v488h-54q-14 0 -17.5 3.5t-3.5 17.5v57q0 14 3.5 17.5t17.5 3.5h245q13 0 17 -4t4 -17v-57 q0 -14 -4 -17.5t-17 -3.5h-54v-488h54q13 0 17 -3.5t4 -17.5v-57q0 -13 -4 -17t-17 -4h-245q-14 0 -17.5 3.5t-3.5 17.5v57q0 14 3.5 17.5t17.5 3.5h54z"/>
    <glyph glyph-name="ibreve" unicode="ĭ" horiz-adv-x="296" d="M259 684q0 -33 -25 -70q-36 -51 -114 -51q-91 0 -126 64q-16 30 -16 55q0 14 11 15l67 8l5 1q4 0 5 -2t3 -15q9 -47 50 -47t49 47q2 17 6 17h2l5 -1l67 -8q11 -1 11 -13zM94 401h-76q-11 0 -14 3t-3 14v59q0 11 3 14t14 3h186q11 0 14 -3t3 -14v-460q0 -11 -3 -14t-14 -3 h-93q-11 0 -14 3t-3 14v384z"/>
    <glyph glyph-name="Iogonek" unicode="Į" horiz-adv-x="352" d="M320 78v-57q0 -13 -4 -17t-17 -4h-57q-33 -36 -33 -82q0 -24 28 -24q21 0 43 12q8 4 11 4q5 0 6 -6l14 -45q2 -6 2 -9v-2q0 -10 -30.5 -21t-58.5 -11q-44 0 -71.5 23t-27.5 61q0 55 61 100h-132q-14 0 -17.5 3.5t-3.5 17.5v57q0 14 3.5 17.5t17.5 3.5h54v488h-54 q-14 0 -17.5 3.5t-3.5 17.5v57q0 14 3.5 17.5t17.5 3.5h245q13 0 17 -4t4 -17v-57q0 -14 -4 -17.5t-17 -3.5h-54v-488h54q13 0 17 -3.5t4 -17.5z"/>
    <glyph glyph-name="iogonek" unicode="į" horiz-adv-x="296" d="M243 -152q0 -10 -30.5 -21t-58.5 -11q-44 0 -71.5 23t-27.5 61q0 55 61 100h-5q-11 0 -14 3t-3 14v384h-76q-11 0 -14 3t-3 14v59q0 11 3 14t14 3h186q11 0 14 -3t3 -14v-460q0 -11 -3 -14t-14 -3h-32q-33 -36 -33 -82q0 -24 28 -24q21 0 43 12q8 4 11 4q5 0 6 -6l14 -45 q2 -6 2 -9v-2zM235 641q0 -34 -23.5 -57.5t-57.5 -23.5t-57.5 24t-23.5 58q0 33 24 56.5t58 23.5q33 0 56.5 -24t23.5 -57z"/>
    <glyph glyph-name="Idotaccent" unicode="İ" horiz-adv-x="352" d="M253 809q0 -31 -22.5 -54t-54.5 -23q-33 0 -55.5 23t-22.5 55t23 54.5t56 22.5q31 0 53.5 -23t22.5 -55zM108 99v488h-54q-14 0 -17.5 3.5t-3.5 17.5v57q0 14 3.5 17.5t17.5 3.5h245q13 0 17 -4t4 -17v-57q0 -14 -4 -17.5t-17 -3.5h-54v-488h54q13 0 17 -3.5t4 -17.5v-57 q0 -13 -4 -17t-17 -4h-245q-14 0 -17.5 3.5t-3.5 17.5v57q0 14 3.5 17.5t17.5 3.5h54z"/>
    <glyph glyph-name="dotlessi" unicode="ı" horiz-adv-x="296" d="M94 401h-76q-11 0 -14 3t-3 14v59q0 11 3 14t14 3h186q11 0 14 -3t3 -14v-460q0 -11 -3 -14t-14 -3h-93q-11 0 -14 3t-3 14v384z"/>
    <glyph glyph-name="Jcircumflex" unicode="Ĵ" horiz-adv-x="426" d="M356 800q0 -2 -6 -13l-19 -32q-8 -13 -15 -13q-3 0 -13 6l-85 50l-86 -50q-10 -6 -13 -6q-8 0 -15 13l-18 32q-6 9 -6 13q0 6 11 15l113 89q10 8 14 8q5 0 15 -8l112 -89q11 -9 11 -15zM223 587h-138q-13 0 -17 3.5t-4 17.5v57q0 13 4 17t17 4h255q13 0 16.5 -4t3.5 -17 v-454q0 -102 -28 -150q-47 -78 -164 -78q-61 0 -98 22t-60 71q-21 46 -21 102q0 24 14 24h96q11 0 11 -14v-13q0 -81 60 -81q33 0 44 25q9 19 9 73v395z"/>
    <glyph glyph-name="jcircumflex" unicode="ĵ" horiz-adv-x="296" d="M221 10q0 -129 -25 -176q-39 -70 -146 -70q-42 0 -76.5 8.5t-34.5 19.5q0 2 2 10l22 75q2 7 9 7l8 -2q29 -13 56 -13q43 0 54 49q4 21 4 92v391h-76q-11 0 -14 3t-3 14v59q0 11 3 14t14 3h186q11 0 14 -3t3 -14v-467zM263 628q0 -2 -6 -13l-19 -32q-8 -13 -15 -13 q-3 0 -13 6l-85 50l-86 -50q-11 -6 -13 -6q-8 0 -15 13l-18 32q-6 9 -6 13q0 6 11 15l113 89q10 8 14 8q5 0 15 -8l112 -89q11 -9 11 -15z"/>
    <glyph glyph-name="Kcommaaccent" unicode="Ķ" horiz-adv-x="574" d="M582 45q0 -7 -14 -14l-86 -44q-8 -4 -14 -4t-13 10l-233 309v-281q0 -13 -4 -17t-17 -4h-95q-14 0 -17.5 3.5t-3.5 17.5v644q0 14 3.5 17.5t17.5 3.5h95q13 0 17 -4t4 -17v-281l217 300q8 11 15 11q5 0 13 -4l73 -37q14 -7 14 -15q0 -5 -7 -14l-207 -274l234 -291 q8 -8 8 -15zM375 -75l-80 -152q-8 -14 -18 -14q-2 0 -12 2l-35 9q-15 4 -15 13q0 4 3 13l35 137q5 17 22 17h85q21 0 21 -10q0 -6 -6 -15z"/>
    <glyph glyph-name="kcommaaccent" unicode="ķ" d="M503 43q0 -6 -10 -12l-79 -44q-7 -4 -10 -4q-7 0 -13 9l-187 240v-215q0 -11 -3 -14t-14 -3h-93q-11 0 -14 3t-3 14v669q0 10 2.5 13t12.5 5l93 19l9 1q10 0 10 -17v-401l194 195q8 8 12 8t12 -7l54 -43q8 -6 8 -12q0 -5 -7 -12l-164 -158l184 -222q6 -6 6 -12zM338 -75 l-80 -152q-8 -14 -18 -14q-2 0 -12 2l-35 9q-15 4 -15 13q0 4 3 13l35 137q5 17 22 17h85q21 0 21 -10q0 -6 -6 -15z"/>
    <glyph glyph-name="kgreenlandic" unicode="ĸ" d="M204 306l194 195q8 8 12 8t12 -7l54 -43q8 -6 8 -12q0 -5 -7 -12l-164 -158l184 -222q6 -6 6 -12t-10 -12l-79 -44q-7 -4 -10 -4q-7 0 -13 9l-187 240v-215q0 -11 -3 -14t-14 -3h-93q-11 0 -14 3t-3 14v336q0 64 -21 109q-3 6 -3 10q0 6 8 9l86 33q6 2 10 2 q17 0 32 -45.5t15 -103.5v-61z"/>
    <glyph glyph-name="Lacute" unicode="Ĺ" horiz-adv-x="482" d="M480 113q0 -2 -2 -12l-18 -83q-2 -11 -6.5 -14.5t-16.5 -3.5h-331q-14 0 -17.5 3.5t-3.5 17.5v644q0 14 3.5 17.5t17.5 3.5h95q13 0 17 -4t4 -17v-541h238q20 0 20 -11zM343 829q0 -9 -15 -14l-177 -70q-2 0 -5 -1t-5.5 -1.5t-3.5 -0.5q-7 0 -13 14l-16 32q-5 9 -5 14 t13 13l163 97q10 6 14 6q8 0 14 -14l31 -61q5 -10 5 -14z"/>
    <glyph glyph-name="lacute" unicode="ĺ" horiz-adv-x="278" d="M289 11q0 -10 -32.5 -19t-68.5 -9q-89 0 -114 72q-9 26 -9 122v508q0 16 15 19l90 18q10 2 12 2q10 0 10 -17v-521q0 -58 2 -66q6 -20 25 -20q14 0 33 6q3 1 7 1q7 0 8 -6l20 -82l1 -4q1 -2 1 -4zM328 866q0 -9 -15 -14l-177 -70q-2 0 -5 -1t-5.5 -1.5t-3.5 -0.5 q-7 0 -13 14l-16 32q-5 9 -5 14t13 13l163 97q10 6 14 6q8 0 14 -14l31 -61q5 -10 5 -14z"/>
    <glyph glyph-name="Lcommaaccent" unicode="Ļ" horiz-adv-x="482" d="M480 113q0 -2 -2 -12l-18 -83q-2 -11 -6.5 -14.5t-16.5 -3.5h-331q-14 0 -17.5 3.5t-3.5 17.5v644q0 14 3.5 17.5t17.5 3.5h95q13 0 17 -4t4 -17v-541h238q20 0 20 -11zM327 -75l-80 -152q-8 -14 -18 -14q-2 0 -12 2l-35 9q-15 4 -15 13q0 4 3 13l35 137q5 17 22 17h85 q21 0 21 -10q0 -6 -6 -15z"/>
    <glyph glyph-name="lcommaaccent" unicode="ļ" horiz-adv-x="278" d="M289 11q0 -10 -32.5 -19t-68.5 -9q-89 0 -114 72q-9 26 -9 122v508q0 16 15 19l90 18q10 2 12 2q10 0 10 -17v-521q0 -58 2 -66q6 -20 25 -20q14 0 33 6q3 1 7 1q7 0 8 -6l20 -82l1 -4q1 -2 1 -4zM233 -75l-80 -152q-8 -14 -18 -14q-2 0 -12 2l-35 9q-15 4 -15 13 q0 4 3 13l35 137q5 17 22 17h85q21 0 21 -10q0 -6 -6 -15z"/>
    <glyph glyph-name="Lcaron" unicode="Ľ" horiz-adv-x="482" d="M292 854q0 -6 -11 -15l-113 -89q-10 -8 -15 -8q-4 0 -14 8l-112 89q-11 9 -11 15q0 4 6 14l19 31q8 13 15 13q2 0 13 -6l85 -50l86 50q11 6 13 6q8 0 15 -13l18 -31q6 -12 6 -14zM480 113q0 -2 -2 -12l-18 -83q-2 -11 -6.5 -14.5t-16.5 -3.5h-331q-14 0 -17.5 3.5 t-3.5 17.5v644q0 14 3.5 17.5t17.5 3.5h95q13 0 17 -4t4 -17v-541h238q20 0 20 -11z"/>
    <glyph glyph-name="lcaron" unicode="ľ" horiz-adv-x="278" d="M369 684l-70 -152q-7 -15 -17 -15q-6 0 -13 3l-20 7q-13 5 -13 15q0 7 1 11l25 139q3 17 22 17h70q20 0 20 -9q0 -4 -5 -16zM289 11q0 -10 -32.5 -19t-68.5 -9q-89 0 -114 72q-9 26 -9 122v508q0 16 15 19l90 18q10 2 12 2q10 0 10 -17v-521q0 -58 2 -66q6 -20 25 -20 q14 0 33 6q3 1 7 1q7 0 8 -6l20 -82l1 -4q1 -2 1 -4z"/>
    <glyph glyph-name="Ldot" unicode="Ŀ" horiz-adv-x="482" d="M491 363q0 -31 -22.5 -54t-54.5 -23q-33 0 -55.5 23t-22.5 55t23 54.5t56 22.5q31 0 53.5 -23t22.5 -55zM480 113q0 -2 -2 -12l-18 -83q-2 -11 -6.5 -14.5t-16.5 -3.5h-331q-14 0 -17.5 3.5t-3.5 17.5v644q0 14 3.5 17.5t17.5 3.5h95q13 0 17 -4t4 -17v-541h238 q20 0 20 -11z"/>
    <glyph glyph-name="ldot" unicode="ŀ" horiz-adv-x="432" d="M427 363q0 -31 -22.5 -54t-54.5 -23q-33 0 -55.5 23t-22.5 55t23 54.5t56 22.5q31 0 53.5 -23t22.5 -55zM289 11q0 -10 -32.5 -19t-68.5 -9q-89 0 -114 72q-9 26 -9 122v508q0 16 15 19l90 18q10 2 12 2q10 0 10 -17v-521q0 -58 2 -66q6 -20 25 -20q14 0 33 6q3 1 7 1 q7 0 8 -6l20 -82l1 -4q1 -2 1 -4z"/>
    <glyph glyph-name="Lslash" unicode="Ł" horiz-adv-x="482" d="M480 113q0 -2 -2 -12l-19 -83q-3 -12 -6.5 -15t-15.5 -3h-332q-14 0 -17 3.5t-3 17.5v239l-59 -35q-5 -3 -8 -3q-6 0 -6 11v63q0 11 9 16l64 40v313q0 14 3.5 17.5t16.5 3.5h97q14 0 17 -3.5t3 -17.5v-228l138 85q8 5 11 5q6 0 6 -12v-71q0 -8 -10 -14l-145 -87v-219h237 q21 0 21 -11z"/>
    <glyph glyph-name="lslash" unicode="ł" horiz-adv-x="296" d="M202 363v-177q0 -55 2 -64q4 -22 26 -22q13 0 32 6q2 1 7 1t7 -6l21 -86l1 -4q0 -10 -32.5 -19t-67.5 -9q-89 0 -114 72q-9 26 -9 122v108l-67 -44q-7 -5 -10 -5q-6 0 -6 11v63q0 10 8 16l75 50v310q0 10 2 13t13 5l93 19q3 1 9 1q10 0 10 -17v-253l79 55q3 3 8 3 q6 0 6 -11v-64q0 -8 -8 -14z"/>
    <glyph glyph-name="Nacute" unicode="Ń" horiz-adv-x="611" d="M538 665v-644q0 -14 -3.5 -17.5t-17.5 -3.5h-64q-13 0 -18 3t-12 16l-172 324q-41 77 -64 142q3 -70 3 -122v-342q0 -13 -4 -17t-17 -4h-75q-14 0 -17.5 3.5t-3.5 17.5v644q0 14 3.5 17.5t17.5 3.5h78q14 0 18 -2.5t11 -14.5l158 -294q34 -62 64 -154q-2 76 -2 126v318 q0 13 3.5 17t17.5 4h75q14 0 17.5 -3.5t3.5 -17.5zM494 829q0 -9 -15 -14l-177 -70q-2 0 -5 -1t-5.5 -1.5t-3.5 -0.5q-7 0 -13 14l-16 32q-5 9 -5 14t13 13l163 97q10 6 14 6q8 0 14 -14l31 -61q5 -10 5 -14z"/>
    <glyph glyph-name="nacute" unicode="ń" horiz-adv-x="537" d="M457 657q0 -9 -15 -14l-177 -70q-2 0 -5 -1t-5.5 -1.5t-3.5 -0.5q-7 0 -13 14l-16 32q-5 9 -5 14t13 13l163 97q10 6 14 6q8 0 14 -14l31 -61q5 -10 5 -14zM201 368v-351q0 -11 -3 -14t-14 -3h-93q-11 0 -14 3t-3 14v336q0 64 -21 109q-3 6 -3 10q0 6 8 9l89 33q6 2 10 2 q19 0 36 -69q70 64 150 64q67 0 98 -38t31 -120v-336q0 -11 -3 -14t-14 -3h-93q-11 0 -14 3t-3 14v308q0 44 -13.5 64t-43.5 20q-39 0 -87 -41z"/>
    <glyph glyph-name="Ncommaaccent" unicode="Ņ" horiz-adv-x="611" d="M538 665v-644q0 -14 -3.5 -17.5t-17.5 -3.5h-64q-13 0 -18 3t-12 16l-172 324q-41 77 -64 142q3 -70 3 -122v-342q0 -13 -4 -17t-17 -4h-75q-14 0 -17.5 3.5t-3.5 17.5v644q0 14 3.5 17.5t17.5 3.5h78q14 0 18 -2.5t11 -14.5l158 -294q34 -62 64 -154q-2 76 -2 126v318 q0 13 3.5 17t17.5 4h75q14 0 17.5 -3.5t3.5 -17.5zM370 -75l-80 -152q-8 -14 -18 -14q-2 0 -12 2l-35 9q-15 4 -15 13q0 4 3 13l35 137q5 17 22 17h85q21 0 21 -10q0 -6 -6 -15z"/>
    <glyph glyph-name="ncommaaccent" unicode="ņ" horiz-adv-x="537" d="M201 368v-351q0 -11 -3 -14t-14 -3h-93q-11 0 -14 3t-3 14v336q0 64 -21 109q-3 6 -3 10q0 6 8 9l89 33q6 2 10 2q19 0 36 -69q70 64 150 64q67 0 98 -38t31 -120v-336q0 -11 -3 -14t-14 -3h-93q-11 0 -14 3t-3 14v308q0 44 -13.5 64t-43.5 20q-39 0 -87 -41zM333 -75 l-80 -152q-8 -14 -18 -14q-2 0 -12 2l-35 9q-15 4 -15 13q0 4 3 13l35 137q5 17 22 17h85q21 0 21 -10q0 -6 -6 -15z"/>
    <glyph glyph-name="Ncaron" unicode="Ň" horiz-adv-x="611" d="M443 854q0 -6 -11 -15l-113 -89q-10 -8 -15 -8q-4 0 -14 8l-112 89q-11 9 -11 15q0 4 6 14l19 31q8 13 15 13q3 0 13 -6l85 -50l86 50q11 6 13 6q8 0 15 -13l18 -31q6 -12 6 -14zM538 665v-644q0 -14 -3.5 -17.5t-17.5 -3.5h-64q-13 0 -18 3t-12 16l-172 324 q-41 77 -64 142q3 -70 3 -122v-342q0 -13 -4 -17t-17 -4h-75q-14 0 -17.5 3.5t-3.5 17.5v644q0 14 3.5 17.5t17.5 3.5h78q14 0 18 -2.5t11 -14.5l158 -294q34 -62 64 -154q-2 76 -2 126v318q0 13 3.5 17t17.5 4h75q14 0 17.5 -3.5t3.5 -17.5z"/>
    <glyph glyph-name="ncaron" unicode="ň" horiz-adv-x="537" d="M406 682q0 -6 -11 -15l-113 -89q-10 -8 -15 -8q-4 0 -14 8l-112 89q-11 9 -11 15q0 4 6 14l19 31q8 13 15 13q2 0 13 -6l85 -50l86 50q10 6 13 6q8 0 15 -13l18 -31q6 -12 6 -14zM201 368v-351q0 -11 -3 -14t-14 -3h-93q-11 0 -14 3t-3 14v336q0 64 -21 109q-3 6 -3 10 q0 6 8 9l89 33q6 2 10 2q19 0 36 -69q70 64 150 64q67 0 98 -38t31 -120v-336q0 -11 -3 -14t-14 -3h-93q-11 0 -14 3t-3 14v308q0 44 -13.5 64t-43.5 20q-39 0 -87 -41z"/>
    <glyph glyph-name="Eng" unicode="Ŋ" horiz-adv-x="611" d="M421 21l-170 322q-41 77 -64 142q3 -70 3 -122v-342q0 -13 -4 -17t-17 -4h-75q-14 0 -17.5 3.5t-3.5 17.5v644q0 14 3.5 17.5t17.5 3.5h78q14 0 18 -2.5t11 -14.5l158 -294q34 -62 64 -154q-2 76 -2 126v318q0 13 3.5 17t17.5 4h75q14 0 17.5 -3.5t3.5 -17.5v-655 q0 -129 -25 -176q-39 -70 -146 -70q-42 0 -76.5 8.5t-34.5 19.5q0 2 2 10l22 75q2 7 9 7l8 -2q29 -13 61 -13q21 0 37.5 13t21.5 36q4 21 4 103z"/>
    <glyph glyph-name="eng" unicode="ŋ" horiz-adv-x="537" d="M217 -205l22 75q2 7 8 7l13 -4q14 -4 27 -4q43 0 54 49q4 21 4 103v304q0 44 -13.5 64t-43.5 20q-39 0 -87 -41v-351q0 -11 -3 -14t-14 -3h-93q-11 0 -14 3t-3 14v336q0 64 -21 109q-3 6 -3 10q0 6 8 9l89 33q6 2 10 2q19 0 36 -69q70 64 150 64q67 0 98 -38t31 -120 v-343q0 -129 -25 -176q-39 -70 -146 -70q-37 0 -62 7q-24 7 -24 14q0 2 2 10z"/>
    <glyph glyph-name="Omacron" unicode="Ō" horiz-adv-x="574" d="M409 787q0 -13 -3.5 -16.5t-16.5 -3.5h-204q-13 0 -17 3.5t-4 16.5v45q0 14 3.5 17.5t17.5 3.5h204q14 0 17 -3.5t3 -17.5v-45zM535 351q0 -368 -251 -368q-244 0 -244 363q0 109 21 179.5t67 115.5q65 62 164 62q50 0 95.5 -19t73.5 -52q74 -84 74 -281zM391 340 q0 131 -25.5 193t-79.5 62q-50 0 -76 -65t-26 -188q0 -251 103 -251q104 0 104 249z"/>
    <glyph glyph-name="omacron" unicode="ō" d="M372 615q0 -13 -3 -16.5t-17 -3.5h-204q-13 0 -17 3.5t-4 16.5v45q0 14 3.5 17.5t17.5 3.5h204q14 0 17 -3.5t3 -17.5v-45zM468 248q0 -122 -58.5 -193.5t-158.5 -71.5q-103 0 -160.5 70t-57.5 194q0 121 58 191q62 73 164 73q98 0 155.5 -71t57.5 -192zM333 246 q0 88 -19.5 126t-64.5 38q-43 0 -62 -38.5t-19 -124.5q0 -87 19 -125t63 -38t63.5 38t19.5 124z"/>
    <glyph glyph-name="Obreve" unicode="Ŏ" horiz-adv-x="574" d="M427 856q0 -33 -25 -70q-36 -51 -114 -51q-91 0 -126 64q-16 30 -16 55q0 14 11 15l67 8l5 1q4 0 5 -2t3 -15q9 -47 50 -47t49 47q2 17 6 17h2l5 -1l67 -8q11 -1 11 -13zM535 351q0 -368 -251 -368q-244 0 -244 363q0 109 21 179.5t67 115.5q65 62 164 62q50 0 95.5 -19 t73.5 -52q74 -84 74 -281zM391 340q0 131 -25.5 193t-79.5 62q-50 0 -76 -65t-26 -188q0 -251 103 -251q104 0 104 249z"/>
    <glyph glyph-name="obreve" unicode="ŏ" d="M468 248q0 -122 -58.5 -193.5t-158.5 -71.5q-103 0 -160.5 70t-57.5 194q0 121 58 191q62 73 164 73q98 0 155.5 -71t57.5 -192zM333 246q0 88 -19.5 126t-64.5 38q-43 0 -62 -38.5t-19 -124.5q0 -87 19 -125t63 -38t63.5 38t19.5 124zM390 684q0 -33 -25 -70 q-36 -51 -114 -51q-91 0 -126 64q-16 30 -16 55q0 14 11 15l67 8l5 1q4 0 5 -2t3 -15q9 -47 50 -47t49 47q2 17 6 17h2l5 -1l67 -8q11 -1 11 -13z"/>
    <glyph glyph-name="Ohungarumlaut" unicode="Ő" horiz-adv-x="574" d="M523 857q0 -7 -10 -14l-114 -105q-9 -9 -15 -9q-2 0 -14 9l-16 14q-10 8 -10 15q0 4 8 14l94 122q9 11 15 11q5 0 15 -9l37 -33q10 -9 10 -15zM367 857q0 -5 -10 -14l-115 -105q-10 -9 -15 -9q-4 0 -14 9l-15 14q-10 9 -10 15q0 4 8 14l94 122q8 11 15 11q4 0 14 -9 l38 -33q10 -8 10 -15zM535 351q0 -368 -251 -368q-244 0 -244 363q0 109 21 179.5t67 115.5q65 62 164 62q50 0 95.5 -19t73.5 -52q74 -84 74 -281zM391 340q0 131 -25.5 193t-79.5 62q-50 0 -76 -65t-26 -188q0 -251 103 -251q104 0 104 249z"/>
    <glyph glyph-name="ohungarumlaut" unicode="ő" d="M486 685q0 -7 -10 -14l-114 -105q-9 -9 -15 -9q-2 0 -14 9l-16 14q-10 8 -10 15q0 4 8 14l94 122q9 11 15 11q5 0 15 -9l37 -33q10 -9 10 -15zM330 685q0 -5 -10 -14l-115 -105q-10 -9 -15 -9q-4 0 -14 9l-15 14q-10 9 -10 15q0 4 8 14l94 122q8 11 15 11q4 0 14 -9 l38 -33q10 -8 10 -15zM468 248q0 -122 -58.5 -193.5t-158.5 -71.5q-103 0 -160.5 70t-57.5 194q0 121 58 191q62 73 164 73q98 0 155.5 -71t57.5 -192zM333 246q0 88 -19.5 126t-64.5 38q-43 0 -62 -38.5t-19 -124.5q0 -87 19 -125t63 -38t63.5 38t19.5 124z"/>
    <glyph glyph-name="OE" unicode="Œ" horiz-adv-x="778" d="M756 675q0 -1 -0.5 -2t-1 -3.5t-1.5 -6.5l-18 -69q-4 -17 -22 -17h-196v-164h170q13 0 16.5 -4t3.5 -17v-67q0 -13 -3.5 -17t-16.5 -4h-170v-195h212q14 0 17 -3.5t3 -17.5v-67q0 -14 -3 -17.5t-17 -3.5h-325q-63 -17 -115 -17q-126 0 -187.5 90t-61.5 273 q0 108 20.5 177.5t65.5 116.5q60 63 166 63q52 0 106 -17h338q20 0 20 -11zM385 114v458q-47 28 -87 28q-61 0 -87.5 -59t-26.5 -197q0 -131 30 -200q25 -56 88 -56q41 0 83 26z"/>
    <glyph glyph-name="oe" unicode="œ" horiz-adv-x="759" d="M728 245q0 -19 -4 -25.5t-15 -6.5h-269q1 -65 28 -95.5t82 -30.5q51 0 114 32q8 3 11 3q7 0 9 -7l27 -63q3 -6 3 -10q0 -19 -58 -39t-114 -20q-114 0 -153 66q-49 -66 -137 -66q-102 0 -160.5 71.5t-58.5 197.5q0 119 60 189t162 70q46 0 76.5 -13.5t61.5 -46.5 q59 60 142 60q94 0 143.5 -68t49.5 -198zM596 306q-1 62 -17.5 88t-54.5 26t-56.5 -25t-26.5 -89h155zM327 246q0 90 -18 127t-61 37q-44 0 -62.5 -37.5t-18.5 -125.5q0 -86 18.5 -124.5t61.5 -38.5q42 0 61 38.5t19 123.5z"/>
    <glyph glyph-name="Racute" unicode="Ŕ" horiz-adv-x="556" d="M467 829q0 -9 -15 -14l-177 -70q-2 0 -5 -1t-5.5 -1.5t-3.5 -0.5q-7 0 -13 14l-16 32q-5 9 -5 14t13 13l163 97q10 6 14 6q8 0 14 -14l31 -61q5 -10 5 -14zM544 22q0 -8 -16 -12l-89 -25q-9 -3 -12 -3q-6 0 -14 14l-141 285h-53v-260q0 -13 -3.5 -17t-17.5 -4h-92 q-14 0 -17.5 4t-3.5 20v641q0 14 3.5 17.5t17.5 3.5h163q100 0 148 -26q85 -48 85 -171q0 -69 -26.5 -114.5t-85.5 -76.5l149 -261q5 -8 5 -15zM366 490q0 53 -23.5 73.5t-84.5 20.5h-39v-197h28q66 0 92.5 23t26.5 80z"/>
    <glyph glyph-name="racute" unicode="ŕ" horiz-adv-x="352" d="M396 657q0 -9 -15 -14l-177 -70q-2 0 -5 -1t-5.5 -1.5t-3.5 -0.5q-7 0 -13 14l-16 32q-5 9 -5 14t13 13l163 97q10 6 14 6q8 0 14 -14l31 -61q5 -10 5 -14zM365 489q0 -3 -2 -11l-31 -81q-3 -9 -8 -9q-1 0 -7 2q-22 8 -40 8q-32 0 -76 -48v-333q0 -11 -3 -14t-14 -3h-93 q-11 0 -14 3t-3 14v304q0 43 -6 71t-24 68q-2 6 -2 9q0 7 10 10l81 29q8 3 12 3q20 0 38 -78l15 17.5l11 13t8 8.5q39 39 91 39q22 0 39.5 -7t17.5 -15z"/>
    <glyph glyph-name="Rcommaaccent" unicode="Ŗ" horiz-adv-x="556" d="M343 -75l-80 -152q-8 -14 -18 -14q-2 0 -12 2l-35 9q-15 4 -15 13q0 4 3 13l35 137q5 17 22 17h85q21 0 21 -10q0 -6 -6 -15zM544 22q0 -8 -16 -12l-89 -25q-9 -3 -12 -3q-6 0 -14 14l-141 285h-53v-260q0 -13 -3.5 -17t-17.5 -4h-92q-14 0 -17.5 4t-3.5 20v641 q0 14 3.5 17.5t17.5 3.5h163q100 0 148 -26q85 -48 85 -171q0 -69 -26.5 -114.5t-85.5 -76.5l149 -261q5 -8 5 -15zM366 490q0 53 -23.5 73.5t-84.5 20.5h-39v-197h28q66 0 92.5 23t26.5 80z"/>
    <glyph glyph-name="rcommaaccent" unicode="ŗ" horiz-adv-x="352" d="M365 489q0 -3 -2 -11l-31 -81q-3 -9 -8 -9q-1 0 -7 2q-22 8 -40 8q-32 0 -76 -48v-333q0 -11 -3 -14t-14 -3h-93q-11 0 -14 3t-3 14v304q0 43 -6 71t-24 68q-2 6 -2 9q0 7 10 10l81 29q8 3 12 3q20 0 38 -78l15 17.5l11 13t8 8.5q39 39 91 39q22 0 39.5 -7t17.5 -15z M200 -75l-80 -152q-8 -14 -18 -14q-2 0 -12 2l-35 9q-15 4 -15 13q0 4 3 13l35 137q5 17 22 17h85q21 0 21 -10q0 -6 -6 -15z"/>
    <glyph glyph-name="Rcaron" unicode="Ř" horiz-adv-x="556" d="M416 854q0 -6 -11 -15l-113 -89q-10 -8 -15 -8q-4 0 -14 8l-112 89q-11 9 -11 15q0 4 6 14l19 31q8 13 15 13q2 0 13 -6l85 -50l86 50q10 6 13 6q8 0 15 -13l18 -31q6 -12 6 -14zM544 22q0 -8 -16 -12l-89 -25q-9 -3 -12 -3q-6 0 -14 14l-141 285h-53v-260 q0 -13 -3.5 -17t-17.5 -4h-92q-14 0 -17.5 4t-3.5 20v641q0 14 3.5 17.5t17.5 3.5h163q100 0 148 -26q85 -48 85 -171q0 -69 -26.5 -114.5t-85.5 -76.5l149 -261q5 -8 5 -15zM366 490q0 53 -23.5 73.5t-84.5 20.5h-39v-197h28q66 0 92.5 23t26.5 80z"/>
    <glyph glyph-name="rcaron" unicode="ř" horiz-adv-x="352" d="M345 682q0 -6 -11 -15l-113 -89q-10 -8 -15 -8q-4 0 -14 8l-112 89q-11 9 -11 15q0 4 6 14l19 31q8 13 15 13q3 0 13 -6l85 -50l86 50q11 6 13 6q8 0 15 -13l18 -31q6 -12 6 -14zM365 489q0 -3 -2 -11l-31 -81q-3 -9 -8 -9q-1 0 -7 2q-22 8 -40 8q-32 0 -76 -48v-333 q0 -11 -3 -14t-14 -3h-93q-11 0 -14 3t-3 14v304q0 43 -6 71t-24 68q-2 6 -2 9q0 7 10 10l81 29q8 3 12 3q20 0 38 -78l15 17.5l11 13t8 8.5q39 39 91 39q22 0 39.5 -7t17.5 -15z"/>
    <glyph glyph-name="Sacute" unicode="Ś" horiz-adv-x="482" d="M451 194q0 -93 -60.5 -150.5t-157.5 -57.5q-61 0 -135 21.5t-74 38.5q0 3 2 11l33 86q3 9 9 9q3 0 9 -3q89 -49 153 -49q43 0 66.5 21.5t23.5 61.5q0 38 -21 61q-19 22 -114 69q-90 45 -123 86t-33 108q0 89 59.5 141t159.5 52q59 0 125 -21.5t66 -41.5q0 -2 -3 -8 l-36 -76q-4 -7 -9 -7q-3 0 -39 18q-50 26 -100 26q-42 0 -66.5 -19.5t-24.5 -53.5q0 -37 39 -63q17 -11 105 -55q77 -39 111.5 -87t34.5 -118zM437 829q0 -9 -15 -14l-177 -70q-2 0 -5 -1t-5.5 -1.5t-3.5 -0.5q-7 0 -13 14l-16 32q-5 9 -5 14t13 13l163 97q10 6 14 6 q8 0 14 -14l31 -61q5 -10 5 -14z"/>
    <glyph glyph-name="sacute" unicode="ś" horiz-adv-x="426" d="M382 657q0 -9 -15 -14l-177 -70q-2 0 -5 -1t-5.5 -1.5t-3.5 -0.5q-7 0 -13 14l-16 32q-5 9 -5 14t13 13l163 97q10 6 14 6q8 0 14 -14l31 -61q5 -10 5 -14zM393 145q0 -68 -46 -116q-45 -46 -123 -46q-89 0 -170 42q-22 11 -22 19q0 3 3 12l23 61q4 10 10 10q3 0 9 -3 q79 -43 136 -43q26 0 42 14.5t16 37.5q0 21 -14 32.5t-63 30.5q-78 29 -104 54q-40 38 -40 98q0 72 50 117.5t128 45.5q47 0 100 -16t53 -30q0 -5 -3 -11l-25 -57q-5 -9 -10 -9q-2 0 -8 2q-58 26 -101 26q-64 0 -64 -51q0 -20 12.5 -31t53.5 -27q90 -35 116 -60 q41 -41 41 -102z"/>
    <glyph glyph-name="Scircumflex" unicode="Ŝ" horiz-adv-x="482" d="M386 800q0 -2 -6 -13l-19 -32q-8 -13 -15 -13q-3 0 -13 6l-85 50l-86 -50q-11 -6 -13 -6q-8 0 -15 13l-18 32q-6 9 -6 13q0 6 11 15l113 89q10 8 14 8q5 0 15 -8l112 -89q11 -9 11 -15zM451 194q0 -93 -60.5 -150.5t-157.5 -57.5q-61 0 -135 21.5t-74 38.5q0 3 2 11 l33 86q3 9 9 9q3 0 9 -3q89 -49 153 -49q43 0 66.5 21.5t23.5 61.5q0 38 -21 61q-19 22 -114 69q-90 45 -123 86t-33 108q0 89 59.5 141t159.5 52q59 0 125 -21.5t66 -41.5q0 -2 -3 -8l-36 -76q-4 -7 -9 -7q-3 0 -39 18q-50 26 -100 26q-42 0 -66.5 -19.5t-24.5 -53.5 q0 -37 39 -63q17 -11 105 -55q77 -39 111.5 -87t34.5 -118z"/>
    <glyph glyph-name="scircumflex" unicode="ŝ" horiz-adv-x="426" d="M371 628q0 -2 -6 -13l-19 -32q-8 -13 -15 -13q-3 0 -13 6l-85 50l-86 -50q-11 -6 -13 -6q-8 0 -15 13l-18 32q-6 9 -6 13q0 6 11 15l113 89q10 8 14 8q5 0 15 -8l112 -89q11 -9 11 -15zM393 145q0 -68 -46 -116q-45 -46 -123 -46q-89 0 -170 42q-22 11 -22 19q0 3 3 12 l23 61q4 10 10 10q3 0 9 -3q79 -43 136 -43q26 0 42 14.5t16 37.5q0 21 -14 32.5t-63 30.5q-78 29 -104 54q-40 38 -40 98q0 72 50 117.5t128 45.5q47 0 100 -16t53 -30q0 -5 -3 -11l-25 -57q-5 -9 -10 -9q-2 0 -8 2q-58 26 -101 26q-64 0 -64 -51q0 -20 12.5 -31t53.5 -27 q90 -35 116 -60q41 -41 41 -102z"/>
    <glyph glyph-name="Scedilla" unicode="Ş" horiz-adv-x="482" d="M324 -128q0 -40 -30 -64t-79 -24q-31 0 -52.5 5t-21.5 13l1 9l9 42q2 4 5 4t5 -1q18 -6 38 -6q30 0 30 23t-39 23q-14 0 -18 2t-4 10v6l8 77q-56 8 -104 25t-48 30q0 3 2 11l33 86q3 9 9 9q3 0 9 -3q89 -49 153 -49q43 0 66.5 21.5t23.5 61.5q0 38 -21 61q-19 22 -114 69 q-90 45 -123 86t-33 108q0 89 59.5 141t159.5 52q59 0 125 -21.5t66 -41.5q0 -2 -3 -8l-36 -76q-4 -7 -9 -7q-3 0 -39 18q-50 26 -100 26q-42 0 -66.5 -19.5t-24.5 -53.5q0 -37 39 -63q17 -11 105 -55q77 -39 111.5 -87t34.5 -118q0 -87 -54 -143.5t-142 -63.5l-3 -42 q72 -7 72 -73z"/>
    <glyph glyph-name="scedilla" unicode="ş" horiz-adv-x="426" d="M305 -128q0 -40 -30 -64t-79 -24q-31 0 -52.5 5t-21.5 13l1 9l9 42q2 4 5 4t5 -1q18 -6 38 -6q30 0 30 23t-39 23q-14 0 -18 2t-4 10v6l8 76q-59 11 -103 35q-22 11 -22 19q0 3 3 12l23 61q4 10 10 10q3 0 9 -3q79 -43 136 -43q26 0 42 14.5t16 37.5q0 21 -14 32.5 t-63 30.5q-78 29 -104 54q-40 38 -40 98q0 72 50 117.5t128 45.5q47 0 100 -16t53 -30q0 -5 -3 -11l-25 -57q-5 -9 -10 -9q-2 0 -8 2q-58 26 -101 26q-64 0 -64 -51q0 -20 12.5 -31t53.5 -27q90 -35 116 -60q41 -41 41 -102q0 -68 -46 -116q-42 -43 -111 -46l-3 -38 q72 -7 72 -73z"/>
    <glyph glyph-name="Scaron" unicode="Š" horiz-adv-x="482" d="M390 838q0 -6 -12 -14l-123 -84q-8 -4 -15 -4q-8 0 -14 4l-126 87q-8 5 -8 12q0 3 6 14l19 31q8 12 14 12q4 0 15 -5l95 -43l95 43q10 5 16 5t13 -12l19 -31q6 -10 6 -15zM451 194q0 -93 -60.5 -150.5t-157.5 -57.5q-61 0 -135 21.5t-74 38.5q0 3 2 11l33 86q3 9 9 9 q3 0 9 -3q89 -49 153 -49q43 0 66.5 21.5t23.5 61.5q0 38 -21 61q-19 22 -114 69q-90 45 -123 86t-33 108q0 89 59.5 141t159.5 52q59 0 125 -21.5t66 -41.5q0 -2 -3 -8l-36 -76q-4 -7 -9 -7q-3 0 -39 18q-50 26 -100 26q-42 0 -66.5 -19.5t-24.5 -53.5q0 -37 39 -63 q17 -11 105 -55q77 -39 111.5 -87t34.5 -118z"/>
    <glyph glyph-name="scaron" unicode="š" horiz-adv-x="426" d="M366 682q0 -6 -11 -15l-113 -89q-10 -8 -15 -8q-4 0 -14 8l-112 89q-11 9 -11 15q0 4 6 14l19 31q8 13 15 13q2 0 13 -6l85 -50l86 50q11 6 13 6q8 0 15 -13l18 -31q6 -12 6 -14zM393 145q0 -68 -46 -116q-45 -46 -123 -46q-89 0 -170 42q-22 11 -22 19q0 3 3 12l23 61 q4 10 10 10q3 0 9 -3q79 -43 136 -43q26 0 42 14.5t16 37.5q0 21 -14 32.5t-63 30.5q-78 29 -104 54q-40 38 -40 98q0 72 50 117.5t128 45.5q47 0 100 -16t53 -30q0 -5 -3 -11l-25 -57q-5 -9 -10 -9q-2 0 -8 2q-58 26 -101 26q-64 0 -64 -51q0 -20 12.5 -31t53.5 -27 q90 -35 116 -60q41 -41 41 -102z"/>
    <glyph glyph-name="Tcedilla" unicode="Ţ" horiz-adv-x="407" d="M437 675q0 -6 -2 -12l-21 -79q-3 -11 -7 -14t-15 -3h-123v-546q0 -14 -3.5 -17.5t-17.5 -3.5h-97q-14 0 -17.5 3.5t-3.5 17.5v546h-126q-14 0 -17.5 3t-3.5 17v78q0 14 3.5 17.5t17.5 3.5h413q20 0 20 -11zM268 -75l-80 -152q-8 -14 -18 -14q-2 0 -12 2l-35 9 q-15 4 -15 13q0 4 3 13l35 137q5 17 22 17h85q21 0 21 -10q0 -6 -6 -15z"/>
    <glyph glyph-name="tcedilla" unicode="ţ" horiz-adv-x="370" d="M366 22q0 -7 -6 -11.5t-25 -10.5q-53 -17 -101 -17q-78 0 -113 51q-22 32 -22 106v261h-69q-11 0 -14 3t-3 14v59q0 11 3 14t14 3h69v126q0 10 2.5 13t13.5 5l92 13h9q10 0 10 -16v-141h114q17 0 17 -10q0 -6 -1 -9l-13 -59q-2 -9 -5.5 -12t-12.5 -3h-99v-243 q0 -40 7 -52t30 -12q24 0 66 17q6 2 9 2q7 0 10 -10l16 -70q2 -7 2 -11zM291 -75l-80 -152q-8 -14 -18 -14q-2 0 -12 2l-35 9q-15 4 -15 13q0 4 3 13l35 137q5 17 22 17h85q21 0 21 -10q0 -6 -6 -15z"/>
    <glyph glyph-name="Tcaron" unicode="Ť" horiz-adv-x="407" d="M341 854q0 -6 -11 -15l-113 -89q-10 -8 -15 -8q-4 0 -14 8l-112 89q-11 9 -11 15q0 4 6 14l19 31q8 13 15 13q3 0 13 -6l85 -50l86 50q11 6 13 6q8 0 15 -13l18 -31q6 -12 6 -14zM437 675q0 -6 -2 -12l-21 -79q-3 -11 -7 -14t-15 -3h-123v-546q0 -14 -3.5 -17.5 t-17.5 -3.5h-97q-14 0 -17.5 3.5t-3.5 17.5v546h-126q-14 0 -17.5 3t-3.5 17v78q0 14 3.5 17.5t17.5 3.5h413q20 0 20 -11z"/>
    <glyph glyph-name="tcaron" unicode="ť" horiz-adv-x="370" d="M409 704l-70 -152q-7 -15 -17 -15q-6 0 -13 3l-20 7q-13 5 -13 15q0 7 1 11l25 139q3 17 22 17h70q20 0 20 -9q0 -4 -5 -16zM366 22q0 -7 -6 -11.5t-25 -10.5q-53 -17 -101 -17q-78 0 -113 51q-22 32 -22 106v261h-69q-11 0 -14 3t-3 14v59q0 11 3 14t14 3h69v126 q0 10 2.5 13t13.5 5l92 13h9q10 0 10 -16v-141h114q17 0 17 -10q0 -6 -1 -9l-13 -59q-2 -9 -5.5 -12t-12.5 -3h-99v-243q0 -40 7 -52t30 -12q24 0 66 17q6 2 9 2q7 0 10 -10l16 -70q2 -7 2 -11z"/>
    <glyph glyph-name="Tbar" unicode="Ŧ" horiz-adv-x="407" d="M437 675q0 -6 -2 -12l-21 -79q-3 -11 -7 -14t-15 -3h-123v-171h89q14 0 17.5 -3.5t3.5 -17.5v-47q0 -14 -3.5 -17.5t-17.5 -3.5h-89v-286q0 -14 -3.5 -17.5t-17.5 -3.5h-97q-14 0 -17.5 3.5t-3.5 17.5v286h-89q-14 0 -17.5 3.5t-3.5 17.5v47q0 13 4 17t17 4h89v171h-126 q-14 0 -17.5 3t-3.5 17v78q0 14 3.5 17.5t17.5 3.5h413q20 0 20 -11z"/>
    <glyph glyph-name="tbar" unicode="ŧ" horiz-adv-x="370" d="M366 22q0 -7 -6 -11.5t-25 -10.5q-53 -17 -101 -17q-78 0 -113 51q-22 32 -22 106v94h-68q-9 0 -11.5 2.5t-2.5 11.5v47q0 9 2.5 11.5t11.5 2.5h68v92h-69q-11 0 -14 3t-3 14v59q0 11 3 14t14 3h69v126q0 10 2.5 13t13.5 5l92 13h9q10 0 10 -16v-141h114q17 0 17 -10 q0 -6 -1 -9l-13 -59q-2 -9 -5.5 -12t-12.5 -3h-99v-92h73q9 0 11.5 -2.5t2.5 -11.5v-47q0 -8 -3 -11t-11 -3h-73v-76q0 -40 7 -52t30 -12q24 0 66 17q6 2 9 2q7 0 10 -10l16 -70q2 -7 2 -11z"/>
    <glyph glyph-name="Utilde" unicode="Ũ" horiz-adv-x="611" d="M548 665v-433q0 -66 -12 -105t-43 -71q-70 -73 -198 -73q-139 0 -195 87q-34 54 -34 162v433q0 14 3.5 17.5t17.5 3.5h95q14 0 17.5 -4t3.5 -17v-433q0 -49 4 -69.5t16 -36.5q26 -35 82 -35q59 0 85 32.5t26 106.5v435q0 13 4 17t17 4h90q14 0 17.5 -3.5t3.5 -17.5z M460 847q0 -9 -21 -40q-36 -54 -85 -54q-28 0 -66 25q-16 11 -30 11q-20 0 -36 -29q-5 -8 -9 -8q-1 0 -9 3l-47 24q-7 4 -7 9q0 9 22 44q33 49 81 49q31 0 71 -23q21 -12 32 -12q10 0 17 6t18 25q3 5 7 5q3 0 8 -3l46 -23q8 -3 8 -9z"/>
    <glyph glyph-name="utilde" unicode="ũ" horiz-adv-x="537" d="M423 675q0 -9 -21 -40q-36 -54 -85 -54q-29 0 -66 25q-16 11 -30 11q-20 0 -36 -29q-5 -8 -9 -8q-2 0 -9 3l-47 24q-7 4 -7 9q0 9 22 44q33 49 81 49q31 0 71 -23q21 -12 32 -12q10 0 17 6t18 25q2 5 7 5q3 0 8 -3l46 -23q8 -3 8 -9zM485 15q0 -5 -10 -8l-84 -19 q-8 -2 -11 -2q-17 0 -30 55q-34 -32 -64.5 -45t-73.5 -13q-76 0 -113 43q-21 23 -27.5 53t-6.5 99v293q0 10 2 13t13 5l93 20q2 1 8 1q11 0 11 -16v-310q0 -56 9 -73q14 -27 52 -27q40 0 83 36v351q0 10 2 13t13 5l93 20l10 1q9 0 9 -16v-368q0 -64 19 -102q3 -4 3 -9z"/>
    <glyph glyph-name="Umacron" unicode="Ū" horiz-adv-x="611" d="M427 787q0 -13 -3.5 -16.5t-16.5 -3.5h-204q-13 0 -17 3.5t-4 16.5v45q0 14 3.5 17.5t17.5 3.5h204q14 0 17 -3.5t3 -17.5v-45zM548 665v-433q0 -66 -12 -105t-43 -71q-70 -73 -198 -73q-139 0 -195 87q-34 54 -34 162v433q0 14 3.5 17.5t17.5 3.5h95q14 0 17.5 -4 t3.5 -17v-433q0 -49 4 -69.5t16 -36.5q26 -35 82 -35q59 0 85 32.5t26 106.5v435q0 13 4 17t17 4h90q14 0 17.5 -3.5t3.5 -17.5z"/>
    <glyph glyph-name="umacron" unicode="ū" horiz-adv-x="537" d="M390 615q0 -13 -3 -16.5t-17 -3.5h-204q-13 0 -17 3.5t-4 16.5v45q0 14 3.5 17.5t17.5 3.5h204q14 0 17 -3.5t3 -17.5v-45zM485 15q0 -5 -10 -8l-84 -19q-8 -2 -11 -2q-17 0 -30 55q-34 -32 -64.5 -45t-73.5 -13q-76 0 -113 43q-21 23 -27.5 53t-6.5 99v293q0 10 2 13 t13 5l93 20q2 1 8 1q11 0 11 -16v-310q0 -56 9 -73q14 -27 52 -27q40 0 83 36v351q0 10 2 13t13 5l93 20l10 1q9 0 9 -16v-368q0 -64 19 -102q3 -4 3 -9z"/>
    <glyph glyph-name="Ubreve" unicode="Ŭ" horiz-adv-x="611" d="M445 856q0 -33 -25 -70q-36 -51 -114 -51q-91 0 -126 64q-16 30 -16 55q0 14 11 15l67 8l5 1q4 0 5 -2t3 -15q9 -47 50 -47t49 47q2 17 6 17h2l5 -1l67 -8q11 -1 11 -13zM548 665v-433q0 -66 -12 -105t-43 -71q-70 -73 -198 -73q-139 0 -195 87q-34 54 -34 162v433 q0 14 3.5 17.5t17.5 3.5h95q14 0 17.5 -4t3.5 -17v-433q0 -49 4 -69.5t16 -36.5q26 -35 82 -35q59 0 85 32.5t26 106.5v435q0 13 4 17t17 4h90q14 0 17.5 -3.5t3.5 -17.5z"/>
    <glyph glyph-name="ubreve" unicode="ŭ" horiz-adv-x="537" d="M485 15q0 -5 -10 -8l-84 -19q-8 -2 -11 -2q-17 0 -30 55q-34 -32 -64.5 -45t-73.5 -13q-76 0 -113 43q-21 23 -27.5 53t-6.5 99v293q0 10 2 13t13 5l93 20q2 1 8 1q11 0 11 -16v-310q0 -56 9 -73q14 -27 52 -27q40 0 83 36v351q0 10 2 13t13 5l93 20l10 1q9 0 9 -16v-368 q0 -64 19 -102q3 -4 3 -9zM408 684q0 -33 -25 -70q-36 -51 -114 -51q-91 0 -126 64q-16 30 -16 55q0 14 11 15l67 8l5 1q4 0 5 -2t3 -15q9 -47 50 -47t49 47q2 17 6 17h2l5 -1l67 -8q11 -1 11 -13z"/>
    <glyph glyph-name="Uring" unicode="Ů" horiz-adv-x="611" d="M409 841q0 -43 -30.5 -74t-74.5 -31q-43 0 -73.5 31t-30.5 74q0 44 31 74.5t75 30.5q42 0 72.5 -31t30.5 -74zM346 841q0 17 -12.5 29.5t-29.5 12.5t-29.5 -12.5t-12.5 -30.5q0 -17 12.5 -29.5t29.5 -12.5t29.5 12.5t12.5 30.5zM548 665v-433q0 -66 -12 -105t-43 -71 q-70 -73 -198 -73q-139 0 -195 87q-34 54 -34 162v433q0 14 3.5 17.5t17.5 3.5h95q14 0 17.5 -4t3.5 -17v-433q0 -49 4 -69.5t16 -36.5q26 -35 82 -35q59 0 85 32.5t26 106.5v435q0 13 4 17t17 4h90q14 0 17.5 -3.5t3.5 -17.5z"/>
    <glyph glyph-name="uring" unicode="ů" horiz-adv-x="537" d="M372 669q0 -43 -31 -74t-74 -31t-73.5 31t-30.5 74q0 44 31 74.5t75 30.5q42 0 72.5 -31t30.5 -74zM309 669q0 17 -12.5 29.5t-29.5 12.5t-29.5 -12.5t-12.5 -30.5q0 -17 12.5 -29.5t29.5 -12.5t29.5 12.5t12.5 30.5zM485 15q0 -5 -10 -8l-84 -19q-8 -2 -11 -2 q-17 0 -30 55q-34 -32 -64.5 -45t-73.5 -13q-76 0 -113 43q-21 23 -27.5 53t-6.5 99v293q0 10 2 13t13 5l93 20q2 1 8 1q11 0 11 -16v-310q0 -56 9 -73q14 -27 52 -27q40 0 83 36v351q0 10 2 13t13 5l93 20l10 1q9 0 9 -16v-368q0 -64 19 -102q3 -4 3 -9z"/>
    <glyph glyph-name="Uhungarumlaut" unicode="Ű" horiz-adv-x="611" d="M541 857q0 -7 -10 -14l-114 -105q-9 -9 -15 -9q-2 0 -14 9l-16 14q-10 8 -10 15q0 4 8 14l94 122q9 11 15 11q5 0 15 -9l37 -33q10 -9 10 -15zM385 857q0 -5 -10 -14l-115 -105q-10 -9 -15 -9q-4 0 -14 9l-15 14q-10 9 -10 15q0 4 8 14l94 122q8 11 15 11q4 0 14 -9 l38 -33q10 -8 10 -15zM548 665v-433q0 -66 -12 -105t-43 -71q-70 -73 -198 -73q-139 0 -195 87q-34 54 -34 162v433q0 14 3.5 17.5t17.5 3.5h95q14 0 17.5 -4t3.5 -17v-433q0 -49 4 -69.5t16 -36.5q26 -35 82 -35q59 0 85 32.5t26 106.5v435q0 13 4 17t17 4h90 q14 0 17.5 -3.5t3.5 -17.5z"/>
    <glyph glyph-name="uhungarumlaut" unicode="ű" horiz-adv-x="537" d="M504 685q0 -7 -10 -14l-114 -105q-9 -9 -15 -9q-2 0 -14 9l-16 14q-10 8 -10 15q0 4 8 14l94 122q9 11 15 11q5 0 15 -9l37 -33q10 -9 10 -15zM348 685q0 -5 -10 -14l-115 -105q-10 -9 -15 -9q-4 0 -14 9l-15 14q-10 9 -10 15q0 4 8 14l94 122q8 11 15 11q4 0 14 -9 l38 -33q10 -8 10 -15zM485 15q0 -5 -10 -8l-84 -19q-8 -2 -11 -2q-17 0 -30 55q-34 -32 -64.5 -45t-73.5 -13q-76 0 -113 43q-21 23 -27.5 53t-6.5 99v293q0 10 2 13t13 5l93 20q2 1 8 1q11 0 11 -16v-310q0 -56 9 -73q14 -27 52 -27q40 0 83 36v351q0 10 2 13t13 5l93 20 l10 1q9 0 9 -16v-368q0 -64 19 -102q3 -4 3 -9z"/>
    <glyph glyph-name="Uogonek" unicode="Ų" horiz-adv-x="611" d="M548 665v-433q0 -66 -12 -105t-43 -71q-47 -50 -118 -65q-26 -31 -26 -73q0 -24 28 -24q21 0 43 12q8 4 11 4q5 0 6 -6l14 -45q2 -6 2 -9v-2q0 -10 -30.5 -21t-58.5 -11q-44 0 -71.5 23t-27.5 61q0 46 40 83h-10q-139 0 -195 87q-34 54 -34 162v433q0 14 3.5 17.5 t17.5 3.5h95q14 0 17.5 -4t3.5 -17v-433q0 -49 4 -69.5t16 -36.5q26 -35 82 -35q59 0 85 32.5t26 106.5v435q0 13 4 17t17 4h90q14 0 17.5 -3.5t3.5 -17.5z"/>
    <glyph glyph-name="uogonek" unicode="ų" horiz-adv-x="537" d="M463 494v-368q0 -64 19 -102q3 -4 3 -9t-10 -8l-58 -13q-28 -33 -28 -76q0 -24 28 -24q21 0 43 12q8 4 11 4q5 0 6 -6l14 -45q2 -6 2 -9v-2q0 -10 -30.5 -21t-58.5 -11q-44 0 -71.5 23t-27.5 61q0 54 59 99q-8 15 -14 42q-34 -32 -64.5 -45t-73.5 -13q-76 0 -113 43 q-21 23 -27.5 53t-6.5 99v293q0 10 2 13t13 5l93 20q2 1 8 1q11 0 11 -16v-310q0 -56 9 -73q14 -27 52 -27q40 0 83 36v351q0 10 2 13t13 5l93 20l10 1q9 0 9 -16z"/>
    <glyph glyph-name="Wcircumflex" unicode="Ŵ" horiz-adv-x="778" d="M767 659q0 -6 -2 -12l-146 -643q-2 -11 -6.5 -14.5t-15.5 -3.5h-89q-13 0 -16.5 3t-5.5 15l-65 341q-18 94 -24 169q-5 -44 -13 -92q-6 -30 -8 -44q-4 -8 -7 -34l-77 -340q-3 -13 -6 -15.5t-16 -2.5h-90q-13 0 -16.5 2.5t-5.5 15.5l-132 646q-2 5 -2 10q0 10 18 14l88 17 q10 1 11 1q9 0 13 -18l60 -332q11 -65 21 -171l5 31.5l4 24.5q1 5 3 19.5t5 33t7 37.5l79 348q3 13 6.5 15.5t16.5 2.5h80q13 0 16 -2.5t6 -15.5l68 -315q13 -61 23 -137l6 -47q10 106 24 184l58 324q2 11 4.5 14.5t8.5 3.5q3 0 11 -2l84 -18q17 -4 17 -13zM539 800 q0 -2 -6 -13l-19 -32q-8 -13 -15 -13q-3 0 -13 6l-85 50l-86 -50q-11 -6 -13 -6q-8 0 -15 13l-18 32q-6 9 -6 13q0 6 11 15l113 89q10 8 14 8q5 0 15 -8l112 -89q11 -9 11 -15z"/>
    <glyph glyph-name="wcircumflex" unicode="ŵ" horiz-adv-x="667" d="M480 628q0 -2 -6 -13l-19 -32q-8 -13 -15 -13q-3 0 -13 6l-85 50l-86 -50q-11 -6 -13 -6q-8 0 -15 13l-18 32q-6 9 -6 13q0 6 11 15l113 89q10 8 14 8q5 0 15 -8l112 -89q11 -9 11 -15zM658 477q0 -1 -0.5 -1.5t-1 -3t-1.5 -5.5l-138 -461q-3 -10 -6 -12t-13 -2h-83 q-10 0 -13 2.5t-5 13.5l-47 253q-4 20 -7 51l-4 37l-3 24q-13 -91 -18 -112l-59 -254q-2 -10 -5 -12.5t-13 -2.5h-82q-10 0 -12.5 2t-5.5 13l-121 460q-2 9 -2 11q0 7 15 10l88 13q1 1 8 1q9 0 12 -14l47 -230q8 -40 21 -157q9 106 18 144l50 234q2 11 5 13t13 2h90 q10 0 13 -2.5t5 -12.5l45 -225q10 -45 20 -153q13 127 22 166l51 221q4 14 11 14q8 0 9 -1l82 -13q15 -3 15 -11z"/>
    <glyph glyph-name="Ycircumflex" unicode="Ŷ" horiz-adv-x="482" d="M502 662q0 -5 -5 -14l-184 -367v-260q0 -13 -3.5 -17t-17.5 -4h-95q-14 0 -17.5 3.5t-3.5 17.5v261l-192 368q-5 10 -5 14q0 10 19 13l104 17q7 2 10 2q5 0 8 -2.5t7 -12.5l80 -170q14 -29 42 -110q18 64 44 117l78 164q6 14 13 14q4 0 7 -1l5 -1l89 -19q17 -4 17 -13z M387 800q0 -2 -6 -13l-19 -32q-8 -13 -15 -13q-3 0 -13 6l-85 50l-86 -50q-10 -6 -13 -6q-8 0 -15 13l-18 32q-6 9 -6 13q0 6 11 15l113 89q10 8 14 8q5 0 15 -8l112 -89q11 -9 11 -15z"/>
    <glyph glyph-name="ycircumflex" unicode="ŷ" horiz-adv-x="444" d="M373 628q0 -2 -6 -13l-19 -32q-8 -13 -15 -13q-3 0 -13 6l-85 50l-86 -50q-11 -6 -13 -6q-8 0 -15 13l-18 32q-6 9 -6 13q0 6 11 15l113 89q10 8 14 8q5 0 15 -8l112 -89q11 -9 11 -15zM450 480q0 -3 -2 -10l-100 -366q-4 -12 -10 -36.5t-7 -29.5q-25 -104 -39.5 -143 t-36.5 -65q-43 -52 -121 -52q-42 0 -89.5 16t-47.5 31q0 3 4 11l31 64q4 7 9 7q3 0 8 -3q45 -22 77 -22t48.5 16.5t29.5 59.5l12 42h-42q-10 0 -13 2t-6 11l-157 456q-3 10 -3 11q0 9 16 10l102 11h7q8 0 12 -14l66 -246q19 -71 39 -173l15 84q5 30 9 46l10 43l56 245 q4 15 11 15q4 0 8 -1l88 -10q16 -1 16 -10z"/>
    <glyph glyph-name="Ydieresis" unicode="Ÿ" horiz-adv-x="482" d="M417 821q0 -30 -21 -51t-50 -21q-30 0 -51 21t-21 51q0 29 21 50t52 21q28 0 49 -21t21 -50zM234 820q0 -29 -21 -50t-50 -21q-30 0 -50.5 21t-20.5 51q0 29 21 49.5t51 20.5q29 0 49.5 -21t20.5 -50zM502 662q0 -5 -5 -14l-184 -367v-260q0 -13 -3.5 -17t-17.5 -4h-95 q-14 0 -17.5 3.5t-3.5 17.5v261l-192 368q-5 10 -5 14q0 10 19 13l104 17q7 2 10 2q5 0 8 -2.5t7 -12.5l80 -170q14 -29 42 -110q18 64 44 117l78 164q6 14 13 14q4 0 7 -1l5 -1l89 -19q17 -4 17 -13z"/>
    <glyph glyph-name="Zacute" unicode="Ź" d="M485 111q-1 -4 -1 -10l-12 -82q-2 -13 -5.5 -16t-16.5 -3h-398q-14 0 -17.5 3.5t-3.5 17.5v80l272 471h-241q-20 0 -20 11q0 3 2 12l18 74q3 12 6.5 14.5t15.5 2.5h344q14 0 17.5 -3.5t3.5 -17.5v-90l-265 -452h280q21 0 21 -12zM439 829q0 -9 -15 -14l-177 -70 q-2 0 -5 -1t-5.5 -1.5t-3.5 -0.5q-7 0 -13 14l-16 32q-5 9 -5 14t13 13l163 97q10 6 14 6q8 0 14 -14l31 -61q5 -10 5 -14z"/>
    <glyph glyph-name="zacute" unicode="ź" horiz-adv-x="426" d="M415 657q0 -9 -15 -14l-177 -70q-2 0 -5 -1t-5.5 -1.5t-3.5 -0.5q-7 0 -13 14l-16 32q-5 9 -5 14t13 13l163 97q10 6 14 6q8 0 14 -14l31 -61q5 -10 5 -14zM414 95q0 -3 -3 -11l-30 -71q-5 -13 -19 -13h-320q-11 0 -14 3t-3 14v69l233 308h-195q-11 0 -14 3t-3 14v66 q0 11 3 14t14 3h315q10 0 13.5 -3t3.5 -14v-73l-226 -299h229q16 0 16 -10z"/>
    <glyph glyph-name="Zdotaccent" unicode="Ż" d="M485 111q-1 -4 -1 -10l-12 -82q-2 -13 -5.5 -16t-16.5 -3h-398q-14 0 -17.5 3.5t-3.5 17.5v80l272 471h-241q-20 0 -20 11q0 3 2 12l18 74q3 12 6.5 14.5t15.5 2.5h344q14 0 17.5 -3.5t3.5 -17.5v-90l-265 -452h280q21 0 21 -12zM327 809q0 -31 -22.5 -54t-54.5 -23 q-33 0 -55.5 23t-22.5 55t23 54.5t56 22.5q31 0 53.5 -23t22.5 -55z"/>
    <glyph glyph-name="zdotaccent" unicode="ż" horiz-adv-x="426" d="M303 637q0 -31 -22.5 -54t-54.5 -23q-33 0 -55.5 23t-22.5 55t23 54.5t56 22.5q31 0 53.5 -23t22.5 -55zM414 95q0 -3 -3 -11l-30 -71q-5 -13 -19 -13h-320q-11 0 -14 3t-3 14v69l233 308h-195q-11 0 -14 3t-3 14v66q0 11 3 14t14 3h315q10 0 13.5 -3t3.5 -14v-73 l-226 -299h229q16 0 16 -10z"/>
    <glyph glyph-name="Zcaron" unicode="Ž" d="M413 838q0 -6 -12 -14l-123 -84q-8 -4 -15 -4q-8 0 -14 4l-126 87q-8 5 -8 12q0 3 6 14l19 31q8 12 14 12q4 0 15 -5l95 -43l95 43q10 5 16 5q5 0 13 -12l19 -31q6 -10 6 -15zM485 111q-1 -4 -1 -10l-12 -82q-2 -13 -5.5 -16t-16.5 -3h-398q-14 0 -17.5 3.5t-3.5 17.5v80 l272 471h-241q-20 0 -20 11q0 3 2 12l18 74q3 12 6.5 14.5t15.5 2.5h344q14 0 17.5 -3.5t3.5 -17.5v-90l-265 -452h280q21 0 21 -12z"/>
    <glyph glyph-name="zcaron" unicode="ž" horiz-adv-x="426" d="M358 682q0 -6 -11 -15l-113 -89q-10 -8 -15 -8q-4 0 -14 8l-112 89q-11 9 -11 15q0 4 6 14l19 31q8 13 15 13q2 0 13 -6l85 -50l86 50q11 6 13 6q8 0 15 -13l18 -31q6 -12 6 -14zM414 95q0 -3 -3 -11l-30 -71q-5 -13 -19 -13h-320q-11 0 -14 3t-3 14v69l233 308h-195 q-11 0 -14 3t-3 14v66q0 11 3 14t14 3h315q10 0 13.5 -3t3.5 -14v-73l-226 -299h229q16 0 16 -10z"/>
    <glyph glyph-name="florin" unicode="ƒ" horiz-adv-x="537" d="M543 691l-1 -8l-25 -72q-2 -5 -6 -5q-3 0 -7 2q-34 14 -54 14q-29 0 -43 -17.5t-25 -67.5l-9 -43h104q20 0 20 -11q0 -7 -2 -13l-15 -49q-5 -16 -23 -16h-103l-80 -412q-19 -96 -53 -136q-51 -62 -143 -62q-30 0 -73 8q-12 3 -12 10q0 3 2 7l21 74q3 7 7 7q5 0 8 -1 q11 -4 33 -4q41 0 60 23t32 90l78 396h-61q-20 0 -20 9v2l1 12l9 48q3 18 22 18h70l13 64q18 89 52 121q43 40 123 40q36 0 68 -9t32 -19z"/>
    <glyph glyph-name="AEacute" unicode="Ǽ" horiz-adv-x="741" d="M490 830q0 -9 -15 -14l-177 -70q-2 0 -5 -1t-5.5 -1.5t-3.5 -0.5q-7 0 -13 14l-16 32q-5 9 -5 14t13 13l163 97q10 6 14 6q8 0 14 -14l31 -61q5 -10 5 -14zM719 674q0 -5 -2 -11l-16 -69q-4 -17 -22 -17h-199v-164h172q14 0 17.5 -3.5t3.5 -17.5v-67q0 -13 -3.5 -17 t-17.5 -4h-172v-195h215q13 0 17 -3.5t4 -17.5v-67q0 -13 -4 -17t-17 -4h-327q-13 0 -16.5 4t-3.5 17v160h-168l-64 -165q-7 -16 -23 -16h-95q-20 0 -20 12q0 4 4 13l276 646q4 11 7.5 13t15.5 2h418q20 0 20 -12zM349 623q-2 -6 -7 -19.5l-9.5 -25.5l-8.5 -23l-16 -40 l-14 -33l-85 -207h139v208q0 97 1 140z"/>
    <glyph glyph-name="aeacute" unicode="ǽ" horiz-adv-x="722" d="M481 657q0 -9 -15 -14l-177 -70q-2 0 -5 -1t-5.5 -1.5t-3.5 -0.5q-7 0 -13 14l-16 32q-5 9 -5 14t13 13l163 97q10 6 14 6q8 0 14 -14l31 -61q5 -10 5 -14zM691 242q0 -29 -19 -29h-265q2 -67 27 -96.5t78 -29.5q48 0 115 31q6 3 11 3q7 0 10 -9l25 -60q3 -3 3 -11 q0 -19 -59 -38.5t-115 -19.5q-107 0 -163 66q-69 -63 -159 -63q-69 0 -108 39.5t-39 109.5q0 89 58.5 128.5t195.5 42.5v42q0 65 -61 65q-52 0 -115 -26q-6 -3 -11 -3q-8 0 -11 11l-21 59q-2 7 -2 10q0 12 30 23q65 24 130 24q95 0 131 -66q51 66 142 66q124 0 169 -113 q23 -56 23 -156zM559 306q-1 60 -18 87t-53 27q-48 0 -67 -45q-7 -17 -14 -69h152zM287 112v110q-64 0 -90 -11q-43 -19 -43 -70q0 -29 16 -47.5t41 -18.5q44 0 76 37z"/>
    <glyph glyph-name="Oslashacute" unicode="Ǿ" horiz-adv-x="574" d="M427 829q0 -9 -15 -14l-177 -70q-2 0 -5 -1t-5.5 -1.5t-3.5 -0.5q-7 0 -13 14l-16 32q-5 9 -5 14t13 13l163 97q10 6 14 6q8 0 14 -14l31 -61q5 -10 5 -14zM534 342q0 -359 -249 -359q-79 0 -134 37l-41 -77q-7 -14 -13 -14q-5 0 -15 5l-31 16q-14 7 -14 14q0 5 5 14 l54 102q-57 97 -57 262q0 105 18.5 171.5t61.5 116.5q64 73 166 73q69 0 123 -30l31 59q7 14 14 14q5 0 14 -5l31 -16q14 -7 14 -13q0 -7 -5 -15l-39 -75q66 -95 66 -280zM353 569q-27 31 -68 31q-56 0 -86.5 -67t-30.5 -192q0 -59 10 -143zM405 345q0 77 -11 159l-179 -380 q30 -38 73 -38q117 0 117 259z"/>
    <glyph glyph-name="oslashacute" unicode="ǿ" d="M400 657q0 -9 -15 -14l-177 -70q-2 0 -5 -1t-5.5 -1.5t-3.5 -0.5q-7 0 -13 14l-16 32q-5 9 -5 14t13 13l163 97q10 6 14 6q8 0 14 -14l31 -61q5 -10 5 -14zM468 248q0 -122 -58 -193.5t-158 -71.5q-58 0 -103 22l-27 -48q-6 -11 -11 -11q-3 0 -12 4l-26 14q-11 6 -11 12 q0 3 5 12l31 56q-65 75 -65 204q0 122 59 192.5t160 70.5q56 0 99 -22l25 44q7 12 11 12q3 0 12 -5l26 -14q11 -6 11 -11q0 -4 -4 -12l-30 -53q66 -76 66 -202zM298 396q-21 17 -49 17q-50 0 -72.5 -38.5t-22.5 -124.5q0 -52 10 -111zM347 242q0 58 -12 110l-132 -254 q24 -17 47 -17q51 0 74 38t23 123z"/>
    <glyph glyph-name="Scommaaccent" unicode="Ș" horiz-adv-x="482" d="M451 194q0 -93 -60.5 -150.5t-157.5 -57.5q-61 0 -135 21.5t-74 38.5q0 3 2 11l33 86q3 9 9 9q3 0 9 -3q89 -49 153 -49q43 0 66.5 21.5t23.5 61.5q0 38 -21 61q-19 22 -114 69q-90 45 -123 86t-33 108q0 89 59.5 141t159.5 52q59 0 125 -21.5t66 -41.5q0 -2 -3 -8 l-36 -76q-4 -7 -9 -7q-3 0 -39 18q-50 26 -100 26q-42 0 -66.5 -19.5t-24.5 -53.5q0 -37 39 -63q17 -11 105 -55q77 -39 111.5 -87t34.5 -118zM297 -75l-80 -152q-8 -14 -18 -14q-2 0 -12 2l-35 9q-15 4 -15 13q0 4 3 13l35 137q5 17 22 17h85q21 0 21 -10q0 -6 -6 -15z"/>
    <glyph glyph-name="scommaaccent" unicode="ș" horiz-adv-x="426" d="M393 145q0 -68 -46 -116q-45 -46 -123 -46q-89 0 -170 42q-22 11 -22 19q0 3 3 12l23 61q4 10 10 10q3 0 9 -3q79 -43 136 -43q26 0 42 14.5t16 37.5q0 21 -14 32.5t-63 30.5q-78 29 -104 54q-40 38 -40 98q0 72 50 117.5t128 45.5q47 0 100 -16t53 -30q0 -5 -3 -11 l-25 -57q-5 -9 -10 -9q-2 0 -8 2q-58 26 -101 26q-64 0 -64 -51q0 -20 12.5 -31t53.5 -27q90 -35 116 -60q41 -41 41 -102zM278 -75l-80 -152q-8 -14 -18 -14q-2 0 -12 2l-35 9q-15 4 -15 13q0 4 3 13l35 137q5 17 22 17h85q21 0 21 -10q0 -6 -6 -15z"/>
    <glyph glyph-name="Tcommaaccent" unicode="Ț" horiz-adv-x="407" d="M437 675q0 -6 -2 -12l-21 -79q-3 -11 -7 -14t-15 -3h-123v-546q0 -14 -3.5 -17.5t-17.5 -3.5h-97q-14 0 -17.5 3.5t-3.5 17.5v546h-126q-14 0 -17.5 3t-3.5 17v78q0 14 3.5 17.5t17.5 3.5h413q20 0 20 -11zM268 -75l-80 -152q-8 -14 -18 -14q-2 0 -12 2l-35 9 q-15 4 -15 13q0 4 3 13l35 137q5 17 22 17h85q21 0 21 -10q0 -6 -6 -15z"/>
    <glyph glyph-name="tcommaaccent" unicode="ț" horiz-adv-x="370" d="M366 22q0 -7 -6 -11.5t-25 -10.5q-53 -17 -101 -17q-78 0 -113 51q-22 32 -22 106v261h-69q-11 0 -14 3t-3 14v59q0 11 3 14t14 3h69v126q0 10 2.5 13t13.5 5l92 13h9q10 0 10 -16v-141h114q17 0 17 -10q0 -6 -1 -9l-13 -59q-2 -9 -5.5 -12t-12.5 -3h-99v-243 q0 -40 7 -52t30 -12q24 0 66 17q6 2 9 2q7 0 10 -10l16 -70q2 -7 2 -11zM291 -75l-80 -152q-8 -14 -18 -14q-2 0 -12 2l-35 9q-15 4 -15 13q0 4 3 13l35 137q5 17 22 17h85q21 0 21 -10q0 -6 -6 -15z"/>
    <glyph glyph-name="circumflex" unicode="ˆ" d="M388 628q0 -2 -6 -13l-19 -32q-8 -13 -15 -13q-3 0 -13 6l-85 50l-86 -50q-10 -6 -13 -6q-8 0 -15 13l-18 32q-6 9 -6 13q0 6 11 15l113 89q10 8 14 8q5 0 15 -8l112 -89q11 -9 11 -15z"/>
    <glyph glyph-name="caron" unicode="ˇ" d="M388 682q0 -6 -11 -15l-113 -89q-10 -8 -15 -8q-4 0 -14 8l-112 89q-11 9 -11 15q0 4 6 14l19 31q8 13 15 13q2 0 13 -6l85 -50l86 50q10 6 13 6q8 0 15 -13l18 -31q6 -12 6 -14z"/>
    <glyph glyph-name="uni02C9" unicode="ˉ" d="M127 615v45q0 14 3.5 17.5t17.5 3.5h204q14 0 17 -3.5t3 -17.5v-45q0 -13 -3 -16.5t-17 -3.5h-204q-13 0 -17 3.5t-4 16.5z"/>
    <glyph glyph-name="breve" unicode="˘" d="M390 684q0 -33 -25 -70q-36 -51 -114 -51q-91 0 -126 64q-16 30 -16 55q0 14 11 15l67 8l5 1q4 0 5 -2t3 -15q9 -47 50 -47t49 47q2 17 6 17h2l5 -1l67 -8q11 -1 11 -13z"/>
    <glyph glyph-name="dotaccent" unicode="˙" d="M327 637q0 -31 -22.5 -54t-54.5 -23q-33 0 -55.5 23t-22.5 55t23 54.5t56 22.5q31 0 53.5 -23t22.5 -55z"/>
    <glyph glyph-name="ring" unicode="˚" d="M354 669q0 -43 -31 -74t-74 -31t-73.5 31t-30.5 74q0 44 31 74.5t75 30.5q42 0 72.5 -31t30.5 -74zM291 669q0 17 -12.5 29.5t-29.5 12.5t-29.5 -12.5t-12.5 -30.5q0 -17 12.5 -29.5t29.5 -12.5t29.5 12.5t12.5 30.5z"/>
    <glyph glyph-name="ogonek" unicode="˛" d="M328 -96l14 -45q2 -6 2 -9v-2q0 -10 -30.5 -21t-58.5 -11q-44 0 -71.5 23t-27.5 61q0 66 68 115l99 14q-83 -74 -83 -111q0 -24 28 -24q20 0 43 12q8 4 11 4q4 0 6 -6z"/>
    <glyph glyph-name="tilde" unicode="˜" d="M405 675q0 -9 -21 -40q-36 -54 -85 -54q-29 0 -66 25q-16 11 -30 11q-20 0 -36 -29q-5 -8 -9 -8q-2 0 -9 3l-47 24q-7 4 -7 9q0 9 22 44q33 49 81 49q31 0 71 -23q21 -12 32 -12q10 0 17 6t18 25q2 5 7 5q3 0 8 -3l46 -23q8 -3 8 -9z"/>
    <glyph glyph-name="hungarumlaut" unicode="˝" d="M486 685q0 -7 -10 -14l-114 -105q-9 -9 -15 -9q-2 0 -14 9l-16 14q-10 8 -10 15q0 4 8 14l94 122q9 11 15 11q5 0 15 -9l37 -33q10 -9 10 -15zM330 685q0 -5 -10 -14l-115 -105q-10 -9 -15 -9q-4 0 -14 9l-15 14q-10 9 -10 15q0 4 8 14l94 122q8 11 15 11q4 0 14 -9 l38 -33q10 -8 10 -15z"/>
    <glyph glyph-name="uni03A9" unicode="Ω" horiz-adv-x="737" d="M682 0h-261v105q122 115 122 269q0 100 -47 162t-131 62q-82 0 -133 -62.5t-51 -164.5q0 -154 123 -266v-105h-261v105h153q-154 115 -154 294q0 137 90.5 225t234.5 88q151 0 233.5 -87t82.5 -223q0 -184 -157 -297h156v-105z"/>
    <glyph glyph-name="uni03BC" unicode="μ" horiz-adv-x="537" d="M485 15q0 -5 -10 -8l-84 -19q-8 -2 -11 -2q-17 0 -30 55q-48 -58 -105 -58q-19 0 -53 11v-166q0 -10 -2 -13t-13 -5l-93 -20l-10 -1q-9 0 -9 16v666q0 10 2 13t13 5l93 20q2 1 8 1q11 0 11 -16v-310q0 -56 9 -73q14 -27 52 -27q40 0 83 36v351q0 10 2 13t13 5l93 20l10 1 q9 0 9 -16v-368q0 -64 19 -102q3 -4 3 -9z"/>
    <glyph glyph-name="pi" unicode="π" horiz-adv-x="696" d="M630 95l22 -83q-36 -21 -95 -21q-75 0 -109.5 43.5t-34.5 113.5v258h-119v-256q0 -96 -18 -150h-133q21 64 21 160v246q-56 -2 -97 -25q-15 38 -35 83q60 36 164 36h450v-94h-103v-240q0 -81 53 -81q14 0 34 10z"/>
    <glyph glyph-name="Wgrave" unicode="Ẁ" horiz-adv-x="778" d="M767 659q0 -6 -2 -12l-146 -643q-2 -11 -6.5 -14.5t-15.5 -3.5h-89q-13 0 -16.5 3t-5.5 15l-65 341q-18 94 -24 169q-5 -44 -13 -92q-6 -30 -8 -44q-4 -8 -7 -34l-77 -340q-3 -13 -6 -15.5t-16 -2.5h-90q-13 0 -16.5 2.5t-5.5 15.5l-132 646q-2 5 -2 10q0 10 18 14l88 17 q10 1 11 1q9 0 13 -18l60 -332q11 -65 21 -171l5 31.5l4 24.5q1 5 3 19.5t5 33t7 37.5l79 348q3 13 6.5 15.5t16.5 2.5h80q13 0 16 -2.5t6 -15.5l68 -315q13 -61 23 -137l6 -47q10 106 24 184l58 324q2 11 4.5 14.5t8.5 3.5q3 0 11 -2l84 -18q17 -4 17 -13zM452 801 q0 -5 -5 -13l-15 -32q-6 -14 -14 -14q-1 0 -13 3l-177 70q-16 7 -16 14q0 4 5 14l31 61q8 14 14 14q4 0 14 -6l163 -97q13 -8 13 -14z"/>
    <glyph glyph-name="wgrave" unicode="ẁ" horiz-adv-x="667" d="M393 629q0 -5 -5 -13l-15 -32q-6 -14 -14 -14q-1 0 -13 3l-177 70q-16 7 -16 14q0 4 5 14l31 61q8 14 14 14q4 0 14 -6l163 -97q13 -8 13 -14zM658 477q0 -1 -0.5 -1.5t-1 -3t-1.5 -5.5l-138 -461q-3 -10 -6 -12t-13 -2h-83q-10 0 -13 2.5t-5 13.5l-47 253q-4 20 -7 51 l-4 37l-3 24q-13 -91 -18 -112l-59 -254q-2 -10 -5 -12.5t-13 -2.5h-82q-10 0 -12.5 2t-5.5 13l-121 460q-2 9 -2 11q0 7 15 10l88 13q1 1 8 1q9 0 12 -14l47 -230q8 -40 21 -157q9 106 18 144l50 234q2 11 5 13t13 2h90q10 0 13 -2.5t5 -12.5l45 -225q10 -45 20 -153 q13 127 22 166l51 221q4 14 11 14q8 0 9 -1l82 -13q15 -3 15 -11z"/>
    <glyph glyph-name="Wacute" unicode="Ẃ" horiz-adv-x="778" d="M767 659q0 -6 -2 -12l-146 -643q-2 -11 -6.5 -14.5t-15.5 -3.5h-89q-13 0 -16.5 3t-5.5 15l-65 341q-18 94 -24 169q-5 -44 -13 -92q-6 -30 -8 -44q-4 -8 -7 -34l-77 -340q-3 -13 -6 -15.5t-16 -2.5h-90q-13 0 -16.5 2.5t-5.5 15.5l-132 646q-2 5 -2 10q0 10 18 14l88 17 q10 1 11 1q9 0 13 -18l60 -332q11 -65 21 -171l5 31.5l4 24.5q1 5 3 19.5t5 33t7 37.5l79 348q3 13 6.5 15.5t16.5 2.5h80q13 0 16 -2.5t6 -15.5l68 -315q13 -61 23 -137l6 -47q10 106 24 184l58 324q2 11 4.5 14.5t8.5 3.5q3 0 11 -2l84 -18q17 -4 17 -13zM590 829 q0 -9 -15 -14l-177 -70q-2 0 -5 -1t-5.5 -1.5t-3.5 -0.5q-7 0 -13 14l-16 32q-5 9 -5 14t13 13l163 97q10 6 14 6q8 0 14 -14l31 -61q5 -10 5 -14z"/>
    <glyph glyph-name="wacute" unicode="ẃ" horiz-adv-x="667" d="M531 657q0 -9 -15 -14l-177 -70q-2 0 -5 -1t-5.5 -1.5t-3.5 -0.5q-7 0 -13 14l-16 32q-5 9 -5 14t13 13l163 97q10 6 14 6q8 0 14 -14l31 -61q5 -10 5 -14zM658 477q0 -1 -0.5 -1.5t-1 -3t-1.5 -5.5l-138 -461q-3 -10 -6 -12t-13 -2h-83q-10 0 -13 2.5t-5 13.5l-47 253 q-4 20 -7 51l-4 37l-3 24q-13 -91 -18 -112l-59 -254q-2 -10 -5 -12.5t-13 -2.5h-82q-10 0 -12.5 2t-5.5 13l-121 460q-2 9 -2 11q0 7 15 10l88 13q1 1 8 1q9 0 12 -14l47 -230q8 -40 21 -157q9 106 18 144l50 234q2 11 5 13t13 2h90q10 0 13 -2.5t5 -12.5l45 -225 q10 -45 20 -153q13 127 22 166l51 221q4 14 11 14q8 0 9 -1l82 -13q15 -3 15 -11z"/>
    <glyph glyph-name="Wdieresis" unicode="Ẅ" horiz-adv-x="778" d="M767 659q0 -6 -2 -12l-146 -643q-2 -11 -6.5 -14.5t-15.5 -3.5h-89q-13 0 -16.5 3t-5.5 15l-65 341q-18 94 -24 169q-5 -44 -13 -92q-6 -30 -8 -44q-4 -8 -7 -34l-77 -340q-3 -13 -6 -15.5t-16 -2.5h-90q-13 0 -16.5 2.5t-5.5 15.5l-132 646q-2 5 -2 10q0 10 18 14l88 17 q10 1 11 1q9 0 13 -18l60 -332q11 -65 21 -171l5 31.5l4 24.5q1 5 3 19.5t5 33t7 37.5l79 348q3 13 6.5 15.5t16.5 2.5h80q13 0 16 -2.5t6 -15.5l68 -315q13 -61 23 -137l6 -47q10 106 24 184l58 324q2 11 4.5 14.5t8.5 3.5q3 0 11 -2l84 -18q17 -4 17 -13zM558 809 q0 -29 -20 -49t-49 -20t-49 20t-20 49t20.5 49t49.5 20q28 0 48 -20.5t20 -48.5zM381 809q0 -29 -20.5 -49t-48.5 -20t-48.5 20t-20.5 49t20.5 49t49.5 20q28 0 48 -20.5t20 -48.5z"/>
    <glyph glyph-name="wdieresis" unicode="ẅ" horiz-adv-x="667" d="M499 637q0 -29 -20.5 -49t-48.5 -20t-48.5 20t-20.5 49t20.5 49t49.5 20q28 0 48 -20.5t20 -48.5zM322 637q0 -29 -20 -49t-49 -20t-49 20t-20 49t20.5 49t49.5 20q28 0 48 -20.5t20 -48.5zM658 477q0 -1 -0.5 -1.5t-1 -3t-1.5 -5.5l-138 -461q-3 -10 -6 -12t-13 -2h-83 q-10 0 -13 2.5t-5 13.5l-47 253q-4 20 -7 51l-4 37l-3 24q-13 -91 -18 -112l-59 -254q-2 -10 -5 -12.5t-13 -2.5h-82q-10 0 -12.5 2t-5.5 13l-121 460q-2 9 -2 11q0 7 15 10l88 13q1 1 8 1q9 0 12 -14l47 -230q8 -40 21 -157q9 106 18 144l50 234q2 11 5 13t13 2h90 q10 0 13 -2.5t5 -12.5l45 -225q10 -45 20 -153q13 127 22 166l51 221q4 14 11 14q8 0 9 -1l82 -13q15 -3 15 -11z"/>
    <glyph glyph-name="Ygrave" unicode="Ỳ" horiz-adv-x="482" d="M502 662q0 -5 -5 -14l-184 -367v-260q0 -13 -3.5 -17t-17.5 -4h-95q-14 0 -17.5 3.5t-3.5 17.5v261l-192 368q-5 10 -5 14q0 10 19 13l104 17q7 2 10 2q5 0 8 -2.5t7 -12.5l80 -170q14 -29 42 -110q18 64 44 117l78 164q6 14 13 14q4 0 7 -1l5 -1l89 -19q17 -4 17 -13z M300 801q0 -5 -5 -13l-15 -32q-6 -14 -14 -14q-1 0 -13 3l-177 70q-16 7 -16 14q0 4 5 14l31 61q8 14 14 14q4 0 14 -6l163 -97q13 -8 13 -14z"/>
    <glyph glyph-name="ygrave" unicode="ỳ" horiz-adv-x="444" d="M286 629q0 -5 -5 -13l-15 -32q-6 -14 -14 -14q-1 0 -13 3l-177 70q-16 7 -16 14q0 4 5 14l31 61q8 14 14 14q4 0 14 -6l163 -97q13 -8 13 -14zM450 480q0 -3 -2 -10l-100 -366q-4 -12 -10 -36.5t-7 -29.5q-25 -104 -39.5 -143t-36.5 -65q-43 -52 -121 -52q-42 0 -89.5 16 t-47.5 31q0 3 4 11l31 64q4 7 9 7q3 0 8 -3q45 -22 77 -22t48.5 16.5t29.5 59.5l12 42h-42q-10 0 -13 2t-6 11l-157 456q-3 10 -3 11q0 9 16 10l102 11h7q8 0 12 -14l66 -246q19 -71 39 -173l15 84q5 30 9 46l10 43l56 245q4 15 11 15q4 0 8 -1l88 -10q16 -1 16 -10z"/>
    <glyph glyph-name="endash" unicode="–" d="M56 311h387q13 0 17 -3.5t4 -16.5v-68q0 -13 -4 -16.5t-17 -3.5h-387q-13 0 -17 3.5t-4 16.5v68q0 14 3.5 17t17.5 3z"/>
    <glyph glyph-name="emdash" unicode="—" horiz-adv-x="833" d="M54 309h725q13 0 17 -3.5t4 -17.5v-62q0 -13 -4 -16.5t-17 -3.5h-725q-13 0 -17 3.5t-4 16.5v62q0 14 3.5 17.5t17.5 3.5z"/>
    <glyph glyph-name="quoteleft" unicode="‘" horiz-adv-x="296" d="M244 693q0 -5 -2 -13l-63 -204q-5 -17 -22 -17h-97q-20 0 -20 11q0 6 5 15l119 223q8 14 14 14q1 0 3 -0.5t5 -1.5t5 -1l37 -13q16 -5 16 -13z"/>
    <glyph glyph-name="quoteright" unicode="’" horiz-adv-x="296" d="M256 704q0 -2 -6 -14l-119 -224q-8 -14 -14 -14q-2 0 -12 3l-38 13q-16 5 -16 13q0 4 3 13l62 204q5 17 23 17h96q21 0 21 -11z"/>
    <glyph glyph-name="quotesinglbase" unicode="‚" horiz-adv-x="296" d="M256 114q0 -6 -5 -14l-119 -224q-7 -14 -14 -14q-2 0 -12 3l-38 13q-16 6 -16 13q0 1 3 13l62 204q5 17 23 17h96q20 0 20 -11z"/>
    <glyph glyph-name="quotedblleft" unicode="“" d="M448 693q0 -7 -3 -13l-62 -204q-5 -17 -22 -17h-97q-20 0 -20 12q0 4 5 14l119 223q8 14 14 14q1 0 3 -0.5t5 -1.5t5 -1l37 -13q16 -5 16 -13zM244 693q0 -5 -2 -13l-63 -204q-5 -17 -22 -17h-97q-20 0 -20 11q0 6 5 15l119 223q8 14 14 14q1 0 3 -0.5t5 -1.5t5 -1 l37 -13q16 -5 16 -13z"/>
    <glyph glyph-name="quotedblright" unicode="”" d="M460 704q0 -5 -5 -15l-119 -223q-8 -14 -14 -14h-2q-4 0 -11 3l-37 13q-16 6 -16 13q0 4 3 13l62 204q5 17 22 17h97q20 0 20 -11zM256 704q0 -5 -5 -15l-119 -223q-8 -14 -13 -14q-3 0 -13 3l-38 13q-16 5 -16 13q0 3 3 13l62 204q5 17 23 17h96q20 0 20 -11z"/>
    <glyph glyph-name="quotedblbase" unicode="„" d="M460 114q0 -5 -5 -14l-119 -224q-7 -14 -14 -14h-2q-4 0 -11 3l-37 13q-16 6 -16 13q0 4 3 13l62 204q5 17 22 17h97q20 0 20 -11zM256 114q0 -6 -5 -14l-119 -224q-8 -14 -13 -14q-3 0 -13 3l-38 13q-16 6 -16 13q0 3 3 13l62 204q5 17 23 17h96q20 0 20 -11z"/>
    <glyph glyph-name="dagger" unicode="†" horiz-adv-x="537" d="M214 477v188q0 13 3.5 17t16.5 4h69q13 0 17 -4t4 -17v-188h117q13 0 17 -3.5t4 -17.5v-54q0 -14 -4 -17.5t-17 -3.5h-117v-572q0 -13 -4 -17t-17 -4h-69q-14 0 -17 3.5t-3 17.5v572h-117q-14 0 -17.5 3.5t-3.5 17.5v54q0 14 4 17.5t17 3.5h117z"/>
    <glyph glyph-name="daggerdbl" unicode="‡" horiz-adv-x="537" d="M214 477v188q0 13 3.5 17t16.5 4h69q13 0 17 -4t4 -17v-188h117q13 0 17 -3.5t4 -17.5v-54q0 -14 -4 -17.5t-17 -3.5h-117v-282h117q13 0 17 -3.5t4 -17.5v-54q0 -14 -4 -17.5t-17 -3.5h-117v-194q0 -13 -4 -17t-17 -4h-69q-14 0 -17 3.5t-3 17.5v194h-117 q-14 0 -17.5 3.5t-3.5 17.5v54q0 14 4 17.5t17 3.5h117v282h-117q-14 0 -17.5 3.5t-3.5 17.5v54q0 14 4 17.5t17 3.5h117z"/>
    <glyph glyph-name="bullet" unicode="•" d="M393 348q0 -58 -41.5 -100t-100.5 -42t-101.5 42t-42.5 100q0 60 41.5 101.5t102.5 41.5q58 0 100 -42t42 -101z"/>
    <glyph glyph-name="ellipsis" unicode="…" horiz-adv-x="889" d="M836 79q0 -40 -27.5 -67.5t-67.5 -27.5t-67.5 28t-27.5 68q0 39 28.5 66.5t68.5 27.5q38 0 65.5 -28t27.5 -67zM539 79q0 -40 -27.5 -67.5t-67.5 -27.5t-67.5 28t-27.5 68q0 39 28.5 66.5t68.5 27.5q38 0 65.5 -28t27.5 -67zM243 79q0 -40 -27.5 -67.5t-67.5 -27.5 t-67.5 28t-27.5 68q0 39 28.5 66.5t68.5 27.5q38 0 65.5 -28t27.5 -67z"/>
    <glyph glyph-name="perthousand" unicode="‰" horiz-adv-x="1185" d="M1142 166q0 -85 -41.5 -133t-115.5 -48q-69 0 -109 46t-40 126q0 84 42 133.5t114 49.5q68 0 109 -47.5t41 -126.5zM784 166q0 -85 -41.5 -133t-115.5 -48q-69 0 -109 46t-40 126q0 84 42 133.5t115 49.5q67 0 108 -47.5t41 -126.5zM599 664q0 -4 -3 -12l-281 -674 q-7 -18 -24 -18h-51q-20 0 -20 11q0 5 4 14l282 677q7 15 22 15h52q19 0 19 -13zM350 488q0 -85 -41.5 -133t-115.5 -48q-69 0 -109 46.5t-40 126.5q0 84 42.5 133.5t114.5 49.5q68 0 108.5 -48t40.5 -127zM1047 159q0 107 -59 107q-26 0 -40.5 -27t-14.5 -73 q0 -107 57 -107t57 100zM689 159q0 107 -59 107q-25 0 -40 -27.5t-15 -74.5q0 -105 57 -105t57 100zM255 482q0 107 -59 107q-26 0 -40.5 -27t-14.5 -74q0 -107 57 -107t57 101z"/>
    <glyph glyph-name="guilsinglleft" unicode="‹" horiz-adv-x="370" d="M308 48q0 -6 -12 -14l-50 -31q-12 -7 -15 -7q-5 0 -13 12l-170 222q-7 9 -7 14t7 14l170 228q9 12 14 12q4 0 14 -7l49 -31q13 -8 13 -14q0 -4 -7 -14l-123 -182l124 -188q6 -9 6 -14z"/>
    <glyph glyph-name="guilsinglright" unicode="›" horiz-adv-x="370" d="M329 250q0 -6 -6 -14l-170 -228q-10 -12 -14 -12q-6 0 -15 6l-49 31q-13 8 -13 14q0 5 7 15l123 182l-123 187q-7 11 -7 15q0 6 13 14l49 31q10 7 15 7q4 0 14 -12l170 -222q6 -8 6 -14z"/>
    <glyph glyph-name="fraction" unicode="⁄" horiz-adv-x="130" d="M249 665q0 -7 -3 -13l-281 -674q-7 -18 -24 -18h-51q-20 0 -20 11q0 3 4 14l282 677q7 15 22 15h52q19 0 19 -12z"/>
    <glyph glyph-name="zero.superior" unicode="⁰" horiz-adv-x="370" d="M345 638q0 -105 -35.5 -160.5t-126.5 -55.5q-77 0 -117.5 53t-40.5 154q0 215 168 215q152 0 152 -206zM251 621q0 82 -14 115.5t-51 33.5q-66 0 -66 -138q0 -72 15.5 -104.5t50.5 -32.5t50 29t15 97z"/>
    <glyph glyph-name="four.superior" unicode="⁴" horiz-adv-x="370" d="M25 527v64l163 243q6 10 13 10q6 0 12 -3l38 -15q12 -4 12 -13q0 -5 -3 -11l-148 -222h88l8 90q1 16 18 16h45q13 0 16 -2.5t3 -14.5v-91h31q13 0 16 -3t3 -16v-32q0 -11 -3.5 -14t-15.5 -3h-31v-72q0 -12 -3 -14.5t-16 -2.5h-54q-12 0 -15.5 2.5t-3.5 14.5v72h-154 q-13 0 -16 2.5t-3 14.5z"/>
    <glyph glyph-name="five.superior" unicode="⁵" horiz-adv-x="370" d="M332 570q0 -67 -47.5 -107.5t-127.5 -40.5q-51 0 -96 15q-16 6 -16 14q0 5 2 13l8 40q1 9 10 9q4 0 7 -1q45 -15 81 -15q43 0 68 19.5t25 52.5q0 28 -16 43.5t-44 15.5q-37 0 -61 -25q-7 -7 -13 -7q-8 0 -19 3l-29 8q-8 2 -10.5 4.5t-2.5 9.5q0 3 2 21l19 177 q2 11 4.5 13t13.5 2h191q13 0 15.5 -2.5t2.5 -14.5v-39q0 -12 -2.5 -14.5t-15.5 -2.5h-130l-10 -75q24 12 61 12q58 0 94 -35.5t36 -92.5z"/>
    <glyph glyph-name="six.superior" unicode="⁶" horiz-adv-x="370" d="M333 574q0 -68 -40 -110t-105 -42q-144 0 -144 178q0 112 53.5 178t142.5 66q33 0 60 -12q13 -6 13 -13q0 -6 -3 -15l-13 -36q-2 -7 -9 -7q-5 0 -9 2q-23 9 -38 9q-71 0 -97 -73q24 17 65 17q59 0 91.5 -40t32.5 -102zM244 572q0 72 -51 72q-25 0 -39 -19.5t-14 -54.5 q0 -73 50 -73q25 0 39.5 19.5t14.5 55.5z"/>
    <glyph glyph-name="seven.superior" unicode="⁷" horiz-adv-x="370" d="M317 791l-147 -356q-5 -12 -15 -12q-5 0 -17 2l-39 7q-17 3 -17 12q0 7 5 17l127 293h-150q-12 0 -15.5 2.5t-3.5 14.5v45q0 12 3.5 14.5t15.5 2.5h234q12 0 15.5 -2.5t3.5 -14.5v-25z"/>
    <glyph glyph-name="eight.superior" unicode="⁸" horiz-adv-x="370" d="M342 540q0 -59 -42.5 -88.5t-117.5 -29.5q-72 0 -114 30.5t-42 85.5q0 32 22 60t61 45q-66 31 -66 94q0 46 40.5 76.5t101.5 30.5q60 0 100 -30.5t40 -76.5q0 -57 -68 -92q85 -37 85 -105zM250 543q0 47 -69 66q-63 -26 -63 -66q0 -51 66 -51t66 51zM233 728 q0 20 -13.5 32.5t-35.5 12.5t-35.5 -12t-13.5 -32q0 -31 52 -53q46 23 46 52z"/>
    <glyph glyph-name="nine.superior" unicode="⁹" horiz-adv-x="370" d="M37 692q0 71 41 111.5t104 40.5q144 0 144 -178q0 -112 -53.5 -178t-142.5 -66q-37 0 -60 10q-13 6 -13 13q0 6 3 15l13 36q2 7 9 7q5 0 9 -2q18 -7 38 -7q71 0 99 80q-33 -24 -67 -24q-59 0 -91.5 40t-32.5 102zM126 694q0 -72 51 -72q25 0 39 19.5t14 54.5q0 73 -50 73 q-25 0 -39.5 -19.5t-14.5 -55.5z"/>
    <glyph glyph-name="zero.inferior" unicode="₀" horiz-adv-x="370" d="M345 41q0 -105 -35.5 -160.5t-126.5 -55.5q-77 0 -117.5 53t-40.5 154q0 215 168 215q152 0 152 -206zM251 24q0 82 -14 115.5t-51 33.5q-66 0 -66 -138q0 -72 15.5 -104.5t50.5 -32.5t50 29t15 97z"/>
    <glyph glyph-name="one.inferior" unicode="₁" horiz-adv-x="370" d="M78 -147v29q0 11 3.5 14.5t15.5 3.5h56v232l-60 -30q-8 -4 -12 -4q-7 0 -13 9l-16 28q-4 7 -4 11q0 5 9 11l124 79h46q12 0 15.5 -2.5t3.5 -14.5v-319h41q13 0 16 -2.5t3 -15.5v-29q0 -13 -3 -15.5t-16 -2.5h-190q-12 0 -15.5 3.5t-3.5 14.5z"/>
    <glyph glyph-name="two.inferior" unicode="₂" horiz-adv-x="370" d="M324 129q0 -43 -21 -73.5t-80 -70.5q-68 -47 -68 -72v-2h146q12 0 15.5 -3t3.5 -14v-41q0 -11 -3.5 -14.5t-15.5 -3.5h-234q-14 0 -14 13v5q0 62 22 101q13 22 32.5 39t71.5 54q57 42 57 80q0 44 -48 44q-21 0 -34.5 -10.5t-26.5 -36.5q-7 -13 -16 -13q-1 0 -7 2l-45 16 q-8 3 -8 13q0 13 10.5 33.5t24.5 32.5q44 39 108 39q62 0 96 -31t34 -87z"/>
    <glyph glyph-name="three.inferior" unicode="₃" horiz-adv-x="370" d="M317 -50q0 -58 -45.5 -91.5t-108.5 -33.5q-62 0 -105 20q-23 10 -23 18q0 5 1 7l13 43q3 8 12 8q6 0 12 -2q50 -22 83 -22q67 0 67 58q0 55 -77 55h-19q-12 0 -15.5 2.5t-3.5 14.5v38q0 11 3.5 13.5t15.5 2.5h20q66 0 66 51q0 20 -13.5 31.5t-35.5 11.5q-29 0 -53 -28 q-7 -8 -13 -8q-4 0 -11 5l-33 26q-6 5 -6 11q0 9 12 21q45 45 109 45q60 0 96.5 -30t36.5 -79q0 -53 -52 -87h-1q68 -28 68 -101z"/>
    <glyph glyph-name="four.inferior" unicode="₄" horiz-adv-x="370" d="M25 -70v64l163 243q6 10 13 10q6 0 12 -3l38 -15q12 -5 12 -13q0 -5 -3 -11l-148 -222h88l8 90q1 16 18 16h45q13 0 16 -2.5t3 -14.5v-91h31q13 0 16 -2.5t3 -16.5v-32q0 -11 -3.5 -14t-15.5 -3h-31v-72q0 -12 -3 -14.5t-16 -2.5h-54q-12 0 -15.5 2.5t-3.5 14.5v72h-154 q-13 0 -16 2.5t-3 14.5z"/>
    <glyph glyph-name="five.inferior" unicode="₅" horiz-adv-x="370" d="M332 -27q0 -67 -47.5 -107.5t-127.5 -40.5q-51 0 -96 15q-16 6 -16 14q0 5 2 13l8 40q1 9 10 9q4 0 7 -1q45 -15 81 -15q43 0 68 19.5t25 52.5q0 28 -16 43.5t-44 15.5q-37 0 -61 -25q-7 -7 -13 -7q-8 0 -19 3l-29 8q-8 2 -10.5 4.5t-2.5 9.5q0 3 2 21l19 177 q2 11 4.5 13t13.5 2h191q13 0 15.5 -2.5t2.5 -14.5v-39q0 -12 -2.5 -14.5t-15.5 -2.5h-130l-10 -75q24 12 61 12q58 0 94 -35.5t36 -92.5z"/>
    <glyph glyph-name="six.inferior" unicode="₆" horiz-adv-x="370" d="M333 -23q0 -68 -40 -110t-105 -42q-144 0 -144 178q0 112 53.5 178t142.5 66q33 0 60 -12q13 -6 13 -13q0 -6 -3 -15l-13 -36q-2 -7 -9 -7q-5 0 -9 2q-23 9 -38 9q-71 0 -97 -73q24 17 65 17q59 0 91.5 -40t32.5 -102zM244 -25q0 72 -51 72q-25 0 -39 -19.5t-14 -54.5 q0 -73 50 -73q25 0 39.5 19.5t14.5 55.5z"/>
    <glyph glyph-name="seven.inferior" unicode="₇" horiz-adv-x="370" d="M317 194l-147 -356q-5 -12 -15 -12q-5 0 -17 2l-39 7q-17 3 -17 12q0 7 5 17l127 293h-150q-12 0 -15.5 2.5t-3.5 14.5v45q0 12 3.5 14.5t15.5 2.5h234q12 0 15.5 -2.5t3.5 -14.5v-25z"/>
    <glyph glyph-name="eight.inferior" unicode="₈" horiz-adv-x="370" d="M342 -57q0 -59 -42.5 -88.5t-117.5 -29.5q-72 0 -114 30.5t-42 85.5q0 32 22 60t61 45q-66 31 -66 94q0 46 40.5 76.5t101.5 30.5q60 0 100 -30.5t40 -76.5q0 -57 -68 -92q85 -37 85 -105zM250 -54q0 47 -69 66q-63 -26 -63 -66q0 -51 66 -51t66 51zM233 131 q0 20 -13.5 32.5t-35.5 12.5t-35.5 -12t-13.5 -32q0 -31 52 -53q46 23 46 52z"/>
    <glyph glyph-name="nine.inferior" unicode="₉" horiz-adv-x="370" d="M37 95q0 71 41 111.5t104 40.5q144 0 144 -178q0 -112 -53.5 -178t-142.5 -66q-37 0 -60 10q-13 6 -13 13q0 6 3 15l13 36q2 7 9 7q5 0 9 -2q18 -7 38 -7q71 0 99 80q-33 -24 -67 -24q-59 0 -91.5 40t-32.5 102zM126 97q0 -72 51 -72q25 0 39 19.5t14 54.5q0 73 -50 73 q-25 0 -39.5 -19.5t-14.5 -55.5z"/>
    <glyph glyph-name="Euro" unicode="€" horiz-adv-x="537" d="M533 50q0 -13 -21 -27q-61 -40 -142 -40q-60 0 -106 22.5t-74 62.5t-44 87t-23 104h-77q-18 0 -18 10q0 6 1 11l2 10q3 14 7.5 17.5t17.5 3.5h63q-1 11 -1 34v17h-72q-18 0 -18 10q0 6 1 11l2 10q3 14 7.5 17.5t17.5 3.5h65q11 119 74 195q68 77 168 77q79 0 148 -50 q21 -15 21 -24q0 -3 -9 -19l-30 -54q-7 -14 -13 -14q-2 0 -30 22q-37 30 -79 30q-108 0 -122 -163h168q19 0 19 -11q0 -2 -2 -10l-2 -10q-2 -13 -6.5 -17t-18.5 -4h-160q0 -33 1 -51h149q12 0 15.5 -1.5t3.5 -8.5q0 -1 -2 -11l-2 -10q-2 -13 -6.5 -17t-18.5 -4h-135 q18 -168 133 -168q40 0 91 37q6 4 10 4t8 -9l37 -65q2 -6 2 -8z"/>
    <glyph glyph-name="litre" unicode="ℓ" horiz-adv-x="513" d="M429 46q-71 -62 -145 -62q-65 0 -102 39q-43 44 -43 132v69l-54 -55q-7 12 -20.5 32.5t-16.5 25.5l91 90v205q0 98 41 152t112 54q60 0 88.5 -37t28.5 -85q0 -68 -30.5 -129t-88.5 -127l-34 -39v-141q0 -95 61 -95q37 0 77 40q28 -53 35 -69zM336 590q0 48 -34 48 q-46 0 -46 -94v-134q11 11 18 22q62 82 62 158z"/>
    <glyph glyph-name="trademark" unicode="™" horiz-adv-x="704" d="M656 307q0 -12 -17 -12h-56q-10 0 -13.5 3t-3.5 12l-4 198v15q0 24 2 52l-2 -8l-4 -20q-4 -20 -10 -41l-40 -115q-4 -11 -18 -11h-38q-14 0 -18 12l-34 109q-8 26 -17 72q1 -25 2 -36q1 -9 1 -18l-1 -19l-5 -190q0 -9 -3.5 -12t-13.5 -3h-50q-17 0 -17 9v1l1 6l18 361 q1 9 4 11.5t13 2.5h61q14 0 18 -11l49 -141q7 -19 14 -50q5 22 16 50l53 141q4 11 18 11h58q16 0 17 -14l20 -361v-4zM283 676q0 -2 -2 -8l-13 -46q-4 -12 -18 -12h-72v-300q0 -9 -3.5 -12t-13.5 -3h-58q-12 0 -15.5 2.5t-3.5 12.5v300h-74q-10 0 -13.5 3t-3.5 12v46 q0 9 3.5 12t13.5 3h256q17 0 17 -10z"/>
    <glyph glyph-name="Omega" unicode="Ω" horiz-adv-x="737" d="M682 0h-261v105q122 115 122 269q0 100 -47 162t-131 62q-82 0 -133 -62.5t-51 -164.5q0 -154 123 -266v-105h-261v105h153q-154 115 -154 294q0 137 90.5 225t234.5 88q151 0 233.5 -87t82.5 -223q0 -184 -157 -297h156v-105z"/>
    <glyph glyph-name="estimated" unicode="℮" horiz-adv-x="677" d="M618 294h-453v-203q67 -65 161 -65q135 0 217 133q24 -14 36 -22q-49 -74 -107.5 -111.5t-145.5 -37.5q-129 0 -208 88t-79 218q0 131 78.5 218.5t209.5 87.5q132 0 209.5 -86.5t81.5 -219.5zM489 332v164q-69 67 -163 67q-97 0 -161 -66v-165h324z"/>
    <glyph glyph-name="onethird" unicode="⅓" horiz-adv-x="871" d="M306 286q0 -13 -3 -15.5t-16 -2.5h-190q-12 0 -15.5 3.5t-3.5 14.5v29q0 11 3.5 14.5t15.5 3.5h56v232l-60 -30q-8 -4 -12 -4q-7 0 -13 9l-16 28q-4 7 -4 11q0 5 9 11l124 79h46q12 0 15.5 -2.5t3.5 -14.5v-319h41q13 0 16 -2.5t3 -15.5v-29zM619 665q0 -7 -3 -13 l-281 -674q-7 -18 -24 -18h-51q-20 0 -20 11q0 3 4 14l282 677q7 15 22 15h52q19 0 19 -12zM817 115q0 -58 -45.5 -91.5t-108.5 -33.5q-62 0 -105 20q-23 10 -23 18q0 5 1 7l13 43q3 8 12 8q6 0 12 -2q50 -22 83 -22q67 0 67 58q0 55 -77 55h-19q-12 0 -15.5 2.5t-3.5 14.5 v38q0 11 3.5 13.5t15.5 2.5h20q66 0 66 51q0 20 -13.5 31.5t-35.5 11.5q-29 0 -53 -28q-7 -8 -13 -8q-4 0 -11 5l-33 26q-6 5 -6 11q0 9 12 21q45 45 109 45q60 0 96.5 -30t36.5 -79q0 -53 -52 -87h-1q68 -28 68 -101z"/>
    <glyph glyph-name="twothirds" unicode="⅔" horiz-adv-x="871" d="M324 562q0 -43 -21 -73.5t-80 -70.5q-68 -47 -68 -72v-2h146q12 0 15.5 -3t3.5 -14v-41q0 -11 -3.5 -14.5t-15.5 -3.5h-234q-14 0 -14 13v5q0 62 22 101q13 22 32.5 39t71.5 54q57 42 57 80q0 44 -48 44q-21 0 -34.5 -10.5t-26.5 -36.5q-7 -13 -16 -13q-1 0 -7 2l-45 16 q-8 3 -8 13q0 13 10.5 33.5t24.5 32.5q44 39 108 39q62 0 96 -31t34 -87zM619 665q0 -7 -3 -13l-281 -674q-7 -18 -24 -18h-51q-20 0 -20 11q0 3 4 14l282 677q7 15 22 15h52q19 0 19 -12zM817 115q0 -58 -45.5 -91.5t-108.5 -33.5q-62 0 -105 20q-23 10 -23 18q0 5 1 7 l13 43q3 8 12 8q6 0 12 -2q50 -22 83 -22q67 0 67 58q0 55 -77 55h-19q-12 0 -15.5 2.5t-3.5 14.5v38q0 11 3.5 13.5t15.5 2.5h20q66 0 66 51q0 20 -13.5 31.5t-35.5 11.5q-29 0 -53 -28q-7 -8 -13 -8q-4 0 -11 5l-33 26q-6 5 -6 11q0 9 12 21q45 45 109 45q60 0 96.5 -30 t36.5 -79q0 -53 -52 -87h-1q68 -28 68 -101z"/>
    <glyph glyph-name="oneeighth" unicode="⅛" horiz-adv-x="871" d="M306 286q0 -13 -3 -15.5t-16 -2.5h-190q-12 0 -15.5 3.5t-3.5 14.5v29q0 11 3.5 14.5t15.5 3.5h56v232l-60 -30q-8 -4 -12 -4q-7 0 -13 9l-16 28q-4 7 -4 11q0 5 9 11l124 79h46q12 0 15.5 -2.5t3.5 -14.5v-319h41q13 0 16 -2.5t3 -15.5v-29zM619 665q0 -7 -3 -13 l-281 -674q-7 -18 -24 -18h-51q-20 0 -20 11q0 3 4 14l282 677q7 15 22 15h52q19 0 19 -12zM842 108q0 -59 -42.5 -88.5t-117.5 -29.5q-72 0 -114 30.5t-42 85.5q0 32 22 60t61 45q-66 31 -66 94q0 46 40.5 76.5t101.5 30.5q60 0 100 -30.5t40 -76.5q0 -57 -68 -92 q85 -37 85 -105zM750 111q0 47 -69 66q-63 -26 -63 -66q0 -51 66 -51t66 51zM733 296q0 20 -13.5 32.5t-35.5 12.5t-35.5 -12t-13.5 -32q0 -31 52 -53q46 23 46 52z"/>
    <glyph glyph-name="threeeighths" unicode="⅜" horiz-adv-x="871" d="M317 383q0 -58 -45.5 -91.5t-108.5 -33.5q-62 0 -105 20q-23 10 -23 18q0 5 1 7l13 43q3 8 12 8q6 0 12 -2q50 -22 83 -22q67 0 67 58q0 55 -77 55h-19q-12 0 -15.5 2.5t-3.5 14.5v38q0 11 3.5 13.5t15.5 2.5h20q66 0 66 51q0 20 -13.5 31.5t-35.5 11.5q-29 0 -53 -28 q-7 -8 -13 -8q-4 0 -11 5l-33 26q-6 5 -6 11q0 9 12 21q45 45 109 45q60 0 96.5 -30t36.5 -79q0 -53 -52 -87h-1q68 -28 68 -101zM619 665q0 -7 -3 -13l-281 -674q-7 -18 -24 -18h-51q-20 0 -20 11q0 3 4 14l282 677q7 15 22 15h52q19 0 19 -12zM842 108q0 -59 -42.5 -88.5 t-117.5 -29.5q-72 0 -114 30.5t-42 85.5q0 32 22 60t61 45q-66 31 -66 94q0 46 40.5 76.5t101.5 30.5q60 0 100 -30.5t40 -76.5q0 -57 -68 -92q85 -37 85 -105zM750 111q0 47 -69 66q-63 -26 -63 -66q0 -51 66 -51t66 51zM733 296q0 20 -13.5 32.5t-35.5 12.5t-35.5 -12 t-13.5 -32q0 -31 52 -53q46 23 46 52z"/>
    <glyph glyph-name="fiveeighths" unicode="⅝" horiz-adv-x="871" d="M332 406q0 -67 -47.5 -107.5t-127.5 -40.5q-51 0 -96 15q-16 6 -16 14q0 5 2 13l8 40q1 9 10 9q4 0 7 -1q45 -15 81 -15q43 0 68 19.5t25 52.5q0 28 -16 43.5t-44 15.5q-37 0 -61 -25q-7 -7 -13 -7q-8 0 -19 3l-29 8q-8 2 -10.5 4.5t-2.5 9.5q0 3 2 21l19 177 q2 11 4.5 13t13.5 2h191q13 0 15.5 -2.5t2.5 -14.5v-39q0 -12 -2.5 -14.5t-15.5 -2.5h-130l-10 -75q24 12 61 12q58 0 94 -35.5t36 -92.5zM619 665q0 -7 -3 -13l-281 -674q-7 -18 -24 -18h-51q-20 0 -20 11q0 3 4 14l282 677q7 15 22 15h52q19 0 19 -12zM842 108 q0 -59 -42.5 -88.5t-117.5 -29.5q-72 0 -114 30.5t-42 85.5q0 32 22 60t61 45q-66 31 -66 94q0 46 40.5 76.5t101.5 30.5q60 0 100 -30.5t40 -76.5q0 -57 -68 -92q85 -37 85 -105zM750 111q0 47 -69 66q-63 -26 -63 -66q0 -51 66 -51t66 51zM733 296q0 20 -13.5 32.5 t-35.5 12.5t-35.5 -12t-13.5 -32q0 -31 52 -53q46 23 46 52z"/>
    <glyph glyph-name="seveneighths" unicode="⅞" horiz-adv-x="871" d="M317 627l-147 -356q-5 -12 -15 -12q-5 0 -17 2l-39 7q-17 3 -17 12q0 7 5 17l127 293h-150q-12 0 -15.5 2.5t-3.5 14.5v45q0 12 3.5 14.5t15.5 2.5h234q12 0 15.5 -2.5t3.5 -14.5v-25zM589 665q0 -7 -3 -13l-281 -674q-7 -18 -24 -18h-51q-20 0 -20 11q0 3 4 14l282 677 q7 15 22 15h52q19 0 19 -12zM842 108q0 -59 -42.5 -88.5t-117.5 -29.5q-72 0 -114 30.5t-42 85.5q0 32 22 60t61 45q-66 31 -66 94q0 46 40.5 76.5t101.5 30.5q60 0 100 -30.5t40 -76.5q0 -57 -68 -92q85 -37 85 -105zM750 111q0 47 -69 66q-63 -26 -63 -66q0 -51 66 -51 t66 51zM733 296q0 20 -13.5 32.5t-35.5 12.5t-35.5 -12t-13.5 -32q0 -31 52 -53q46 23 46 52z"/>
    <glyph glyph-name="partialdiff" unicode="∂" horiz-adv-x="602" d="M567 463q0 -93 -25 -188q-35 -126 -109.5 -206t-180.5 -80q-93 0 -150.5 56.5t-57.5 145.5q0 141 79.5 221.5t180.5 80.5q46 0 81 -18t50 -45h2q4 34 4 55q0 71 -34.5 110.5t-95.5 39.5q-55 0 -99 -28q-5 14 -14 42.5t-14 42.5q58 39 147 39q110 0 173 -71t63 -197z M422 334q-23 70 -93 70q-62 0 -108.5 -64t-46.5 -155q0 -45 22 -71.5t59 -26.5q60 0 104.5 71t62.5 176z"/>
    <glyph glyph-name="Delta" unicode="∆" horiz-adv-x="642" d="M651 0h-626v55l226 645h178l222 -645v-55zM496 106l-144 427q-3 11 -16 62h-4q0 -1 -5 -23t-10 -37l-145 -429h324z"/>
    <glyph glyph-name="product" unicode="∏" horiz-adv-x="753" d="M676 -230h-132v817h-335v-817h-132v930h599v-930z"/>
    <glyph glyph-name="summation" unicode="∑" horiz-adv-x="659" d="M606 -230h-584v69l302 401l-284 385v75h545v-105h-380l257 -353l-273 -367h417v-105z"/>
    <glyph glyph-name="minus" unicode="−" d="M43 386h414q13 0 17 -4t4 -17v-63q0 -13 -4 -16.5t-17 -3.5h-414q-13 0 -17 3.5t-4 16.5v63q0 13 4 17t17 4z"/>
    <glyph glyph-name="uni2215" unicode="∕" horiz-adv-x="130" d="M249 665q0 -7 -3 -13l-281 -674q-7 -18 -24 -18h-51q-20 0 -20 11q0 3 4 14l282 677q7 15 22 15h52q19 0 19 -12z"/>
    <glyph glyph-name="uni2219" unicode="∙" horiz-adv-x="296" d="M220 334q0 -29 -21 -50t-50 -21q-30 0 -51.5 21t-21.5 50q0 31 21 51.5t51 20.5q29 0 50.5 -21t21.5 -51z"/>
    <glyph glyph-name="radical" unicode="√" horiz-adv-x="549" d="M358 -12h-100l-130 309l-57 -36l-38 63l149 98l125 -303l158 610h86z"/>
    <glyph glyph-name="infinity" unicode="∞" horiz-adv-x="823" d="M775 294q0 -79 -50.5 -130.5t-129.5 -51.5q-56 0 -105 28.5t-82 78.5h-2q-77 -107 -186 -107q-77 0 -129.5 48.5t-52.5 130.5t52.5 131t128.5 49q111 0 187 -108h2q29 44 76.5 76t107.5 32q80 0 131.5 -50t51.5 -127zM676 293q0 39 -23.5 64.5t-67.5 25.5q-70 0 -130 -91 q55 -93 130 -93q44 0 67.5 27t23.5 67zM358 292q-60 91 -131 91q-42 0 -66 -26.5t-24 -65.5t25.5 -65.5t65.5 -26.5q73 0 130 93z"/>
    <glyph glyph-name="integral" unicode="∫" horiz-adv-x="510" d="M428 642q-22 9 -45 9q-72 0 -72 -87v-599q0 -93 -46 -146.5t-136 -53.5q-55 0 -89 15q3 13 11 44.5l12 47.5q24 -8 46 -8q71 0 71 88v597q0 93 46.5 147t136.5 54q61 0 91 -17z"/>
    <glyph glyph-name="approxequal" unicode="≈" d="M491 423q-30 -47 -63 -70t-78 -23q-60 0 -106 31q-47 32 -87 32q-18 0 -34.5 -12.5t-24 -23.5t-18.5 -30l-70 82q30 44 62 68t80 24q56 0 104 -30q54 -32 89 -32q41 0 76 66zM491 188q-30 -47 -63 -70t-78 -23q-60 0 -106 31q-47 32 -87 32q-18 0 -34.5 -12.5t-24 -23.5 t-18.5 -30l-70 82q30 44 62 68t80 24q53 0 104 -30q56 -33 89 -33q40 0 76 66z"/>
    <glyph glyph-name="notequal" unicode="≠" d="M458 128h-218l-43 -104h-119l43 104h-78v108h123l53 128h-176v108h221l51 121h118l-50 -121h75v-108h-120l-54 -128h174v-108z"/>
    <glyph glyph-name="lessequal" unicode="≤" d="M458 0h-415v108h415v-108zM458 143l-415 172v101l415 172v-112l-284 -110v-2l284 -111v-110z"/>
    <glyph glyph-name="greaterequal" unicode="≥" d="M457 0h-414v108h414v-108zM458 315l-415 -171v112l284 110v2l-284 110v110l415 -172v-101z"/>
    <glyph glyph-name="lozenge" unicode="◊" horiz-adv-x="589" d="M311 700l211 -350l-211 -350h-61l-210 349l210 351h61zM426 350l-145 243l-145 -243l145 -243z"/>
    <glyph glyph-name="a.sc" unicode="" horiz-adv-x="491" d="M484 24q2 -8 2 -11q0 -13 -21 -13h-95q-12 0 -15.5 2.5t-6.5 13.5l-36 121h-143l-34 -121q-3 -11 -7 -13.5t-16 -2.5h-89q-20 0 -20 12q0 1 2 9l173 505q3 10 7 13t16 3h89q12 0 16 -2.5t8 -13.5zM285 226l-32 125q-4 17 -8.5 45.5l-6.5 41.5q-12 -70 -17 -88l-34 -124 h98z"/>
    <glyph glyph-name="ae.sc" unicode="" horiz-adv-x="656" d="M631 520l-15 -64q-4 -17 -24 -17h-167v-105h145q14 0 18 -3.5t4 -16.5v-62q0 -12 -4.5 -16.5t-17.5 -4.5h-145v-128h182q14 0 18.5 -4t4.5 -17v-61q0 -12 -5 -16.5t-18 -4.5h-283q-13 0 -17.5 4.5t-4.5 16.5v115h-142l-51 -122q-6 -14 -24 -14h-86q-19 0 -19 11q0 4 5 14 l238 503q6 14 24 14h366q19 0 19 -13q0 -6 -1 -9zM302 226v217v27l-15.5 -40.5t-21.5 -53.5l-72 -150h109z"/>
    <glyph glyph-name="aacute.sc" unicode="" horiz-adv-x="491" d="M399 687q0 -9 -15 -14l-177 -70q-2 0 -5 -1t-5.5 -1.5t-3.5 -0.5q-7 0 -13 14l-16 32q-5 9 -5 14t13 13l163 97q10 6 14 6q8 0 14 -14l31 -61q5 -10 5 -14zM484 24q2 -8 2 -11q0 -13 -21 -13h-95q-12 0 -15.5 2.5t-6.5 13.5l-36 121h-143l-34 -121q-3 -11 -7 -13.5 t-16 -2.5h-89q-20 0 -20 12q0 1 2 9l173 505q3 10 7 13t16 3h89q12 0 16 -2.5t8 -13.5zM285 226l-32 125q-4 17 -8.5 45.5l-6.5 41.5q-12 -70 -17 -88l-34 -124h98z"/>
    <glyph glyph-name="acircumflex.sc" unicode="" horiz-adv-x="491" d="M378 658q0 -2 -6 -13l-19 -32q-8 -13 -15 -13q-3 0 -13 6l-85 50l-86 -50q-10 -6 -13 -6q-8 0 -15 13l-18 32q-6 9 -6 13q0 6 11 15l113 89q10 8 14 8q5 0 15 -8l112 -89q11 -9 11 -15zM484 24q2 -8 2 -11q0 -13 -21 -13h-95q-12 0 -15.5 2.5t-6.5 13.5l-36 121h-143 l-34 -121q-3 -11 -7 -13.5t-16 -2.5h-89q-20 0 -20 12q0 1 2 9l173 505q3 10 7 13t16 3h89q12 0 16 -2.5t8 -13.5zM285 226l-32 125q-4 17 -8.5 45.5l-6.5 41.5q-12 -70 -17 -88l-34 -124h98z"/>
    <glyph glyph-name="adieresis.sc" unicode="" horiz-adv-x="491" d="M401 682q0 -28 -20.5 -48.5t-48.5 -20.5t-48.5 20.5t-20.5 48.5q0 29 20.5 49t49.5 20q28 0 48 -20.5t20 -48.5zM224 682q0 -28 -20 -48.5t-49 -20.5t-49 20.5t-20 48.5q0 29 20.5 49t49.5 20q28 0 48 -20.5t20 -48.5zM484 24q2 -8 2 -11q0 -13 -21 -13h-95 q-12 0 -15.5 2.5t-6.5 13.5l-36 121h-143l-34 -121q-3 -11 -7 -13.5t-16 -2.5h-89q-20 0 -20 12q0 1 2 9l173 505q3 10 7 13t16 3h89q12 0 16 -2.5t8 -13.5zM285 226l-32 125q-4 17 -8.5 45.5l-6.5 41.5q-12 -70 -17 -88l-34 -124h98z"/>
    <glyph glyph-name="agrave.sc" unicode="" horiz-adv-x="491" d="M341 659q0 -5 -5 -13l-15 -32q-6 -14 -14 -14q-1 0 -13 3l-177 70q-16 7 -16 14q0 4 5 14l31 61q8 14 14 14q4 0 14 -6l163 -97q13 -8 13 -14zM484 24q2 -8 2 -11q0 -13 -21 -13h-95q-12 0 -15.5 2.5t-6.5 13.5l-36 121h-143l-34 -121q-3 -11 -7 -13.5t-16 -2.5h-89 q-20 0 -20 12q0 1 2 9l173 505q3 10 7 13t16 3h89q12 0 16 -2.5t8 -13.5zM285 226l-32 125q-4 17 -8.5 45.5l-6.5 41.5q-12 -70 -17 -88l-34 -124h98z"/>
    <glyph glyph-name="aring.sc" unicode="" horiz-adv-x="491" d="M345 705q0 -43 -30.5 -74t-74.5 -31q-43 0 -73.5 31t-30.5 74q0 44 31 74.5t75 30.5q42 0 72.5 -31t30.5 -74zM484 24q2 -8 2 -11q0 -13 -21 -13h-95q-12 0 -15.5 2.5t-6.5 13.5l-36 121h-143l-34 -121q-3 -11 -7 -13.5t-16 -2.5h-89q-20 0 -20 12q0 1 2 9l173 505 q3 10 7 13t16 3h89q12 0 16 -2.5t8 -13.5zM282 705q0 17 -12.5 29.5t-29.5 12.5t-29.5 -12.5t-12.5 -30.5q0 -17 12.5 -29.5t29.5 -12.5t29.5 12.5t12.5 30.5zM285 226l-32 125q-4 17 -8.5 45.5l-6.5 41.5q-12 -70 -17 -88l-34 -124h98z"/>
    <glyph glyph-name="atilde.sc" unicode="" horiz-adv-x="491" d="M395 710q0 -9 -21 -40q-36 -54 -85 -54q-29 0 -66 25q-16 11 -30 11q-20 0 -36 -29q-5 -8 -9 -8q-2 0 -9 3l-47 24q-7 4 -7 9q0 9 22 44q33 49 81 49q31 0 71 -23q21 -12 32 -12q10 0 17 6t18 25q2 5 7 5q3 0 8 -3l46 -23q8 -3 8 -9zM484 24q2 -8 2 -11q0 -13 -21 -13 h-95q-12 0 -15.5 2.5t-6.5 13.5l-36 121h-143l-34 -121q-3 -11 -7 -13.5t-16 -2.5h-89q-20 0 -20 12q0 1 2 9l173 505q3 10 7 13t16 3h89q12 0 16 -2.5t8 -13.5zM285 226l-32 125q-4 17 -8.5 45.5l-6.5 41.5q-12 -70 -17 -88l-34 -124h98z"/>
    <glyph glyph-name="b.sc" unicode="" horiz-adv-x="493" d="M458 155q0 -52 -31.5 -93.5t-78.5 -52.5q-40 -9 -109 -9h-147q-13 0 -17.5 4t-4.5 17v501q0 12 4.5 16t17.5 4h140q71 0 102.5 -7t55.5 -28q46 -38 46 -106q0 -81 -77 -117q47 -14 73 -48t26 -81zM314 393q0 29 -18.5 41.5t-61.5 12.5h-43v-124h45q38 0 58 18.5t20 51.5z M332 165q0 33 -23 48t-78 15h-41v-127h38q58 0 81 14t23 50z"/>
    <glyph glyph-name="c.sc" unicode="" horiz-adv-x="419" d="M369 113l37 -52q3 -5 3 -11q0 -21 -25 -34q-52 -29 -123 -29q-110 0 -168 74.5t-58 215.5q0 143 70 216q60 62 151 62q79 0 140 -45q13 -11 13 -18q0 -4 -3 -9l-39 -62q-5 -8 -13 -8q-4 0 -9 3q-47 31 -83 31q-42 0 -68 -37t-26 -116q0 -106 27 -152.5t80 -46.5 q39 0 72 23q8 4 10 4q5 0 12 -9z"/>
    <glyph glyph-name="ccedilla.sc" unicode="" horiz-adv-x="419" d="M149 -198l1 9l9 42q2 4 5 4t5 -1q18 -6 38 -6q30 0 30 23t-39 23q-14 0 -18 2t-4 10v6l9 84q-150 47 -150 279q0 143 70 216q60 62 151 62q79 0 140 -45q13 -11 13 -18q0 -4 -3 -9l-39 -62q-5 -8 -13 -8q-4 0 -9 3q-47 31 -83 31q-42 0 -68 -37t-26 -116 q0 -106 27 -152.5t80 -46.5q39 0 72 23q8 4 10 4q5 0 12 -9l37 -52q3 -5 3 -11q0 -21 -25 -34q-55 -29 -121 -29l-3 -42q72 -7 72 -73q0 -40 -30 -64t-79 -24q-31 0 -52.5 5t-21.5 13z"/>
    <glyph glyph-name="d.sc" unicode="" horiz-adv-x="518" d="M70 21v501q0 12 4.5 16t17.5 4h135q45 0 70 -1.5t61 -14t59 -37.5q66 -70 66 -213q0 -231 -140 -267q-36 -9 -97 -9h-19h-135q-13 0 -17.5 4t-4.5 17zM198 103h24q46 0 65 5.5t32 20.5q31 37 31 134q0 102 -32 145q-15 19 -35 25.5t-61 6.5h-24v-337z"/>
    <glyph glyph-name="eth.sc" unicode="" horiz-adv-x="518" d="M483 276q0 -231 -140 -267q-36 -9 -97 -9h-19h-135q-13 0 -17.5 4t-4.5 17v225h-35q-11 0 -13.5 2.5t-2.5 13.5v50q0 10 2.5 13t13.5 3h35v194q0 12 4.5 16t17.5 4h135q45 0 70 -1.5t61 -14t59 -37.5q66 -70 66 -213zM350 263q0 102 -32 145q-15 19 -35 25.5t-61 6.5h-24 v-112h64q11 0 13.5 -2.5t2.5 -13.5v-50q0 -11 -2.5 -13.5t-13.5 -2.5h-64v-143h24q46 0 65 5.5t32 20.5q31 37 31 134z"/>
    <glyph glyph-name="e.sc" unicode="" horiz-adv-x="423" d="M398 522l-17 -67q-4 -16 -22 -16h-162v-105h138q13 0 17.5 -4t4.5 -16v-62q0 -12 -4.5 -16.5t-17.5 -4.5h-138v-128h174q13 0 17.5 -4t4.5 -16v-62q0 -13 -4.5 -17t-17.5 -4h-279q-13 0 -17.5 4t-4.5 17v501q0 12 4.5 16t17.5 4h291q17 0 17 -10q0 -2 -2 -10z"/>
    <glyph glyph-name="eacute.sc" unicode="" horiz-adv-x="423" d="M379 687q0 -9 -15 -14l-177 -70q-2 0 -5 -1t-5.5 -1.5t-3.5 -0.5q-7 0 -13 14l-16 32q-5 9 -5 14t13 13l163 97q10 6 14 6q8 0 14 -14l31 -61q5 -10 5 -14zM398 522l-17 -67q-4 -16 -22 -16h-162v-105h138q13 0 17.5 -4t4.5 -16v-62q0 -12 -4.5 -16.5t-17.5 -4.5h-138 v-128h174q13 0 17.5 -4t4.5 -16v-62q0 -13 -4.5 -17t-17.5 -4h-279q-13 0 -17.5 4t-4.5 17v501q0 12 4.5 16t17.5 4h291q17 0 17 -10q0 -2 -2 -10z"/>
    <glyph glyph-name="ecircumflex.sc" unicode="" horiz-adv-x="423" d="M363 658q0 -2 -6 -13l-19 -32q-8 -13 -15 -13q-3 0 -13 6l-85 50l-86 -50q-10 -6 -13 -6q-8 0 -15 13l-18 32q-6 9 -6 13q0 6 11 15l113 89q10 8 14 8q5 0 15 -8l112 -89q11 -9 11 -15zM398 522l-17 -67q-4 -16 -22 -16h-162v-105h138q13 0 17.5 -4t4.5 -16v-62 q0 -12 -4.5 -16.5t-17.5 -4.5h-138v-128h174q13 0 17.5 -4t4.5 -16v-62q0 -13 -4.5 -17t-17.5 -4h-279q-13 0 -17.5 4t-4.5 17v501q0 12 4.5 16t17.5 4h291q17 0 17 -10q0 -2 -2 -10z"/>
    <glyph glyph-name="edieresis.sc" unicode="" horiz-adv-x="423" d="M381 682q0 -28 -20.5 -48.5t-48.5 -20.5t-48.5 20.5t-20.5 48.5q0 29 20.5 49t49.5 20q28 0 48 -20.5t20 -48.5zM204 682q0 -28 -20 -48.5t-49 -20.5t-49 20.5t-20 48.5q0 29 20.5 49t49.5 20q28 0 48 -20.5t20 -48.5zM398 522l-17 -67q-4 -16 -22 -16h-162v-105h138 q13 0 17.5 -4t4.5 -16v-62q0 -12 -4.5 -16.5t-17.5 -4.5h-138v-128h174q13 0 17.5 -4t4.5 -16v-62q0 -13 -4.5 -17t-17.5 -4h-279q-13 0 -17.5 4t-4.5 17v501q0 12 4.5 16t17.5 4h291q17 0 17 -10q0 -2 -2 -10z"/>
    <glyph glyph-name="egrave.sc" unicode="" horiz-adv-x="423" d="M301 659q0 -5 -5 -13l-15 -32q-6 -14 -14 -14q-1 0 -13 3l-177 70q-16 7 -16 14q0 4 5 14l31 61q8 14 14 14q4 0 14 -6l163 -97q13 -8 13 -14zM398 522l-17 -67q-4 -16 -22 -16h-162v-105h138q13 0 17.5 -4t4.5 -16v-62q0 -12 -4.5 -16.5t-17.5 -4.5h-138v-128h174 q13 0 17.5 -4t4.5 -16v-62q0 -13 -4.5 -17t-17.5 -4h-279q-13 0 -17.5 4t-4.5 17v501q0 12 4.5 16t17.5 4h291q17 0 17 -10q0 -2 -2 -10z"/>
    <glyph glyph-name="f.sc" unicode="" horiz-adv-x="398" d="M398 520l-17 -65q-3 -10 -7.5 -13t-15.5 -3h-161v-105h138q13 0 17.5 -4t4.5 -16v-62q0 -12 -4.5 -16.5t-17.5 -4.5h-138v-210q0 -13 -4.5 -17t-17.5 -4h-83q-13 0 -17.5 4t-4.5 17v501q0 13 4 16.5t18 3.5h288q20 0 20 -12q0 -2 -2 -10z"/>
    <glyph glyph-name="g.sc" unicode="" horiz-adv-x="488" d="M333 103v87h-60q-14 0 -18 3.5t-4 16.5v64q0 12 4 15.5t18 3.5h154q14 0 17.5 -3t3.5 -16v-224q0 -10 -3.5 -14t-16.5 -11q-68 -38 -158 -38q-235 0 -235 281q0 141 60 214t177 73q93 0 156 -41q7 -5 7 -13q0 -2 -2 -8l-35 -65q-4 -7 -9 -7q-3 0 -11 4q-55 29 -101 29 q-55 0 -83.5 -42.5t-28.5 -137.5q0 -93 31 -145q23 -38 82 -38q26 0 55 12z"/>
    <glyph glyph-name="h.sc" unicode="" horiz-adv-x="545" d="M70 21v501q0 12 4.5 16t17.5 4h83q13 0 18 -4t5 -16v-194h152v194q0 12 4 16t17 4h83q13 0 17 -4t4 -16v-501q0 -13 -4 -17t-17 -4h-83q-13 0 -17 4t-4 17v210h-152v-210q0 -12 -5 -16.5t-18 -4.5h-83q-13 0 -17.5 4t-4.5 17z"/>
    <glyph glyph-name="i.sc" unicode="" horiz-adv-x="312" d="M30 21v53q0 13 4 16.5t17 3.5h43v354h-43q-13 0 -17 3.5t-4 16.5v54q0 12 4 16t17 4h209q13 0 17.5 -4t4.5 -16v-54q0 -13 -4 -16.5t-18 -3.5h-42v-354h42q13 0 17.5 -4t4.5 -16v-53q0 -13 -4.5 -17t-17.5 -4h-209q-13 0 -17 4t-4 17z"/>
    <glyph glyph-name="iacute.sc" unicode="" horiz-adv-x="312" d="M304 687q0 -9 -15 -14l-177 -70q-2 0 -5 -1t-5.5 -1.5t-3.5 -0.5q-7 0 -13 14l-16 32q-5 9 -5 14t13 13l163 97q10 6 14 6q8 0 14 -14l31 -61q5 -10 5 -14zM282 21q0 -13 -4.5 -17t-17.5 -4h-209q-13 0 -17 4t-4 17v53q0 13 4 16.5t17 3.5h43v354h-43q-13 0 -17 3.5 t-4 16.5v54q0 12 4 16t17 4h209q13 0 17.5 -4t4.5 -16v-54q0 -13 -4 -16.5t-18 -3.5h-42v-354h42q13 0 17.5 -4t4.5 -16v-53z"/>
    <glyph glyph-name="icircumflex.sc" unicode="" horiz-adv-x="312" d="M295 658q0 -2 -6 -13l-19 -32q-8 -13 -15 -13q-3 0 -13 6l-85 50l-86 -50q-11 -6 -13 -6q-8 0 -15 13l-18 32q-6 9 -6 13q0 6 11 15l113 89q10 8 14 8q5 0 15 -8l112 -89q11 -9 11 -15zM282 21q0 -13 -4.5 -17t-17.5 -4h-209q-13 0 -17 4t-4 17v53q0 13 4 16.5t17 3.5h43 v354h-43q-13 0 -17 3.5t-4 16.5v54q0 12 4 16t17 4h209q13 0 17.5 -4t4.5 -16v-54q0 -13 -4 -16.5t-18 -3.5h-42v-354h42q13 0 17.5 -4t4.5 -16v-53z"/>
    <glyph glyph-name="idieresis.sc" unicode="" horiz-adv-x="312" d="M314 682q0 -28 -20 -48.5t-49 -20.5t-49.5 20.5t-20.5 48.5q0 29 20.5 49t49.5 20q28 0 48.5 -20.5t20.5 -48.5zM137 682q0 -28 -20.5 -48.5t-48.5 -20.5q-29 0 -49.5 20.5t-20.5 48.5q0 29 20.5 49t49.5 20q28 0 48 -20.5t20 -48.5h1zM282 21q0 -13 -4.5 -17t-17.5 -4 h-209q-13 0 -17 4t-4 17v53q0 13 4 16.5t17 3.5h43v354h-43q-13 0 -17 3.5t-4 16.5v54q0 12 4 16t17 4h209q13 0 17.5 -4t4.5 -16v-54q0 -13 -4 -16.5t-18 -3.5h-42v-354h42q13 0 17.5 -4t4.5 -16v-53z"/>
    <glyph glyph-name="igrave.sc" unicode="" horiz-adv-x="312" d="M256 659q0 -5 -5 -13l-15 -32q-6 -14 -14 -14q-1 0 -13 3l-177 70q-16 7 -16 14q0 4 5 14l31 61q8 14 14 14q4 0 14 -6l163 -97q13 -8 13 -14zM282 21q0 -13 -4.5 -17t-17.5 -4h-209q-13 0 -17 4t-4 17v53q0 13 4 16.5t17 3.5h43v354h-43q-13 0 -17 3.5t-4 16.5v54 q0 12 4 16t17 4h209q13 0 17.5 -4t4.5 -16v-54q0 -13 -4 -16.5t-18 -3.5h-42v-354h42q13 0 17.5 -4t4.5 -16v-53z"/>
    <glyph glyph-name="j.sc" unicode="" horiz-adv-x="382" d="M5 167h82q15 0 15 -21q0 -31 12 -43t35 -12q22 0 31.5 12t9.5 50v295h-114q-13 0 -17 3.5t-4 16.5v54q0 12 4 16t17 4h219q13 0 17.5 -4t4.5 -16v-354q0 -53 -8.5 -83.5t-30.5 -52.5q-44 -45 -127 -45q-62 0 -97.5 21.5t-52.5 70.5q-11 29 -11 63q0 25 15 25z"/>
    <glyph glyph-name="k.sc" unicode="" horiz-adv-x="512" d="M70 20v502q0 12 4.5 16t17.5 4h84q13 0 17.5 -4t4.5 -16v-206l179 223q9 10 15 10q1 0 13 -4l68 -31q13 -7 13 -13t-7 -14l-178 -210l203 -222q8 -10 8 -15q0 -8 -14 -14l-85 -39q-4 -2 -7 -2q-7 0 -15 12l-193 228v-205q0 -12 -4.5 -16t-17.5 -4h-84q-14 0 -18 3.5 t-4 16.5z"/>
    <glyph glyph-name="l.sc" unicode="" horiz-adv-x="416" d="M416 93l-16 -77q-2 -10 -6 -13t-16 -3h-286q-13 0 -17.5 4t-4.5 17v501q0 12 4.5 16t17.5 4h83q13 0 17.5 -4t4.5 -16v-407h201q19 0 19 -12q0 -6 -1 -10z"/>
    <glyph glyph-name="lslash.sc" unicode="" horiz-adv-x="416" d="M416 93l-16 -77q-2 -10 -6 -13t-16 -3h-286q-13 0 -17.5 4t-4.5 17v171l-62 -41q-7 -5 -10 -5q-6 0 -6 11v63q0 10 8 16l70 47v239q0 12 4.5 16t17.5 4h83q13 0 17.5 -4t4.5 -16v-157l84 54q3 3 8 3q6 0 6 -11v-64q0 -8 -8 -14l-90 -59v-159h201q19 0 19 -12q0 -6 -1 -10 z"/>
    <glyph glyph-name="m.sc" unicode="" horiz-adv-x="618" d="M60 21l24 502q1 12 5 15.5t17 3.5h86q11 0 15 -2.5t8 -12.5l70 -197q3 -9 19 -77q12 40 26 78l73 196q4 10 7.5 12.5t15.5 2.5h82q12 0 16.5 -3.5t5.5 -15.5l28 -502v-5q0 -16 -21 -16h-79q-14 0 -18.5 4t-4.5 16l-5 274v81q-16 -61 -23 -83l-56 -159q-4 -10 -8 -13 t-16 -3h-52q-12 0 -16 3t-8 14l-48 151q-6 18 -23 88q0 -7 0.5 -22t0.5 -23t-0.5 -22.5t-0.5 -21.5l-7 -264q0 -12 -4.5 -16t-17.5 -4h-71q-12 0 -16 3t-4 13v5z"/>
    <glyph glyph-name="n.sc" unicode="" horiz-adv-x="549" d="M70 21v501q0 12 4.5 16t17.5 4h68q13 0 17.5 -2.5t10.5 -12.5l138 -230q20 -34 45 -97v74v248q0 12 4.5 16t17.5 4h65q13 0 17 -3.5t4 -16.5v-501q0 -13 -4 -17t-17 -4h-56q-13 0 -17.5 3t-11.5 14l-150 252q-29 49 -45 88q2 -48 2 -70v-266q0 -12 -5 -16.5t-18 -4.5h-65 q-13 0 -17.5 4t-4.5 17z"/>
    <glyph glyph-name="ntilde.sc" unicode="" horiz-adv-x="549" d="M435 710q0 -9 -21 -40q-36 -54 -85 -54q-29 0 -66 25q-16 11 -30 11q-20 0 -36 -29q-5 -8 -9 -8q-2 0 -9 3l-47 24q-7 4 -7 9q0 9 22 44q33 49 81 49q31 0 71 -23q21 -12 32 -12q10 0 17 6t18 25q2 5 7 5q3 0 8 -3l46 -23q8 -3 8 -9zM479 21q0 -13 -4 -17t-17 -4h-56 q-13 0 -17.5 3t-11.5 14l-150 252q-29 49 -45 88q2 -48 2 -70v-266q0 -12 -5 -16.5t-18 -4.5h-65q-13 0 -17.5 4t-4.5 17v501q0 12 4.5 16t17.5 4h68q13 0 17.5 -2.5t10.5 -12.5l138 -230q20 -34 45 -97v74v248q0 12 4.5 16t17.5 4h65q13 0 17 -3.5t4 -16.5v-501z"/>
    <glyph glyph-name="o.sc" unicode="" horiz-adv-x="507" d="M472 279q0 -292 -221 -292q-216 0 -216 292q0 54 10 99.5t33 87t68 65.5t108 24q218 0 218 -276zM338 272q0 182 -84 182q-86 0 -86 -185q0 -181 86 -181q84 0 84 184z"/>
    <glyph glyph-name="oe.sc" unicode="" horiz-adv-x="688" d="M663 518l-16 -62q-4 -17 -24 -17h-165v-105h143q13 0 17 -3.5t4 -16.5v-62q0 -12 -4 -16.5t-17 -4.5h-143v-128h180q13 0 17.5 -4t4.5 -17v-62q0 -13 -4 -16.5t-18 -3.5h-282q-57 -13 -100 -13q-221 0 -221 284q0 87 18 142t59 92q55 50 146 50q50 0 93 -13h295 q19 0 19 -12q0 -2 -2 -12zM335 105v331q-41 21 -72 21q-50 0 -67 -37q-27 -61 -27 -148q0 -101 24.5 -143.5t73.5 -42.5q33 0 68 19z"/>
    <glyph glyph-name="oacute.sc" unicode="" horiz-adv-x="507" d="M419 687q0 -9 -15 -14l-177 -70q-2 0 -5 -1t-5.5 -1.5t-3.5 -0.5q-7 0 -13 14l-16 32q-5 9 -5 14t13 13l163 97q10 6 14 6q8 0 14 -14l31 -61q5 -10 5 -14zM472 279q0 -292 -221 -292q-216 0 -216 292q0 54 10 99.5t33 87t68 65.5t108 24q218 0 218 -276zM338 272 q0 182 -84 182q-86 0 -86 -185q0 -181 86 -181q84 0 84 184z"/>
    <glyph glyph-name="ocircumflex.sc" unicode="" horiz-adv-x="507" d="M391 658q0 -2 -6 -13l-19 -32q-8 -13 -15 -13q-3 0 -13 6l-85 50l-86 -50q-10 -6 -13 -6q-8 0 -15 13l-18 32q-6 9 -6 13q0 6 11 15l113 89q10 8 14 8q5 0 15 -8l112 -89q11 -9 11 -15zM472 279q0 -292 -221 -292q-216 0 -216 292q0 54 10 99.5t33 87t68 65.5t108 24 q218 0 218 -276zM338 272q0 182 -84 182q-86 0 -86 -185q0 -181 86 -181q84 0 84 184z"/>
    <glyph glyph-name="odieresis.sc" unicode="" horiz-adv-x="507" d="M411 682q0 -28 -20.5 -48.5t-48.5 -20.5t-48.5 20.5t-20.5 48.5q0 29 20.5 49t49.5 20q28 0 48 -20.5t20 -48.5zM234 682q0 -28 -20 -48.5t-49 -20.5t-49 20.5t-20 48.5q0 29 20.5 49t49.5 20q28 0 48 -20.5t20 -48.5zM472 279q0 -292 -221 -292q-216 0 -216 292 q0 54 10 99.5t33 87t68 65.5t108 24q218 0 218 -276zM338 272q0 182 -84 182q-86 0 -86 -185q0 -181 86 -181q84 0 84 184z"/>
    <glyph glyph-name="ograve.sc" unicode="" horiz-adv-x="507" d="M341 659q0 -5 -5 -13l-15 -32q-6 -14 -14 -14q-1 0 -13 3l-177 70q-16 7 -16 14q0 4 5 14l31 61q8 14 14 14q4 0 14 -6l163 -97q13 -8 13 -14zM472 279q0 -292 -221 -292q-216 0 -216 292q0 54 10 99.5t33 87t68 65.5t108 24q218 0 218 -276zM338 272q0 182 -84 182 q-86 0 -86 -185q0 -181 86 -181q84 0 84 184z"/>
    <glyph glyph-name="oslash.sc" unicode="" horiz-adv-x="507" d="M473 269q-1 -283 -220 -283q-68 0 -114 27l-34 -56q-7 -13 -14 -13q-5 0 -15 5l-28 12q-14 6 -14 14q0 5 6 14l45 77q-49 76 -49 201q0 86 16.5 139t55.5 92q57 57 146 57q61 0 104 -21l25 42q7 12 14 12q2 0 14 -4l28 -12q13 -6 13 -14q0 -6 -4 -13l-32 -56 q57 -73 57 -220zM301 435q-19 19 -46 19q-86 0 -86 -186q0 -40 5 -77zM339 272q0 52 -6 88l-129 -248q20 -24 51 -24q84 0 84 184z"/>
    <glyph glyph-name="otilde.sc" unicode="" horiz-adv-x="507" d="M405 710q0 -9 -21 -40q-36 -54 -85 -54q-29 0 -66 25q-16 11 -30 11q-20 0 -36 -29q-5 -8 -9 -8q-2 0 -9 3l-47 24q-7 4 -7 9q0 9 22 44q33 49 81 49q31 0 71 -23q21 -12 32 -12q10 0 17 6t18 25q2 5 7 5q3 0 8 -3l46 -23q8 -3 8 -9zM472 279q0 -292 -221 -292 q-216 0 -216 292q0 54 10 99.5t33 87t68 65.5t108 24q218 0 218 -276zM338 272q0 182 -84 182q-86 0 -86 -185q0 -181 86 -181q84 0 84 184z"/>
    <glyph glyph-name="p.sc" unicode="" horiz-adv-x="442" d="M437 391q0 -81 -56.5 -131.5t-143.5 -50.5h-40v-188q0 -13 -4.5 -17t-17.5 -4h-83q-13 0 -17.5 4t-4.5 17v501q0 13 4 16.5t18 3.5h140q114 0 157 -35q48 -40 48 -116zM316 385q0 36 -19.5 47.5t-68.5 11.5h-31v-129h23q53 0 74.5 15t21.5 55z"/>
    <glyph glyph-name="thorn.sc" unicode="" horiz-adv-x="442" d="M437 311q0 -81 -56.5 -131.5t-143.5 -50.5h-40v-108q0 -13 -4.5 -17t-17.5 -4h-83q-13 0 -17.5 4t-4.5 17v501q0 13 4 16.5t18 3.5h90q10 0 12.5 -3t2.5 -15v-62h35q114 0 157 -35q48 -40 48 -116zM316 305q0 36 -19.5 47.5t-68.5 11.5h-31v-129h23q53 0 74.5 15t21.5 55 z"/>
    <glyph glyph-name="q.sc" unicode="" horiz-adv-x="507" d="M488 -17l-58 -44q-6 -5 -13 -5q-26 0 -91 62q-30 -10 -72 -10q-219 0 -219 285q0 284 218 284q219 0 219 -274q0 -158 -59 -230q24 -19 68 -45q13 -7 13 -14q0 -4 -6 -9zM338 272q0 182 -84 182q-86 0 -86 -186q0 -180 86 -180q84 0 84 184z"/>
    <glyph glyph-name="r.sc" unicode="" horiz-adv-x="479" d="M469 35q5 -8 5 -13q0 -9 -17 -14l-78 -20q-8 -2 -11 -2q-9 0 -16 13l-116 215h-43v-194q0 -13 -4 -16.5t-17 -3.5h-80q-14 0 -18 4.5t-4 18.5v499q0 12 4.5 16t17.5 4h141q105 0 152 -35q53 -40 53 -122q0 -108 -94 -154zM313 385q0 37 -20 48t-70 11h-30v-130h21 q54 0 76.5 15.5t22.5 55.5z"/>
    <glyph glyph-name="s.sc" unicode="" horiz-adv-x="417" d="M392 155q0 -75 -53 -120t-140 -45q-40 0 -90.5 10.5t-79.5 25.5q-12 6 -12 13q0 4 3 10l31 76q3 9 12 9q3 0 9 -2q75 -35 127 -35q32 0 52.5 12.5t20.5 36.5q0 31 -18.5 47.5t-94.5 50.5q-33 15 -52 25.5t-41.5 29t-33 43.5t-10.5 57q0 71 52 112t140 41q92 0 157 -38 q11 -7 11 -15q0 -1 -2 -7l-34 -66q-4 -8 -12 -8q-2 0 -8 2q-66 30 -107 30q-76 0 -76 -44q0 -20 14.5 -33t60.5 -34q88 -39 117 -62q57 -47 57 -122z"/>
    <glyph glyph-name="scaron.sc" unicode="" horiz-adv-x="417" d="M352 712q0 -6 -11 -15l-113 -89q-10 -8 -15 -8q-4 0 -14 8l-112 89q-11 9 -11 15q0 4 6 14l19 31q8 13 15 13q2 0 13 -6l85 -50l86 50q11 6 13 6q8 0 15 -13l18 -31q6 -12 6 -14zM392 155q0 -75 -53 -120t-140 -45q-40 0 -90.5 10.5t-79.5 25.5q-12 6 -12 13q0 4 3 10 l31 76q3 9 12 9q3 0 9 -2q75 -35 127 -35q32 0 52.5 12.5t20.5 36.5q0 31 -18.5 47.5t-94.5 50.5q-33 15 -52 25.5t-41.5 29t-33 43.5t-10.5 57q0 71 52 112t140 41q92 0 157 -38q11 -7 11 -15q0 -1 -2 -7l-34 -66q-4 -8 -12 -8q-2 0 -8 2q-66 30 -107 30q-76 0 -76 -44 q0 -20 14.5 -33t60.5 -34q88 -39 117 -62q57 -47 57 -122z"/>
    <glyph glyph-name="t.sc" unicode="" horiz-adv-x="384" d="M399 520l-20 -74q-3 -10 -7.5 -12.5t-15.5 -2.5h-101v-410q0 -13 -4.5 -17t-18.5 -4h-84q-13 0 -17.5 4t-4.5 17v410h-104q-13 0 -17.5 4t-4.5 16v71q0 12 4.5 16t17.5 4h358q20 0 20 -13q0 -5 -1 -9z"/>
    <glyph glyph-name="u.sc" unicode="" horiz-adv-x="553" d="M65 185v337q0 12 4.5 16t17.5 4h83q13 0 17 -4t4 -16v-338q0 -56 18 -76t66 -20q47 0 69.5 22t22.5 72v340q0 12 4.5 16t17.5 4h78q13 0 17 -4t4 -16v-337q0 -60 -14 -94t-51 -61q-58 -43 -156 -43q-140 0 -182 85q-20 40 -20 113z"/>
    <glyph glyph-name="uacute.sc" unicode="" horiz-adv-x="553" d="M439 687q0 -9 -15 -14l-177 -70q-2 0 -5 -1t-5.5 -1.5t-3.5 -0.5q-7 0 -13 14l-16 32q-5 9 -5 14t13 13l163 97q10 6 14 6q8 0 14 -14l31 -61q5 -10 5 -14zM488 185q0 -60 -14 -94t-51 -61q-58 -43 -156 -43q-140 0 -182 85q-20 40 -20 113v337q0 12 4.5 16t17.5 4h83 q13 0 17 -4t4 -16v-338q0 -56 18 -76t66 -20q47 0 69.5 22t22.5 72v340q0 12 4.5 16t17.5 4h78q13 0 17 -4t4 -16v-337z"/>
    <glyph glyph-name="ucircumflex.sc" unicode="" horiz-adv-x="553" d="M415 658q0 -2 -6 -13l-19 -32q-8 -13 -15 -13q-3 0 -13 6l-85 50l-86 -50q-11 -6 -13 -6q-8 0 -15 13l-18 32q-6 9 -6 13q0 6 11 15l113 89q10 8 14 8q5 0 15 -8l112 -89q11 -9 11 -15zM488 185q0 -60 -14 -94t-51 -61q-58 -43 -156 -43q-140 0 -182 85q-20 40 -20 113 v337q0 12 4.5 16t17.5 4h83q13 0 17 -4t4 -16v-338q0 -56 18 -76t66 -20q47 0 69.5 22t22.5 72v340q0 12 4.5 16t17.5 4h78q13 0 17 -4t4 -16v-337z"/>
    <glyph glyph-name="udieresis.sc" unicode="" horiz-adv-x="553" d="M434 682q0 -28 -20 -48.5t-49 -20.5t-49 20.5t-20 48.5q0 29 20.5 49t49.5 20q28 0 48 -20.5t20 -48.5zM257 682q0 -28 -20.5 -48.5t-48.5 -20.5t-48.5 20.5t-20.5 48.5q0 29 20.5 49t49.5 20q28 0 48 -20.5t20 -48.5zM488 185q0 -60 -14 -94t-51 -61q-58 -43 -156 -43 q-140 0 -182 85q-20 40 -20 113v337q0 12 4.5 16t17.5 4h83q13 0 17 -4t4 -16v-338q0 -56 18 -76t66 -20q47 0 69.5 22t22.5 72v340q0 12 4.5 16t17.5 4h78q13 0 17 -4t4 -16v-337z"/>
    <glyph glyph-name="ugrave.sc" unicode="" horiz-adv-x="553" d="M341 659q0 -5 -5 -13l-15 -32q-6 -14 -14 -14q-1 0 -13 3l-177 70q-16 7 -16 14q0 4 5 14l31 61q8 14 14 14q4 0 14 -6l163 -97q13 -8 13 -14zM488 185q0 -60 -14 -94t-51 -61q-58 -43 -156 -43q-140 0 -182 85q-20 40 -20 113v337q0 12 4.5 16t17.5 4h83q13 0 17 -4 t4 -16v-338q0 -56 18 -76t66 -20q47 0 69.5 22t22.5 72v340q0 12 4.5 16t17.5 4h78q13 0 17 -4t4 -16v-337z"/>
    <glyph glyph-name="v.sc" unicode="" horiz-adv-x="458" d="M458 513l-159 -508q-3 -10 -6.5 -12.5t-15.5 -2.5h-101q-12 0 -16 2.5t-7 12.5l-153 505q-2 4 -2 11q0 11 18 14l92 14q2 0 4.5 0.5t3.5 0.5q14 0 18 -16l77 -318q4 -19 16 -98q15 81 20 99l84 314q4 16 16 16q1 0 4 -0.5t5 -0.5l87 -9q17 -1 17 -12q0 -2 -2 -12z"/>
    <glyph glyph-name="w.sc" unicode="" horiz-adv-x="661" d="M656 506l-128 -500q-3 -10 -7.5 -13t-15.5 -3h-77q-13 0 -17 2.5t-6 13.5l-57 266q-11 53 -17 98q-8 -53 -19 -96l-68 -268q-3 -11 -6.5 -13.5t-15.5 -2.5h-80q-13 0 -16.5 2.5t-5.5 13.5l-115 502q-2 8 -2 10q0 12 19 15l77 12q5 1 11 1q10 0 14 -16l55 -258 q6 -30 13 -109l5 33t5.5 34t4.5 22l69 271q3 11 7.5 14t16.5 3h70q13 0 16.5 -3t6.5 -14l58 -246q8 -31 21 -116q8 79 16 116l53 252q3 17 14 17q1 0 4 -0.5t5 -0.5l74 -14q19 -4 19 -16q0 -6 -1 -9z"/>
    <glyph glyph-name="x.sc" unicode="" horiz-adv-x="467" d="M6 38l158 249l-143 217q-6 9 -6 15q0 9 18 13l86 18q10 2 11 2q7 0 15 -13l70 -115q9 -15 19 -49q12 39 18 50l64 115q7 13 15 13q1 0 11 -2l82 -20q18 -4 18 -13q0 -5 -6 -14l-136 -219l161 -250q6 -12 6 -14q0 -9 -19 -13l-85 -19q-10 -2 -12 -2q-7 0 -14 12l-84 143 q-13 23 -20 43q-17 -40 -19 -43l-86 -141q-8 -12 -15 -12q-2 0 -12 2l-83 19q-18 4 -18 13q0 6 6 15z"/>
    <glyph glyph-name="y.sc" unicode="" horiz-adv-x="435" d="M445 508l-159 -287v-200q0 -13 -4.5 -17t-17.5 -4h-82q-13 0 -17.5 4t-4.5 17v201l-166 289q-4 5 -4 11q0 8 15 11l95 15q2 0 4.5 0.5t3.5 0.5q10 0 16 -13l79 -143q2 -4 24 -64q19 54 32 78l69 129q6 13 16 13q5 0 9 -1l84 -16q12 -2 12 -11q0 -6 -4 -13z"/>
    <glyph glyph-name="yacute.sc" unicode="" horiz-adv-x="435" d="M399 687q0 -9 -15 -14l-177 -70q-2 0 -5 -1t-5.5 -1.5t-3.5 -0.5q-7 0 -13 14l-16 32q-5 9 -5 14t13 13l163 97q10 6 14 6q8 0 14 -14l31 -61q5 -10 5 -14zM445 508l-159 -287v-200q0 -13 -4.5 -17t-17.5 -4h-82q-13 0 -17.5 4t-4.5 17v201l-166 289q-4 5 -4 11 q0 8 15 11l95 15q2 0 5 0.5t4 0.5q9 0 15 -13l79 -143q9 -16 24 -64q19 54 32 78l69 129q6 13 16 13q5 0 9 -1l84 -16q13 -3 13 -11q0 -5 -5 -13z"/>
    <glyph glyph-name="ydieresis.sc" unicode="" horiz-adv-x="435" d="M380 682q0 -28 -20 -48.5t-49 -20.5t-49 20.5t-20 48.5q0 29 20.5 49t49.5 20q28 0 48 -20.5t20 -48.5zM203 682q0 -28 -20.5 -48.5t-48.5 -20.5t-48.5 20.5t-20.5 48.5q0 29 20.5 49t49.5 20q28 0 48 -20.5t20 -48.5zM445 508l-159 -287v-200q0 -13 -4.5 -17t-17.5 -4 h-82q-13 0 -17.5 4t-4.5 17v201l-166 289q-4 5 -4 11q0 8 15 11l95 15q2 0 4.5 0.5t3.5 0.5q10 0 16 -13l79 -143q2 -4 24 -64q19 54 32 78l69 129q6 13 16 13q5 0 9 -1l84 -16q12 -2 12 -11q0 -6 -4 -13z"/>
    <glyph glyph-name="z.sc" unicode="" horiz-adv-x="434" d="M419 95l-11 -78q-1 -11 -5.5 -14t-17.5 -3h-343q-13 0 -17.5 4t-4.5 17v68l230 346h-200q-20 0 -20 12q0 2 2 10l16 69q3 11 6.5 13.5t15.5 2.5h296q13 0 17.5 -4t4.5 -16v-80l-220 -328h232q19 0 19 -13v-6z"/>
    <glyph glyph-name="zcaron.sc" unicode="" horiz-adv-x="434" d="M342 712q0 -6 -11 -15l-113 -89q-10 -8 -15 -8q-4 0 -14 8l-112 89q-11 9 -11 15q0 4 6 14l19 31q8 13 15 13q2 0 13 -6l85 -50l86 50q10 6 13 6q8 0 15 -13l18 -31q6 -12 6 -14zM419 95l-11 -78q-1 -11 -5.5 -14t-17.5 -3h-343q-13 0 -17.5 4t-4.5 17v68l230 346h-200 q-20 0 -20 12q0 2 2 10l16 69q3 11 6.5 13.5t15.5 2.5h296q13 0 17.5 -4t4.5 -16v-80l-220 -328h232q19 0 19 -13v-6z"/>
    <glyph glyph-name="germandbls.sc" unicode="" horiz-adv-x="836" d="M808 155q0 -75 -53 -120t-140 -45q-40 0 -90.5 10.5t-79.5 25.5q-12 6 -12 13q0 4 3 10l31 76q3 9 12 9q4 0 10 -2q75 -35 126 -35q32 0 52.5 12.5t20.5 36.5q0 31 -18.5 47.5t-94.5 50.5q-33 15 -52 25.5t-41.5 29t-33 43.5t-10.5 57q0 71 52.5 112t140.5 41 q92 0 157 -38q10 -7 10 -14q0 -2 -2 -8l-34 -66q-4 -8 -11 -8q-2 0 -8 2q-66 30 -107 30q-76 0 -76 -44q0 -20 14.5 -33t60.5 -34q88 -39 117 -63q56 -46 56 -121zM396 155q0 -75 -53 -120t-140 -45q-40 0 -90.5 10.5t-79.5 25.5q-12 6 -12 13q0 4 3 10l31 76q3 9 12 9 q3 0 9 -2q75 -35 127 -35q32 0 52.5 12.5t20.5 36.5q0 31 -18.5 47.5t-94.5 50.5q-33 15 -52 25.5t-41.5 29t-33 43.5t-10.5 57q0 71 52 112t140 41q92 0 157 -38q11 -7 11 -15q0 -1 -2 -7l-34 -66q-4 -8 -12 -8q-2 0 -8 2q-66 30 -107 30q-76 0 -76 -44q0 -20 14.5 -33 t60.5 -34q88 -39 117 -62q57 -47 57 -122z"/>
    <glyph glyph-name="f_i.sc" unicode="" horiz-adv-x="727" d="M697 21q0 -13 -4.5 -17t-17.5 -4h-209q-13 0 -17 4t-4 17v53q0 13 4 16.5t17 3.5h43v354h-43q-13 0 -17 3.5t-4 16.5v54q0 12 4 16t17 4h209q13 0 17.5 -4t4.5 -16v-54q0 -13 -4 -16.5t-18 -3.5h-42v-354h42q13 0 17.5 -4t4.5 -16v-53zM398 520l-17 -65q-3 -10 -7.5 -13 t-15.5 -3h-161v-105h138q13 0 17.5 -4t4.5 -16v-62q0 -12 -4.5 -16.5t-17.5 -4.5h-138v-210q0 -13 -4.5 -17t-17.5 -4h-83q-13 0 -17.5 4t-4.5 17v501q0 13 4 16.5t18 3.5h288q20 0 20 -12q0 -2 -2 -10z"/>
    <glyph glyph-name="f_l.sc" unicode="" horiz-adv-x="786" d="M786 93l-16 -77q-2 -10 -6 -13t-16 -3h-286q-13 0 -17.5 4t-4.5 17v501q0 12 4.5 16t17.5 4h83q13 0 17.5 -4t4.5 -16v-407h201q19 0 19 -12q0 -6 -1 -10zM398 520l-17 -65q-3 -10 -7.5 -13t-15.5 -3h-161v-105h138q13 0 17.5 -4t4.5 -16v-62q0 -12 -4.5 -16.5 t-17.5 -4.5h-138v-210q0 -13 -4.5 -17t-17.5 -4h-83q-13 0 -17.5 4t-4.5 17v501q0 13 4 16.5t18 3.5h288q20 0 20 -12q0 -2 -2 -10z"/>
    <glyph glyph-name="abreve.sc" unicode="" horiz-adv-x="491" d="M484 24q2 -8 2 -11q0 -13 -21 -13h-95q-12 0 -15.5 2.5t-6.5 13.5l-36 121h-143l-34 -121q-3 -11 -7 -13.5t-16 -2.5h-89q-20 0 -20 12q0 1 2 9l173 505q3 10 7 13t16 3h89q12 0 16 -2.5t8 -13.5zM285 226l-32 125q-4 17 -8.5 45.5l-6.5 41.5q-12 -70 -17 -88l-34 -124 h98zM385 728q0 -33 -25 -70q-36 -51 -114 -51q-91 0 -126 64q-16 30 -16 55q0 14 11 15l67 8l5 1q4 0 5 -2t3 -15q9 -47 50 -47t49 47q2 17 6 17h2l5 -1l67 -8q11 -1 11 -13z"/>
    <glyph glyph-name="amacron.sc" unicode="" horiz-adv-x="491" d="M367 659q0 -13 -3.5 -16.5t-16.5 -3.5h-204q-13 0 -17 3.5t-4 16.5v45q0 14 3.5 17.5t17.5 3.5h204q14 0 17 -3.5t3 -17.5v-45zM484 24q2 -8 2 -11q0 -13 -21 -13h-95q-12 0 -15.5 2.5t-6.5 13.5l-36 121h-143l-34 -121q-3 -11 -7 -13.5t-16 -2.5h-89q-20 0 -20 12 q0 1 2 9l173 505q3 10 7 13t16 3h89q12 0 16 -2.5t8 -13.5zM285 226l-32 125q-4 17 -8.5 45.5l-6.5 41.5q-12 -70 -17 -88l-34 -124h98z"/>
    <glyph glyph-name="aogonek.sc" unicode="" horiz-adv-x="491" d="M483 -152q0 -10 -30.5 -21t-58.5 -11q-44 0 -71.5 23t-27.5 61q0 53 62 101q-6 1 -9 15l-36 121h-143l-34 -121q-3 -11 -7 -13.5t-16 -2.5h-89q-20 0 -20 12q0 1 2 9l173 505q3 10 7 13t16 3h89q12 0 16 -2.5t8 -13.5l170 -502q2 -8 2 -11q0 -13 -21 -13h-53 q-33 -36 -33 -82q0 -24 28 -24q21 0 43 12q8 4 11 4q5 0 6 -6l14 -45q2 -6 2 -9v-2zM285 226l-32 125q-4 17 -8.5 45.5l-6.5 41.5q-12 -70 -17 -88l-34 -124h98z"/>
    </font>
</defs>
</svg>
