<?xml version="1.0" encoding="UTF-8" standalone="no"?>
<!DOCTYPE svg PUBLIC "-//W3C//DTD SVG 1.1//EN" "http://www.w3.org/Graphics/SVG/1.1/DTD/svg11.dtd">
<svg>
<metadata>
Created by FontForge 20090622 at Wed Aug  5 13:04:44 2015
 By deploy user
Copyright 1997 International Typeface Corporation. All rights reserved.
</metadata>
<defs>
<font id="OfficinaSansITCPro-BoldItalic" horiz-adv-x="519">
  <font-face font-family="OfficinaSansITCPro Book" font-weight="700" font-style="italic" font-stretch="normal" units-per-em="1000" panose-1="2 0 5 6 4 0 0 9 0 4" ascent="724" descent="-276" x-height="494" cap-height="686" bbox="-204 -259 1114 944" underline-thickness="50" underline-position="-50" slope="-12" unicode-range="U+0020-U+FB04"/>
<missing-glyph horiz-adv-x="500" d="M12 0v665h475v-665h-475zM250 375l161 243h-323zM221 333l-161 242v-484zM440 90v485l-162 -242zM88 48h323l-161 242z"/>
    <glyph glyph-name="IJ" unicode="IJ" horiz-adv-x="796" d="M-14 25l12 57q2 9 5 11.5t13 2.5h60l105 494h-58q-14 0 -14 11q0 3 2 14l13 57q2 9 5 11.5t12 2.5h249q13 0 13 -11q0 -2 -2 -14l-12 -57q-2 -9 -5 -11.5t-13 -2.5h-60l-105 -494h58q14 0 14 -11q0 -2 -0.5 -3t-1 -4.5t-1.5 -8.5l-11 -54q-2 -10 -5 -12.5t-13 -2.5h-247 q-15 0 -15 11q0 4 2 14zM357 202h92q11 0 11 -6q0 -4 -1 -6q-6 -26 -6 -43q0 -52 47 -52q30 0 47 21t28 71l86 403h-141q-15 0 -15 11q0 3 2 14l12 57q2 9 5 11.5t13 2.5h256q15 0 15 -11q0 -8 -2 -14l-96 -450q-24 -113 -68 -159q-59 -64 -158 -64q-68 0 -106 37t-38 102 q0 75 17 75z"/>
    <glyph glyph-name="ij" unicode="ij" horiz-adv-x="553" d="M309 644q0 -34 -24.5 -58.5t-58.5 -24.5t-58 24t-24 59q0 34 24 58t59 24q34 0 58 -24.5t24 -57.5zM257 485l-1 -12l-99 -462q-2 -11 -14 -11h-92q-13 0 -13 9l1 10l82 386h-76q-14 0 -14 9q0 4 2 12l12 56q2 12 14 12h185q13 0 13 -9zM583 644q0 -34 -24.5 -58.5 t-58.5 -24.5t-58 24.5t-24 58.5t24 58t59 24q34 0 58 -24t24 -58zM533 485q0 -3 -2 -12l-99 -463q-17 -79 -31 -116.5t-37 -64.5q-54 -62 -141 -62q-33 0 -66 9t-33 18q0 4 3 10l25 72q3 9 10 9q4 0 19 -7q18 -10 40 -10q41 0 61 39q13 24 30 103l84 395h-76q-14 0 -14 10 q0 2 2 11l12 56q2 12 14 12h185q14 0 14 -9z"/>
    <glyph glyph-name="napostrophe" unicode="'n" d="M479 406q0 -34 -10 -78l-72 -317q-2 -11 -14 -11h-92q-14 0 -14 10q0 3 3 11l64 285q11 50 11 68q0 32 -34 32q-48 0 -84 -50t-56 -142l-43 -203q-2 -11 -14 -11h-92q-14 0 -14 10q0 3 2 11l71 310q10 45 10 76q0 23 -5 44q-1 4 -1 10q0 8 12 13l77 33q6 2 7 2 q9 0 15.5 -23t6.5 -53q0 -13 -1 -26q76 104 165 104q47 0 74.5 -28t27.5 -77zM224 713q0 -5 -7 -15l-170 -235q-7 -8 -12 -8t-15 6l-36 22q-10 6 -10 11q0 6 6 17l101 202q5 11 19 11h106q18 0 18 -11z"/>
    <glyph glyph-name="f_f" unicode="ff" horiz-adv-x="619" d="M348 621q-30 0 -45 -17.5t-25 -66.5l-9 -43h168l13 64q18 89 54 122q42 39 121 39q37 0 69 -9t32 -19q0 -2 -3 -9l-23 -70q-3 -6 -8 -6t-18 6q-24 9 -43 9q-30 0 -44 -17t-24 -67l-8 -43h114q12 0 12 -9q0 -3 -3 -12l-18 -58q-3 -7 -5 -8.5t-10 -1.5h-109l-80 -412 q-20 -105 -62 -147q-53 -51 -128 -51q-38 0 -64.5 5t-26.5 12q0 5 2 11l21 71q3 7 8 7h3q16 -4 36 -4q42 0 61 22.5t32 89.5l80 396h-168l-80 -412q-20 -105 -62 -147q-53 -51 -128 -51q-38 0 -64.5 5t-26.5 12q0 5 2 11l21 71q3 7 8 7h3q16 -4 36 -4q42 0 61 22.5t32 89.5 l80 396h-71q-13 0 -13 10l1 11l12 56q1 8 4 10t11 2h75l13 64q18 89 54 122q42 39 127 39q33 0 60 -8t27 -17q0 -3 -2 -9l-25 -70q-1 -7 -7 -7q-2 0 -4 1q-30 12 -46 12z"/>
    <glyph glyph-name="fi" unicode="fi" horiz-adv-x="574" d="M609 644q0 -34 -23.5 -57.5t-57.5 -23.5t-57.5 23.5t-23.5 57.5t23.5 57.5t57.5 23.5q33 0 57 -24t24 -57zM554 484q0 -2 -2 -11l-98 -462q-2 -11 -15 -11h-92q-13 0 -13 10q0 3 1 9l82 386h-167l-80 -412q-20 -105 -62 -147q-51 -51 -128 -51q-37 0 -64 5t-27 12 q0 5 2 11l21 71q2 6 7 6h4q18 -3 36 -3q42 0 61 22t32 89l80 397h-71q-13 0 -13 10l1 11l13 56q2 9 4 10.5t10 1.5h75l13 64q10 51 22 77t32 45q42 39 112 39q33 0 61 -8t28 -17q0 -3 -2 -9l-25 -70q-1 -7 -7 -7q-2 0 -4 1q-30 12 -45 12q-23 0 -35 -17.5t-23 -66.5l-9 -43 h271q14 0 14 -10z"/>
    <glyph glyph-name="fl" unicode="fl" horiz-adv-x="593" d="M595 713q0 -4 -1 -10l-111 -522q-11 -51 -11 -63q0 -20 21 -20q10 0 28 4q7 3 10 3q6 0 6 -7l10 -69l1 -5q1 -2 1 -5q0 -10 -33.5 -19.5t-68.5 -9.5q-99 0 -99 83q0 43 14 107l108 507q3 14 16 16l89 19q9 2 11 2q9 0 9 -11zM427 691q0 -1 -2 -9l-24 -70q-1 -6 -7 -6 q-4 0 -17 6q-25 9 -42 9q-23 0 -35 -17.5t-22 -66.5l-9 -43h104q11 0 11 -9v-2.5t-0.5 -2.5t-1 -3t-0.5 -4l-19 -58q-3 -10 -14 -10h-99l-80 -412q-20 -105 -62 -147q-53 -51 -128 -51q-38 0 -64.5 5t-26.5 12q0 5 2 11l21 71q4 7 7 7h4q16 -4 36 -4q42 0 61 22.5t32 89.5 l80 396h-71q-13 0 -13 10l1 11l12 56q2 12 15 12h75l13 64q18 89 54 122q42 39 116 39q34 0 63.5 -9t29.5 -19z"/>
    <glyph glyph-name="f_f_i" unicode="ffi" horiz-adv-x="860" d="M895 644q0 -34 -23.5 -57.5t-57.5 -23.5t-57.5 23.5t-23.5 57.5t23.5 57.5t57.5 23.5q33 0 57 -24t24 -57zM418 405h-168l-80 -412q-20 -105 -62 -147q-53 -51 -128 -51q-38 0 -64.5 5t-26.5 12q0 5 2 11l21 71q3 7 8 7h3q16 -4 36 -4q42 0 61 22.5t32 89.5l80 396h-71 q-13 0 -13 10l1 11l12 56q1 8 4 10t11 2h75l13 64q18 89 54 122q42 39 127 39q33 0 60 -8t27 -17q0 -3 -2 -9l-25 -70q-1 -7 -7 -7q-2 0 -4 1q-30 12 -46 12q-30 0 -45 -17.5t-25 -66.5l-9 -43h168l13 64q10 51 22 77t32 45q42 39 112 39q33 0 61 -8t28 -17q0 -3 -2 -9 l-25 -70q-1 -7 -7 -7q-2 0 -4 1q-30 12 -45 12q-23 0 -35 -17.5t-23 -66.5l-9 -43h271q14 0 14 -10q0 -2 -2 -11l-98 -462q-2 -11 -15 -11h-92q-13 0 -13 10q0 3 1 9l82 386h-167l-80 -412q-20 -105 -62 -147q-51 -51 -128 -51q-37 0 -64 5t-27 12q0 5 2 11l21 71q2 6 7 6h4 q18 -3 36 -3q42 0 61 22t32 89z"/>
    <glyph glyph-name="f_f_l" unicode="ffl" horiz-adv-x="879" d="M881 713q0 -4 -1 -10l-111 -522q-11 -51 -11 -63q0 -20 21 -20q10 0 28 4q7 3 10 3q6 0 6 -7l10 -69l1 -5q1 -2 1 -5q0 -10 -33.5 -19.5t-68.5 -9.5q-99 0 -99 83q0 43 14 107l108 507q3 14 16 16l89 19q9 2 11 2q9 0 9 -11zM418 405h-168l-80 -412q-20 -105 -62 -147 q-53 -51 -128 -51q-38 0 -64.5 5t-26.5 12q0 5 2 11l21 71q3 7 8 7h3q16 -4 36 -4q42 0 61 22.5t32 89.5l80 396h-71q-13 0 -13 10l1 11l12 56q1 8 4 10t11 2h75l13 64q18 89 54 122q42 39 127 39q33 0 60 -8t27 -17q0 -3 -2 -9l-25 -70q-1 -7 -7 -7q-2 0 -4 1 q-30 12 -46 12q-30 0 -45 -17.5t-25 -66.5l-9 -43h168l13 64q18 89 54 122q42 39 116 39q34 0 63.5 -9t29.5 -19q0 -1 -2 -9l-24 -70q-1 -6 -7 -6q-4 0 -17 6q-25 9 -42 9q-23 0 -35 -17.5t-22 -66.5l-9 -43h104q11 0 11 -9l-2 -12l-19 -58q-3 -10 -14 -10h-99l-80 -412 q-20 -105 -62 -147q-53 -51 -128 -51q-38 0 -64.5 5t-26.5 12q0 5 2 11l21 71q4 7 7 7h4q16 -4 36 -4q42 0 61 22.5t32 89.5z"/>
    <glyph glyph-name=".notdef" horiz-adv-x="500" d="M12 0v665h475v-665h-475zM250 375l161 243h-323zM221 333l-161 242v-484zM440 90v485l-162 -242zM88 48h323l-161 242z"/>
    <glyph glyph-name=".null" horiz-adv-x="0"/>
    <glyph glyph-name="nonmarkingreturn" horiz-adv-x="333"/>
    <glyph glyph-name="space" unicode=" " horiz-adv-x="206"/>
    <glyph glyph-name="exclam" unicode="!" horiz-adv-x="352" d="M329 675q0 -5 -2 -12l-109 -407q-2 -9 -5.5 -11.5t-12.5 -2.5h-60q-17 0 -17 12q0 3 2 13l63 401q2 12 5 15t13 3h106q17 0 17 -11zM215 66q0 -33 -23.5 -56.5t-56.5 -23.5t-56.5 23.5t-23.5 56.5q0 34 23.5 57t57.5 23q32 0 55.5 -23.5t23.5 -56.5z"/>
    <glyph glyph-name="quotedbl" unicode="&quot;" d="M490 676q0 -4 -3 -14l-74 -235q-3 -9 -6 -11t-12 -2h-41q-17 0 -17 11q0 2 2 15l32 231q1 10 4.5 12.5t13.5 2.5h84q17 0 17 -10zM323 675q0 -4 -3 -13l-74 -235q-3 -8 -6 -10.5t-12 -2.5h-41q-17 0 -17 11q0 3 2 15l32 231q1 10 4.5 12.5t13.5 2.5h84q17 0 17 -11z"/>
    <glyph glyph-name="numbersign" unicode="#" horiz-adv-x="518" d="M531 489q0 -7 -2 -15l-11 -51q-2 -9 -5 -11.5t-13 -2.5h-65l-55 -173h52q17 0 17 -11q0 -3 -3 -15l-11 -51q-2 -9 -5 -11.5t-13 -2.5h-66l-59 -184q-3 -9 -5.5 -11t-12.5 -2h-50q-17 0 -17 11q0 3 4 16l54 170h-104l-59 -184q-3 -9 -5.5 -11t-12.5 -2h-50q-17 0 -17 11 q0 3 4 16l54 170h-43q-17 0 -17 11q0 5 2 15l11 51q2 9 5 11.5t13 2.5h58l55 173h-44q-17 0 -17 11q0 6 2 15l11 51q2 10 5 12t13 2h59l55 173q3 9 5.5 11t12.5 2h50q17 0 17 -11q0 -4 -4 -16l-50 -159h104l55 173q3 9 5.5 11t12.5 2h50q17 0 17 -11q0 -4 -4 -16l-50 -159 h50q17 0 17 -11zM349 409h-104l-55 -173h104z"/>
    <glyph glyph-name="dollar" unicode="$" d="M515 623q0 -3 -4 -11l-37 -71q-4 -8 -12 -8q-6 0 -13 6q-42 32 -94 38l-40 -188q76 -37 104.5 -72.5t28.5 -94.5q0 -89 -57.5 -148t-155.5 -71l-12 -58q-1 -9 -4.5 -11.5t-13.5 -2.5h-22q-17 0 -17 12q0 4 2 14l9 44q-64 4 -131 34q-28 13 -28 20q0 4 3 10l38 76 q5 8 11 8q3 0 15 -6q56 -39 116 -44l44 203q-57 28 -79 47q-58 47 -58 126q0 56 29.5 102t80.5 70q40 19 102 26l9 45q1 9 4.5 11.5t13.5 2.5h23q17 0 17 -11q0 -6 -3 -15l-6 -33q44 -3 90.5 -20t46.5 -30zM304 577q-84 -23 -84 -93q0 -45 49 -72zM335 205q0 26 -9.5 42 t-35.5 34l-39 -180q84 24 84 104z"/>
    <glyph glyph-name="percent" unicode="%" horiz-adv-x="834" d="M767 217q0 -52 -19.5 -102.5t-52.5 -83.5q-46 -46 -117 -46q-56 0 -88.5 33t-32.5 89q0 53 19.5 104t52.5 83q46 46 119 46q55 0 87 -33.5t32 -89.5zM693 669q0 -8 -6 -17l-429 -682q-6 -10 -18 -10h-62q-17 0 -17 9q0 7 6 17l429 682q6 10 18 10h62q17 0 17 -9zM404 539 q0 -51 -19.5 -102t-52.5 -84q-46 -46 -117 -46q-55 0 -87.5 33t-32.5 89q0 53 19.5 104t52.5 84q46 46 119 46q54 0 86 -33.5t32 -90.5zM674 219q0 44 -39 44q-25 0 -40 -18q-19 -22 -32 -62t-13 -78q0 -20 10.5 -31.5t28.5 -11.5q25 0 40 18q20 23 32.5 61.5t12.5 77.5z M311 542q0 44 -39 44q-24 0 -40 -18q-19 -22 -31.5 -61t-12.5 -78q0 -44 38 -44q25 0 41 18q19 23 31.5 62t12.5 77z"/>
    <glyph glyph-name="ampersand" unicode="&amp;" horiz-adv-x="630" d="M599 334q0 -14 -13 -49q-29 -87 -81 -152l54 -80q4 -7 4 -11q0 -6 -8 -13l-66 -48q-5 -5 -11 -5q-7 0 -15 12l-40 62q-53 -42 -99 -59t-107 -17q-91 0 -140 42t-49 119q0 75 42.5 128t143.5 106q-35 61 -47 93.5t-12 69.5q0 79 58.5 127t156.5 48q76 0 118 -35.5 t42 -98.5q0 -62 -40 -114.5t-128 -105.5l79 -122q28 42 50 121q3 13 12 13q1 0 11 -2l72 -18q13 -3 13 -11zM411 557q0 55 -54 55q-36 0 -60.5 -22.5t-24.5 -55.5q0 -39 42 -108q97 56 97 131zM366 138l-103 157q-58 -32 -80 -59t-22 -65q0 -41 21.5 -65t59.5 -24 q64 0 124 56z"/>
    <glyph glyph-name="quotesingle" unicode="'" horiz-adv-x="352" d="M323 675q0 -4 -3 -13l-74 -235q-3 -8 -6 -10.5t-12 -2.5h-41q-17 0 -17 11q0 3 2 15l32 231q1 10 4.5 12.5t13.5 2.5h84q17 0 17 -11z"/>
    <glyph glyph-name="parenleft" unicode="(" horiz-adv-x="444" d="M504 700q0 -7 -16 -25q-35 -39 -84 -102.5t-69 -95.5q-106 -174 -106 -373q0 -77 19.5 -158.5t52.5 -138.5q7 -14 7 -19q0 -11 -11 -17l-51 -27q-4 -3 -11 -3q-8 0 -12.5 6t-21.5 38q-98 182 -98 338q0 185 100 353q55 94 176 218l38 39q17 18 27 18q6 0 10 -3l44 -37 q6 -5 6 -11z"/>
    <glyph glyph-name="parenright" unicode=")" horiz-adv-x="444" d="M336 370q0 -186 -99 -354q-56 -93 -177 -218l-25 -26l-13 -13q-18 -18 -27 -18q-5 0 -10 3l-44 37q-6 3 -6 10q0 8 17 26q31 33 82 100t70 98q106 173 106 374q0 160 -72 296q-7 14 -7 19q0 11 11 17l51 27q6 3 11 3q8 0 12 -5.5t22 -38.5q98 -183 98 -337z"/>
    <glyph glyph-name="asterisk" unicode="*" d="M502 516q0 -10 -16 -11l-127 -17l93 -92q6 -6 6 -11q0 -6 -8 -11l-56 -41q-6 -5 -11 -5q-6 0 -11 7l-58 120l-58 -120q-4 -7 -10 -7q-3 0 -12 5l-56 41q-7 4 -7 11q0 5 6 11l93 92l-128 17q-15 1 -15 12q0 4 3 13l20 60q4 13 12 13q5 0 14 -5l111 -58l-22 120 q-2 11 -2 14q0 12 17 12h68q17 0 17 -11q0 -5 -2 -15l-21 -120l111 58q10 5 14 5q8 0 12 -13l19 -60q4 -13 4 -14z"/>
    <glyph glyph-name="plus" unicode="+" horiz-adv-x="500" d="M212 127v155h-153q-14 0 -17.5 3.5t-3.5 16.5v63q0 13 4 17t17 4h153v155q0 13 3.5 17t16.5 4h67q13 0 17 -4t4 -17v-155h153q13 0 17 -4t4 -17v-63q0 -13 -4 -16.5t-17 -3.5h-153v-155q0 -13 -4 -16.5t-17 -3.5h-67q-13 0 -16.5 3.5t-3.5 16.5z"/>
    <glyph glyph-name="comma" unicode="," horiz-adv-x="296" d="M209 114q0 -6 -7 -15l-170 -235q-7 -8 -12 -8q-4 0 -15 6l-36 22q-10 6 -10 11q0 3 6 17l101 202q4 7 7 9t11 2h107q18 0 18 -11z"/>
    <glyph glyph-name="hyphen" unicode="-" horiz-adv-x="334" d="M31 222l15 75q1 9 4.5 11.5t13.5 2.5h223q17 0 17 -11l-1 -12l-17 -78q-2 -9 -5 -11.5t-13 -2.5h-223q-17 0 -17 12q0 1 0.5 2t1 4t1.5 8z"/>
    <glyph glyph-name="period" unicode="." horiz-adv-x="296" d="M209 77q0 -37 -26.5 -64t-64.5 -27t-64.5 27t-26.5 64q0 38 27 64.5t65 26.5q37 0 63.5 -27t26.5 -64z"/>
    <glyph glyph-name="slash" unicode="/" horiz-adv-x="482" d="M529 704q0 -4 -6 -15l-515 -883q-6 -11 -22 -11h-65q-17 0 -17 11q0 4 6 15l513 881q8 13 23 13h66q17 0 17 -11z"/>
    <glyph glyph-name="zero" unicode="0" d="M529 502q0 -103 -32 -219.5t-81 -187.5q-33 -49 -93 -80.5t-122 -31.5q-83 0 -131.5 49t-48.5 133q0 105 33.5 224t83.5 191q34 49 91.5 77.5t121.5 28.5q83 0 130.5 -49.5t47.5 -134.5zM404 488q0 91 -73 91q-76 0 -123 -113q-22 -53 -42 -144.5t-20 -140.5 q0 -91 72 -91q76 0 125 118q23 55 42 143t19 137z"/>
    <glyph glyph-name="one" unicode="1" d="M71 26l11 50q2 9 5 11.5t13 2.5h102l94 444l-100 -53q-13 -7 -18 -7t-11 13l-15 36q-5 12 -5 17q0 6 10 12l180 111q11 6 22 6h59q17 0 17 -11q0 -3 -3 -15l-117 -553h74q15 0 15 -11q0 -1 -0.5 -2t-1 -4.5t-1.5 -8.5l-10 -49q-2 -10 -5 -12.5t-13 -2.5h-289 q-15 0 -15 11q0 8 2 15z"/>
    <glyph glyph-name="two" unicode="2" d="M520 525q0 -98 -68 -165q-45 -45 -156 -119q-116 -76 -128 -134h239q17 0 17 -11q0 -2 -0.5 -3t-1 -4.5t-1.5 -7.5l-14 -66q-2 -10 -5 -12.5t-13 -2.5h-360q-12 0 -12 8t8.5 41t15.5 53q23 67 69.5 118.5t137.5 113.5q58 39 81 57t38 37q29 36 29 84q0 70 -58 70 q-66 0 -116 -89q-12 -20 -22 -20q-4 0 -10 2l-56 28q-9 5 -9 11q0 17 30 62q76 110 207 110q76 0 117 -42t41 -119z"/>
    <glyph glyph-name="three" unicode="3" d="M483 545q0 -62 -33.5 -113t-89.5 -73q41 -21 59.5 -52.5t18.5 -81.5q0 -104 -68 -172q-70 -70 -193 -70q-90 0 -157 35q-21 11 -21 16q0 4 4 11l33 72q3 9 10 9q4 0 12 -5q59 -35 127 -35q61 0 93 32q42 39 42 100q0 78 -110 78h-32q-17 0 -17 11q0 2 0.5 3t1 4.5 t1.5 7.5l14 67q2 10 5 12.5t13 2.5h38q39 0 61.5 8.5t40.5 30.5q29 34 29 78q0 62 -62 62q-49 0 -110 -58q-7 -6 -11 -6t-8 5l-49 45q-5 5 -5 9q0 8 23 31q75 77 179 77q74 0 117.5 -38t43.5 -103z"/>
    <glyph glyph-name="four" unicode="4" d="M18 176l20 96q1 9 8 17l327 410q6 8 11 8q3 0 13 -5l63 -31q12 -6 12 -13q0 -4 -6 -11l-320 -400h152l57 171q3 8 6 10.5t12 2.5h56q17 0 17 -11q0 -3 -3 -15l-33 -158h58q17 0 17 -11q0 -2 -3 -15l-12 -56q-2 -10 -5 -12.5t-12 -2.5h-64l-29 -136q-2 -9 -5 -11.5 t-13 -2.5h-78q-17 0 -17 11q0 3 3 15l26 124h-244q-17 0 -17 12q0 1 0.5 2t1 4t1.5 8z"/>
    <glyph glyph-name="five" unicode="5" d="M511 658q0 -1 -0.5 -3t-1 -5.5t-0.5 -6.5l-14 -64q-2 -9 -5 -11.5t-13 -2.5h-211l-50 -158q43 25 96 25q72 0 117 -44.5t45 -115.5q0 -56 -23.5 -111.5t-64.5 -96.5q-81 -81 -210 -81q-55 0 -112.5 14t-57.5 28q0 4 3 13l28 71q4 10 12 10q4 0 12 -4q63 -29 121 -29 q76 0 125 48t49 122q0 79 -78 79q-59 0 -112 -50q-8 -8 -14 -8q-2 0 -8 2l-53 18q-16 5 -16 13q0 4 5 15l101 331q3 9 5.5 11t12.5 2h295q17 0 17 -11z"/>
    <glyph glyph-name="six" unicode="6" d="M531 654q0 -4 -3 -12l-33 -65q-6 -10 -12 -10q-4 0 -17 6q-23 10 -55 10q-59 0 -110.5 -43.5t-87.5 -123.5q61 53 127 53q64 0 100.5 -45t36.5 -124q0 -74 -26 -140.5t-72 -112.5q-62 -64 -162 -64q-80 0 -123 48t-43 139q0 103 40 215.5t102 186.5q96 114 229 114 q39 0 74 -10.5t35 -21.5zM359 283q0 83 -69 83q-52 0 -86.5 -56.5t-34.5 -142.5q0 -81 66 -81q52 0 88 57t36 140z"/>
    <glyph glyph-name="seven" unicode="7" d="M531 658q0 -8 -2 -15l-5 -23q-2 -9 -3 -10l-2 -5l-3 -4l-352 -606q-6 -10 -12 -10q-5 0 -15 2l-77 18q-15 3 -15 11q0 5 6 15l327 528h-246q-17 0 -17 11q0 3 3 15l15 70q2 9 5 11.5t12 2.5h364q17 0 17 -11z"/>
    <glyph glyph-name="eight" unicode="8" d="M519 537q0 -117 -143 -183q50 -27 72.5 -62.5t22.5 -87.5q0 -91 -72 -157q-71 -64 -192 -64q-94 0 -145 39.5t-51 113.5q0 141 176 216q-79 49 -79 138q0 88 62.5 142t163.5 54q82 0 133.5 -41.5t51.5 -107.5zM396 518q0 33 -19 51t-54 18q-43 0 -69.5 -26.5t-26.5 -67.5 q0 -32 15 -53t52 -41q102 40 102 119zM350 195q0 56 -42 85q-9 6 -44 24q-71 -31 -101 -62.5t-30 -75.5q0 -38 25.5 -59t72.5 -21q55 0 87 29.5t32 79.5z"/>
    <glyph glyph-name="nine" unicode="9" d="M500 498q0 -102 -38.5 -212.5t-99.5 -185.5q-94 -117 -231 -117q-35 0 -64 8.5t-29 18.5q0 3 3 12l22 67q3 10 11 10q4 0 18 -5q27 -8 48 -8q60 0 113.5 46.5t90.5 130.5q-65 -62 -133 -62q-64 0 -100.5 44.5t-36.5 121.5q0 159 98 255q64 64 162 64q81 0 123.5 -48 t42.5 -140zM382 507q0 36 -17.5 56t-48.5 20q-44 0 -73 -38q-51 -67 -51 -165q0 -35 18 -55.5t49 -20.5q45 0 72 35q23 29 37 76t14 92z"/>
    <glyph glyph-name="colon" unicode=":" horiz-adv-x="297" d="M272 409q0 -37 -27 -64t-64 -27t-64 27t-27 64q0 38 27 64.5t65 26.5q37 0 63.5 -27t26.5 -64zM201 77q0 -37 -26.5 -64t-64.5 -27t-64.5 27t-26.5 64q0 38 27 64.5t65 26.5q37 0 63.5 -27t26.5 -64z"/>
    <glyph glyph-name="semicolon" unicode=";" horiz-adv-x="297" d="M292 409q0 -37 -27 -64t-64 -27t-64 27t-27 64q0 38 27 64.5t65 26.5q37 0 63.5 -27t26.5 -64zM219 114q0 -6 -7 -15l-170 -235q-7 -8 -12 -8q-4 0 -15 6l-36 22q-10 6 -10 11q0 3 6 17l101 202q4 7 7 9t11 2h107q18 0 18 -11z"/>
    <glyph glyph-name="less" unicode="&lt;" horiz-adv-x="500" d="M43 279v111l446 226v-123l-319 -159l319 -159v-123z"/>
    <glyph glyph-name="equal" unicode="=" horiz-adv-x="500" d="M494 387q0 -13 -4 -17t-17 -4h-414q-13 0 -17 4t-4 17v62q0 14 3.5 17.5t17.5 3.5h414q13 0 17 -4t4 -17v-62zM494 220q0 -14 -4 -17.5t-17 -3.5h-414q-14 0 -17.5 3.5t-3.5 17.5v63q0 13 3.5 16.5t17.5 3.5h414q13 0 17 -3.5t4 -16.5v-63z"/>
    <glyph glyph-name="greater" unicode="&gt;" horiz-adv-x="500" d="M43 52v123l319 159l-319 159v123l446 -226v-111z"/>
    <glyph glyph-name="question" unicode="?" horiz-adv-x="463" d="M483 551q0 -82 -55.5 -141.5t-148.5 -75.5l-16 -75q-2 -9 -5 -11.5t-12 -2.5h-81q-15 0 -15 11q0 3 3 15l25 120q2 9 6.5 13t15.5 6q54 13 76.5 22t40.5 26q30 28 30 68q0 28 -18 44t-50 16q-39 0 -106 -26q-8 -4 -16 -4q-5 0 -9 9l-28 71q-4 7 -4 12q0 9 21 17 q89 38 175 38q77 0 124 -41.5t47 -110.5zM249 66q0 -33 -23.5 -56.5t-56.5 -23.5t-56.5 23.5t-23.5 56.5q0 34 23.5 57t57.5 23q32 0 55.5 -24t23.5 -56z"/>
    <glyph glyph-name="at" unicode="@" horiz-adv-x="1019" d="M936 356q0 -130 -80 -218.5t-197 -88.5q-80 0 -93 69q-52 -69 -117 -69q-44 0 -68.5 31t-24.5 86q0 63 22.5 121.5t61.5 99.5q40 43 98 43q48 0 79 -34l5 11q6 11 15 11h67q12 0 12 -11q0 -4 -1 -9l-46 -214q-2 -12 -2 -26q0 -30 35 -30q19 0 43 11t40 28q28 29 46 80 t18 104q0 110 -71.5 173.5t-196.5 63.5q-166 0 -268 -105q-54 -56 -85 -135.5t-31 -163.5q0 -137 85 -214q78 -72 224 -72q163 0 288 67q15 6 19 6q7 0 10 -8l16 -40q3 -9 3 -12q0 -7 -15 -16q-53 -32 -141.5 -51.5t-182.5 -19.5q-194 0 -290 95q-106 103 -106 269 q0 97 39 189.5t108 157.5q133 127 332 127q84 0 155.5 -25t115.5 -71q79 -82 79 -210zM595 334q-23 24 -49 24q-27 0 -47 -38q-13 -26 -23.5 -73.5t-10.5 -80.5q0 -39 25 -39q34 0 59 36q12 16 22 59z"/>
    <glyph glyph-name="A" unicode="A" horiz-adv-x="537" d="M484 11q0 -11 -17 -11h-100q-10 0 -13 3t-4 14l-9 164h-170l-78 -169q-5 -12 -20 -12h-98q-17 0 -17 11q0 4 5 14l330 650q5 11 18 11h96q11 0 14 -3t4 -13l58 -652zM335 272l-7 174q0 6 -0.5 19t-0.5 21q0 15 1 60q-27 -68 -42 -100l-81 -174h130z"/>
    <glyph glyph-name="B" unicode="B" horiz-adv-x="555" d="M542 536q0 -118 -136 -176q92 -41 92 -146q0 -58 -28.5 -107.5t-75.5 -75.5q-33 -18 -72.5 -24.5t-114.5 -6.5h-161q-15 0 -15 12q0 2 3 14l137 646q2 9 5 11.5t13 2.5h155q99 0 145 -36q53 -41 53 -114zM407 522q0 33 -18.5 47.5t-59.5 14.5h-49l-39 -183h39q63 0 93 30 q34 34 34 91zM362 229q0 40 -21 55t-77 15h-45l-42 -197h44q74 0 104 26q37 31 37 101z"/>
    <glyph glyph-name="C" unicode="C" horiz-adv-x="489" d="M396 128l28 -74q2 -6 2 -9q0 -8 -18 -18q-80 -44 -168 -44q-75 0 -124 46q-63 59 -63 191q0 110 30.5 210.5t85.5 167.5q84 105 216 105q83 0 146 -48q16 -13 16 -20q0 -3 -4 -10l-47 -71q-4 -6 -11 -6t-15 7q-31 24 -48.5 32t-39.5 8q-70 0 -117 -82q-33 -57 -53.5 -138 t-20.5 -155q0 -63 22.5 -92t71.5 -29q37 0 89 28q9 6 16 6q4 0 6 -5z"/>
    <glyph glyph-name="D" unicode="D" horiz-adv-x="593" d="M578 463q0 -109 -38.5 -220.5t-95.5 -168.5q-42 -41 -100 -57.5t-163 -16.5h-135q-15 0 -15 12q0 2 3 14l137 646q2 10 5 12t16 2h132q77 0 117.5 -9t69.5 -34q67 -56 67 -180zM442 462q0 78 -41 102q-25 16 -90 16h-29l-101 -474h29q60 0 95 13.5t58 45.5q33 46 56 133 t23 164z"/>
    <glyph glyph-name="E" unicode="E" horiz-adv-x="482" d="M540 678q0 -5 -6 -17l-35 -70q-5 -11 -20 -11h-197l-36 -169h171q14 0 14 -11q0 -5 -1 -8l-2 -6l-14 -67q-1 -9 -4.5 -11.5t-13.5 -2.5h-172l-43 -199h214q14 0 14 -11q0 -5 -1 -8l-2 -6l-13 -66q-2 -10 -5 -12.5t-13 -2.5h-329q-15 0 -15 12q0 2 3 14l137 646 q2 9 5 11.5t13 2.5h335q16 0 16 -8z"/>
    <glyph glyph-name="F" unicode="F" horiz-adv-x="444" d="M541 678q0 -6 -6 -17l-34 -70q-7 -11 -21 -11h-199l-36 -171h174q13 0 13 -11q0 -6 -2 -14l-14 -66q-2 -10 -5 -12.5t-13 -2.5h-176l-61 -289q-2 -9 -5 -11.5t-12 -2.5h-98q-15 0 -15 12q0 2 3 14l137 646q2 9 5 11.5t13 2.5h337q15 0 15 -8z"/>
    <glyph glyph-name="G" unicode="G" horiz-adv-x="574" d="M353 110l32 149h-68q-15 0 -15 11q0 7 4 24l14 65q3 11 14 11h182q16 0 16 -11q0 -2 -2 -14l-61 -286q-2 -11 -6 -15t-17 -12q-90 -49 -193 -49q-92 0 -139 47q-64 61 -64 182q0 98 28.5 198t74.5 161q97 132 255 132q96 0 159 -46q17 -12 17 -18q0 -5 -2 -7l-51 -75 q-2 -4 -9 -4q-6 0 -12 6q-47 40 -110 40q-49 0 -82.5 -22t-62.5 -74t-49 -136.5t-20 -157.5q0 -61 22 -88.5t69 -27.5q38 0 76 17z"/>
    <glyph glyph-name="H" unicode="H" horiz-adv-x="611" d="M34 26l137 646q2 9 5 11.5t13 2.5h95q17 0 17 -11q0 -1 -0.5 -2.5t-1 -4.5t-1.5 -8l-53 -251h184l56 263q2 9 5 11.5t13 2.5h95q17 0 17 -11q0 -6 -2 -15l-137 -646q-2 -9 -5 -11.5t-13 -2.5h-98q-15 0 -15 11q0 4 1 7l2 8l58 275h-184l-61 -287q-2 -9 -5 -11.5t-12 -2.5 h-98q-15 0 -15 11q0 3 3 15z"/>
    <glyph glyph-name="I" unicode="I" horiz-adv-x="352" d="M-14 25l12 57q2 9 5 11.5t13 2.5h60l105 494h-58q-14 0 -14 11q0 3 2 14l13 57q2 9 5 11.5t12 2.5h249q13 0 13 -11q0 -2 -2 -14l-12 -57q-2 -9 -5 -11.5t-13 -2.5h-60l-105 -494h58q14 0 14 -11q0 -2 -0.5 -3t-1 -4.5t-1.5 -8.5l-11 -54q-2 -10 -5 -12.5t-13 -2.5h-247 q-15 0 -15 11q0 4 2 14z"/>
    <glyph glyph-name="J" unicode="J" horiz-adv-x="444" d="M5 202h92q11 0 11 -6q0 -4 -1 -6q-6 -26 -6 -43q0 -52 47 -52q30 0 47 21t28 71l86 403h-141q-15 0 -15 11q0 3 2 14l12 57q2 9 5 11.5t13 2.5h256q15 0 15 -11q0 -8 -2 -14l-96 -450q-24 -113 -68 -159q-59 -64 -158 -64q-68 0 -106 37t-38 102q0 75 17 75z"/>
    <glyph glyph-name="K" unicode="K" horiz-adv-x="556" d="M34 26l137 646q2 9 5 11.5t13 2.5h95q17 0 17 -11l-3 -15l-55 -262l280 289q9 9 14 9q4 0 13 -5l67 -34q11 -5 11 -13q0 -5 -7 -13l-279 -275l171 -304q6 -10 6 -15q0 -7 -12 -12l-91 -38q-9 -4 -14 -4q-6 0 -12 11l-165 321l-64 -301q-2 -9 -5 -11.5t-12 -2.5h-98 q-15 0 -15 11q0 3 3 15z"/>
    <glyph glyph-name="L" unicode="L" horiz-adv-x="463" d="M34 26l137 646q2 9 5 11.5t13 2.5h95q17 0 17 -11q0 -1 -0.5 -2.5t-1 -4.5t-1.5 -8l-114 -541h241q15 0 15 -9q0 -2 -6 -16l-36 -82q-5 -12 -18 -12h-334q-15 0 -15 12q0 2 3 14z"/>
    <glyph glyph-name="M" unicode="M" horiz-adv-x="685" d="M25 25l169 647q2 9 5 11.5t13 2.5h98q10 0 13 -3t4 -13l23 -252q2 -23 4 -96q19 42 48 97l140 256q6 11 19 11h93q14 0 14 -12q0 -2 -0.5 -5t-1.5 -8l-105 -646q-1 -10 -4.5 -12.5t-13.5 -2.5h-91q-14 0 -14 11q0 5 1 8l1 6l69 355q1 8 4.5 22.5t9.5 43l11 51.5 q-32 -73 -56 -117l-118 -217q-5 -8 -7 -9.5t-11 -1.5h-49q-10 0 -13.5 3t-4.5 13l-18 202q-4 43 -8 127l-9 -42l-5.5 -28l-6.5 -32.5t-6 -26.5l-83 -354q-2 -9 -5 -11.5t-13 -2.5h-85q-14 0 -14 11q0 4 3 14z"/>
    <glyph glyph-name="N" unicode="N" horiz-adv-x="611" d="M618 675q0 -10 -2 -14l-137 -647q-2 -9 -5 -11.5t-13 -2.5h-64q-10 0 -12.5 2t-5.5 11l-115 363q-6 18 -25 92q-7 -53 -18 -105l-74 -349q-2 -9 -5 -11.5t-13 -2.5h-88q-12 0 -12 11q0 3 2 14l138 647q2 9 5 11.5t12 2.5h72q9 0 12 -2t6 -11l106 -331q7 -23 12 -38 l18 -66q7 52 20 109l69 325q2 9 5 11.5t12 2.5h88q12 0 12 -11z"/>
    <glyph glyph-name="O" unicode="O" horiz-adv-x="574" d="M564 498q0 -111 -34 -226t-87 -183q-84 -106 -211 -106q-90 0 -138 53t-48 153q0 111 34 226t87 182q82 106 213 106q88 0 136 -53.5t48 -151.5zM428 493q0 58 -15 82t-50 24q-65 0 -116 -101q-29 -58 -47 -143.5t-18 -162.5q0 -56 15 -80.5t49 -24.5q66 0 116 100 q28 56 47 143t19 163z"/>
    <glyph glyph-name="P" unicode="P" horiz-adv-x="500" d="M545 532q0 -68 -29.5 -127t-79.5 -90q-67 -41 -169 -41h-50l-56 -260q-2 -9 -5 -11.5t-12 -2.5h-98q-15 0 -15 11q0 3 3 15l137 646q2 9 5 11.5t13 2.5h146q112 0 159 -36q51 -40 51 -118zM413 516q0 37 -21 52.5t-71 15.5h-38l-43 -200h28q75 0 108 33q37 37 37 99z"/>
    <glyph glyph-name="Q" unicode="Q" horiz-adv-x="574" d="M565 500q0 -173 -72 -327q-25 -56 -71 -109q24 -29 77 -72q10 -7 10 -14q0 -4 -6 -9l-81 -50q-4 -3 -12 -3q-12 0 -36.5 23.5t-49.5 58.5q-40 -15 -86 -15q-93 0 -142 52.5t-49 152.5q0 113 33.5 226.5t87.5 181.5q85 107 209 107q90 0 139 -53t49 -150zM429 496 q0 56 -15 79.5t-50 23.5q-62 0 -111 -91q-30 -57 -50 -147t-20 -169q0 -56 15 -80.5t49 -24.5q64 0 112 92q30 56 50 146.5t20 170.5z"/>
    <glyph glyph-name="R" unicode="R" horiz-adv-x="537" d="M544 529q0 -49 -20.5 -98.5t-52.5 -78.5q-25 -24 -88 -54l95 -263q4 -10 4 -14q0 -8 -12 -11l-97 -26q-9 -2 -12 -2q-7 0 -11 14l-85 285h-51l-56 -267q-2 -9 -5 -11.5t-13 -2.5h-94q-15 0 -15 11q0 3 3 15l137 646q2 9 5 11.5t13 2.5h143q112 0 159 -37q53 -42 53 -120z M412 517q0 41 -26 57q-19 10 -67 10h-40l-42 -197h36q71 0 102 31q16 16 26.5 44t10.5 55z"/>
    <glyph glyph-name="S" unicode="S" horiz-adv-x="500" d="M521 649q0 -3 -5 -12l-41 -78q-3 -7 -10 -7q-8 0 -26 10q-57 31 -109 31q-49 0 -77 -24.5t-28 -66.5q0 -37 28 -61q17 -15 87 -59q61 -38 85.5 -74t24.5 -89q0 -104 -72.5 -168.5t-187.5 -64.5q-84 0 -174 40q-19 8 -19 15q0 2 2 7l43 82q6 11 11 11t43 -19 q52 -25 106 -25q52 0 81.5 25t29.5 69q0 33 -17 53.5t-74 57.5q-62 40 -86 62q-44 42 -44 118q0 102 68 160t188 58q39 0 83.5 -9.5t67.5 -23.5q16 -10 19 -12t3 -6z"/>
    <glyph glyph-name="T" unicode="T" horiz-adv-x="426" d="M533 677q0 -3 -6 -16l-39 -80q-5 -12 -19 -12h-127l-117 -555q-2 -9 -5 -11.5t-13 -2.5h-97q-15 0 -15 12q0 6 2 14l115 543h-130q-14 0 -14 11q0 5 2 14l17 77q2 10 5 12.5t12 2.5h414q15 0 15 -9z"/>
    <glyph glyph-name="U" unicode="U" horiz-adv-x="611" d="M73 232l93 440q2 9 5 11.5t13 2.5h99q13 0 13 -11q0 -5 -2 -15l-91 -428q-9 -45 -9 -64q0 -36 22 -55.5t63 -19.5q56 0 92 44q22 27 36 93l95 442q2 9 5 11.5t12 2.5h97q12 0 12 -11q0 -6 -2 -14l-91 -429q-18 -86 -34.5 -121.5t-51.5 -64.5q-70 -60 -184 -60 q-98 0 -150 41t-52 119q0 36 10 86z"/>
    <glyph glyph-name="V" unicode="V" horiz-adv-x="518" d="M606 669q0 -6 -4 -14l-319 -656q-5 -8 -7 -9.5t-11 -1.5h-120q-10 0 -13 3t-4 13l-37 654v5q0 7 2.5 9t12.5 4l106 19h5q14 0 14 -17l-3 -421q0 -49 -5 -154q56 144 61 155l187 428q5 9 12 9t13 -1l95 -14q15 -2 15 -11z"/>
    <glyph glyph-name="W" unicode="W" horiz-adv-x="741" d="M815 663q0 -4 -5 -14l-285 -647q-4 -8 -6.5 -10t-11.5 -2h-85q-10 0 -13.5 3t-3.5 14l9 358q3 61 10 142q-44 -122 -54 -143l-163 -362q-4 -9 -6 -10.5t-11 -1.5h-87q-11 0 -14 3t-3 14l11 652q0 10 2.5 13.5t12.5 4.5l91 17q3 1 8 1q7 0 8.5 -2.5t2.5 -15.5l-20 -365 q-3 -61 -14 -139l7.5 21.5t19 50.5t28.5 68l159 361q4 9 6.5 10.5t11.5 1.5h81q11 0 14 -3t3 -14l-2 -348q0 -32 -9 -146l23 76q13 40 24 70l140 362q5 12 12 12q3 0 11 -2l83 -18q15 -3 15 -12z"/>
    <glyph glyph-name="X" unicode="X" horiz-adv-x="500" d="M-50 35l260 330l-109 283q-2 8 -2 10q0 8 14 12l96 24q3 1 8 1q9 0 13 -13l42 -151q11 -38 17 -75q22 42 44 75l106 156q6 9 11 9q6 0 10 -1l96 -26q14 -4 14 -12q0 -6 -6 -13l-226 -293l116 -322q2 -8 2 -10q0 -9 -14 -12l-96 -24l-9 -1q-7 0 -11 13l-54 181 q-12 42 -16 66q-18 -28 -46 -66l-138 -187q-7 -8 -10 -8q-1 0 -2 0.5t-3.5 1t-5.5 1.5l-97 28q-10 3 -10 11q0 5 6 12z"/>
    <glyph glyph-name="Y" unicode="Y" horiz-adv-x="482" d="M582 662q0 -6 -7 -15l-261 -366l-57 -267q-2 -9 -5 -11.5t-12 -2.5h-98q-15 0 -15 11q0 2 3 15l54 255l-112 372q-2 8 -2 10q0 8 15 11l96 20q9 2 12 2q7 0 10 -11l45 -174q13 -53 20 -110q35 64 62 105l125 181q6 9 13 9q5 0 8 -1l92 -21q14 -3 14 -12z"/>
    <glyph glyph-name="Z" unicode="Z" horiz-adv-x="481" d="M530 675q0 -5 -2 -15l-18 -85l-362 -456h281q16 0 16 -9q0 -6 -4 -15l-29 -82q-5 -13 -19 -13h-403q-17 0 -17 11q0 1 0.5 2t1 4.5t1.5 8.5l15 75l371 472h-239q-17 0 -17 9q0 5 5 16l36 78q5 10 17 10h350q16 0 16 -11z"/>
    <glyph glyph-name="bracketleft" unicode="[" horiz-adv-x="445" d="M499 704q0 -1 -0.5 -2t-1 -4.5t-1.5 -8.5l-13 -63q-1 -9 -4.5 -11.5t-13.5 -2.5h-103l-152 -714h98q17 0 17 -11q0 -5 -2 -15l-14 -63q-2 -9 -5 -11.5t-13 -2.5h-205q-14 0 -14 11q0 3 3 15l187 880q2 9 5 11.5t12 2.5h203q17 0 17 -11z"/>
    <glyph glyph-name="backslash" unicode="\" horiz-adv-x="482" d="M475 -191q0 -14 -20 -14h-65q-10 0 -13.5 2.5t-6.5 11.5l-267 880q-2 8 -2 12q0 14 21 14h65q10 0 13 -2t6 -12l267 -880q2 -8 2 -12z"/>
    <glyph glyph-name="bracketright" unicode="]" horiz-adv-x="445" d="M371 704q0 -2 -3 -15l-187 -880q-2 -9 -5 -11.5t-12 -2.5h-203q-17 0 -17 11q0 1 0.5 2t1 4.5t1.5 8.5l13 63q1 9 4.5 11.5t13.5 2.5h103l152 714h-98q-17 0 -17 11q0 3 2 15l14 62q2 10 5 12.5t12 2.5h206q14 0 14 -11z"/>
    <glyph glyph-name="asciicircum" unicode="^" horiz-adv-x="500" d="M504 366h-123l-115 230l-115 -230h-123l161 323h154z"/>
    <glyph glyph-name="underscore" unicode="_" horiz-adv-x="514" d="M437 -143h-514v79h514v-79z"/>
    <glyph glyph-name="grave" unicode="`" horiz-adv-x="500" d="M440 595q0 -4 -11 -19l-15 -20q-7 -11 -13 -11q-4 0 -17 6l-154 74q-9 5 -9 13q0 5 6 17l39 56q7 10 17 10q5 0 14 -8l137 -110q6 -4 6 -8z"/>
    <glyph glyph-name="a" unicode="a" horiz-adv-x="518" d="M493 484q0 -2 -2 -11l-67 -313q-9 -42 -9 -71q0 -22 6 -50q2 -6 2 -11q0 -6 -9 -10l-84 -32q-8 -3 -11 -3q-18 0 -20 91q-74 -91 -159 -91q-55 0 -84 42.5t-29 121.5q0 148 70.5 256t168.5 108q67 0 111 -54l11 28q4 9 14 9h79q12 0 12 -10zM352 385q-24 22 -39.5 29.5 t-35.5 7.5q-47 0 -77 -58q-20 -37 -36 -106.5t-16 -116.5q0 -60 43 -60q51 0 92 54q23 32 34 87z"/>
    <glyph glyph-name="b" unicode="b" horiz-adv-x="518" d="M484 357q0 -75 -26 -156t-68 -135q-64 -83 -164 -83q-87 0 -182 56q-22 13 -22 24q0 4 2 12l130 613q2 8 5 11t11 4l89 19q8 2 11 2q9 0 9 -10q0 -2 -0.5 -3t-1 -3t-0.5 -5l-45 -215q-5 -23 -18 -59q56 82 149 82q58 0 89.5 -40t31.5 -114zM364 347q0 66 -53 66 q-95 0 -125 -141l-36 -172q47 -28 82 -28q52 0 85 68q19 40 33 102.5t14 104.5z"/>
    <glyph glyph-name="c" unicode="c" horiz-adv-x="408" d="M437 466q0 -3 -3 -9l-40 -65q-5 -6 -10 -6q-4 0 -9 4q-34 23 -75 23q-59 0 -90 -42q-59 -82 -59 -204q0 -80 75 -80q29 0 69 17q11 6 17 6q4 0 7 -5l25 -66q3 -7 3 -10q0 -14 -47 -30t-89 -16q-88 0 -136.5 51.5t-48.5 143.5q0 80 29.5 154t81.5 120q65 59 167 59 q69 0 121 -33q12 -7 12 -12z"/>
    <glyph glyph-name="d" unicode="d" d="M541 714q0 -5 -2 -11l-119 -563q-6 -27 -6 -48q0 -23 8 -58q1 -2 1 -6q0 -6 -12 -11l-83 -31q-6 -3 -9 -3q-18 0 -20 91q-37 -49 -74 -70t-84 -21q-111 0 -111 148q0 77 22.5 154t60.5 129q69 97 172 97q48 0 88 -25l43 202q2 13 16 15l89 19q9 2 11 2q9 0 9 -10z M355 399q-34 17 -65 17q-62 0 -94 -65q-19 -38 -32 -97t-13 -104q0 -32 13 -50.5t35 -18.5q40 0 72.5 42t47.5 111z"/>
    <glyph glyph-name="e" unicode="e" horiz-adv-x="463" d="M455 379q0 -64 -43 -111.5t-119 -66.5q-52 -13 -147 -13q-1 -10 -1 -20q0 -87 87 -87q44 0 112 36q12 6 16 6q5 0 8 -7l25 -62q2 -6 2 -10t-17 -14q-77 -47 -178 -47q-83 0 -128.5 48t-45.5 137q0 74 26 144.5t72 118.5q34 37 83.5 58.5t101.5 21.5q68 0 107 -35t39 -97z M338 372q0 22 -13 36t-34 14q-58 0 -96 -54q-21 -28 -35 -87q86 0 127 19q51 23 51 72z"/>
    <glyph glyph-name="f" unicode="f" horiz-adv-x="333" d="M440 691q0 -2 -3 -9l-23 -70q-3 -6 -8 -6t-18 6q-24 9 -43 9q-29 0 -43 -17t-24 -67l-9 -43h114q12 0 12 -9q0 -3 -3 -12l-18 -58q-3 -7 -5 -8.5t-10 -1.5h-109l-80 -412q-20 -105 -62 -147q-53 -51 -128 -51q-38 0 -64.5 5t-26.5 12q0 5 2 11l21 71q3 7 8 7h3 q16 -4 36 -4q42 0 61 22.5t32 89.5l80 396h-71q-13 0 -13 10l1 11l12 56q1 8 4 10t11 2h75l13 64q18 89 54 122q42 39 121 39q37 0 69 -9t32 -19z"/>
    <glyph glyph-name="g" unicode="g" d="M519 460q0 -5 -10 -18q-37 -52 -49 -111l-32 -148q-13 -54 -31 -166q-14 -82 -31 -122t-49 -65q-54 -42 -152 -42q-57 0 -118 17.5t-61 33.5q0 3 3 10l31 73q3 7 8 7q6 0 17 -5q69 -36 127 -36q51 0 79 26q20 20 30 78q11 64 21 92q-72 -85 -147 -85q-57 0 -89.5 43.5 t-32.5 119.5q0 70 24.5 143.5t65.5 127.5q59 78 141 78q38 0 61 -11.5t57 -47.5q15 24 31 40.5t24 16.5q3 0 14 -6l61 -33q7 -4 7 -10zM352 385q-38 37 -75 37q-44 0 -78 -66q-19 -36 -32 -94.5t-13 -103.5q0 -67 47 -67q40 0 78 41q24 27 38 90z"/>
    <glyph glyph-name="h" unicode="h" d="M480 406q0 -30 -11 -78l-72 -317q-2 -11 -14 -11h-92q-13 0 -13 9q0 4 2 12l65 285q10 43 10 68q0 32 -34 32q-49 0 -86 -50.5t-57 -145.5l-42 -199q-2 -11 -14 -11h-92q-14 0 -14 9q0 2 2 12l142 667q1 8 4 10.5t12 4.5l88 19q9 2 11 2q9 0 9 -10l-1 -11l-44 -210 q-8 -39 -16 -64q47 48 78.5 65t72.5 17q49 0 77.5 -28t28.5 -77z"/>
    <glyph glyph-name="i" unicode="i" horiz-adv-x="278" d="M309 644q0 -34 -24.5 -58.5t-58.5 -24.5t-58 24t-24 59q0 34 24 58t59 24q34 0 58 -24.5t24 -57.5zM257 485l-1 -12l-99 -462q-2 -11 -14 -11h-92q-13 0 -13 9l1 10l82 386h-76q-14 0 -14 9q0 4 2 12l12 56q2 12 14 12h185q13 0 13 -9z"/>
    <glyph glyph-name="j" unicode="j" horiz-adv-x="278" d="M308 644q0 -34 -24 -58.5t-59 -24.5q-34 0 -58 24.5t-24 58.5t24 58t59 24q34 0 58 -24t24 -58zM258 485q0 -3 -2 -12l-99 -463q-17 -79 -31 -116.5t-37 -64.5q-54 -62 -141 -62q-33 0 -66 9t-33 18q0 4 3 10l25 72q3 9 10 9q4 0 19 -7q18 -10 40 -10q41 0 61 39 q13 24 30 103l84 395h-76q-14 0 -14 10q0 2 2 11l12 56q2 12 14 12h185q14 0 14 -9z"/>
    <glyph glyph-name="k" unicode="k" horiz-adv-x="482" d="M509 433q0 -4 -9 -12l-195 -157l123 -209q4 -6 4 -8q0 -7 -9 -11l-76 -45q-7 -4 -12 -4q-6 0 -10 8l-141 244l-48 -228q-2 -11 -14 -11h-92q-14 0 -14 9q0 2 2 12l142 667q1 8 4 10.5t12 4.5l88 19q9 2 11 2q9 0 9 -10l-1 -11l-87 -410l242 207q5 5 10 5q3 0 9 -6l46 -54 q6 -7 6 -12z"/>
    <glyph glyph-name="l" unicode="l" horiz-adv-x="278" d="M281 714q0 -5 -2 -11l-111 -522q-10 -47 -10 -63q0 -20 21 -20q9 0 27 4q8 3 11 3q5 0 6 -7l10 -69l1 -5q1 -1 1 -5q0 -10 -33.5 -19.5t-68.5 -9.5q-99 0 -99 83q0 40 14 107l108 507q3 14 16 16l89 19q9 2 11 2q9 0 9 -10z"/>
    <glyph glyph-name="m" unicode="m" horiz-adv-x="759" d="M719 406q0 -34 -9 -77l-72 -318q-2 -11 -14 -11h-92q-14 0 -14 9q0 3 2 12l65 284q10 44 10 67q0 34 -29 34q-45 0 -80.5 -50.5t-54.5 -142.5l-43 -202q-2 -11 -14 -11h-92q-14 0 -14 9q0 3 2 12l65 284q10 44 10 69q0 32 -28 32q-46 0 -81 -50.5t-55 -142.5l-43 -202 q-2 -11 -15 -11h-91q-14 0 -14 10q0 3 2 11l71 310q10 42 10 78q0 17 -5 45q-1 2 -1 7q0 9 9 12l78 33q6 3 10 3q8 0 14.5 -24.5t6.5 -52.5q0 -13 -1 -25q81 104 163 104q40 0 64 -23.5t24 -63.5q0 -8 -1 -15q42 55 79 78.5t81 23.5q46 0 71.5 -27.5t25.5 -77.5z"/>
    <glyph glyph-name="n" unicode="n" d="M479 406q0 -34 -10 -78l-72 -317q-2 -11 -14 -11h-92q-14 0 -14 10q0 3 3 11l64 285q11 50 11 68q0 32 -34 32q-48 0 -84 -50t-56 -142l-43 -203q-2 -11 -14 -11h-92q-14 0 -14 10q0 3 2 11l71 310q10 45 10 76q0 23 -5 44q-1 4 -1 10q0 8 12 13l77 33q6 2 7 2 q9 0 15.5 -23t6.5 -53q0 -13 -1 -26q76 104 165 104q47 0 74.5 -28t27.5 -77z"/>
    <glyph glyph-name="o" unicode="o" horiz-adv-x="500" d="M469 333q0 -75 -26.5 -147.5t-72.5 -124.5q-69 -78 -179 -78q-81 0 -124.5 45.5t-43.5 130.5q0 75 25.5 146.5t70.5 122.5q74 83 186 83q77 0 120.5 -47.5t43.5 -130.5zM343 343q0 70 -63 70q-53 0 -85 -62q-18 -34 -32 -94t-14 -102q0 -74 60 -74q59 0 91 66 q17 36 30 95.5t13 100.5z"/>
    <glyph glyph-name="p" unicode="p" horiz-adv-x="518" d="M485 365q0 -79 -26 -164t-65 -135q-67 -83 -164 -83q-50 0 -89 27l-39 -185q-2 -14 -16 -16l-89 -18q-8 -2 -11 -2q-9 0 -9 10q0 6 2 11l115 545q6 32 6 47q0 26 -4 48q-2 8 -2 11q0 9 10 13l77 32q7 3 10 3q8 0 14.5 -24.5t6.5 -55.5v-14q37 52 72 74t81 22q58 0 89 -38 t31 -108zM365 348q0 29 -13 47t-34 18q-44 0 -76 -39.5t-47 -111.5l-35 -165q30 -19 65 -19t58.5 17.5t40.5 56.5q16 37 28.5 97.5t12.5 98.5z"/>
    <glyph glyph-name="q" unicode="q" horiz-adv-x="518" d="M518 460q0 -4 -16 -28q-29 -41 -42 -101l-108 -506q-2 -14 -16 -16l-88 -18q-9 -2 -11 -2q-9 0 -9 9l1 12l38 179q5 26 20 77q-66 -83 -150 -83q-50 0 -79.5 43t-29.5 116q0 82 26.5 161.5t73.5 137.5q58 70 138 70q65 0 115 -60q14 24 31 41t25 17q4 0 8 -3l66 -36 q7 -3 7 -10zM352 385q-42 37 -75 37q-46 0 -76 -57q-22 -40 -37 -106.5t-15 -119.5q0 -58 42 -58q46 0 86 48q27 33 40 93z"/>
    <glyph glyph-name="r" unicode="r" horiz-adv-x="352" d="M403 493q0 -2 -3 -8l-42 -101q-2 -6 -6 -6q-2 0 -8 2q-15 5 -26 5q-45 0 -81.5 -47.5t-53.5 -128.5l-42 -197q-2 -12 -14 -12h-92q-14 0 -14 10q0 2 2 12l64 299q12 54 12 87q0 18 -5 41l-1 12q0 9 10 12l79 34q6 2 8 2q8 0 14.5 -24.5t6.5 -56.5q0 -17 -2 -31 q33 51 55 70q41 39 94 39q45 0 45 -13z"/>
    <glyph glyph-name="s" unicode="s" horiz-adv-x="389" d="M374 468q0 -3 -4 -15l-17 -50q-4 -10 -14 -10q-5 0 -15 5q-44 21 -81 21q-33 0 -53 -16.5t-20 -43.5q0 -23 15 -36q9 -8 59 -31q61 -28 82 -55t21 -77q0 -81 -51.5 -129t-139.5 -48q-74 0 -147 31q-21 9 -21 16l2 10l21 62q3 8 9 8q5 0 45 -16q44 -19 85 -19 q39 0 61 17.5t22 48.5q0 20 -10 30t-49 29q-73 35 -95 61t-22 75q0 78 52 126.5t135 48.5q45 0 87.5 -14t42.5 -29z"/>
    <glyph glyph-name="t" unicode="t" horiz-adv-x="370" d="M406 485q0 -1 -4 -14l-19 -56q-4 -10 -15 -10h-128l-50 -238q-6 -32 -6 -49q0 -35 40 -35q39 0 77 18q10 5 13 5q6 0 7 -7l15 -62l1 -4q1 -3 1 -6q0 -13 -57.5 -28.5t-103.5 -15.5q-119 0 -119 102q0 23 8 63l54 257h-66q-14 0 -14 10q0 3 2 12l12 55q2 12 14 12h71 l27 124q1 11 13 12l89 13q10 1 12 1q8 0 8 -9l-1 -14l-28 -127h133q14 0 14 -9z"/>
    <glyph glyph-name="u" unicode="u" d="M498 493q0 -4 -2 -10l-72 -320q-11 -47 -11 -73t8 -55q1 -2 1 -7q0 -6 -12 -11l-79 -32l-8 -2q-9 0 -15 21t-6 53q0 17 1 30q-75 -104 -169 -104q-99 0 -99 104q0 31 10 78l69 302q2 9 4.5 12t11.5 4l89 18q8 2 11 2q9 0 9 -9q0 -4 -2 -12l-67 -290q-9 -42 -9 -61 q0 -18 11.5 -29t29.5 -11q44 0 78.5 50t53.5 143l39 183q3 14 16 16l89 19l11 1q9 0 9 -10z"/>
    <glyph glyph-name="v" unicode="v" horiz-adv-x="445" d="M490 481q0 -4 -4 -12l-263 -472q-5 -9 -14 -9h-83q-13 0 -14 13l-57 469q-1 8 -1 10q0 9 10 10l89 11q8 1 11 1q9 0 10 -13l15 -236q4 -65 4 -134q42 98 60 134l119 240q4 9 10 9h5l91 -11q12 -1 12 -10z"/>
    <glyph glyph-name="w" unicode="w" horiz-adv-x="648" d="M689 478q0 -4 -4 -12l-233 -465q-4 -9 -16 -9h-88q-8 0 -10.5 3t-2.5 12l6 269q1 31 7 91q-18 -51 -35 -91l-122 -274q-4 -10 -15 -10h-79q-8 0 -10.5 3t-3.5 11l-26 462v8q0 9 11 10l83 14l13 1q9 0 9 -14l-3 -260q-1 -61 -5 -107q1 3 16 44.5t25 63.5l111 257q3 9 14 9 h87q8 0 11 -3t3 -11l-1 -244q0 -62 -8 -120q18 56 46 122l106 251q4 9 10 9q3 0 13 -1l78 -10q13 -1 13 -9z"/>
    <glyph glyph-name="x" unicode="x" horiz-adv-x="444" d="M477 458q0 -5 -5 -10l-187 -193l110 -218q5 -10 5 -15q0 -6 -11 -9l-82 -22q-13 -3 -15 -3q-6 0 -10 10l-47 112q-6 16 -13.5 32t-13.5 32q-23 -33 -51 -65l-102 -114q-6 -7 -9 -7q-2 0 -9 3l-82 32q-8 3 -8 9t6 12l203 209l-97 199q-5 10 -5 13q0 6 11 10l81 26 q11 4 14 4q5 0 9 -10l40 -97q14 -35 17 -45q3 -6 7 -18l49 60l90 104q5 7 9 7q3 0 9 -3l78 -35q9 -4 9 -10z"/>
    <glyph glyph-name="y" unicode="y" horiz-adv-x="444" d="M486 479q0 -5 -4 -12l-201 -409q-81 -165 -114 -208q-53 -69 -141 -69q-35 0 -76.5 14.5t-41.5 26.5q0 3 3 9l36 63q5 8 10 8q3 0 10 -3q37 -18 64 -18q30 0 49 13t36 44l33 62h-40q-13 0 -14 13l-53 458q-1 3 -1 7q0 9 12 10l86 10q4 1 13 1q8 0 9 -13l19 -243 q5 -75 8 -164q14 33 17 41l24 61l24 58l112 253q4 9 10 9q1 0 12 -1l88 -12q11 -2 11 -9z"/>
    <glyph glyph-name="z" unicode="z" horiz-adv-x="426" d="M441 484l-1 -11l-15 -69l-291 -305h229q13 0 13 -8q0 -4 -5 -14l-44 -67q-7 -10 -21 -10h-320q-14 0 -14 9q0 2 2 12l14 64l296 310h-195q-12 0 -12 9q0 4 2 14l14 64q2 12 14 12h321q13 0 13 -10z"/>
    <glyph glyph-name="braceleft" unicode="{" horiz-adv-x="408" d="M456 704q0 -5 -2 -15l-13 -62q-2 -11 -6 -12.5t-26 -2.5q-68 -1 -82 -72l-33 -154q-11 -48 -31.5 -74.5t-62.5 -45.5q48 -28 48 -75q0 -23 -5 -46l-37 -175q-4 -20 -4 -27q0 -45 57 -45h10q14 0 14 -11q0 -3 -3 -15l-13 -62q-2 -10 -6 -13t-16 -3q-81 0 -123 32t-42 93 q0 29 7 60l34 161q3 14 3 26q0 25 -15 35t-50 10h-11q-17 0 -17 11q0 1 0.5 2t1 4.5t1.5 8.5l14 69q1 9 4.5 11.5t13.5 2.5h23q38 0 57.5 16.5t27.5 54.5l30 140q40 184 235 184q17 0 17 -11z"/>
    <glyph glyph-name="bar" unicode="|" horiz-adv-x="366" d="M253 -171h-108v857h108v-857z"/>
    <glyph glyph-name="braceright" unicode="}" horiz-adv-x="408" d="M374 288q0 -3 -2 -15l-15 -70q-2 -9 -5 -11.5t-12 -2.5h-24q-38 0 -57.5 -16.5t-27.5 -54.5l-30 -140q-40 -184 -234 -184q-18 0 -18 11q0 6 2 15l14 62q2 10 5 12.5t12 2.5q44 -1 65.5 15t30.5 57l33 154q10 49 31.5 75.5t63.5 45.5q-27 16 -38 33t-11 43q0 18 6 45 l37 175q3 15 3 28q0 23 -15.5 33.5t-50.5 10.5q-14 0 -14 11q0 6 2 15l13 62q2 10 6.5 13t17.5 3q79 0 121 -32t42 -93q0 -27 -7 -60l-34 -161q-3 -13 -3 -26q0 -25 15 -35t50 -10h11q17 0 17 -11z"/>
    <glyph glyph-name="asciitilde" unicode="~" horiz-adv-x="500" d="M86 235l-68 57q57 135 149 135q38 0 114 -35q65 -29 88 -29q22 0 39.5 15t37.5 51l68 -56q-31 -71 -66.5 -103.5t-82.5 -32.5q-28 0 -108 34q-70 31 -94 31q-22 0 -39 -14.5t-38 -52.5z"/>
    <glyph glyph-name="uni00A0" unicode=" " horiz-adv-x="206"/>
    <glyph glyph-name="exclamdown" unicode="¡" horiz-adv-x="352" d="M290 420q0 -33 -23.5 -56.5t-56.5 -23.5t-56.5 23.5t-23.5 56.5t23.5 56.5t57.5 23.5q32 0 55.5 -23.5t23.5 -56.5zM222 232q0 -4 -2 -14l-63 -403q-1 -10 -4.5 -12.5t-13.5 -2.5h-106q-17 0 -17 12q0 3 3 11l108 407q3 14 18 14h62q15 0 15 -12z"/>
    <glyph glyph-name="cent" unicode="¢" d="M508 554q0 -4 -2 -8l-40 -65q-4 -6 -10 -6q-4 0 -9 4q-22 18 -53 24l-70 -327q21 5 48 19q8 4 12 4t6 -5l26 -67q3 -6 3 -9q0 -12 -36 -26.5t-81 -19.5l-12 -58q-2 -10 -5.5 -12t-19.5 -2h-16q-17 0 -17 12q0 2 3 14l10 48q-148 27 -148 192q0 102 44.5 188t115.5 120 q44 22 99 26l13 59q2 9 5 11.5t13 2.5h23q17 0 17 -11q0 -1 -0.5 -2t-1 -4.5t-1.5 -8.5l-10 -49q33 -5 63.5 -19.5t30.5 -24.5zM339 504q-37 -10 -60 -40q-31 -41 -49 -97.5t-18 -112.5q0 -65 56 -81z"/>
    <glyph glyph-name="sterling" unicode="£" d="M568 629q0 -5 -5 -14l-32 -60q-6 -12 -18 -12q-7 0 -22 10q-49 29 -98 29q-66 0 -104 -43.5t-38 -118.5q0 -17 1 -30h147q17 0 17 -10q0 -4 -3 -16l-12 -53q-2 -10 -5 -12t-13 -2h-124q2 -32 2 -36q0 -70 -41 -155h265q15 0 15 -8t-6 -20l-31 -66q-3 -8 -6 -10t-12 -2 h-441q-17 0 -17 11q0 1 0.5 2.5t1 4.5t1.5 8l13 66q1 9 4.5 11.5t13.5 2.5h75q30 49 41 89.5t10 101.5h-91q-17 0 -17 11q0 5 2 15l12 53q2 9 5 11.5t13 2.5h68q-3 22 -3 41q0 114 73 184.5t191 70.5q56 0 112 -19t56 -38z"/>
    <glyph glyph-name="currency" unicode="¤" horiz-adv-x="627" d="M566 175l-57 -58l-69 67q-52 -35 -115 -35q-65 0 -116 35l-68 -67q-9 8 -18.5 18l-21.5 22l-18 18l69 66q-35 54 -35 113q0 63 35 113l-69 67l58 58l68 -67q53 35 116 35q64 0 115 -35l69 67l57 -58l-69 -67q35 -52 35 -113q0 -60 -35 -113zM450 355q0 52 -38 88t-87 36 q-53 0 -89.5 -36.5t-36.5 -87.5t37 -88t89 -37t88.5 36.5t36.5 88.5z"/>
    <glyph glyph-name="yen" unicode="¥" d="M590 664q0 -6 -6 -15l-169 -243h104q17 0 17 -12q0 -3 -2 -11l-2 -9q-2 -9 -5 -11.5t-13 -2.5h-129l-33 -48h147q17 0 17 -11q0 -3 -2 -12l-2 -9q-2 -9 -5 -11.5t-13 -2.5h-162l-53 -252q-2 -9 -5 -11.5t-13 -2.5h-95q-15 0 -15 11q0 2 3 15l51 240h-145q-17 0 -17 11 q0 4 3 15l1 6q3 15 17 15h141l-14 47h-111q-17 0 -17 11q0 1 0.5 2t1 4.5t1.5 8.5l1 6q1 9 4.5 11.5t12.5 2.5h94l-69 248l-1 9q0 9 14 12l84 17q13 3 15 3q9 0 12 -15l36 -183q11 -54 18 -117q30 62 62 112l122 193q6 10 12 10q3 0 12 -2l81 -18q14 -3 14 -11z"/>
    <glyph glyph-name="brokenbar" unicode="¦" horiz-adv-x="366" d="M253 328h-108v358h108v-358zM253 -171h-108v329h108v-329z"/>
    <glyph glyph-name="section" unicode="§" d="M471 553q0 -5 -5 -13l-30 -54q-3 -8 -12 -8q-4 0 -15 6q-52 35 -101 35q-33 0 -52.5 -14t-19.5 -38q0 -18 11.5 -27t86.5 -52q64 -37 91 -72.5t27 -85.5q0 -106 -130 -152q68 -41 68 -119q0 -67 -48 -117q-53 -55 -150 -55q-88 0 -176 51q-19 11 -19 19q0 4 6 16l30 56 q6 9 13 9q5 0 29 -16q59 -38 117 -38q32 0 49 15t17 43q0 24 -16 39t-76 47q-69 37 -95.5 71.5t-26.5 86.5q0 109 135 154q-62 40 -62 108q0 73 53.5 119t138.5 46q51 0 106.5 -20.5t55.5 -39.5zM334 215q0 22 -15 38.5t-56 40.5q-53 -20 -76 -41.5t-23 -50.5 q0 -23 14.5 -37.5t61.5 -39.5q50 20 72 41t22 49z"/>
    <glyph glyph-name="dieresis" unicode="¨" horiz-adv-x="500" d="M495 634q0 -29 -20.5 -49.5t-49.5 -20.5t-49 20t-20 49t20.5 49.5t50.5 20.5q28 0 48 -20.5t20 -48.5zM303 634q0 -29 -20.5 -49.5t-49.5 -20.5t-49 20t-20 49t20.5 49.5t50.5 20.5q28 0 48 -20.5t20 -48.5z"/>
    <glyph glyph-name="copyright" unicode="©" horiz-adv-x="700" d="M700 343q0 -147 -98 -251.5t-237 -104.5t-237.5 104.5t-98.5 250.5q0 150 98.5 253.5t241.5 103.5q136 0 233.5 -105t97.5 -251zM618 342q0 122 -74.5 206.5t-181.5 84.5q-103 0 -177 -85.5t-74 -204.5q0 -120 74.5 -205t179.5 -85q104 0 178.5 85t74.5 204zM491 174 q0 -17 -35.5 -32t-76.5 -15q-83 0 -126.5 57t-43.5 165q0 98 44.5 154t121.5 56q36 0 75.5 -17.5t39.5 -33.5q0 -4 -3 -8l-26 -43q-5 -8 -12 -8q-6 0 -23 12q-23 17 -47 17q-66 0 -66 -118q0 -152 75 -152q24 0 53 20q4 4 10 4t12 -9l25 -40q3 -6 3 -9z"/>
    <glyph glyph-name="ordfeminine" unicode="ª" horiz-adv-x="352" d="M388 718q0 -2 -2 -9l-39 -183q-5 -22 -5 -37q0 -12 5 -30q2 -5 2 -8q0 -9 -11 -12l-56 -19q-6 -2 -8 -2q-12 0 -15 51q-50 -51 -101 -51q-38 0 -59 27t-21 77q0 88 45.5 151.5t108.5 63.5q42 0 68 -36l8 16q5 10 15 10h52q13 0 13 -9zM285 655q-24 17 -44 17 q-27 0 -43 -30q-12 -21 -21 -58.5t-9 -65.5q0 -31 24 -31q27 0 46.5 20t26.5 56z"/>
    <glyph glyph-name="guillemotleft" unicode="«" horiz-adv-x="593" d="M593 447q0 -5 -6 -12l-169 -192l80 -185q4 -8 4 -13q0 -7 -8 -11l-57 -27q-12 -5 -14 -5q-6 0 -12 10l-126 233q-4 5 -4 10t6 10l232 229q7 7 12 7t12 -6l42 -36q8 -7 8 -12zM353 447q0 -4 -7 -12l-169 -192l80 -185q5 -12 5 -13q0 -7 -9 -11l-57 -27q-12 -5 -14 -5 q-6 0 -12 10l-126 233q-4 6 -4 10q0 5 6 10l232 229q6 7 12 7t12 -6l42 -36q9 -8 9 -12z"/>
    <glyph glyph-name="logicalnot" unicode="¬" horiz-adv-x="500" d="M38 387v62q0 14 3.5 17.5t17.5 3.5h414q13 0 17 -4t4 -17v-229q0 -14 -3.5 -17.5t-17.5 -3.5h-67q-13 0 -16.5 3.5t-3.5 17.5v146h-327q-13 0 -17 4t-4 17z"/>
    <glyph glyph-name="uni00AD" unicode="­" horiz-adv-x="334" d="M303 288l-17 -78q-2 -9 -5 -11.5t-13 -2.5h-223q-17 0 -17 12q0 1 0.5 2t1 4t1.5 8l15 75q1 9 4.5 11.5t13.5 2.5h223q17 0 17 -10z"/>
    <glyph glyph-name="registered" unicode="®" horiz-adv-x="420" d="M472 564q0 -89 -59 -151.5t-142 -62.5t-142.5 62.5t-59.5 150.5q0 90 59 152t145 62q82 0 140.5 -63t58.5 -150zM423 563q0 73 -44.5 124t-109.5 51q-61 0 -105.5 -51.5t-44.5 -122.5q0 -72 44.5 -123t107.5 -51q62 0 107 51t45 122zM365 458q0 -5 -9 -8l-31 -8 q-3 -1 -5 -1q-7 0 -9 6l-51 95h-15v-84q0 -11 -12 -11h-33q-7 0 -9 2.5t-2 9.5v217q0 11 11 11h60q47 0 68.5 -17t21.5 -54q0 -46 -40 -67l53 -84q2 -4 2 -7zM293 617q0 16 -7.5 21.5t-29.5 5.5h-11v-59h7q23 0 32 7t9 25z"/>
    <glyph glyph-name="macron" unicode="¯" horiz-adv-x="500" d="M459 665q0 -3 -2 -11l-11 -51q-2 -9 -5 -11.5t-13 -2.5h-210q-17 0 -17 10q0 3 3 16l10 48q2 9 4.5 11.5t12.5 2.5h211q17 0 17 -12z"/>
    <glyph glyph-name="degree" unicode="°" d="M478 546q0 -66 -46 -112t-112 -46q-65 0 -111 46t-46 111q0 66 46.5 112t113.5 46q63 0 109 -46.5t46 -110.5zM395 544q0 32 -21.5 54t-53.5 22q-31 0 -52.5 -22t-21.5 -53t21.5 -53t52.5 -22t53 21.5t22 52.5z"/>
    <glyph glyph-name="plusminus" unicode="±" horiz-adv-x="500" d="M494 302q0 -13 -4 -16.5t-17 -3.5h-153v-106q0 -14 -3.5 -17.5t-17.5 -3.5h-67q-13 0 -16.5 4t-3.5 17v106h-153q-14 0 -17.5 3.5t-3.5 16.5v63q0 13 4 17t17 4h153v155q0 13 3.5 17t16.5 4h67q13 0 17 -4t4 -17v-155h153q13 0 17 -4t4 -17v-63zM494 35q0 -13 -4 -17 t-17 -4h-414q-13 0 -17 4t-4 17v63q0 13 4 16.5t17 3.5h414q13 0 17 -3.5t4 -16.5v-63z"/>
    <glyph glyph-name="two.superior" unicode="²" horiz-adv-x="356" d="M398 741q0 -61 -48 -103q-24 -21 -99 -67q-62 -36 -77 -69h155q13 0 13 -9q0 -4 -2 -16l-7 -34q-2 -10 -5.5 -13.5t-13.5 -3.5h-237q-13 0 -13 11q0 18 19 63q26 64 122 126q70 43 87 62q14 19 14 41q0 31 -36 31t-70 -50q-7 -11 -15 -11q-10 0 -14 3l-36 12q-9 3 -9 12 q4 11 6 14q22 43 64 68t92 25q52 0 81 -24.5t29 -67.5z"/>
    <glyph glyph-name="three.superior" unicode="³" horiz-adv-x="356" d="M313 641q44 -24 44 -74q0 -67 -52 -108.5t-127 -41.5q-39 0 -78.5 13t-39.5 25q0 2 3 8l21 41q5 8 14 8q6 0 16 -5q36 -18 73 -18q35 0 57 19t22 51q0 41 -65 41h-26q-14 0 -14 10q0 5 2 15l7 31q2 9 5.5 11.5t13.5 2.5h27q34 0 56 16.5t22 45.5q0 31 -36 31 q-26 0 -60 -27q-11 -8 -20 -8q-8 0 -13 5l-28 22q-3 3 -3 10q0 8 18 23q50 45 120 45q51 0 81 -23t30 -63q0 -71 -70 -106z"/>
    <glyph glyph-name="acute" unicode="´" horiz-adv-x="500" d="M480 633q0 -7 -13 -12l-188 -68q-13 -5 -16 -5q-7 0 -11 12l-13 29q-5 11 -5 16q0 7 11 12l178 95q11 6 16 6q7 0 12 -12l24 -58q5 -12 5 -15z"/>
    <glyph glyph-name="mu" unicode="µ" horiz-adv-x="518" d="M490 493q0 -5 -1 -10l-68 -320q-9 -41 -9 -68q0 -32 8 -60q1 -3 1 -7q0 -6 -11 -11l-79 -32l-8 -2q-22 0 -22 90v14q-62 -104 -137 -104q-22 0 -38 11l-36 -169q-3 -14 -16 -16l-89 -18q-6 -2 -11 -2q-9 0 -9 10q0 6 1 11l140 657q2 9 4.5 12t11.5 4l88 18q10 2 12 2 q9 0 9 -10q0 -3 -2 -11l-61 -290q-9 -47 -9 -60q0 -18 11.5 -29.5t29.5 -11.5q86 0 126 193l39 183q3 14 16 16l89 19l11 1q9 0 9 -10z"/>
    <glyph glyph-name="paragraph" unicode="¶" horiz-adv-x="722" d="M700 617q0 -13 -4 -17t-17 -4h-55v-761q0 -13 -4 -17.5t-17 -4.5h-61q-12 0 -16 4t-4 17v762h-67v-761q0 -13 -3.5 -17t-17.5 -4h-61q-14 0 -17 3.5t-3 17.5v326q-36 -7 -60 -7q-97 0 -157 65q-61 69 -61 199q0 184 109 242q30 16 63 21t100 5h332q14 0 17.5 -3.5 t3.5 -17.5v-48zM353 251v345q-88 0 -121 -35t-33 -128q0 -100 26.5 -143.5t88.5 -43.5q18 0 39 5z"/>
    <glyph glyph-name="periodcentered" unicode="·" horiz-adv-x="296" d="M234 334q0 -29 -21 -50t-50 -21q-30 0 -51.5 21t-21.5 50q0 31 21 51.5t51 20.5q29 0 50.5 -21t21.5 -51z"/>
    <glyph glyph-name="cedilla" unicode="¸" horiz-adv-x="500" d="M326 -119q0 -46 -31 -73.5t-81 -27.5q-35 0 -58 5.5t-23 13.5q0 5 2 11l12 38q1 7 6 7q2 0 13 -4q12 -6 30 -6q36 0 36 28q0 11 -7 15.5t-30 6.5q-19 1 -19 7q0 1 2 11l28 87h77l-15 -56q58 -6 58 -63z"/>
    <glyph glyph-name="one.superior" unicode="¹" horiz-adv-x="356" d="M348 812q0 -4 -1 -8l-69 -309h49q13 0 14 -9q0 -1 -2 -13q-2 -5 -4 -16t-3 -16q-2 -9 -5.5 -12t-13.5 -3h-194q-14 0 -14 12q0 7 1 12q3 10 7 30q4 15 19 15h60l52 234l-56 -27q-8 -5 -15 -5t-11 8l-13 27q-2 4 -2 8q0 8 12 15l115 64q12 6 16 6h43q15 0 15 -13z"/>
    <glyph glyph-name="ordmasculine" unicode="º" horiz-adv-x="315" d="M365 624q0 -88 -52.5 -147t-129.5 -59q-55 0 -85 29t-30 82q0 89 52.5 148.5t131.5 59.5q53 0 83 -30t30 -83zM271 629q0 38 -35 38q-30 0 -48 -32q-10 -19 -18 -52t-8 -57q0 -39 34 -39t50 34q25 48 25 108z"/>
    <glyph glyph-name="guillemotright" unicode="»" horiz-adv-x="593" d="M550 248q0 -5 -6 -10l-232 -229q-7 -7 -12 -7t-11 6l-43 36q-8 7 -8 12t6 12l169 192l-80 185q-4 10 -4 13q0 6 8 11l57 27q10 5 14 5q6 0 12 -10l126 -233q4 -6 4 -10zM310 248q0 -4 -6 -10l-233 -229q-6 -7 -12 -7q-5 0 -11 6l-43 36q-8 7 -8 12t7 12l168 192l-80 185 q-4 8 -4 13q0 6 8 11l58 27q10 5 13 5q7 0 13 -10l125 -233q5 -7 5 -10z"/>
    <glyph glyph-name="onequarter" unicode="¼" horiz-adv-x="833" d="M768 144q0 -1 -0.5 -3l-1.5 -6l-7 -34q-3 -14 -18 -14h-34l-16 -73q-2 -8 -5 -11t-12 -3h-51q-16 0 -16 11q0 1 0.5 3.5t1.5 6.5l14 67h-151q-15 0 -15 10l1 11l12 53q1 9 8 18l203 237q5 7 12 7q5 0 11 -3l40 -18q10 -4 10 -12q0 -5 -5 -10l-194 -228h83l37 98 q5 12 17 12h34q15 0 15 -11q0 -7 -1 -10l-18 -86h30q16 0 16 -12zM672 669q0 -8 -6 -17l-429 -682q-7 -10 -18 -10h-62q-18 0 -18 9q0 6 7 17l428 682q6 10 18 10h63q17 0 17 -9zM288 658q0 -7 -1 -9l-67 -317h41q14 0 14 -11q0 -3 -2 -9l-6 -31q-3 -14 -18 -14h-185 q-14 0 -14 10q0 6 2 11l6 30q1 9 4.5 11.5t13.5 2.5h58l52 244l-54 -28q-7 -4 -14 -4q-6 0 -11 10l-10 21q-4 8 -4 12q0 6 10 12l114 65q9 5 17 5h39q15 0 15 -11z"/>
    <glyph glyph-name="onehalf" unicode="½" horiz-adv-x="833" d="M787 310q0 -57 -45 -98q-31 -27 -101 -69q-65 -39 -77 -68h150q15 0 15 -12l-1 -10l-8 -39q-3 -14 -18 -14h-231q-12 0 -12 8q0 13 15 58q14 40 43.5 71.5t88.5 67.5q56 35 72 53t16 44q0 36 -34 36q-19 0 -33 -10.5t-33 -37.5q-9 -14 -18 -14q-3 0 -9 2l-37 16 q-8 4 -8 11q0 13 20 39q48 67 137 67q51 0 79.5 -26.5t28.5 -74.5zM661 669q0 -7 -7 -17l-429 -682q-6 -10 -17 -10h-63q-17 0 -17 9q0 8 6 17l429 682q6 10 18 10h63q17 0 17 -9zM287 658q0 -7 -1 -9l-67 -317h41q14 0 14 -11q0 -3 -2 -9l-6 -31q-3 -14 -18 -14h-185 q-14 0 -14 10q0 6 2 11l6 30q1 9 4.5 11.5t13.5 2.5h58l52 244l-54 -28q-7 -4 -14 -4q-6 0 -11 10l-10 21q-4 8 -4 12q0 6 10 12l114 65q9 5 17 5h39q15 0 15 -11z"/>
    <glyph glyph-name="threequarters" unicode="¾" horiz-adv-x="837" d="M804 145q0 -6 -1 -10l-8 -34q-4 -14 -17 -14h-35l-15 -73q-2 -14 -18 -14h-51q-15 0 -15 11q0 7 1 10l14 67h-151q-15 0 -15 11q0 1 0.5 3.5t1.5 6.5l11 53q2 10 9 18l202 237q7 7 13 7q3 0 10 -3l41 -18q10 -4 10 -12q0 -5 -5 -10l-195 -228h83l37 98q5 12 18 12h33 q16 0 16 -10q0 -1 -2 -11l-18 -86h31q15 0 15 -11zM705 669q0 -8 -6 -17l-429 -682q-7 -10 -18 -10h-62q-18 0 -18 9q0 5 7 17l428 682q7 10 18 10h63q17 0 17 -9zM357 590q0 -28 -14 -54q-16 -32 -58 -53q26 -14 36.5 -32t10.5 -48q0 -66 -47 -105.5t-125 -39.5 q-38 0 -78.5 11.5t-40.5 22.5q0 2 3 9l20 42q4 10 13 10q3 0 10 -3q37 -20 80 -20q35 0 55.5 18t20.5 50q0 23 -15 32.5t-51 9.5h-20q-16 0 -16 9q0 4 1 7l1 5l9 40q2 8 5 11t12 3h1h24q76 0 76 60q0 32 -34 32q-18 0 -30.5 -5.5t-37.5 -25.5q-7 -5 -11 -5q-5 0 -9 4l-31 26 q-5 4 -5 8q0 7 17 23q50 47 118 47q50 0 80 -24t30 -65z"/>
    <glyph glyph-name="questiondown" unicode="¿" horiz-adv-x="463" d="M368 420q0 -33 -23.5 -56.5t-56.5 -23.5t-56.5 23.5t-23.5 56.5q0 34 23.5 57t57.5 23q32 0 55.5 -23.5t23.5 -56.5zM342 -162q0 -15 -71 -35t-125 -20q-78 0 -125 42t-47 112q0 80 55.5 139t148.5 76l16 75q2 9 5 11.5t13 2.5h79q16 0 16 -11q0 -3 -3 -15l-25 -119 q-2 -10 -6.5 -14t-15.5 -6q-55 -13 -77 -22t-40 -26q-30 -28 -30 -67q0 -29 18 -45t50 -16q37 0 106 26q9 4 16 4q5 0 9 -10l29 -69q4 -10 4 -13z"/>
    <glyph glyph-name="Agrave" unicode="À" horiz-adv-x="537" d="M472 796q0 -5 -7 -17l-18 -31q-7 -11 -12 -11q-7 0 -20 5l-182 70q-8 3 -8 8q0 7 9 21l32 53q6 11 14 11q6 0 18 -6l166 -93q8 -5 8 -10zM484 11q0 -11 -17 -11h-100q-10 0 -13 3t-4 14l-9 164h-170l-78 -169q-5 -12 -20 -12h-98q-17 0 -17 11q0 4 5 14l330 650 q5 11 18 11h96q11 0 14 -3t4 -13l58 -652zM335 272l-7 174q0 6 -0.5 19t-0.5 21q0 15 1 60q-27 -68 -42 -100l-81 -174h130z"/>
    <glyph glyph-name="Aacute" unicode="Á" horiz-adv-x="537" d="M552 809q0 -10 -12 -13l-214 -47q-4 -1 -6.5 -1.5t-3.5 -1t-2.5 -0.5h-2.5q-9 0 -13 12l-11 30q-3 15 -3 16q0 7 11 12l206 76l8 3q6 2 9 2q8 0 12 -13l18 -59zM484 11q0 -11 -17 -11h-100q-10 0 -13 3t-4 14l-9 164h-170l-78 -169q-5 -12 -20 -12h-98q-17 0 -17 11 q0 4 5 14l330 650q5 11 18 11h96q11 0 14 -3t4 -13l58 -652zM335 272l-7 174q0 6 -0.5 19t-0.5 21q0 15 1 60q-27 -68 -42 -100l-81 -174h130z"/>
    <glyph glyph-name="Acircumflex" unicode="Â" horiz-adv-x="537" d="M528 794q0 -4 -7 -12l-27 -30q-8 -10 -13 -10t-13 4l-74 42l-102 -41q-16 -6 -17 -6q-6 0 -12 11l-17 31q-7 11 -7 17q0 7 10 12l146 81q14 8 18 8q2 0 11 -8l93 -82q11 -10 11 -17zM484 11q0 -11 -17 -11h-100q-10 0 -13 3t-4 14l-9 164h-170l-78 -169q-5 -12 -20 -12 h-98q-17 0 -17 11q0 4 5 14l330 650q5 11 18 11h96q11 0 14 -3t4 -13l58 -652zM335 272l-7 174q0 6 -0.5 19t-0.5 21q0 15 1 60q-27 -68 -42 -100l-81 -174h130z"/>
    <glyph glyph-name="Atilde" unicode="Ã" horiz-adv-x="537" d="M548 840q0 -8 -18 -27q-44 -49 -97 -49q-25 0 -71 19q-19 7 -29 7q-21 0 -42 -23q-7 -7 -11 -7q-2 0 -11 6l-35 29q-5 3 -5 9q0 4 22 29q44 46 90 46q25 0 73 -18q21 -7 34 -7q21 0 41 23q5 6 9 6t10 -5l32 -27q8 -5 8 -11zM484 11q0 -11 -17 -11h-100q-10 0 -13 3t-4 14 l-9 164h-170l-78 -169q-5 -12 -20 -12h-98q-17 0 -17 11q0 4 5 14l330 650q5 11 18 11h96q11 0 14 -3t4 -13l58 -652zM335 272l-7 174q0 6 -0.5 19t-0.5 21q0 15 1 60q-27 -68 -42 -100l-81 -174h130z"/>
    <glyph glyph-name="Adieresis" unicode="Ä" horiz-adv-x="537" d="M553 821q0 -29 -21 -50t-51 -21q-29 0 -50 21t-21 50q0 30 21 51t51 21q29 0 50 -21t21 -51zM355 822q0 -30 -21 -51t-51 -21q-29 0 -50 21t-21 50q0 31 21 51.5t51 20.5q29 0 50 -21t21 -50zM484 11q0 -11 -17 -11h-100q-10 0 -13 3t-4 14l-9 164h-170l-78 -169 q-5 -12 -20 -12h-98q-17 0 -17 11q0 4 5 14l330 650q5 11 18 11h96q11 0 14 -3t4 -13l58 -652zM335 272l-7 174q0 6 -0.5 19t-0.5 21q0 15 1 60q-27 -68 -42 -100l-81 -174h130z"/>
    <glyph glyph-name="Aring" unicode="Å" horiz-adv-x="537" d="M490 835q0 -45 -31.5 -76.5t-76.5 -31.5t-76.5 31.5t-31.5 76.5t31.5 76.5t77.5 31.5q44 0 75.5 -32t31.5 -76zM484 11q0 -11 -17 -11h-100q-10 0 -13 3t-4 14l-9 164h-170l-78 -169q-5 -12 -20 -12h-98q-17 0 -17 11q0 4 5 14l330 650q5 11 18 11h96q11 0 14 -3t4 -13 l58 -652zM425 835q0 18 -12.5 31t-31.5 13q-17 0 -30 -13t-13 -31t13 -31t30 -13q19 0 31.5 12.5t12.5 31.5zM335 272l-7 174q0 6 -0.5 19t-0.5 21q0 15 1 60q-27 -68 -42 -100l-81 -174h130z"/>
    <glyph glyph-name="AE" unicode="Æ" horiz-adv-x="741" d="M800 678q0 -5 -6 -17l-35 -70q-6 -11 -20 -11h-197l-36 -169h167q18 0 18 -11q0 -3 -2 -12l-15 -69q-2 -9 -5 -11.5t-13 -2.5h-172l-43 -200h210q18 0 18 -11q0 -1 -0.5 -2t-1 -4t-1.5 -8l-14 -66q-2 -9 -5 -11.5t-12 -2.5h-327q-16 0 -16 11q0 1 1 12l34 158h-157 l-103 -171q-6 -10 -19 -10h-102q-17 0 -17 10q0 6 7 16l420 650q6 10 19 10h409q16 0 16 -8zM425 623q-45 -87 -62 -116l-145 -235h129l49 230q7 33 29 121z"/>
    <glyph glyph-name="Ccedilla" unicode="Ç" horiz-adv-x="489" d="M547 635q0 -3 -4 -10l-47 -71q-4 -6 -11 -6t-15 7q-31 24 -48.5 32t-39.5 8q-70 0 -117 -82q-33 -57 -53.5 -138t-20.5 -155q0 -63 22.5 -92t71.5 -29q34 0 89 28q9 6 16 6q4 0 6 -5l28 -74q2 -6 2 -9q0 -14 -53 -35t-103 -26l-13 -43q29 -3 45 -20t16 -45 q0 -47 -32 -75.5t-86 -28.5q-45 0 -73 11q-8 3 -8 10q0 4 2 10l12 40q3 7 6 7q2 0 13 -5q15 -6 32 -6q37 0 37 29q0 11 -8 15.5t-31 6.5q-19 1 -19 8q0 5 2 11l25 80q-71 21 -104 76.5t-33 154.5q0 110 30.5 210.5t85.5 167.5q84 105 216 105q83 0 146 -48q16 -13 16 -20z "/>
    <glyph glyph-name="Egrave" unicode="È" horiz-adv-x="482" d="M446 796q0 -5 -7 -17l-18 -31q-7 -11 -12 -11q-7 0 -20 5l-182 70q-8 3 -8 8q0 7 9 21l32 53q6 11 14 11q6 0 18 -6l166 -93q8 -5 8 -10zM540 678q0 -5 -6 -17l-35 -70q-5 -11 -20 -11h-197l-36 -169h171q14 0 14 -11q0 -5 -1 -8l-2 -6l-14 -67q-1 -9 -4.5 -11.5 t-13.5 -2.5h-172l-43 -199h214q14 0 14 -11q0 -5 -1 -8l-2 -6l-13 -66q-2 -10 -5 -12.5t-13 -2.5h-329q-15 0 -15 12q0 2 3 14l137 646q2 9 5 11.5t13 2.5h335q16 0 16 -8z"/>
    <glyph glyph-name="Eacute" unicode="É" horiz-adv-x="482" d="M556 809q0 -10 -12 -13l-214 -47q-4 -1 -6.5 -1.5t-3.5 -1t-2.5 -0.5h-2.5q-9 0 -13 12l-11 30q-3 15 -3 16q0 7 11 12l206 76l8 3q6 2 9 2q8 0 12 -13l18 -59zM540 678q0 -5 -6 -17l-35 -70q-5 -11 -20 -11h-197l-36 -169h171q14 0 14 -11q0 -5 -1 -8l-2 -6l-14 -67 q-1 -9 -4.5 -11.5t-13.5 -2.5h-172l-43 -199h214q14 0 14 -11q0 -5 -1 -8l-2 -6l-13 -66q-2 -10 -5 -12.5t-13 -2.5h-329q-15 0 -15 12q0 2 3 14l137 646q2 9 5 11.5t13 2.5h335q16 0 16 -8z"/>
    <glyph glyph-name="Ecircumflex" unicode="Ê" horiz-adv-x="482" d="M499 794q0 -4 -7 -12l-27 -30q-7 -10 -13 -10q-5 0 -13 4l-74 42l-102 -41q-16 -6 -17 -6q-6 0 -12 11l-17 31q-7 11 -7 17q0 7 10 12l146 81q14 8 18 8q2 0 11 -8l93 -82q11 -10 11 -17zM540 678q0 -5 -6 -17l-35 -70q-5 -11 -20 -11h-197l-36 -169h171q14 0 14 -11 q0 -5 -1 -8l-2 -6l-14 -67q-1 -9 -4.5 -11.5t-13.5 -2.5h-172l-43 -199h214q14 0 14 -11q0 -5 -1 -8l-2 -6l-13 -66q-2 -10 -5 -12.5t-13 -2.5h-329q-15 0 -15 12q0 2 3 14l137 646q2 9 5 11.5t13 2.5h335q16 0 16 -8z"/>
    <glyph glyph-name="Edieresis" unicode="Ë" horiz-adv-x="482" d="M544 821q0 -29 -21 -50t-51 -21q-29 0 -50 21t-21 50q0 30 21 51t51 21q29 0 50 -21t21 -51zM346 822q0 -30 -21 -51t-51 -21q-29 0 -50 21t-21 50q0 31 21 51.5t51 20.5q29 0 50 -21t21 -50zM540 678q0 -5 -6 -17l-35 -70q-5 -11 -20 -11h-197l-36 -169h171q14 0 14 -11 q0 -5 -1 -8l-2 -6l-14 -67q-1 -9 -4.5 -11.5t-13.5 -2.5h-172l-43 -199h214q14 0 14 -11q0 -5 -1 -8l-2 -6l-13 -66q-2 -10 -5 -12.5t-13 -2.5h-329q-15 0 -15 12q0 2 3 14l137 646q2 9 5 11.5t13 2.5h335q16 0 16 -8z"/>
    <glyph glyph-name="Igrave" unicode="Ì" horiz-adv-x="352" d="M379 796q0 -5 -7 -17l-18 -31q-7 -11 -12 -11q-8 0 -20 5l-182 70q-8 3 -8 8q0 7 9 21l32 53q6 11 14 11q6 0 18 -6l166 -93q8 -5 8 -10zM403 675q0 -2 -2 -14l-12 -57q-2 -9 -5 -11.5t-13 -2.5h-60l-105 -494h58q14 0 14 -11q0 -2 -0.5 -3t-1 -4.5t-1.5 -8.5l-11 -54 q-2 -10 -5 -12.5t-13 -2.5h-247q-15 0 -15 11q0 4 2 14l12 57q2 9 5 11.5t13 2.5h60l105 494h-58q-14 0 -14 11q0 3 2 14l13 57q2 9 5 11.5t12 2.5h249q13 0 13 -11z"/>
    <glyph glyph-name="Iacute" unicode="Í" horiz-adv-x="352" d="M459 809q0 -10 -12 -13l-214 -47q-4 -1 -6.5 -1.5t-3.5 -1t-2.5 -0.5h-2.5q-9 0 -13 12l-11 30q-3 15 -3 16q0 7 11 12l206 76l8 3q6 2 9 2q8 0 12 -13l18 -59zM403 675q0 -2 -2 -14l-12 -57q-2 -9 -5 -11.5t-13 -2.5h-60l-105 -494h58q14 0 14 -11q0 -2 -0.5 -3t-1 -4.5 t-1.5 -8.5l-11 -54q-2 -10 -5 -12.5t-13 -2.5h-247q-15 0 -15 11q0 4 2 14l12 57q2 9 5 11.5t13 2.5h60l105 494h-58q-14 0 -14 11q0 3 2 14l13 57q2 9 5 11.5t12 2.5h249q13 0 13 -11z"/>
    <glyph glyph-name="Icircumflex" unicode="Î" horiz-adv-x="352" d="M435 794q0 -4 -7 -12l-27 -30q-7 -10 -13 -10q-5 0 -13 4l-74 42l-102 -41q-16 -6 -17 -6q-6 0 -12 11l-17 31q-7 11 -7 17q0 7 10 12l146 81q14 8 18 8q2 0 11 -8l93 -82q11 -10 11 -17zM403 675q0 -2 -2 -14l-12 -57q-2 -9 -5 -11.5t-13 -2.5h-60l-105 -494h58 q14 0 14 -11q0 -2 -0.5 -3t-1 -4.5t-1.5 -8.5l-11 -54q-2 -10 -5 -12.5t-13 -2.5h-247q-15 0 -15 11q0 4 2 14l12 57q2 9 5 11.5t13 2.5h60l105 494h-58q-14 0 -14 11q0 3 2 14l13 57q2 9 5 11.5t12 2.5h249q13 0 13 -11z"/>
    <glyph glyph-name="Idieresis" unicode="Ï" horiz-adv-x="352" d="M462 821q0 -29 -21 -50t-50 -21q-30 0 -51 21t-21 50q0 30 21 51t51 21q29 0 50 -21t21 -51zM271 822q0 -30 -21 -51t-51 -21q-29 0 -50 21t-21 50q0 31 21 51.5t51 20.5q29 0 50 -21t21 -50zM403 675q0 -2 -2 -14l-12 -57q-2 -9 -5 -11.5t-13 -2.5h-60l-105 -494h58 q14 0 14 -11q0 -2 -0.5 -3t-1 -4.5t-1.5 -8.5l-11 -54q-2 -10 -5 -12.5t-13 -2.5h-247q-15 0 -15 11q0 4 2 14l12 57q2 9 5 11.5t13 2.5h60l105 494h-58q-14 0 -14 11q0 3 2 14l13 57q2 9 5 11.5t12 2.5h249q13 0 13 -11z"/>
    <glyph glyph-name="Eth" unicode="Ð" horiz-adv-x="593" d="M578 463q0 -109 -38.5 -220.5t-95.5 -168.5q-42 -41 -100 -57.5t-163 -16.5h-135q-15 0 -15 11q0 5 1 7l2 8l61 291h-50q-17 0 -17 11q0 2 2 12l10 48q2 9 5 11.5t13 2.5h55l58 270q2 10 5 12t16 2h132q77 0 117.5 -9t69.5 -34q67 -56 67 -180zM442 462q0 77 -40 102 q-26 16 -91 16h-29l-38 -178h94q17 0 17 -11q0 -4 -3 -14l-9 -46q-1 -9 -4.5 -11.5t-13.5 -2.5h-99l-45 -211h29q60 0 95.5 13.5t57.5 45.5q33 46 56 133t23 164z"/>
    <glyph glyph-name="Ntilde" unicode="Ñ" horiz-adv-x="611" d="M585 840q0 -8 -18 -27q-44 -49 -97 -49q-25 0 -71 19q-19 7 -29 7q-21 0 -42 -23q-7 -7 -11 -7q-2 0 -11 6l-35 29q-5 3 -5 9q0 4 22 29q44 46 90 46q25 0 73 -18q21 -7 34 -7q21 0 41 23q5 6 9 6t10 -5l32 -27q8 -5 8 -11zM618 675q0 -10 -2 -14l-137 -647 q-2 -9 -5 -11.5t-13 -2.5h-64q-10 0 -12.5 2t-5.5 11l-115 363q-6 18 -25 92q-7 -53 -18 -105l-74 -349q-2 -9 -5 -11.5t-13 -2.5h-88q-12 0 -12 11q0 3 2 14l138 647q2 9 5 11.5t12 2.5h72q9 0 12 -2t6 -11l106 -331q7 -23 12 -38l18 -66q7 52 20 109l69 325q2 9 5 11.5 t12 2.5h88q12 0 12 -11z"/>
    <glyph glyph-name="Ograve" unicode="Ò" horiz-adv-x="574" d="M504 796q0 -5 -7 -17l-18 -31q-7 -11 -12 -11q-7 0 -20 5l-182 70q-8 3 -8 8q0 7 9 21l32 53q6 11 14 11q6 0 18 -6l166 -93q8 -5 8 -10zM564 498q0 -111 -34 -226t-87 -183q-84 -106 -211 -106q-90 0 -138 53t-48 153q0 111 34 226t87 182q82 106 213 106 q88 0 136 -53.5t48 -151.5zM428 493q0 58 -15 82t-50 24q-65 0 -116 -101q-29 -58 -47 -143.5t-18 -162.5q0 -56 15 -80.5t49 -24.5q66 0 116 100q28 56 47 143t19 163z"/>
    <glyph glyph-name="Oacute" unicode="Ó" horiz-adv-x="574" d="M570 809q0 -10 -12 -13l-214 -47q-4 -1 -6.5 -1.5t-3.5 -1t-2.5 -0.5h-2.5q-9 0 -13 12l-11 30q-3 15 -3 16q0 7 11 12l206 76l8 3q6 2 9 2q8 0 12 -13l18 -59zM564 498q0 -111 -34 -226t-87 -183q-84 -106 -211 -106q-90 0 -138 53t-48 153q0 111 34 226t87 182 q82 106 213 106q88 0 136 -53.5t48 -151.5zM428 493q0 58 -15 82t-50 24q-65 0 -116 -101q-29 -58 -47 -143.5t-18 -162.5q0 -56 15 -80.5t49 -24.5q66 0 116 100q28 56 47 143t19 163z"/>
    <glyph glyph-name="Ocircumflex" unicode="Ô" horiz-adv-x="574" d="M546 794q0 -4 -7 -12l-27 -30q-8 -10 -13 -10t-13 4l-74 42l-102 -41q-16 -6 -17 -6q-6 0 -12 11l-17 31q-7 11 -7 17q0 7 10 12l146 81q14 8 18 8q2 0 11 -8l93 -82q11 -10 11 -17zM564 498q0 -111 -34 -226t-87 -183q-84 -106 -211 -106q-90 0 -138 53t-48 153 q0 111 34 226t87 182q82 106 213 106q88 0 136 -53.5t48 -151.5zM428 493q0 58 -15 82t-50 24q-65 0 -116 -101q-29 -58 -47 -143.5t-18 -162.5q0 -56 15 -80.5t49 -24.5q66 0 116 100q28 56 47 143t19 163z"/>
    <glyph glyph-name="Otilde" unicode="Õ" horiz-adv-x="574" d="M566 840q0 -8 -18 -27q-44 -49 -97 -49q-25 0 -71 19q-19 7 -29 7q-21 0 -42 -23q-7 -7 -11 -7q-2 0 -11 6l-35 29q-5 3 -5 9q0 4 22 29q44 46 90 46q25 0 73 -18q21 -7 34 -7q21 0 41 23q5 6 9 6t10 -5l32 -27q8 -5 8 -11zM564 498q0 -111 -34 -226t-87 -183 q-84 -106 -211 -106q-90 0 -138 53t-48 153q0 111 34 226t87 182q82 106 213 106q88 0 136 -53.5t48 -151.5zM428 493q0 58 -15 82t-50 24q-65 0 -116 -101q-29 -58 -47 -143.5t-18 -162.5q0 -56 15 -80.5t49 -24.5q66 0 116 100q28 56 47 143t19 163z"/>
    <glyph glyph-name="Odieresis" unicode="Ö" horiz-adv-x="574" d="M577 821q0 -29 -21 -50t-51 -21q-29 0 -50 21t-21 50q0 30 21 51t51 21q29 0 50 -21t21 -51zM379 822q0 -30 -21 -51t-51 -21q-29 0 -50 21t-21 50q0 31 21 51.5t51 20.5q29 0 50 -21t21 -50zM564 498q0 -111 -34 -226t-87 -183q-84 -106 -211 -106q-90 0 -138 53 t-48 153q0 111 34 226t87 182q82 106 213 106q88 0 136 -53.5t48 -151.5zM428 493q0 58 -15 82t-50 24q-65 0 -116 -101q-29 -58 -47 -143.5t-18 -162.5q0 -56 15 -80.5t49 -24.5q66 0 116 100q28 56 47 143t19 163z"/>
    <glyph glyph-name="multiply" unicode="×" horiz-adv-x="500" d="M460 212q0 -6 -9 -15l-47 -47q-10 -9 -15 -9q-6 0 -14 9l-110 112l-108 -110q-10 -10 -14 -10q-6 0 -15 9l-45 45q-9 9 -9 15t8 14l112 108l-112 110q-10 9 -10 14q0 6 9 15l47 47q10 9 15 9q6 0 14 -9l110 -112l108 111q9 9 14 9q7 0 15 -9l45 -45q9 -9 9 -14 q0 -7 -8 -15l-112 -108l112 -110q10 -9 10 -14z"/>
    <glyph glyph-name="Oslash" unicode="Ø" horiz-adv-x="574" d="M575 706q0 -4 -4 -12l-41 -62q34 -54 34 -137q0 -109 -34 -223.5t-87 -182.5q-82 -106 -211 -106q-55 0 -98 23l-31 -51q-6 -9 -12 -9q-4 0 -12 4l-33 21q-10 7 -10 12t4 12l39 61q-33 56 -33 132q0 110 34 225.5t87 183.5q82 106 210 106q60 0 98 -22l34 53q5 9 11 9 q5 0 12 -4l33 -21q10 -6 10 -12zM424 587q-17 19 -56 19q-40 0 -70.5 -25.5t-59.5 -83.5t-50.5 -143t-21.5 -144q0 -18 1 -32zM444 509l-256 -409q21 -20 55 -20q88 0 148 142q54 132 53 287z"/>
    <glyph glyph-name="Ugrave" unicode="Ù" horiz-adv-x="611" d="M510 796q0 -5 -7 -17l-18 -31q-7 -11 -12 -11q-7 0 -20 5l-182 70q-8 3 -8 8q0 7 9 21l32 53q6 11 14 11q6 0 18 -6l166 -93q8 -5 8 -10zM628 675q0 -6 -2 -14l-91 -429q-18 -86 -34.5 -121.5t-51.5 -64.5q-70 -60 -184 -60q-98 0 -150 41t-52 119q0 36 10 86l93 440 q2 9 5 11.5t13 2.5h99q13 0 13 -11q0 -5 -2 -15l-91 -428q-9 -45 -9 -64q0 -36 22 -55.5t63 -19.5q56 0 92 44q22 27 36 93l95 442q2 9 5 11.5t12 2.5h97q12 0 12 -11z"/>
    <glyph glyph-name="Uacute" unicode="Ú" horiz-adv-x="611" d="M590 809q0 -10 -12 -13l-214 -47q-4 -1 -6.5 -1.5t-3.5 -1t-2.5 -0.5h-2.5q-9 0 -13 12l-11 30q-3 15 -3 16q0 7 11 12l206 76l8 3q6 2 9 2q8 0 12 -13l18 -59zM628 675q0 -6 -2 -14l-91 -429q-18 -86 -34.5 -121.5t-51.5 -64.5q-70 -60 -184 -60q-98 0 -150 41t-52 119 q0 36 10 86l93 440q2 9 5 11.5t13 2.5h99q13 0 13 -11q0 -5 -2 -15l-91 -428q-9 -45 -9 -64q0 -36 22 -55.5t63 -19.5q56 0 92 44q22 27 36 93l95 442q2 9 5 11.5t12 2.5h97q12 0 12 -11z"/>
    <glyph glyph-name="Ucircumflex" unicode="Û" horiz-adv-x="611" d="M565 794q0 -4 -7 -12l-27 -30q-7 -10 -13 -10q-5 0 -13 4l-74 42l-102 -41q-16 -6 -17 -6q-6 0 -12 11l-17 31q-7 11 -7 17q0 7 10 12l146 81q14 8 18 8q2 0 11 -8l93 -82q11 -10 11 -17zM628 675q0 -6 -2 -14l-91 -429q-18 -86 -34.5 -121.5t-51.5 -64.5 q-70 -60 -184 -60q-98 0 -150 41t-52 119q0 36 10 86l93 440q2 9 5 11.5t13 2.5h99q13 0 13 -11q0 -5 -2 -15l-91 -428q-9 -45 -9 -64q0 -36 22 -55.5t63 -19.5q56 0 92 44q22 27 36 93l95 442q2 9 5 11.5t12 2.5h97q12 0 12 -11z"/>
    <glyph glyph-name="Udieresis" unicode="Ü" horiz-adv-x="611" d="M600 821q0 -29 -21 -50t-51 -21q-29 0 -50 21t-21 50q0 30 21 51t51 21q29 0 50 -21t21 -51zM402 822q0 -30 -21 -51t-51 -21q-29 0 -50 21t-21 50q0 31 21 51.5t51 20.5q29 0 50 -21t21 -50zM628 675q0 -6 -2 -14l-91 -429q-18 -86 -34.5 -121.5t-51.5 -64.5 q-70 -60 -184 -60q-98 0 -150 41t-52 119q0 36 10 86l93 440q2 9 5 11.5t13 2.5h99q13 0 13 -11q0 -5 -2 -15l-91 -428q-9 -45 -9 -64q0 -36 22 -55.5t63 -19.5q56 0 92 44q22 27 36 93l95 442q2 9 5 11.5t12 2.5h97q12 0 12 -11z"/>
    <glyph glyph-name="Yacute" unicode="Ý" horiz-adv-x="482" d="M550 809q0 -10 -12 -13l-214 -47q-4 -1 -6.5 -1.5t-3.5 -1t-2.5 -0.5h-2.5q-9 0 -13 12l-11 30q-3 15 -3 16q0 7 11 12l206 76l8 3q6 2 9 2q8 0 12 -13l18 -59zM582 662q0 -6 -7 -15l-261 -366l-57 -267q-2 -9 -5 -11.5t-12 -2.5h-98q-15 0 -15 11q0 2 3 15l54 255 l-112 372q-2 8 -2 10q0 8 15 11l96 20q9 2 12 2q7 0 10 -11l45 -174q13 -53 20 -110q35 64 62 105l125 181q6 9 13 9q5 0 8 -1l92 -21q14 -3 14 -12z"/>
    <glyph glyph-name="Thorn" unicode="Þ" horiz-adv-x="500" d="M517 433q0 -68 -29.5 -127.5t-79.5 -90.5q-65 -41 -169 -41h-44l-34 -160q-2 -9 -5 -11.5t-12 -2.5h-98q-15 0 -15 11q0 3 3 15l137 646q2 9 5 11.5t13 2.5h95q17 0 17 -11q0 -5 -3 -15l-15 -74h24q112 0 159 -36q51 -39 51 -117zM385 416q0 37 -21 52.5t-71 15.5h-32 l-42 -199h21q75 0 108 33q37 37 37 98z"/>
    <glyph glyph-name="germandbls" unicode="ß" horiz-adv-x="593" d="M546 165q0 -81 -57.5 -130t-152.5 -49q-45 0 -86.5 10.5t-41.5 21.5q0 4 2 10l22 66q2 8 11 8q4 0 20 -6q43 -18 85 -18q40 0 63 18t23 49q0 24 -12 41.5t-52 52.5q-50 44 -65.5 67.5t-15.5 56.5q0 36 17 63.5t62 62.5q57 46 57 87q0 23 -18 36.5t-49 13.5q-56 0 -87 -37 q-17 -22 -30 -83l-109 -513q-21 -101 -58 -142q-50 -56 -135 -56t-85 17q0 5 2 11l21 71q3 7 7 7q2 0 11 -2q14 -2 26 -2q43 0 61 22t34 96l103 484q24 114 70 160q65 65 179 65q83 0 127.5 -35t44.5 -99q0 -44 -19 -75.5t-70 -71.5q-26 -21 -33.5 -31.5t-7.5 -26.5 q0 -13 9.5 -25.5t41.5 -40.5q49 -43 67 -75.5t18 -78.5z"/>
    <glyph glyph-name="agrave" unicode="à" horiz-adv-x="518" d="M383 595q0 -4 -11 -19l-15 -20q-7 -11 -13 -11q-4 0 -17 6l-154 74q-9 5 -9 13q0 5 6 17l39 56q7 10 17 10q5 0 14 -8l137 -110q6 -4 6 -8zM493 484q0 -2 -2 -11l-67 -313q-9 -42 -9 -71q0 -22 6 -50q2 -6 2 -11q0 -6 -9 -10l-84 -32q-8 -3 -11 -3q-18 0 -20 91 q-74 -91 -159 -91q-55 0 -84 42.5t-29 121.5q0 148 70.5 256t168.5 108q67 0 111 -54l11 28q4 9 14 9h79q12 0 12 -10zM352 385q-24 22 -39.5 29.5t-35.5 7.5q-47 0 -77 -58q-20 -37 -36 -106.5t-16 -116.5q0 -60 43 -60q51 0 92 54q23 32 34 87z"/>
    <glyph glyph-name="aacute" unicode="á" horiz-adv-x="518" d="M505 633q0 -7 -13 -12l-188 -68q-13 -5 -16 -5q-7 0 -11 12l-13 29q-5 11 -5 16q0 7 11 12l178 95q10 6 16 6q8 0 12 -12l24 -58q5 -12 5 -15zM493 484q0 -2 -2 -11l-67 -313q-9 -42 -9 -71q0 -22 6 -50q2 -6 2 -11q0 -6 -9 -10l-84 -32q-8 -3 -11 -3q-18 0 -20 91 q-74 -91 -159 -91q-55 0 -84 42.5t-29 121.5q0 148 70.5 256t168.5 108q67 0 111 -54l11 28q4 9 14 9h79q12 0 12 -10zM352 385q-24 22 -39.5 29.5t-35.5 7.5q-47 0 -77 -58q-20 -37 -36 -106.5t-16 -116.5q0 -60 43 -60q51 0 92 54q23 32 34 87z"/>
    <glyph glyph-name="acircumflex" unicode="â" horiz-adv-x="518" d="M453 600q0 -4 -6 -11l-27 -30q-8 -9 -13 -9t-12 5l-71 53l-94 -52q-12 -7 -17 -7q-7 0 -12 11l-16 30q-7 14 -7 16q0 5 10 12l137 92q11 7 17 7q4 0 11 -7l89 -93q11 -11 11 -17zM493 484q0 -2 -2 -11l-67 -313q-9 -42 -9 -71q0 -22 6 -50q2 -6 2 -11q0 -6 -9 -10 l-84 -32q-8 -3 -11 -3q-18 0 -20 91q-74 -91 -159 -91q-55 0 -84 42.5t-29 121.5q0 148 70.5 256t168.5 108q67 0 111 -54l11 28q4 9 14 9h79q12 0 12 -10zM352 385q-24 22 -39.5 29.5t-35.5 7.5q-47 0 -77 -58q-20 -37 -36 -106.5t-16 -116.5q0 -60 43 -60q51 0 92 54 q23 32 34 87z"/>
    <glyph glyph-name="atilde" unicode="ã" horiz-adv-x="518" d="M494 654q0 -5 -18 -28q-43 -54 -96 -54q-30 0 -63 25q-15 12 -27 12q-21 0 -42 -30q-5 -8 -10 -8q-3 0 -11 6l-34 28q-5 5 -5 9t21 31q38 50 91 50q29 0 66 -23q19 -12 28 -12q21 0 42 29q6 7 9 7q4 0 9 -5l32 -26q8 -6 8 -11zM493 484q0 -2 -2 -11l-67 -313 q-9 -42 -9 -71q0 -22 6 -50q2 -6 2 -11q0 -6 -9 -10l-84 -32q-8 -3 -11 -3q-18 0 -20 91q-74 -91 -159 -91q-55 0 -84 42.5t-29 121.5q0 148 70.5 256t168.5 108q67 0 111 -54l11 28q4 9 14 9h79q12 0 12 -10zM352 385q-24 22 -39.5 29.5t-35.5 7.5q-47 0 -77 -58 q-20 -37 -36 -106.5t-16 -116.5q0 -60 43 -60q51 0 92 54q23 32 34 87z"/>
    <glyph glyph-name="adieresis" unicode="ä" horiz-adv-x="518" d="M503 634q0 -29 -20.5 -49.5t-49.5 -20.5t-49 20t-20 49t20.5 49.5t50.5 20.5q28 0 48 -20.5t20 -48.5zM311 634q0 -29 -20.5 -49.5t-49.5 -20.5t-49 20t-20 49t20.5 49.5t50.5 20.5q28 0 48 -20.5t20 -48.5zM493 484q0 -2 -2 -11l-67 -313q-9 -42 -9 -71q0 -22 6 -50 q2 -6 2 -11q0 -6 -9 -10l-84 -32q-8 -3 -11 -3q-18 0 -20 91q-74 -91 -159 -91q-55 0 -84 42.5t-29 121.5q0 148 70.5 256t168.5 108q67 0 111 -54l11 28q4 9 14 9h79q12 0 12 -10zM352 385q-24 22 -39.5 29.5t-35.5 7.5q-47 0 -77 -58q-20 -37 -36 -106.5t-16 -116.5 q0 -60 43 -60q51 0 92 54q23 32 34 87z"/>
    <glyph glyph-name="aring" unicode="å" horiz-adv-x="518" d="M444 647q0 -43 -31 -74t-74 -31t-73.5 31t-30.5 74q0 44 30.5 74.5t75.5 30.5q42 0 72.5 -31t30.5 -74zM493 484q0 -2 -2 -11l-67 -313q-9 -42 -9 -71q0 -22 6 -50q2 -6 2 -11q0 -6 -9 -10l-84 -32q-8 -3 -11 -3q-18 0 -20 91q-74 -91 -159 -91q-55 0 -84 42.5t-29 121.5 q0 148 70.5 256t168.5 108q67 0 111 -54l11 28q4 9 14 9h79q12 0 12 -10zM381 647q0 17 -12.5 29.5t-29.5 12.5t-29.5 -12.5t-12.5 -30.5q0 -17 12.5 -29.5t29.5 -12.5t29.5 13t12.5 30zM352 385q-24 22 -39.5 29.5t-35.5 7.5q-47 0 -77 -58q-20 -37 -36 -106.5t-16 -116.5 q0 -60 43 -60q51 0 92 54q23 32 34 87z"/>
    <glyph glyph-name="ae" unicode="æ" horiz-adv-x="704" d="M696 378q0 -125 -154 -157q-57 -12 -147 -12q-6 -28 -6 -52q0 -35 22.5 -55.5t60.5 -20.5q41 0 110 36q11 6 18 6q5 0 9 -8l23 -61q3 -8 3 -9q0 -7 -16 -16q-84 -46 -175 -46q-103 0 -149 77q-66 -77 -165 -77q-59 0 -94 35.5t-35 96.5q0 78 62 126q67 53 228 53l10 49 q4 24 4 32q0 47 -61 47q-50 0 -108 -30q-12 -6 -18 -6q-7 0 -11 11l-16 51q-3 8 -3 11q0 10 26 20q85 32 145 32q97 0 122 -68q43 37 80.5 52.5t86.5 15.5q70 0 109 -35.5t39 -97.5zM584 372q0 23 -14.5 36.5t-39.5 13.5q-45 0 -77 -34t-44 -94q94 0 134.5 18t40.5 60z M273 210q-86 0 -122 -19.5t-36 -66.5q0 -52 49 -52q79 0 99 92z"/>
    <glyph glyph-name="ccedilla" unicode="ç" horiz-adv-x="408" d="M437 466q0 -3 -3 -9l-40 -65q-5 -6 -10 -6q-4 0 -9 4q-34 23 -75 23q-59 0 -90 -42q-59 -82 -59 -204q0 -80 75 -80q33 0 69 18q11 6 17 6q4 0 7 -6l25 -66q3 -7 3 -10q0 -13 -42.5 -28.5t-82.5 -17.5l-11 -38q59 -8 59 -64q0 -46 -31 -73.5t-84 -27.5q-79 0 -79 20 q0 3 3 10l11 38q3 7 6 7t13 -4q13 -6 31 -6q36 0 36 28q0 11 -7.5 15.5t-30.5 6.5q-19 1 -19 7q0 2 3 11l24 79q-120 36 -120 186q0 80 29.5 154t81.5 120q65 59 167 59q68 0 121 -33q12 -7 12 -12z"/>
    <glyph glyph-name="egrave" unicode="è" horiz-adv-x="463" d="M394 595q0 -4 -11 -19l-15 -20q-7 -11 -13 -11q-4 0 -17 6l-154 74q-9 5 -9 13q0 5 6 17l39 56q7 10 17 10q5 0 14 -8l137 -110q6 -4 6 -8zM455 379q0 -64 -43 -111.5t-119 -66.5q-52 -13 -147 -13q-1 -10 -1 -20q0 -87 87 -87q44 0 112 36q12 6 16 6q5 0 8 -7l25 -62 q2 -6 2 -10t-17 -14q-77 -47 -178 -47q-83 0 -128.5 48t-45.5 137q0 74 26 144.5t72 118.5q34 37 83.5 58.5t101.5 21.5q68 0 107 -35t39 -97zM338 372q0 22 -13 36t-34 14q-58 0 -96 -54q-21 -28 -35 -87q86 0 127 19q51 23 51 72z"/>
    <glyph glyph-name="eacute" unicode="é" horiz-adv-x="463" d="M489 633q0 -7 -13 -12l-188 -68q-13 -5 -16 -5q-7 0 -11 12l-13 29q-5 11 -5 16q0 7 11 12l178 95q10 6 16 6q8 0 12 -12l24 -58q5 -12 5 -15zM455 379q0 -64 -43 -111.5t-119 -66.5q-52 -13 -147 -13q-1 -10 -1 -20q0 -87 87 -87q44 0 112 36q12 6 16 6q5 0 8 -7l25 -62 q2 -6 2 -10t-17 -14q-77 -47 -178 -47q-83 0 -128.5 48t-45.5 137q0 74 26 144.5t72 118.5q34 37 83.5 58.5t101.5 21.5q68 0 107 -35t39 -97zM338 372q0 22 -13 36t-34 14q-58 0 -96 -54q-21 -28 -35 -87q86 0 127 19q51 23 51 72z"/>
    <glyph glyph-name="ecircumflex" unicode="ê" horiz-adv-x="463" d="M446 600q0 -4 -6 -11l-27 -30q-8 -9 -13 -9q-4 0 -12 5l-71 53l-94 -52q-12 -7 -17 -7q-6 0 -12 11l-16 30q-7 14 -7 16q0 5 10 12l137 92q11 7 17 7q4 0 11 -7l89 -93q11 -11 11 -17zM455 379q0 -64 -43 -111.5t-119 -66.5q-52 -13 -147 -13q-1 -10 -1 -20q0 -87 87 -87 q44 0 112 36q12 6 16 6q5 0 8 -7l25 -62q2 -6 2 -10t-17 -14q-77 -47 -178 -47q-83 0 -128.5 48t-45.5 137q0 74 26 144.5t72 118.5q34 37 83.5 58.5t101.5 21.5q68 0 107 -35t39 -97zM338 372q0 22 -13 36t-34 14q-58 0 -96 -54q-21 -28 -35 -87q86 0 127 19q51 23 51 72z "/>
    <glyph glyph-name="edieresis" unicode="ë" horiz-adv-x="463" d="M477 634q0 -29 -20.5 -49.5t-49.5 -20.5t-49 20t-20 49t20.5 49.5t50.5 20.5q28 0 48 -20.5t20 -48.5zM285 634q0 -29 -20.5 -49.5t-49.5 -20.5t-49 20t-20 49t20.5 49.5t50.5 20.5q28 0 48 -20.5t20 -48.5zM455 379q0 -64 -43 -111.5t-119 -66.5q-52 -13 -147 -13 q-1 -10 -1 -20q0 -87 87 -87q44 0 112 36q12 6 16 6q5 0 8 -7l25 -62q2 -6 2 -10t-17 -14q-77 -47 -178 -47q-83 0 -128.5 48t-45.5 137q0 74 26 144.5t72 118.5q34 37 83.5 58.5t101.5 21.5q68 0 107 -35t39 -97zM338 372q0 22 -13 36t-34 14q-58 0 -96 -54 q-21 -28 -35 -87q86 0 127 19q51 23 51 72z"/>
    <glyph glyph-name="igrave" unicode="ì" horiz-adv-x="278" d="M294 595q0 -4 -11 -19l-15 -20q-7 -11 -13 -11q-4 0 -17 6l-154 74q-9 5 -9 13q0 5 6 17l39 56q7 10 17 10q5 0 14 -8l137 -110q6 -4 6 -8zM257 485l-1 -12l-99 -462q-2 -11 -14 -11h-92q-13 0 -13 9l1 10l82 386h-76q-14 0 -14 9q0 4 2 12l12 56q2 12 14 12h185 q13 0 13 -9z"/>
    <glyph glyph-name="iacute" unicode="í" horiz-adv-x="278" d="M372 633q0 -7 -13 -12l-188 -68q-13 -5 -16 -5q-7 0 -11 12l-13 29q-5 11 -5 16q0 7 11 12l178 95q11 6 16 6q7 0 12 -12l24 -58q5 -12 5 -15zM257 485l-1 -12l-99 -462q-2 -11 -14 -11h-92q-13 0 -13 9l1 10l82 386h-76q-14 0 -14 9q0 4 2 12l12 56q2 12 14 12h185 q13 0 13 -9z"/>
    <glyph glyph-name="icircumflex" unicode="î" horiz-adv-x="278" d="M335 600q0 -4 -6 -11l-27 -30q-8 -9 -13 -9t-12 5l-71 53l-94 -52q-12 -7 -17 -7q-7 0 -12 11l-16 30q-7 14 -7 16q0 5 10 12l137 92q11 7 17 7q4 0 11 -7l89 -93q11 -11 11 -17zM257 485l-1 -12l-99 -462q-2 -11 -14 -11h-92q-13 0 -13 9l1 10l82 386h-76q-14 0 -14 9 q0 4 2 12l12 56q2 12 14 12h185q13 0 13 -9z"/>
    <glyph glyph-name="idieresis" unicode="ï" horiz-adv-x="278" d="M357 637q0 -29 -20 -51t-46 -22q-25 0 -42.5 19t-17.5 46q0 29 20 51t47 22q25 0 42 -19t17 -46zM206 637q0 -29 -20 -51t-46 -22q-25 0 -42.5 19t-17.5 46q0 29 20 51t47 22q25 0 42 -19t17 -46zM257 485l-1 -12l-99 -462q-2 -11 -14 -11h-92q-13 0 -13 9l1 10l82 386 h-76q-14 0 -14 9q0 4 2 12l12 56q2 12 14 12h185q13 0 13 -9z"/>
    <glyph glyph-name="eth" unicode="ð" horiz-adv-x="500" d="M511 647q0 -6 -8 -9l-94 -28q59 -157 59 -275q0 -165 -98 -274q-70 -78 -179 -78q-82 0 -125 45.5t-43 133.5q0 135 73.5 237t171.5 102q34 0 69 -20q-9 51 -23 99l-93 -28q-7 -2 -11 -2q-7 0 -9 8l-8 31q-3 8 -3 11q0 6 9 9l95 28q-21 50 -44 89q-2 2 -2 4q0 7 20 7h57 q19 0 29.5 -11.5t33.5 -59.5l93 30q5 2 11 2t9 -12l7 -28q3 -8 3 -11zM343 343q0 70 -62 70q-56 0 -87 -62q-18 -36 -31.5 -94.5t-13.5 -101.5q0 -74 60 -74q59 0 90 66q18 36 31 95t13 101z"/>
    <glyph glyph-name="ntilde" unicode="ñ" d="M507 654q0 -5 -18 -28q-43 -54 -96 -54q-31 0 -63 25q-15 12 -27 12q-21 0 -42 -30q-5 -8 -10 -8q-3 0 -11 6l-34 28q-5 5 -5 9t21 31q38 50 91 50q29 0 66 -23q19 -12 28 -12q21 0 42 29q6 7 9 7q4 0 9 -5l32 -26q8 -6 8 -11zM479 406q0 -34 -10 -78l-72 -317 q-2 -11 -14 -11h-92q-14 0 -14 10q0 3 3 11l64 285q11 50 11 68q0 32 -34 32q-48 0 -84 -50t-56 -142l-43 -203q-2 -11 -14 -11h-92q-14 0 -14 10q0 3 2 11l71 310q10 45 10 76q0 23 -5 44q-1 4 -1 10q0 8 12 13l77 33q6 2 7 2q9 0 15.5 -23t6.5 -53q0 -13 -1 -26 q76 104 165 104q47 0 74.5 -28t27.5 -77z"/>
    <glyph glyph-name="ograve" unicode="ò" horiz-adv-x="500" d="M416 595q0 -4 -11 -19l-15 -20q-7 -11 -13 -11q-4 0 -17 6l-154 74q-9 5 -9 13q0 5 6 17l39 56q7 10 17 10q5 0 14 -8l137 -110q6 -4 6 -8zM469 333q0 -75 -26.5 -147.5t-72.5 -124.5q-69 -78 -179 -78q-81 0 -124.5 45.5t-43.5 130.5q0 75 25.5 146.5t70.5 122.5 q74 83 186 83q77 0 120.5 -47.5t43.5 -130.5zM343 343q0 70 -63 70q-53 0 -85 -62q-18 -34 -32 -94t-14 -102q0 -74 60 -74q59 0 91 66q17 36 30 95.5t13 100.5z"/>
    <glyph glyph-name="oacute" unicode="ó" horiz-adv-x="500" d="M498 633q0 -7 -13 -12l-188 -68q-13 -5 -16 -5q-7 0 -11 12l-13 29q-5 11 -5 16q0 7 11 12l178 95q10 6 16 6q7 0 12 -12l24 -58q5 -12 5 -15zM469 333q0 -75 -26.5 -147.5t-72.5 -124.5q-69 -78 -179 -78q-81 0 -124.5 45.5t-43.5 130.5q0 75 25.5 146.5t70.5 122.5 q74 83 186 83q77 0 120.5 -47.5t43.5 -130.5zM343 343q0 70 -63 70q-53 0 -85 -62q-18 -34 -32 -94t-14 -102q0 -74 60 -74q59 0 91 66q17 36 30 95.5t13 100.5z"/>
    <glyph glyph-name="ocircumflex" unicode="ô" horiz-adv-x="500" d="M464 600q0 -4 -6 -11l-27 -30q-8 -9 -13 -9q-4 0 -12 5l-71 53l-94 -52q-12 -7 -17 -7q-6 0 -12 11l-16 30q-7 14 -7 16q0 5 10 12l137 92q11 7 17 7q4 0 11 -7l89 -93q11 -11 11 -17zM469 333q0 -75 -26.5 -147.5t-72.5 -124.5q-69 -78 -179 -78q-81 0 -124.5 45.5 t-43.5 130.5q0 75 25.5 146.5t70.5 122.5q74 83 186 83q77 0 120.5 -47.5t43.5 -130.5zM343 343q0 70 -63 70q-53 0 -85 -62q-18 -34 -32 -94t-14 -102q0 -74 60 -74q59 0 91 66q17 36 30 95.5t13 100.5z"/>
    <glyph glyph-name="otilde" unicode="õ" horiz-adv-x="500" d="M484 654q0 -5 -18 -28q-43 -54 -96 -54q-30 0 -63 25q-15 12 -27 12q-21 0 -42 -30q-5 -8 -10 -8q-3 0 -11 6l-34 28q-5 5 -5 9t21 31q38 50 91 50q29 0 66 -23q19 -12 28 -12q21 0 42 29q6 7 9 7q4 0 9 -5l32 -26q8 -6 8 -11zM469 333q0 -75 -26.5 -147.5t-72.5 -124.5 q-69 -78 -179 -78q-81 0 -124.5 45.5t-43.5 130.5q0 75 25.5 146.5t70.5 122.5q74 83 186 83q77 0 120.5 -47.5t43.5 -130.5zM343 343q0 70 -63 70q-53 0 -85 -62q-18 -34 -32 -94t-14 -102q0 -74 60 -74q59 0 91 66q17 36 30 95.5t13 100.5z"/>
    <glyph glyph-name="odieresis" unicode="ö" horiz-adv-x="500" d="M495 634q0 -29 -20.5 -49.5t-49.5 -20.5t-49 20t-20 49t20.5 49.5t50.5 20.5q28 0 48 -20.5t20 -48.5zM303 634q0 -29 -20.5 -49.5t-49.5 -20.5t-49 20t-20 49t20.5 49.5t50.5 20.5q28 0 48 -20.5t20 -48.5zM469 333q0 -75 -26.5 -147.5t-72.5 -124.5q-69 -78 -179 -78 q-81 0 -124.5 45.5t-43.5 130.5q0 75 25.5 146.5t70.5 122.5q74 83 186 83q77 0 120.5 -47.5t43.5 -130.5zM343 343q0 70 -63 70q-53 0 -85 -62q-18 -34 -32 -94t-14 -102q0 -74 60 -74q59 0 91 66q17 36 30 95.5t13 100.5z"/>
    <glyph glyph-name="divide" unicode="÷" horiz-adv-x="500" d="M337 505q0 -29 -21 -50t-50 -21q-30 0 -51 21t-21 50q0 31 21 51.5t51 20.5q29 0 50 -21t21 -51zM494 302q0 -13 -3.5 -16.5t-16.5 -3.5h-415q-14 0 -17.5 3t-3.5 17v63q0 13 4 17t17 4h415q13 0 16.5 -4t3.5 -17v-63zM337 162q0 -29 -21 -50t-50 -21q-30 0 -51 21 t-21 50q0 31 20.5 51.5t51.5 20.5q29 0 50 -21t21 -51z"/>
    <glyph glyph-name="oslash" unicode="ø" horiz-adv-x="500" d="M489 511q0 -3 -4 -10l-44 -55q29 -48 29 -117q0 -73 -26.5 -144.5t-72.5 -123.5q-70 -78 -177 -78q-60 0 -100 24l-38 -48q-5 -7 -10 -7q-4 0 -11 6l-24 20q-7 6 -7 9q0 5 4 10l41 51q-26 48 -26 116q0 71 25.5 141.5t70.5 122.5q74 83 183 83q54 0 94 -23l41 51 q6 7 10 7q3 0 9 -5l26 -20q7 -6 7 -10zM334 404q-23 15 -49 15q-68 0 -107 -88q-39 -86 -38 -180zM353 332v15l-195 -254q18 -18 49 -18q66 0 102 72q19 37 31.5 89.5t12.5 95.5z"/>
    <glyph glyph-name="ugrave" unicode="ù" d="M415 595q0 -4 -11 -19l-15 -20q-7 -11 -13 -11q-4 0 -17 6l-154 74q-9 5 -9 13q0 5 6 17l39 56q7 10 17 10q5 0 14 -8l137 -110q6 -4 6 -8zM498 493q0 -4 -2 -10l-72 -320q-11 -47 -11 -73t8 -55q1 -2 1 -7q0 -6 -12 -11l-79 -32l-8 -2q-9 0 -15 21t-6 53q0 17 1 30 q-75 -104 -169 -104q-99 0 -99 104q0 31 10 78l69 302q2 9 4.5 12t11.5 4l89 18q8 2 11 2q9 0 9 -9q0 -4 -2 -12l-67 -290q-9 -42 -9 -61q0 -18 11.5 -29t29.5 -11q44 0 78.5 50t53.5 143l39 183q3 14 16 16l89 19l11 1q9 0 9 -10z"/>
    <glyph glyph-name="uacute" unicode="ú" d="M522 633q0 -7 -13 -12l-188 -68q-13 -5 -16 -5q-7 0 -11 12l-13 29q-5 11 -5 16q0 7 11 12l178 95q11 6 16 6q7 0 12 -12l24 -58q5 -12 5 -15zM498 493q0 -4 -2 -10l-72 -320q-11 -47 -11 -73t8 -55q1 -2 1 -7q0 -6 -12 -11l-79 -32l-8 -2q-9 0 -15 21t-6 53q0 17 1 30 q-75 -104 -169 -104q-99 0 -99 104q0 31 10 78l69 302q2 9 4.5 12t11.5 4l89 18q8 2 11 2q9 0 9 -9q0 -4 -2 -12l-67 -290q-9 -42 -9 -61q0 -18 11.5 -29t29.5 -11q44 0 78.5 50t53.5 143l39 183q3 14 16 16l89 19l11 1q9 0 9 -10z"/>
    <glyph glyph-name="ucircumflex" unicode="û" d="M473 600q0 -4 -6 -11l-27 -30q-8 -9 -13 -9q-4 0 -12 5l-71 53l-94 -52q-12 -7 -17 -7q-7 0 -12 11l-16 30q-7 14 -7 16q0 5 10 12l137 92q11 7 17 7q4 0 11 -7l89 -93q11 -11 11 -17zM498 493q0 -4 -2 -10l-72 -320q-11 -47 -11 -73t8 -55q1 -2 1 -7q0 -6 -12 -11 l-79 -32l-8 -2q-9 0 -15 21t-6 53q0 17 1 30q-75 -104 -169 -104q-99 0 -99 104q0 31 10 78l69 302q2 9 4.5 12t11.5 4l89 18q8 2 11 2q9 0 9 -9q0 -4 -2 -12l-67 -290q-9 -42 -9 -61q0 -18 11.5 -29t29.5 -11q44 0 78.5 50t53.5 143l39 183q3 14 16 16l89 19l11 1 q9 0 9 -10z"/>
    <glyph glyph-name="udieresis" unicode="ü" d="M513 634q0 -29 -20.5 -49.5t-49.5 -20.5t-49 20t-20 49t20.5 49.5t50.5 20.5q28 0 48 -20.5t20 -48.5zM321 634q0 -29 -20.5 -49.5t-49.5 -20.5t-49 20t-20 49t20.5 49.5t50.5 20.5q28 0 48 -20.5t20 -48.5zM498 493q0 -4 -2 -10l-72 -320q-11 -47 -11 -73t8 -55 q1 -2 1 -7q0 -6 -12 -11l-79 -32l-8 -2q-9 0 -15 21t-6 53q0 17 1 30q-75 -104 -169 -104q-99 0 -99 104q0 31 10 78l69 302q2 9 4.5 12t11.5 4l89 18q8 2 11 2q9 0 9 -9q0 -4 -2 -12l-67 -290q-9 -42 -9 -61q0 -18 11.5 -29t29.5 -11q44 0 78.5 50t53.5 143l39 183 q3 14 16 16l89 19l11 1q9 0 9 -10z"/>
    <glyph glyph-name="yacute" unicode="ý" horiz-adv-x="444" d="M458 633q0 -7 -13 -12l-188 -68q-13 -5 -16 -5q-7 0 -11 12l-13 29q-5 11 -5 16q0 7 11 12l178 95q11 6 16 6q7 0 12 -12l24 -58q5 -12 5 -15zM486 479q0 -5 -4 -12l-201 -409q-81 -165 -114 -208q-53 -69 -141 -69q-35 0 -76.5 14.5t-41.5 26.5q0 3 3 9l36 63q5 8 10 8 q3 0 10 -3q37 -18 64 -18q30 0 49 13t36 44l33 62h-40q-13 0 -14 13l-53 458q-1 3 -1 7q0 9 12 10l86 10q4 1 13 1q8 0 9 -13l19 -243q5 -75 8 -164q14 33 17 41l24 61l24 58l112 253q4 9 10 9q1 0 12 -1l88 -12q11 -2 11 -9z"/>
    <glyph glyph-name="thorn" unicode="þ" horiz-adv-x="518" d="M484 366q0 -79 -26 -164.5t-65 -135.5q-36 -44 -76 -63.5t-95 -19.5q-53 0 -92 27l-39 -185q-2 -14 -16 -16l-89 -18q-9 -2 -11 -2q-9 0 -9 10q0 5 2 11l186 878q2 8 5 11t11 4l89 19q8 2 11 2q9 0 9 -10q0 -4 -2 -11l-45 -211q-9 -42 -18 -63q35 46 67.5 64t78.5 18 q59 0 87 -31q37 -40 37 -114zM364 347q0 66 -53 66q-94 0 -127 -151l-36 -165q33 -19 70 -19q41 0 64 16.5t41 57.5q16 37 28.5 97t12.5 98z"/>
    <glyph glyph-name="ydieresis" unicode="ÿ" horiz-adv-x="444" d="M468 634q0 -29 -20.5 -49.5t-49.5 -20.5q-28 0 -48.5 20t-20.5 49t20.5 49.5t50.5 20.5q28 0 48 -20.5t20 -48.5zM276 634q0 -29 -20.5 -49.5t-49.5 -20.5q-28 0 -48.5 20t-20.5 49t20.5 49.5t50.5 20.5q28 0 48 -20.5t20 -48.5zM486 479q0 -5 -4 -12l-201 -409 q-81 -165 -114 -208q-53 -69 -141 -69q-35 0 -76.5 14.5t-41.5 26.5q0 3 3 9l36 63q5 8 10 8q3 0 10 -3q37 -18 64 -18q30 0 49 13t36 44l33 62h-40q-13 0 -14 13l-53 458q-1 3 -1 7q0 9 12 10l86 10q4 1 13 1q8 0 9 -13l19 -243q5 -75 8 -164q14 33 17 41l24 61l24 58 l112 253q4 9 10 9q1 0 12 -1l88 -12q11 -2 11 -9z"/>
    <glyph glyph-name="Amacron" unicode="Ā" horiz-adv-x="537" d="M484 11q0 -11 -17 -11h-100q-10 0 -13 3t-4 14l-9 164h-170l-78 -169q-5 -12 -20 -12h-98q-17 0 -17 11q0 4 5 14l330 650q5 11 18 11h96q11 0 14 -3t4 -13l58 -652zM335 272l-7 174q0 6 -0.5 19t-0.5 21q0 15 1 60q-27 -68 -42 -100l-81 -174h130zM512 844q0 -3 -2 -11 l-11 -51q-2 -9 -5 -11.5t-13 -2.5h-210q-17 0 -17 10q0 2 3 16l10 48q2 9 4.5 11.5t12.5 2.5h211q17 0 17 -12z"/>
    <glyph glyph-name="amacron" unicode="ā" horiz-adv-x="518" d="M493 484q0 -2 -2 -11l-67 -313q-9 -42 -9 -71q0 -22 6 -50q2 -6 2 -11q0 -6 -9 -10l-84 -32q-8 -3 -11 -3q-18 0 -20 91q-74 -91 -159 -91q-55 0 -84 42.5t-29 121.5q0 148 70.5 256t168.5 108q67 0 111 -54l11 28q4 9 14 9h79q12 0 12 -10zM352 385q-24 22 -39.5 29.5 t-35.5 7.5q-47 0 -77 -58q-20 -37 -36 -106.5t-16 -116.5q0 -60 43 -60q51 0 92 54q23 32 34 87zM450 665q0 -3 -2 -11l-11 -51q-2 -9 -5 -11.5t-13 -2.5h-210q-17 0 -17 10q0 3 3 16l10 48q2 9 4.5 11.5t12.5 2.5h211q17 0 17 -12z"/>
    <glyph glyph-name="Abreve" unicode="Ă" horiz-adv-x="537" d="M484 11q0 -11 -17 -11h-100q-10 0 -13 3t-4 14l-9 164h-170l-78 -169q-5 -12 -20 -12h-98q-17 0 -17 11q0 4 5 14l330 650q5 11 18 11h96q11 0 14 -3t4 -13l58 -652zM335 272l-7 174q0 6 -0.5 19t-0.5 21q0 15 1 60q-27 -68 -42 -100l-81 -174h130zM531 866 q0 -12 -15 -42q-41 -83 -145 -83q-56 0 -87.5 30.5t-31.5 84.5q0 18 15 19l56 7q9 1 11 1q7 0 7 -9v-7q0 -47 39 -47q43 0 60 48q6 16 12 16q2 0 9 -1l60 -8q10 -2 10 -9z"/>
    <glyph glyph-name="abreve" unicode="ă" horiz-adv-x="518" d="M493 484q0 -2 -2 -11l-67 -313q-9 -42 -9 -71q0 -22 6 -50q2 -6 2 -11q0 -6 -9 -10l-84 -32q-8 -3 -11 -3q-18 0 -20 91q-74 -91 -159 -91q-55 0 -84 42.5t-29 121.5q0 148 70.5 256t168.5 108q67 0 111 -54l11 28q4 9 14 9h79q12 0 12 -10zM352 385q-24 22 -39.5 29.5 t-35.5 7.5q-47 0 -77 -58q-20 -37 -36 -106.5t-16 -116.5q0 -60 43 -60q51 0 92 54q23 32 34 87zM471 687q0 -12 -15 -42q-41 -83 -145 -83q-56 0 -87.5 30.5t-31.5 84.5q0 18 15 19l56 7q9 1 11 1q7 0 7 -9v-7q0 -47 39 -47q43 0 60 48q6 16 12 16q2 0 9 -1l60 -8 q10 -2 10 -9z"/>
    <glyph glyph-name="Aogonek" unicode="Ą" horiz-adv-x="537" d="M484 11q0 -11 -17 -11h-39q-73 -56 -73 -106q0 -18 24 -18q22 0 45 11q9 4 11 4q3 0 6 -7l10 -37l2 -7q1 -2 1 -6q0 -11 -36 -24t-69 -13q-38 0 -60 18.5t-22 52.5q0 71 94 132q-10 1 -11 17l-9 164h-170l-78 -169q-5 -12 -20 -12h-98q-17 0 -17 11q0 4 5 14l330 650 q5 11 18 11h96q11 0 14 -3t4 -13l58 -652zM335 272l-7 174q0 6 -0.5 19t-0.5 21q0 15 1 60q-27 -68 -42 -100l-81 -174h130z"/>
    <glyph glyph-name="aogonek" unicode="ą" horiz-adv-x="518" d="M493 484q0 -2 -2 -11l-67 -313q-9 -42 -9 -71q0 -22 6 -50q2 -6 2 -11q0 -6 -9 -10l-50 -19q-72 -56 -72 -105q0 -18 24 -18q22 0 45 11q9 4 11 4q3 0 6 -7l10 -37l2 -7q1 -2 1 -6q0 -11 -36 -24t-69 -13q-38 0 -60 18.5t-22 52.5q0 35 27 72t75 65q-7 30 -7 69 q-74 -91 -159 -91q-55 0 -84 42.5t-29 121.5q0 148 70.5 256t168.5 108q67 0 111 -54l11 28q4 9 14 9h79q12 0 12 -10zM352 385q-24 22 -39.5 29.5t-35.5 7.5q-47 0 -77 -58q-20 -37 -36 -106.5t-16 -116.5q0 -60 43 -60q51 0 92 54q23 32 34 87z"/>
    <glyph glyph-name="Cacute" unicode="Ć" horiz-adv-x="489" d="M396 128l28 -74q2 -6 2 -9q0 -8 -18 -18q-80 -44 -168 -44q-75 0 -124 46q-63 59 -63 191q0 110 30.5 210.5t85.5 167.5q84 105 216 105q83 0 146 -48q16 -13 16 -20q0 -3 -4 -10l-47 -71q-4 -6 -11 -6t-15 7q-31 24 -48.5 32t-39.5 8q-70 0 -117 -82q-33 -57 -53.5 -138 t-20.5 -155q0 -63 22.5 -92t71.5 -29q37 0 89 28q9 6 16 6q4 0 6 -5zM547 825q0 -7 -13 -12l-188 -68q-13 -5 -16 -5q-7 0 -11 12l-13 29q-5 11 -5 16q0 7 11 12l178 95q10 6 16 6q8 0 12 -12l24 -58q5 -12 5 -15z"/>
    <glyph glyph-name="cacute" unicode="ć" horiz-adv-x="408" d="M437 466q0 -3 -3 -9l-40 -65q-5 -6 -10 -6q-4 0 -9 4q-34 23 -75 23q-59 0 -90 -42q-59 -82 -59 -204q0 -80 75 -80q29 0 69 17q11 6 17 6q4 0 7 -5l25 -66q3 -7 3 -10q0 -14 -47 -30t-89 -16q-88 0 -136.5 51.5t-48.5 143.5q0 80 29.5 154t81.5 120q65 59 167 59 q69 0 121 -33q12 -7 12 -12zM460 633q0 -7 -13 -12l-188 -68q-13 -5 -16 -5q-7 0 -11 12l-13 29q-5 11 -5 16q0 7 11 12l178 95q10 6 16 6q7 0 12 -12l24 -58q5 -12 5 -15z"/>
    <glyph glyph-name="Ccircumflex" unicode="Ĉ" horiz-adv-x="489" d="M396 128l28 -74q2 -6 2 -9q0 -8 -18 -18q-80 -44 -168 -44q-75 0 -124 46q-63 59 -63 191q0 110 30.5 210.5t85.5 167.5q84 105 216 105q83 0 146 -48q16 -13 16 -20q0 -3 -4 -10l-47 -71q-4 -6 -11 -6t-15 7q-31 24 -48.5 32t-39.5 8q-70 0 -117 -82q-33 -57 -53.5 -138 t-20.5 -155q0 -63 22.5 -92t71.5 -29q37 0 89 28q9 6 16 6q4 0 6 -5zM531 792q0 -4 -6 -11l-27 -30q-8 -9 -13 -9t-12 5l-71 53l-94 -52q-12 -7 -17 -7q-7 0 -12 11l-16 30q-7 14 -7 16q0 5 10 12l137 92q11 7 17 7q4 0 11 -7l89 -93q11 -11 11 -17z"/>
    <glyph glyph-name="ccircumflex" unicode="ĉ" horiz-adv-x="408" d="M437 466q0 -3 -3 -9l-40 -65q-5 -6 -10 -6q-4 0 -9 4q-34 23 -75 23q-59 0 -90 -42q-59 -82 -59 -204q0 -80 75 -80q29 0 69 17q11 6 17 6q4 0 7 -5l25 -66q3 -7 3 -10q0 -14 -47 -30t-89 -16q-88 0 -136.5 51.5t-48.5 143.5q0 80 29.5 154t81.5 120q65 59 167 59 q69 0 121 -33q12 -7 12 -12zM444 600q0 -4 -6 -11l-27 -30q-8 -9 -13 -9q-4 0 -12 5l-71 53l-94 -52q-12 -7 -17 -7q-6 0 -12 11l-16 30q-7 14 -7 16q0 5 10 12l137 92q11 7 17 7q4 0 11 -7l89 -93q11 -11 11 -17z"/>
    <glyph glyph-name="Cdotaccent" unicode="Ċ" horiz-adv-x="489" d="M396 128l28 -74q2 -6 2 -9q0 -8 -18 -18q-80 -44 -168 -44q-75 0 -124 46q-63 59 -63 191q0 110 30.5 210.5t85.5 167.5q84 105 216 105q83 0 146 -48q16 -13 16 -20q0 -3 -4 -10l-47 -71q-4 -6 -11 -6t-15 7q-31 24 -48.5 32t-39.5 8q-70 0 -117 -82q-33 -57 -53.5 -138 t-20.5 -155q0 -63 22.5 -92t71.5 -29q37 0 89 28q9 6 16 6q4 0 6 -5zM473 826q0 -32 -22.5 -54t-53.5 -22t-53.5 22t-22.5 54t22.5 54t54.5 22q31 0 53 -22.5t22 -53.5z"/>
    <glyph glyph-name="cdotaccent" unicode="ċ" horiz-adv-x="408" d="M437 466q0 -3 -3 -9l-40 -65q-5 -6 -10 -6q-4 0 -9 4q-34 23 -75 23q-59 0 -90 -42q-59 -82 -59 -204q0 -80 75 -80q29 0 69 17q11 6 17 6q4 0 7 -5l25 -66q3 -7 3 -10q0 -14 -47 -30t-89 -16q-88 0 -136.5 51.5t-48.5 143.5q0 80 29.5 154t81.5 120q65 59 167 59 q69 0 121 -33q12 -7 12 -12zM386 634q0 -32 -22 -54t-54 -22t-54 22t-22 54t22.5 54t54.5 22q31 0 53 -22.5t22 -53.5z"/>
    <glyph glyph-name="Ccaron" unicode="Č" horiz-adv-x="489" d="M396 128l28 -74q2 -6 2 -9q0 -8 -18 -18q-80 -44 -168 -44q-75 0 -124 46q-63 59 -63 191q0 110 30.5 210.5t85.5 167.5q84 105 216 105q83 0 146 -48q16 -13 16 -20q0 -3 -4 -10l-47 -71q-4 -6 -11 -6t-15 7q-31 24 -48.5 32t-39.5 8q-70 0 -117 -82q-33 -57 -53.5 -138 t-20.5 -155q0 -63 22.5 -92t71.5 -29q37 0 89 28q9 6 16 6q4 0 6 -5zM544 853q0 -6 -9 -12l-138 -92q-13 -8 -17 -8t-11 8l-90 93q-10 11 -10 16t6 12l27 30q8 9 13 9t12 -5l71 -53l95 52q13 7 16 7q5 0 12 -11l16 -30q7 -10 7 -16z"/>
    <glyph glyph-name="ccaron" unicode="č" horiz-adv-x="408" d="M437 466q0 -3 -3 -9l-40 -65q-5 -6 -10 -6q-4 0 -9 4q-34 23 -75 23q-59 0 -90 -42q-59 -82 -59 -204q0 -80 75 -80q29 0 69 17q11 6 17 6q4 0 7 -5l25 -66q3 -7 3 -10q0 -14 -47 -30t-89 -16q-88 0 -136.5 51.5t-48.5 143.5q0 80 29.5 154t81.5 120q65 59 167 59 q69 0 121 -33q12 -7 12 -12zM457 661q0 -6 -9 -12l-138 -92q-13 -8 -17 -8t-11 8l-90 93q-10 11 -10 16t6 12l27 30q8 9 13 9q4 0 12 -5l71 -53l95 52q13 7 16 7q5 0 12 -11l16 -30q7 -10 7 -16z"/>
    <glyph glyph-name="Dcaron" unicode="Ď" horiz-adv-x="593" d="M578 463q0 -109 -38.5 -220.5t-95.5 -168.5q-42 -41 -100 -57.5t-163 -16.5h-135q-15 0 -15 12q0 2 3 14l137 646q2 10 5 12t16 2h132q77 0 117.5 -9t69.5 -34q67 -56 67 -180zM442 462q0 78 -41 102q-25 16 -90 16h-29l-101 -474h29q60 0 95 13.5t58 45.5q33 46 56 133 t23 164zM524 853q0 -6 -9 -12l-138 -92q-13 -8 -17 -8t-11 8l-90 93q-10 11 -10 16t6 12l27 30q8 9 13 9t12 -5l71 -53l95 52q13 7 16 7q5 0 12 -11l16 -30q7 -10 7 -16z"/>
    <glyph glyph-name="dcaron" unicode="ď" d="M541 714q0 -5 -2 -11l-119 -563q-6 -27 -6 -48q0 -23 8 -58q1 -2 1 -6q0 -6 -12 -11l-83 -31q-6 -3 -9 -3q-18 0 -20 91q-37 -49 -74 -70t-84 -21q-111 0 -111 148q0 77 22.5 154t60.5 129q69 97 172 97q48 0 88 -25l43 202q2 13 16 15l89 19q9 2 11 2q9 0 9 -10z M355 399q-34 17 -65 17q-62 0 -94 -65q-19 -38 -32 -97t-13 -104q0 -32 13 -50.5t35 -18.5q40 0 72.5 42t47.5 111zM741 683l-113 -152q-10 -14 -21 -14q-3 0 -11 2l-33 9q-12 4 -12 10q0 4 5 16l64 137q9 17 26 17h85q19 0 19 -8q0 -4 -9 -17z"/>
    <glyph glyph-name="Dcroat" unicode="Đ" horiz-adv-x="593" d="M578 463q0 -109 -38.5 -220.5t-95.5 -168.5q-42 -41 -100 -57.5t-163 -16.5h-135q-15 0 -15 11q0 5 1 7l2 8l61 291h-50q-17 0 -17 11q0 2 2 12l10 48q2 9 5 11.5t13 2.5h55l58 270q2 10 5 12t16 2h132q77 0 117.5 -9t69.5 -34q67 -56 67 -180zM442 462q0 77 -40 102 q-26 16 -91 16h-29l-38 -178h94q17 0 17 -11q0 -4 -3 -14l-9 -46q-1 -9 -4.5 -11.5t-13.5 -2.5h-99l-45 -211h29q60 0 95.5 13.5t57.5 45.5q33 46 56 133t23 164z"/>
    <glyph glyph-name="dcroat" unicode="đ" d="M541 714q0 -5 -2 -11l-14 -67h59q12 0 12 -7q0 -4 -1 -7l-10 -47q-4 -14 -17 -14h-59l-89 -421q-6 -27 -6 -48q0 -23 8 -58q1 -2 1 -6q0 -6 -12 -11l-83 -31q-6 -3 -9 -3q-18 0 -20 91q-37 -49 -74 -70t-84 -21q-111 0 -111 148q0 77 22.5 154t60.5 129q69 97 172 97 q48 0 88 -25l16 75h-127q-12 0 -12 6q0 5 1 8l10 47q1 9 4.5 11.5t12.5 2.5h127l11 52q2 13 16 15l89 19q9 2 11 2q9 0 9 -10zM355 399q-34 17 -65 17q-62 0 -94 -65q-19 -38 -32 -97t-13 -104q0 -32 13 -50.5t35 -18.5q40 0 72.5 42t47.5 111z"/>
    <glyph glyph-name="Emacron" unicode="Ē" horiz-adv-x="482" d="M540 678q0 -5 -6 -17l-35 -70q-5 -11 -20 -11h-197l-36 -169h171q14 0 14 -11q0 -5 -1 -8l-2 -6l-14 -67q-1 -9 -4.5 -11.5t-13.5 -2.5h-172l-43 -199h214q14 0 14 -11q0 -5 -1 -8l-2 -6l-13 -66q-2 -10 -5 -12.5t-13 -2.5h-329q-15 0 -15 12q0 2 3 14l137 646 q2 9 5 11.5t13 2.5h335q16 0 16 -8zM501 857q0 -3 -2 -11l-11 -51q-2 -9 -5 -11.5t-13 -2.5h-210q-17 0 -17 10q0 3 3 16l10 48q2 9 4.5 11.5t12.5 2.5h211q17 0 17 -12z"/>
    <glyph glyph-name="emacron" unicode="ē" horiz-adv-x="463" d="M455 379q0 -64 -43 -111.5t-119 -66.5q-52 -13 -147 -13q-1 -10 -1 -20q0 -87 87 -87q44 0 112 36q12 6 16 6q5 0 8 -7l25 -62q2 -6 2 -10t-17 -14q-77 -47 -178 -47q-83 0 -128.5 48t-45.5 137q0 74 26 144.5t72 118.5q34 37 83.5 58.5t101.5 21.5q68 0 107 -35t39 -97z M338 372q0 22 -13 36t-34 14q-58 0 -96 -54q-21 -28 -35 -87q86 0 127 19q51 23 51 72zM452 665q0 -3 -2 -11l-11 -51q-2 -9 -5 -11.5t-13 -2.5h-210q-17 0 -17 10q0 3 3 16l10 48q2 9 4.5 11.5t12.5 2.5h211q17 0 17 -12z"/>
    <glyph glyph-name="Ebreve" unicode="Ĕ" horiz-adv-x="482" d="M540 678q0 -5 -6 -17l-35 -70q-5 -11 -20 -11h-197l-36 -169h171q14 0 14 -11q0 -5 -1 -8l-2 -6l-14 -67q-1 -9 -4.5 -11.5t-13.5 -2.5h-172l-43 -199h214q14 0 14 -11q0 -5 -1 -8l-2 -6l-13 -66q-2 -10 -5 -12.5t-13 -2.5h-329q-15 0 -15 12q0 2 3 14l137 646 q2 9 5 11.5t13 2.5h335q16 0 16 -8zM512 879q0 -12 -15 -42q-41 -83 -145 -83q-56 0 -87.5 30.5t-31.5 84.5q0 18 15 19l56 7q9 1 11 1q7 0 7 -9v-7q0 -47 39 -47q43 0 60 48q6 16 12 16q2 0 9 -1l60 -8q10 -2 10 -9z"/>
    <glyph glyph-name="ebreve" unicode="ĕ" horiz-adv-x="463" d="M455 379q0 -64 -43 -111.5t-119 -66.5q-52 -13 -147 -13q-1 -10 -1 -20q0 -87 87 -87q44 0 112 36q12 6 16 6q5 0 8 -7l25 -62q2 -6 2 -10t-17 -14q-77 -47 -178 -47q-83 0 -128.5 48t-45.5 137q0 74 26 144.5t72 118.5q34 37 83.5 58.5t101.5 21.5q68 0 107 -35t39 -97z M338 372q0 22 -13 36t-34 14q-58 0 -96 -54q-21 -28 -35 -87q86 0 127 19q51 23 51 72zM473 687q0 -12 -15 -42q-41 -83 -145 -83q-56 0 -87.5 30.5t-31.5 84.5q0 18 15 19l56 7q9 1 11 1q7 0 7 -9v-7q0 -47 39 -47q43 0 60 48q6 16 12 16q2 0 9 -1l60 -8q10 -2 10 -9z"/>
    <glyph glyph-name="Edotaccent" unicode="Ė" horiz-adv-x="482" d="M540 678q0 -5 -6 -17l-35 -70q-5 -11 -20 -11h-197l-36 -169h171q14 0 14 -11q0 -5 -1 -8l-2 -6l-14 -67q-1 -9 -4.5 -11.5t-13.5 -2.5h-172l-43 -199h214q14 0 14 -11q0 -5 -1 -8l-2 -6l-13 -66q-2 -10 -5 -12.5t-13 -2.5h-329q-15 0 -15 12q0 2 3 14l137 646 q2 9 5 11.5t13 2.5h335q16 0 16 -8zM448 826q0 -32 -22 -54t-54 -22t-54 22t-22 54t22.5 54t54.5 22q31 0 53 -22.5t22 -53.5z"/>
    <glyph glyph-name="edotaccent" unicode="ė" horiz-adv-x="463" d="M455 379q0 -64 -43 -111.5t-119 -66.5q-52 -13 -147 -13q-1 -10 -1 -20q0 -87 87 -87q44 0 112 36q12 6 16 6q5 0 8 -7l25 -62q2 -6 2 -10t-17 -14q-77 -47 -178 -47q-83 0 -128.5 48t-45.5 137q0 74 26 144.5t72 118.5q34 37 83.5 58.5t101.5 21.5q68 0 107 -35t39 -97z M338 372q0 22 -13 36t-34 14q-58 0 -96 -54q-21 -28 -35 -87q86 0 127 19q51 23 51 72zM399 634q0 -32 -22.5 -54t-53.5 -22t-53.5 22t-22.5 54t22.5 54t54.5 22q31 0 53 -22.5t22 -53.5z"/>
    <glyph glyph-name="Eogonek" unicode="Ę" horiz-adv-x="482" d="M540 678q0 -5 -6 -17l-35 -70q-5 -11 -20 -11h-197l-36 -169h171q14 0 14 -11q0 -5 -1 -8l-2 -6l-14 -67q-1 -9 -4.5 -11.5t-13.5 -2.5h-172l-43 -199h214q14 0 14 -11q0 -5 -1 -8l-2 -6l-13 -66q-2 -10 -5 -12.5t-13 -2.5h-70q-73 -56 -73 -106q0 -18 24 -18q22 0 45 11 q9 4 11 4q3 0 6 -7l10 -37l2 -7q1 -2 1 -6q0 -11 -36 -24t-69 -13q-38 0 -60 18.5t-22 52.5q0 71 93 132h-191q-15 0 -15 12q0 2 3 14l137 646q2 9 5 11.5t13 2.5h335q16 0 16 -8z"/>
    <glyph glyph-name="eogonek" unicode="ę" horiz-adv-x="463" d="M455 379q0 -64 -43 -111.5t-119 -66.5q-52 -13 -147 -13q-1 -10 -1 -20q0 -87 87 -87q44 0 112 36q12 6 16 6q5 0 8 -7l25 -62q2 -6 2 -10t-17 -14q-44 -27 -96 -37q-63 -51 -63 -99q0 -18 24 -18q22 0 45 11q9 4 11 4q3 0 6 -7l10 -37l2 -7q1 -2 1 -6q0 -11 -36 -24 t-69 -13q-38 0 -60 18.5t-22 52.5q0 59 70 115h-1q-83 0 -128.5 48t-45.5 137q0 74 26 144.5t72 118.5q34 37 83.5 58.5t101.5 21.5q68 0 107 -35t39 -97zM338 372q0 22 -13 36t-34 14q-58 0 -96 -54q-21 -28 -35 -87q86 0 127 19q51 23 51 72z"/>
    <glyph glyph-name="Ecaron" unicode="Ě" horiz-adv-x="482" d="M540 678q0 -5 -6 -17l-35 -70q-5 -11 -20 -11h-197l-36 -169h171q14 0 14 -11q0 -5 -1 -8l-2 -6l-14 -67q-1 -9 -4.5 -11.5t-13.5 -2.5h-172l-43 -199h214q14 0 14 -11q0 -5 -1 -8l-2 -6l-13 -66q-2 -10 -5 -12.5t-13 -2.5h-329q-15 0 -15 12q0 2 3 14l137 646 q2 9 5 11.5t13 2.5h335q16 0 16 -8zM519 853q0 -6 -9 -12l-138 -92q-13 -8 -17 -8t-11 8l-90 93q-10 11 -10 16t6 12l27 30q8 9 13 9q4 0 12 -5l71 -53l95 52q13 7 16 7q5 0 12 -11l16 -30q7 -10 7 -16z"/>
    <glyph glyph-name="ecaron" unicode="ě" horiz-adv-x="463" d="M455 379q0 -64 -43 -111.5t-119 -66.5q-52 -13 -147 -13q-1 -10 -1 -20q0 -87 87 -87q44 0 112 36q12 6 16 6q5 0 8 -7l25 -62q2 -6 2 -10t-17 -14q-77 -47 -178 -47q-83 0 -128.5 48t-45.5 137q0 74 26 144.5t72 118.5q34 37 83.5 58.5t101.5 21.5q68 0 107 -35t39 -97z M338 372q0 22 -13 36t-34 14q-58 0 -96 -54q-21 -28 -35 -87q86 0 127 19q51 23 51 72zM470 661q0 -6 -9 -12l-138 -92q-13 -8 -17 -8t-11 8l-90 93q-10 11 -10 16t6 12l27 30q8 9 13 9t12 -5l71 -53l95 52q13 7 16 7q5 0 12 -11l16 -30q7 -10 7 -16z"/>
    <glyph glyph-name="Gcircumflex" unicode="Ĝ" horiz-adv-x="574" d="M353 110l32 149h-68q-15 0 -15 11q0 7 4 24l14 65q3 11 14 11h182q16 0 16 -11q0 -2 -2 -14l-61 -286q-2 -11 -6 -15t-17 -12q-90 -49 -193 -49q-92 0 -139 47q-64 61 -64 182q0 98 28.5 198t74.5 161q97 132 255 132q96 0 159 -46q17 -12 17 -18q0 -5 -2 -7l-51 -75 q-2 -4 -9 -4q-6 0 -12 6q-47 40 -110 40q-49 0 -82.5 -22t-62.5 -74t-49 -136.5t-20 -157.5q0 -61 22 -88.5t69 -27.5q38 0 76 17zM560 792q0 -4 -6 -11l-27 -30q-8 -9 -13 -9q-4 0 -12 5l-71 53l-94 -52q-12 -7 -17 -7q-6 0 -12 11l-16 30q-7 14 -7 16q0 5 10 12l137 92 q11 7 17 7q4 0 11 -7l89 -93q11 -11 11 -17z"/>
    <glyph glyph-name="gcircumflex" unicode="ĝ" d="M519 460q0 -5 -10 -18q-37 -52 -49 -111l-32 -148q-13 -54 -31 -166q-14 -82 -31 -122t-49 -65q-54 -42 -152 -42q-57 0 -118 17.5t-61 33.5q0 3 3 10l31 73q3 7 8 7q6 0 17 -5q69 -36 127 -36q51 0 79 26q20 20 30 78q11 64 21 92q-72 -85 -147 -85q-57 0 -89.5 43.5 t-32.5 119.5q0 70 24.5 143.5t65.5 127.5q59 78 141 78q38 0 61 -11.5t57 -47.5q15 24 31 40.5t24 16.5q3 0 14 -6l61 -33q7 -4 7 -10zM352 385q-38 37 -75 37q-44 0 -78 -66q-19 -36 -32 -94.5t-13 -103.5q0 -67 47 -67q40 0 78 41q24 27 38 90zM449 600q0 -4 -6 -11 l-27 -30q-8 -9 -13 -9q-4 0 -12 5l-71 53l-94 -52q-12 -7 -17 -7q-7 0 -12 11l-16 30q-7 14 -7 16q0 5 10 12l137 92q11 7 17 7q4 0 11 -7l89 -93q11 -11 11 -17z"/>
    <glyph glyph-name="Gbreve" unicode="Ğ" horiz-adv-x="574" d="M353 110l32 149h-68q-15 0 -15 11q0 7 4 24l14 65q3 11 14 11h182q16 0 16 -11q0 -2 -2 -14l-61 -286q-2 -11 -6 -15t-17 -12q-90 -49 -193 -49q-92 0 -139 47q-64 61 -64 182q0 98 28.5 198t74.5 161q97 132 255 132q96 0 159 -46q17 -12 17 -18q0 -5 -2 -7l-51 -75 q-2 -4 -9 -4q-6 0 -12 6q-47 40 -110 40q-49 0 -82.5 -22t-62.5 -74t-49 -136.5t-20 -157.5q0 -61 22 -88.5t69 -27.5q38 0 76 17zM566 879q0 -12 -15 -42q-41 -83 -145 -83q-56 0 -87.5 30.5t-31.5 84.5q0 18 15 19l56 7q9 1 11 1q7 0 7 -9v-7q0 -47 39 -47q43 0 60 48 q6 16 12 16q2 0 9 -1l60 -8q10 -2 10 -9z"/>
    <glyph glyph-name="gbreve" unicode="ğ" d="M519 460q0 -5 -10 -18q-37 -52 -49 -111l-32 -148q-13 -54 -31 -166q-14 -82 -31 -122t-49 -65q-54 -42 -152 -42q-57 0 -118 17.5t-61 33.5q0 3 3 10l31 73q3 7 8 7q6 0 17 -5q69 -36 127 -36q51 0 79 26q20 20 30 78q11 64 21 92q-72 -85 -147 -85q-57 0 -89.5 43.5 t-32.5 119.5q0 70 24.5 143.5t65.5 127.5q59 78 141 78q38 0 61 -11.5t57 -47.5q15 24 31 40.5t24 16.5q3 0 14 -6l61 -33q7 -4 7 -10zM352 385q-38 37 -75 37q-44 0 -78 -66q-19 -36 -32 -94.5t-13 -103.5q0 -67 47 -67q40 0 78 41q24 27 38 90zM465 687q0 -12 -15 -42 q-41 -83 -145 -83q-56 0 -87.5 30.5t-31.5 84.5q0 18 15 19l56 7q9 1 11 1q7 0 7 -9v-7q0 -47 39 -47q43 0 60 48q6 16 12 16q2 0 9 -1l60 -8q10 -2 10 -9z"/>
    <glyph glyph-name="Gdotaccent" unicode="Ġ" horiz-adv-x="574" d="M353 110l32 149h-68q-15 0 -15 11q0 7 4 24l14 65q3 11 14 11h182q16 0 16 -11q0 -2 -2 -14l-61 -286q-2 -11 -6 -15t-17 -12q-90 -49 -193 -49q-92 0 -139 47q-64 61 -64 182q0 98 28.5 198t74.5 161q97 132 255 132q96 0 159 -46q17 -12 17 -18q0 -5 -2 -7l-51 -75 q-2 -4 -9 -4q-6 0 -12 6q-47 40 -110 40q-49 0 -82.5 -22t-62.5 -74t-49 -136.5t-20 -157.5q0 -61 22 -88.5t69 -27.5q38 0 76 17zM492 826q0 -32 -22 -54t-54 -22t-54 22t-22 54t22.5 54t54.5 22q31 0 53 -22.5t22 -53.5z"/>
    <glyph glyph-name="gdotaccent" unicode="ġ" d="M519 460q0 -5 -10 -18q-37 -52 -49 -111l-32 -148q-13 -54 -31 -166q-14 -82 -31 -122t-49 -65q-54 -42 -152 -42q-57 0 -118 17.5t-61 33.5q0 3 3 10l31 73q3 7 8 7q6 0 17 -5q69 -36 127 -36q51 0 79 26q20 20 30 78q11 64 21 92q-72 -85 -147 -85q-57 0 -89.5 43.5 t-32.5 119.5q0 70 24.5 143.5t65.5 127.5q59 78 141 78q38 0 61 -11.5t57 -47.5q15 24 31 40.5t24 16.5q3 0 14 -6l61 -33q7 -4 7 -10zM352 385q-38 37 -75 37q-44 0 -78 -66q-19 -36 -32 -94.5t-13 -103.5q0 -67 47 -67q40 0 78 41q24 27 38 90zM391 634q0 -32 -22.5 -54 t-53.5 -22t-53.5 22t-22.5 54t22.5 54t54.5 22q31 0 53 -22.5t22 -53.5z"/>
    <glyph glyph-name="Gcommaaccent" unicode="Ģ" horiz-adv-x="574" d="M353 110l32 149h-68q-15 0 -15 11q0 7 4 24l14 65q3 11 14 11h182q16 0 16 -11q0 -2 -2 -14l-61 -286q-2 -11 -6 -15t-17 -12q-90 -49 -193 -49q-92 0 -139 47q-64 61 -64 182q0 98 28.5 198t74.5 161q97 132 255 132q96 0 159 -46q17 -12 17 -18q0 -5 -2 -7l-51 -75 q-2 -4 -9 -4q-6 0 -12 6q-47 40 -110 40q-49 0 -82.5 -22t-62.5 -74t-49 -136.5t-20 -157.5q0 -61 22 -88.5t69 -27.5q38 0 76 17zM319 -75l-113 -152q-10 -14 -21 -14q-3 0 -11 2l-33 9q-12 4 -12 10q0 4 5 16l64 137q9 17 26 17h85q19 0 19 -8q0 -4 -9 -17z"/>
    <glyph glyph-name="gcommaaccent" unicode="ģ" d="M236 582l113 152q11 14 21 14q3 0 11 -2l33 -9q12 -4 12 -10q0 -4 -5 -16l-64 -137q-9 -17 -26 -17h-85q-19 0 -19 8q0 7 9 17zM519 460q0 -5 -10 -18q-37 -52 -49 -111l-32 -148q-13 -54 -31 -166q-14 -82 -31 -122t-49 -65q-54 -42 -152 -42q-57 0 -118 17.5t-61 33.5 q0 3 3 10l31 73q3 7 8 7q6 0 17 -5q69 -36 127 -36q51 0 79 26q20 20 30 78q11 64 21 92q-72 -85 -147 -85q-57 0 -89.5 43.5t-32.5 119.5q0 70 24.5 143.5t65.5 127.5q59 78 141 78q38 0 61 -11.5t57 -47.5q15 24 31 40.5t24 16.5q3 0 14 -6l61 -33q7 -4 7 -10zM352 385 q-38 37 -75 37q-44 0 -78 -66q-19 -36 -32 -94.5t-13 -103.5q0 -67 47 -67q40 0 78 41q24 27 38 90z"/>
    <glyph glyph-name="Hcircumflex" unicode="Ĥ" horiz-adv-x="611" d="M34 26l137 646q2 9 5 11.5t13 2.5h95q17 0 17 -11q0 -1 -0.5 -2.5t-1 -4.5t-1.5 -8l-53 -251h184l56 263q2 9 5 11.5t13 2.5h95q17 0 17 -11q0 -6 -2 -15l-137 -646q-2 -9 -5 -11.5t-13 -2.5h-98q-15 0 -15 11q0 4 1 7l2 8l58 275h-184l-61 -287q-2 -9 -5 -11.5t-12 -2.5 h-98q-15 0 -15 11q0 3 3 15zM547 792q0 -4 -6 -11l-27 -30q-8 -9 -13 -9t-12 5l-71 53l-94 -52q-12 -7 -17 -7q-7 0 -12 11l-16 30q-7 14 -7 16q0 5 10 12l137 92q11 7 17 7q4 0 11 -7l89 -93q11 -11 11 -17z"/>
    <glyph glyph-name="hcircumflex" unicode="ĥ" d="M480 406q0 -30 -11 -78l-72 -317q-2 -11 -14 -11h-92q-13 0 -13 9q0 4 2 12l65 285q10 43 10 68q0 32 -34 32q-49 0 -86 -50.5t-57 -145.5l-42 -199q-2 -11 -14 -11h-92q-14 0 -14 9q0 2 2 12l142 667q1 8 4 10.5t12 4.5l88 19q9 2 11 2q9 0 9 -10l-1 -11l-44 -210 q-8 -39 -16 -64q47 48 78.5 65t72.5 17q49 0 77.5 -28t28.5 -77zM382 808q0 -4 -6 -11l-27 -30q-8 -9 -13 -9q-4 0 -12 5l-71 53l-94 -52q-12 -7 -17 -7q-6 0 -12 11l-16 30q-7 14 -7 16q0 5 10 12l137 92q11 7 17 7q4 0 11 -7l89 -93q11 -11 11 -17z"/>
    <glyph glyph-name="Hbar" unicode="Ħ" horiz-adv-x="611" d="M615 675q0 -6 -2 -15l-16 -74h59q12 0 12 -7q0 -4 -1 -7l-12 -58q-1 -9 -4.5 -11.5t-12.5 -2.5h-59l-103 -486q-2 -9 -5 -11.5t-13 -2.5h-98q-15 0 -15 11q0 4 1 7l2 8l58 275h-184l-61 -287q-2 -9 -5 -11.5t-12 -2.5h-98q-15 0 -15 11q0 3 3 15l100 474h-58q-12 0 -12 7 q0 4 1 7l12 58q4 14 17 14h59l18 86q2 9 5 11.5t13 2.5h95q17 0 17 -11q0 -1 -0.5 -2.5t-1 -4.5t-1.5 -8l-16 -74h185l18 86q2 9 5 11.5t13 2.5h95q17 0 17 -11zM245 409h184l19 91h-184z"/>
    <glyph glyph-name="hbar" unicode="ħ" d="M480 406q0 -30 -11 -78l-72 -317q-2 -11 -14 -11h-92q-13 0 -13 9q0 4 2 12l65 285q10 43 10 68q0 32 -34 32q-49 0 -86 -50.5t-57 -145.5l-42 -199q-2 -11 -14 -11h-92q-14 0 -14 9q0 2 2 12l115 541h-61q-9 0 -11 2.5t0 11.5l10 47q4 14 17 14h61l11 51q1 8 4 10.5 t12 4.5l88 19q9 2 11 2q9 0 9 -10l-1 -11l-14 -66h125q9 0 11 -2.5t0 -11.5l-10 -47q-1 -9 -4.5 -11.5t-12.5 -2.5h-125l-14 -69q-8 -39 -16 -64q47 48 78.5 65t72.5 17q49 0 77.5 -28t28.5 -77z"/>
    <glyph glyph-name="Itilde" unicode="Ĩ" horiz-adv-x="352" d="M-14 25l12 57q2 9 5 11.5t13 2.5h60l105 494h-58q-14 0 -14 11q0 3 2 14l13 57q2 9 5 11.5t12 2.5h249q13 0 13 -11q0 -2 -2 -14l-12 -57q-2 -9 -5 -11.5t-13 -2.5h-60l-105 -494h58q14 0 14 -11q0 -2 -0.5 -3t-1 -4.5t-1.5 -8.5l-11 -54q-2 -10 -5 -12.5t-13 -2.5h-247 q-15 0 -15 11q0 4 2 14zM444 846q0 -6 -18 -28q-43 -54 -96 -54q-30 0 -63 25q-15 12 -27 12q-21 0 -42 -30q-5 -8 -10 -8q-3 0 -11 6l-34 28q-5 5 -5 9t21 31q38 50 91 50q29 0 66 -23q19 -12 28 -12q21 0 42 29q6 7 9 7q4 0 9 -5l32 -26q8 -6 8 -11z"/>
    <glyph glyph-name="itilde" unicode="ĩ" horiz-adv-x="278" d="M257 485l-1 -12l-99 -462q-2 -11 -14 -11h-92q-13 0 -13 9l1 10l82 386h-76q-14 0 -14 9q0 4 2 12l12 56q2 12 14 12h185q13 0 13 -9zM340 654q0 -5 -18 -28q-43 -54 -96 -54q-30 0 -63 25q-15 12 -27 12q-21 0 -42 -30q-5 -8 -10 -8q-3 0 -11 6l-34 28q-5 5 -5 9t21 31 q38 50 91 50q29 0 66 -23q19 -12 28 -12q21 0 42 29q6 7 9 7q4 0 9 -5l32 -26q8 -6 8 -11z"/>
    <glyph glyph-name="Imacron" unicode="Ī" horiz-adv-x="352" d="M-14 25l12 57q2 9 5 11.5t13 2.5h60l105 494h-58q-14 0 -14 11q0 3 2 14l13 57q2 9 5 11.5t12 2.5h249q13 0 13 -11q0 -2 -2 -14l-12 -57q-2 -9 -5 -11.5t-13 -2.5h-60l-105 -494h58q14 0 14 -11q0 -2 -0.5 -3t-1 -4.5t-1.5 -8.5l-11 -54q-2 -10 -5 -12.5t-13 -2.5h-247 q-15 0 -15 11q0 4 2 14zM418 857q0 -3 -2 -11l-11 -51q-2 -9 -5 -11.5t-13 -2.5h-210q-17 0 -17 10q0 3 3 16l10 48q2 9 4.5 11.5t12.5 2.5h211q17 0 17 -12z"/>
    <glyph glyph-name="imacron" unicode="ī" horiz-adv-x="278" d="M257 485l-1 -12l-99 -462q-2 -11 -14 -11h-92q-13 0 -13 9l1 10l82 386h-76q-14 0 -14 9q0 4 2 12l12 56q2 12 14 12h185q13 0 13 -9zM314 665q0 -3 -2 -11l-11 -51q-2 -9 -5 -11.5t-13 -2.5h-210q-17 0 -17 10q0 3 3 16l10 48q2 9 4.5 11.5t12.5 2.5h211q17 0 17 -12z "/>
    <glyph glyph-name="Ibreve" unicode="Ĭ" horiz-adv-x="352" d="M-14 25l12 57q2 9 5 11.5t13 2.5h60l105 494h-58q-14 0 -14 11q0 3 2 14l13 57q2 9 5 11.5t12 2.5h249q13 0 13 -11q0 -2 -2 -14l-12 -57q-2 -9 -5 -11.5t-13 -2.5h-60l-105 -494h58q14 0 14 -11q0 -2 -0.5 -3t-1 -4.5t-1.5 -8.5l-11 -54q-2 -10 -5 -12.5t-13 -2.5h-247 q-15 0 -15 11q0 4 2 14zM439 879q0 -12 -15 -42q-41 -83 -145 -83q-56 0 -87.5 30.5t-31.5 84.5q0 18 15 19l56 7q9 1 11 1q7 0 7 -9v-7q0 -47 39 -47q43 0 60 48q6 16 12 16q2 0 9 -1l60 -8q10 -2 10 -9z"/>
    <glyph glyph-name="ibreve" unicode="ĭ" horiz-adv-x="278" d="M257 485l-1 -12l-99 -462q-2 -11 -14 -11h-92q-13 0 -13 9l1 10l82 386h-76q-14 0 -14 9q0 4 2 12l12 56q2 12 14 12h185q13 0 13 -9zM335 687q0 -12 -15 -42q-41 -83 -145 -83q-56 0 -87.5 30.5t-31.5 84.5q0 18 15 19l56 7q9 1 11 1q7 0 7 -9v-7q0 -47 39 -47 q43 0 60 48q6 16 12 16q2 0 9 -1l60 -8q10 -2 10 -9z"/>
    <glyph glyph-name="Iogonek" unicode="Į" horiz-adv-x="352" d="M403 675q0 -2 -2 -14l-12 -57q-2 -9 -5 -11.5t-13 -2.5h-60l-105 -494h58q14 0 14 -11q0 -2 -0.5 -3t-1 -4.5t-1.5 -8.5l-11 -54q-2 -10 -5 -12.5t-13 -2.5h-38q-73 -56 -73 -106q0 -18 24 -18q22 0 45 11q9 4 11 4q3 0 6 -7l10 -37l2 -7q1 -2 1 -6q0 -11 -36 -24 t-69 -13q-38 0 -60 18.5t-22 52.5q0 71 93 132h-141q-15 0 -15 11q0 4 2 14l12 57q2 9 5 11.5t13 2.5h60l105 494h-58q-14 0 -14 11q0 3 2 14l13 57q2 9 5 11.5t12 2.5h249q13 0 13 -11z"/>
    <glyph glyph-name="iogonek" unicode="į" horiz-adv-x="278" d="M257 485l-1 -12l-99 -462q-2 -11 -14 -11h-8q-73 -56 -73 -106q0 -18 24 -18q22 0 45 11q9 4 11 4q3 0 6 -7l10 -37l2 -7q1 -2 1 -6q0 -11 -36 -24t-69 -13q-38 0 -60 18.5t-22 52.5q0 71 93 132h-16q-13 0 -13 9l1 10l82 386h-76q-14 0 -14 9q0 4 2 12l12 56q2 12 14 12 h185q13 0 13 -9zM309 644q0 -34 -24.5 -58.5t-58.5 -24.5t-58 24t-24 59q0 34 24 58t59 24q34 0 58 -24.5t24 -57.5z"/>
    <glyph glyph-name="Idotaccent" unicode="İ" horiz-adv-x="352" d="M-14 25l12 57q2 9 5 11.5t13 2.5h60l105 494h-58q-14 0 -14 11q0 3 2 14l13 57q2 9 5 11.5t12 2.5h249q13 0 13 -11q0 -2 -2 -14l-12 -57q-2 -9 -5 -11.5t-13 -2.5h-60l-105 -494h58q14 0 14 -11q0 -2 -0.5 -3t-1 -4.5t-1.5 -8.5l-11 -54q-2 -10 -5 -12.5t-13 -2.5h-247 q-15 0 -15 11q0 4 2 14zM365 826q0 -32 -22.5 -54t-53.5 -22t-53.5 22t-22.5 54t22.5 54t54.5 22q31 0 53 -22.5t22 -53.5z"/>
    <glyph glyph-name="dotlessi" unicode="ı" horiz-adv-x="278" d="M257 485l-1 -12l-99 -462q-2 -11 -14 -11h-92q-13 0 -13 9l1 10l82 386h-76q-14 0 -14 9q0 4 2 12l12 56q2 12 14 12h185q13 0 13 -9z"/>
    <glyph glyph-name="Jcircumflex" unicode="Ĵ" horiz-adv-x="444" d="M5 202h92q11 0 11 -6q0 -4 -1 -6q-6 -26 -6 -43q0 -52 47 -52q30 0 47 21t28 71l86 403h-141q-15 0 -15 11q0 3 2 14l12 57q2 9 5 11.5t13 2.5h256q15 0 15 -11q0 -8 -2 -14l-96 -450q-24 -113 -68 -159q-59 -64 -158 -64q-68 0 -106 37t-38 102q0 75 17 75zM466 790 q0 -4 -6 -11l-27 -30q-8 -9 -13 -9q-4 0 -12 5l-71 53l-94 -52q-12 -7 -17 -7q-6 0 -12 11l-16 30q-7 14 -7 16q0 5 10 12l137 92q11 7 17 7q4 0 11 -7l89 -93q11 -11 11 -17z"/>
    <glyph glyph-name="jcircumflex" unicode="ĵ" horiz-adv-x="278" d="M258 485q0 -3 -2 -12l-99 -463q-17 -79 -31 -116.5t-37 -64.5q-54 -62 -141 -62q-33 0 -66 9t-33 18q0 4 3 10l25 72q3 9 10 9q4 0 19 -7q18 -10 40 -10q41 0 61 39q13 24 30 103l84 395h-76q-14 0 -14 10q0 2 2 11l12 56q2 12 14 12h185q14 0 14 -9zM304 600 q0 -4 -6 -11l-27 -30q-8 -9 -13 -9q-4 0 -12 5l-71 53l-94 -52q-12 -7 -17 -7q-6 0 -12 11l-16 30q-7 14 -7 16q0 5 10 12l137 92q11 7 17 7q4 0 11 -7l89 -93q11 -11 11 -17z"/>
    <glyph glyph-name="Kcommaaccent" unicode="Ķ" horiz-adv-x="556" d="M34 26l137 646q2 9 5 11.5t13 2.5h95q17 0 17 -11l-3 -15l-55 -262l280 289q9 9 14 9q4 0 13 -5l67 -34q11 -5 11 -13q0 -5 -7 -13l-279 -275l171 -304q6 -10 6 -15q0 -7 -12 -12l-91 -38q-9 -4 -14 -4q-6 0 -12 11l-165 321l-64 -301q-2 -9 -5 -11.5t-12 -2.5h-98 q-15 0 -15 11q0 3 3 15zM317 -75l-113 -152q-10 -14 -21 -14q-3 0 -11 2l-33 9q-12 4 -12 10q0 4 5 16l64 137q9 17 26 17h85q19 0 19 -8q0 -4 -9 -17z"/>
    <glyph glyph-name="kcommaaccent" unicode="ķ" horiz-adv-x="482" d="M509 433q0 -4 -9 -12l-195 -157l123 -209q4 -6 4 -8q0 -7 -9 -11l-76 -45q-7 -4 -12 -4q-6 0 -10 8l-141 244l-48 -228q-2 -11 -14 -11h-92q-14 0 -14 9q0 2 2 12l142 667q1 8 4 10.5t12 4.5l88 19q9 2 11 2q9 0 9 -10l-1 -11l-87 -410l242 207q5 5 10 5q3 0 9 -6l46 -54 q6 -7 6 -12zM270 -75l-113 -152q-10 -14 -21 -14q-3 0 -11 2l-33 9q-12 4 -12 10q0 4 5 16l64 137q9 17 26 17h85q19 0 19 -8q0 -4 -9 -17z"/>
    <glyph glyph-name="kgreenlandic" unicode="ĸ" horiz-adv-x="482" d="M18 21l73 334q6 32 6 47q0 26 -4 48q-2 8 -2 11q0 9 10 13l91 32q7 3 10 3q6 0 11.5 -15t7.5 -36t-2 -45l-23 -120l242 207q5 5 10 5q3 0 9 -6l46 -54q6 -7 6 -12q0 -4 -9 -12l-195 -157l123 -209q4 -6 4 -8q0 -7 -9 -11l-76 -45q-7 -4 -12 -4q-6 0 -10 8l-141 244 l-48 -228q-2 -11 -14 -11h-92q-14 0 -14 9q0 2 2 12z"/>
    <glyph glyph-name="Lacute" unicode="Ĺ" horiz-adv-x="463" d="M34 26l137 646q2 9 5 11.5t13 2.5h95q17 0 17 -11q0 -1 -0.5 -2.5t-1 -4.5t-1.5 -8l-114 -541h241q15 0 15 -9q0 -2 -6 -16l-36 -82q-5 -12 -18 -12h-334q-15 0 -15 12q0 2 3 14zM412 825q0 -7 -13 -12l-188 -68q-13 -5 -16 -5q-7 0 -11 12l-13 29q-5 11 -5 16q0 7 11 12 l178 95q11 6 16 6q7 0 12 -12l24 -58q5 -12 5 -15z"/>
    <glyph glyph-name="lacute" unicode="ĺ" horiz-adv-x="278" d="M281 714q0 -5 -2 -11l-111 -522q-10 -47 -10 -63q0 -20 21 -20q9 0 27 4q8 3 11 3q5 0 6 -7l10 -69l1 -5q1 -1 1 -5q0 -10 -33.5 -19.5t-68.5 -9.5q-99 0 -99 83q0 40 14 107l108 507q3 14 16 16l89 19q9 2 11 2q9 0 9 -10zM402 841q0 -7 -13 -12l-188 -68q-13 -5 -16 -5 q-7 0 -11 12l-13 29q-5 11 -5 16q0 7 11 12l178 95q11 6 16 6q7 0 12 -12l24 -58q5 -12 5 -15z"/>
    <glyph glyph-name="Lcommaaccent" unicode="Ļ" horiz-adv-x="463" d="M34 26l137 646q2 9 5 11.5t13 2.5h95q17 0 17 -11q0 -1 -0.5 -2.5t-1 -4.5t-1.5 -8l-114 -541h241q15 0 15 -9q0 -2 -6 -16l-36 -82q-5 -12 -18 -12h-334q-15 0 -15 12q0 2 3 14zM269 -75l-113 -152q-10 -14 -21 -14q-3 0 -11 2l-33 9q-12 4 -12 10q0 4 5 16l64 137 q9 17 26 17h85q19 0 19 -8q0 -4 -9 -17z"/>
    <glyph glyph-name="lcommaaccent" unicode="ļ" horiz-adv-x="278" d="M281 714q0 -5 -2 -11l-111 -522q-10 -47 -10 -63q0 -20 21 -20q9 0 27 4q8 3 11 3q5 0 6 -7l10 -69l1 -5q1 -1 1 -5q0 -10 -33.5 -19.5t-68.5 -9.5q-99 0 -99 83q0 40 14 107l108 507q3 14 16 16l89 19q9 2 11 2q9 0 9 -10zM167 -75l-113 -152q-10 -14 -21 -14 q-3 0 -11 2l-33 9q-12 4 -12 10q0 4 5 16l64 137q9 17 26 17h85q19 0 19 -8q0 -4 -9 -17z"/>
    <glyph glyph-name="Lcaron" unicode="Ľ" horiz-adv-x="463" d="M34 26l137 646q2 9 5 11.5t13 2.5h95q17 0 17 -11q0 -1 -0.5 -2.5t-1 -4.5t-1.5 -8l-114 -541h241q15 0 15 -9q0 -2 -6 -16l-36 -82q-5 -12 -18 -12h-334q-15 0 -15 12q0 2 3 14zM409 853q0 -6 -9 -12l-138 -92q-13 -8 -17 -8t-11 8l-90 93q-10 11 -10 16t6 12l27 30 q8 9 13 9q4 0 12 -5l71 -53l95 52q13 7 16 7q5 0 12 -11l16 -30q7 -10 7 -16z"/>
    <glyph glyph-name="lcaron" unicode="ľ" horiz-adv-x="278" d="M281 714q0 -5 -2 -11l-111 -522q-10 -47 -10 -63q0 -20 21 -20q9 0 27 4q8 3 11 3q5 0 6 -7l10 -69l1 -5q1 -1 1 -5q0 -10 -33.5 -19.5t-68.5 -9.5q-99 0 -99 83q0 40 14 107l108 507q3 14 16 16l89 19q9 2 11 2q9 0 9 -10zM493 683l-113 -152q-10 -14 -21 -14 q-3 0 -11 2l-33 9q-12 4 -12 10q0 4 5 16l64 137q9 17 26 17h85q19 0 19 -8q0 -4 -9 -17z"/>
    <glyph glyph-name="Ldot" unicode="Ŀ" horiz-adv-x="463" d="M34 26l137 646q2 9 5 11.5t13 2.5h95q17 0 17 -11q0 -1 -0.5 -2.5t-1 -4.5t-1.5 -8l-114 -541h241q15 0 15 -9q0 -2 -6 -16l-36 -82q-5 -12 -18 -12h-334q-15 0 -15 12q0 2 3 14zM480 362q0 -32 -22 -54t-54 -22t-54 22t-22 54t22.5 54t54.5 22q31 0 53 -22.5t22 -53.5z "/>
    <glyph glyph-name="ldot" unicode="ŀ" horiz-adv-x="447" d="M281 714q0 -5 -2 -11l-111 -522q-10 -47 -10 -63q0 -20 21 -20q9 0 27 4q8 3 11 3q5 0 6 -7l10 -69l1 -5q1 -1 1 -5q0 -10 -33.5 -19.5t-68.5 -9.5q-99 0 -99 83q0 40 14 107l108 507q3 14 16 16l89 19q9 2 11 2q9 0 9 -10zM447 362q0 -32 -22.5 -54t-53.5 -22t-53.5 22 t-22.5 54t22.5 54t54.5 22q31 0 53 -22.5t22 -53.5z"/>
    <glyph glyph-name="Lslash" unicode="Ł" horiz-adv-x="463" d="M440 108q0 -6 -4 -14l-37 -82q-4 -8 -6.5 -10t-11.5 -2h-334q-15 0 -15 11q0 2 3 15l57 271l-63 -29q-6 -3 -12 -3q-8 0 -8 8q0 3 2 12l9 46q3 11 14 16l76 36l62 289q2 9 5 11.5t13 2.5h95q17 0 17 -11q0 -1 -0.5 -3t-1 -5.5t-0.5 -6.5l-47 -218l118 54q9 3 13 3 q8 0 8 -9q0 -3 -2 -11l-9 -44q-2 -13 -16 -19l-130 -59l-50 -238h241q14 0 14 -11z"/>
    <glyph glyph-name="lslash" unicode="ł" horiz-adv-x="296" d="M348 487q0 -9 -1 -12l-9 -43q-3 -10 -13 -15l-96 -44l-41 -192q-10 -50 -10 -63q0 -20 21 -20q9 0 27 4q8 3 11 3q5 0 6 -7l10 -69l1 -10q0 -10 -34 -19.5t-68 -9.5q-98 0 -98 83q0 40 14 107l29 139l-71 -32q-12 -5 -16 -5q-8 0 -8 9q0 6 2 12l9 41q1 12 13 17l89 40 l61 287q2 13 16 15l88 19q9 2 12 2q9 0 9 -9q0 -4 -2 -12l-53 -248l79 36q11 5 16 5q7 0 7 -9z"/>
    <glyph glyph-name="Nacute" unicode="Ń" horiz-adv-x="611" d="M618 675q0 -10 -2 -14l-137 -647q-2 -9 -5 -11.5t-13 -2.5h-64q-10 0 -12.5 2t-5.5 11l-115 363q-6 18 -25 92q-7 -53 -18 -105l-74 -349q-2 -9 -5 -11.5t-13 -2.5h-88q-12 0 -12 11q0 3 2 14l138 647q2 9 5 11.5t12 2.5h72q9 0 12 -2t6 -11l106 -331q7 -23 12 -38 l18 -66q7 52 20 109l69 325q2 9 5 11.5t12 2.5h88q12 0 12 -11zM565 825q0 -7 -13 -12l-188 -68q-13 -5 -16 -5q-7 0 -11 12l-13 29q-5 11 -5 16q0 7 11 12l178 95q11 6 16 6q8 0 12 -12l24 -58q5 -12 5 -15z"/>
    <glyph glyph-name="nacute" unicode="ń" d="M479 406q0 -34 -10 -78l-72 -317q-2 -11 -14 -11h-92q-14 0 -14 10q0 3 3 11l64 285q11 50 11 68q0 32 -34 32q-48 0 -84 -50t-56 -142l-43 -203q-2 -11 -14 -11h-92q-14 0 -14 10q0 3 2 11l71 310q10 45 10 76q0 23 -5 44q-1 4 -1 10q0 8 12 13l77 33q6 2 7 2 q9 0 15.5 -23t6.5 -53q0 -13 -1 -26q76 104 165 104q47 0 74.5 -28t27.5 -77zM479 633q0 -7 -13 -12l-188 -68q-13 -5 -16 -5q-7 0 -11 12l-13 29q-5 11 -5 16q0 7 11 12l178 95q11 6 16 6q8 0 12 -12l24 -58q5 -12 5 -15z"/>
    <glyph glyph-name="Ncommaaccent" unicode="Ņ" horiz-adv-x="611" d="M618 675q0 -10 -2 -14l-137 -647q-2 -9 -5 -11.5t-13 -2.5h-64q-10 0 -12.5 2t-5.5 11l-115 363q-6 18 -25 92q-7 -53 -18 -105l-74 -349q-2 -9 -5 -11.5t-13 -2.5h-88q-12 0 -12 11q0 3 2 14l138 647q2 9 5 11.5t12 2.5h72q9 0 12 -2t6 -11l106 -331q7 -23 12 -38 l18 -66q7 52 20 109l69 325q2 9 5 11.5t12 2.5h88q12 0 12 -11zM318 -75l-113 -152q-10 -14 -21 -14q-3 0 -11 2l-33 9q-12 4 -12 10q0 4 5 16l64 137q9 17 26 17h85q19 0 19 -8q0 -4 -9 -17z"/>
    <glyph glyph-name="ncommaaccent" unicode="ņ" d="M479 406q0 -34 -10 -78l-72 -317q-2 -11 -14 -11h-92q-14 0 -14 10q0 3 3 11l64 285q11 50 11 68q0 32 -34 32q-48 0 -84 -50t-56 -142l-43 -203q-2 -11 -14 -11h-92q-14 0 -14 10q0 3 2 11l71 310q10 45 10 76q0 23 -5 44q-1 4 -1 10q0 8 12 13l77 33q6 2 7 2 q9 0 15.5 -23t6.5 -53q0 -13 -1 -26q76 104 165 104q47 0 74.5 -28t27.5 -77zM253 -75l-113 -152q-10 -14 -21 -14q-3 0 -11 2l-33 9q-12 4 -12 10q0 4 5 16l64 137q9 17 26 17h85q19 0 19 -8q0 -4 -9 -17z"/>
    <glyph glyph-name="Ncaron" unicode="Ň" horiz-adv-x="611" d="M618 675q0 -10 -2 -14l-137 -647q-2 -9 -5 -11.5t-13 -2.5h-64q-10 0 -12.5 2t-5.5 11l-115 363q-6 18 -25 92q-7 -53 -18 -105l-74 -349q-2 -9 -5 -11.5t-13 -2.5h-88q-12 0 -12 11q0 3 2 14l138 647q2 9 5 11.5t12 2.5h72q9 0 12 -2t6 -11l106 -331q7 -23 12 -38 l18 -66q7 52 20 109l69 325q2 9 5 11.5t12 2.5h88q12 0 12 -11zM562 853q0 -6 -9 -12l-138 -92q-13 -8 -17 -8t-11 8l-90 93q-10 11 -10 16t6 12l27 30q8 9 13 9t12 -5l71 -53l95 52q13 7 16 7q5 0 12 -11l16 -30q7 -10 7 -16z"/>
    <glyph glyph-name="ncaron" unicode="ň" d="M479 406q0 -34 -10 -78l-72 -317q-2 -11 -14 -11h-92q-14 0 -14 10q0 3 3 11l64 285q11 50 11 68q0 32 -34 32q-48 0 -84 -50t-56 -142l-43 -203q-2 -11 -14 -11h-92q-14 0 -14 10q0 3 2 11l71 310q10 45 10 76q0 23 -5 44q-1 4 -1 10q0 8 12 13l77 33q6 2 7 2 q9 0 15.5 -23t6.5 -53q0 -13 -1 -26q76 104 165 104q47 0 74.5 -28t27.5 -77zM476 661q0 -6 -9 -12l-138 -92q-13 -8 -17 -8t-11 8l-90 93q-10 11 -10 16t6 12l27 30q8 9 13 9t12 -5l71 -53l95 52q13 7 16 7q5 0 12 -11l16 -30q7 -10 7 -16z"/>
    <glyph glyph-name="Eng" unicode="Ŋ" horiz-adv-x="611" d="M369 44l-105 332q-6 18 -25 92q-7 -53 -18 -105l-74 -349q-2 -9 -5 -11.5t-13 -2.5h-88q-12 0 -12 11q0 3 2 14l138 647q2 9 5 11.5t12 2.5h72q9 0 12 -2t6 -11l106 -331q7 -23 12 -38l18 -66q7 52 20 109l69 325q2 9 5 11.5t12 2.5h88q12 0 12 -11q0 -10 -2 -14 l-137 -647q-16 -77 -30 -112t-38 -63q-54 -62 -138 -62q-33 0 -66 9t-33 18q0 4 3 10l25 72q3 9 10 9q4 0 19 -7q18 -10 40 -10q41 0 61 39q18 35 30 93z"/>
    <glyph glyph-name="eng" unicode="ŋ" d="M280 21l64 285q11 50 11 68q0 32 -34 32q-48 0 -84 -50t-56 -142l-43 -203q-2 -11 -14 -11h-92q-14 0 -14 10q0 3 2 11l71 310q10 45 10 76q0 23 -5 44q-1 4 -1 10q0 8 12 13l77 33q6 2 7 2q9 0 15.5 -23t6.5 -53q0 -13 -1 -26q76 104 165 104q47 0 74.5 -28t27.5 -77 q0 -34 -10 -78l-69 -304q-30 -134 -72.5 -190.5t-134.5 -56.5q-33 0 -67 9t-34 18q0 4 3 10l25 72q3 9 10 9q4 0 19 -7q18 -10 40 -10q38 0 58 39q16 31 33 103v1z"/>
    <glyph glyph-name="Omacron" unicode="Ō" horiz-adv-x="574" d="M564 498q0 -111 -34 -226t-87 -183q-84 -106 -211 -106q-90 0 -138 53t-48 153q0 111 34 226t87 182q82 106 213 106q88 0 136 -53.5t48 -151.5zM428 493q0 58 -15 82t-50 24q-65 0 -116 -101q-29 -58 -47 -143.5t-18 -162.5q0 -56 15 -80.5t49 -24.5q66 0 116 100 q28 56 47 143t19 163zM531 857q0 -3 -2 -11l-11 -51q-2 -9 -5 -11.5t-13 -2.5h-210q-17 0 -17 10q0 3 3 16l10 48q2 9 4.5 11.5t12.5 2.5h211q17 0 17 -12z"/>
    <glyph glyph-name="omacron" unicode="ō" horiz-adv-x="500" d="M469 333q0 -75 -26.5 -147.5t-72.5 -124.5q-69 -78 -179 -78q-81 0 -124.5 45.5t-43.5 130.5q0 75 25.5 146.5t70.5 122.5q74 83 186 83q77 0 120.5 -47.5t43.5 -130.5zM343 343q0 70 -63 70q-53 0 -85 -62q-18 -34 -32 -94t-14 -102q0 -74 60 -74q59 0 91 66 q17 36 30 95.5t13 100.5zM449 665q0 -3 -2 -11l-11 -51q-2 -9 -5 -11.5t-13 -2.5h-210q-17 0 -17 10q0 3 3 16l10 48q2 9 4.5 11.5t12.5 2.5h211q17 0 17 -12z"/>
    <glyph glyph-name="Obreve" unicode="Ŏ" horiz-adv-x="574" d="M564 498q0 -111 -34 -226t-87 -183q-84 -106 -211 -106q-90 0 -138 53t-48 153q0 111 34 226t87 182q82 106 213 106q88 0 136 -53.5t48 -151.5zM428 493q0 58 -15 82t-50 24q-65 0 -116 -101q-29 -58 -47 -143.5t-18 -162.5q0 -56 15 -80.5t49 -24.5q66 0 116 100 q28 56 47 143t19 163zM542 879q0 -12 -15 -42q-41 -83 -145 -83q-56 0 -87.5 30.5t-31.5 84.5q0 18 15 19l56 7q9 1 11 1q7 0 7 -9v-7q0 -47 39 -47q43 0 60 48q6 16 12 16q2 0 9 -1l60 -8q10 -2 10 -9z"/>
    <glyph glyph-name="obreve" unicode="ŏ" horiz-adv-x="500" d="M469 333q0 -75 -26.5 -147.5t-72.5 -124.5q-69 -78 -179 -78q-81 0 -124.5 45.5t-43.5 130.5q0 75 25.5 146.5t70.5 122.5q74 83 186 83q77 0 120.5 -47.5t43.5 -130.5zM343 343q0 70 -63 70q-53 0 -85 -62q-18 -34 -32 -94t-14 -102q0 -74 60 -74q59 0 91 66 q17 36 30 95.5t13 100.5zM470 687q0 -12 -15 -42q-41 -83 -145 -83q-56 0 -87.5 30.5t-31.5 84.5q0 18 15 19l56 7q9 1 11 1q7 0 7 -9v-7q0 -47 39 -47q43 0 60 48q6 16 12 16q2 0 9 -1l60 -8q10 -2 10 -9z"/>
    <glyph glyph-name="Ohungarumlaut" unicode="Ő" horiz-adv-x="574" d="M564 498q0 -111 -34 -226t-87 -183q-84 -106 -211 -106q-90 0 -138 53t-48 153q0 111 34 226t87 182q82 106 213 106q88 0 136 -53.5t48 -151.5zM428 493q0 58 -15 82t-50 24q-65 0 -116 -101q-29 -58 -47 -143.5t-18 -162.5q0 -56 15 -80.5t49 -24.5q66 0 116 100 q28 56 47 143t19 163zM641 868q0 -6 -8 -12l-138 -122q-6 -6 -12 -6q-5 0 -12 7l-17 17q-8 8 -8 12t9 15l116 136q8 8 13 8t12 -7l38 -36q7 -7 7 -12zM483 868q0 -5 -8 -12l-138 -122q-6 -6 -12 -6q-5 0 -12 7l-18 17q-7 7 -7 12t8 15l117 136q8 8 12 8q6 0 12 -7l38 -36 q8 -7 8 -12z"/>
    <glyph glyph-name="ohungarumlaut" unicode="ő" horiz-adv-x="500" d="M469 333q0 -75 -26.5 -147.5t-72.5 -124.5q-69 -78 -179 -78q-81 0 -124.5 45.5t-43.5 130.5q0 75 25.5 146.5t70.5 122.5q74 83 186 83q77 0 120.5 -47.5t43.5 -130.5zM343 343q0 70 -63 70q-53 0 -85 -62q-18 -34 -32 -94t-14 -102q0 -74 60 -74q59 0 91 66 q17 36 30 95.5t13 100.5zM569 676q0 -6 -8 -12l-138 -122q-6 -6 -12 -6q-5 0 -12 7l-17 17q-8 8 -8 12t9 15l116 136q8 8 13 8t12 -7l38 -36q7 -7 7 -12zM411 676q0 -5 -8 -12l-138 -122q-6 -6 -12 -6q-5 0 -12 7l-18 17q-7 7 -7 12t8 15l117 136q8 8 12 8q6 0 12 -7l38 -36 q8 -7 8 -12z"/>
    <glyph glyph-name="OE" unicode="Œ" horiz-adv-x="759" d="M819 678q0 -4 -6 -17l-35 -70q-6 -11 -20 -11h-195l-36 -169h166q17 0 17 -11q0 -1 -0.5 -3t-1 -5t-0.5 -6l-15 -67q-2 -9 -5 -11.5t-12 -2.5h-171l-43 -199h208q17 0 17 -12q0 -2 -2 -14l-14 -65q-2 -10 -5 -12.5t-13 -2.5h-329q-45 -17 -93 -17q-88 0 -136 54t-48 152 q0 110 33.5 224.5t86.5 182.5q83 107 207 107q47 0 88 -17h341q16 0 16 -8zM430 567q-39 32 -69 32q-63 0 -112 -98q-29 -57 -47.5 -145t-18.5 -165q0 -55 14.5 -79.5t47.5 -24.5q41 0 90 31z"/>
    <glyph glyph-name="oe" unicode="œ" horiz-adv-x="759" d="M752 379q0 -64 -43 -110.5t-118 -66.5q-58 -14 -149 -14q-2 -8 -2 -22q0 -85 85 -85q27 0 49.5 7.5t68.5 30.5q7 4 13 4q5 0 9 -8l24 -62q2 -6 2 -8q0 -6 -14 -14q-79 -48 -184 -48q-52 0 -82 13.5t-59 50.5q-75 -64 -162 -64q-80 0 -122.5 46t-42.5 133q0 73 25.5 143 t70.5 123q72 83 180 83q47 0 75.5 -15t57.5 -53q72 68 168 68q71 0 110.5 -35t39.5 -97zM641 372q0 50 -57 50q-48 0 -81 -36t-46 -104q93 0 134 19q50 23 50 71zM343 342q0 71 -60 71q-55 0 -87 -63q-17 -35 -31 -94t-14 -101q0 -74 60 -74q56 0 88 66q18 36 31 94.5 t13 100.5z"/>
    <glyph glyph-name="Racute" unicode="Ŕ" horiz-adv-x="537" d="M544 529q0 -49 -20.5 -98.5t-52.5 -78.5q-25 -24 -88 -54l95 -263q4 -10 4 -14q0 -8 -12 -11l-97 -26q-9 -2 -12 -2q-7 0 -11 14l-85 285h-51l-56 -267q-2 -9 -5 -11.5t-13 -2.5h-94q-15 0 -15 11q0 3 3 15l137 646q2 9 5 11.5t13 2.5h143q112 0 159 -37q53 -42 53 -120z M412 517q0 41 -26 57q-19 10 -67 10h-40l-42 -197h36q71 0 102 31q16 16 26.5 44t10.5 55zM523 825q0 -7 -13 -12l-188 -68q-13 -5 -16 -5q-7 0 -11 12l-13 29q-5 11 -5 16q0 7 11 12l178 95q11 6 16 6q8 0 12 -12l24 -58q5 -12 5 -15z"/>
    <glyph glyph-name="racute" unicode="ŕ" horiz-adv-x="352" d="M403 493q0 -2 -3 -8l-42 -101q-2 -6 -6 -6q-2 0 -8 2q-15 5 -26 5q-45 0 -81.5 -47.5t-53.5 -128.5l-42 -197q-2 -12 -14 -12h-92q-14 0 -14 10q0 2 2 12l64 299q12 54 12 87q0 18 -5 41l-1 12q0 9 10 12l79 34q6 2 8 2q8 0 14.5 -24.5t6.5 -56.5q0 -17 -2 -31 q33 51 55 70q41 39 94 39q45 0 45 -13zM419 633q0 -7 -13 -12l-188 -68q-13 -5 -16 -5q-7 0 -11 12l-13 29q-5 11 -5 16q0 7 11 12l178 95q10 6 16 6q8 0 12 -12l24 -58q5 -12 5 -15z"/>
    <glyph glyph-name="Rcommaaccent" unicode="Ŗ" horiz-adv-x="537" d="M544 529q0 -49 -20.5 -98.5t-52.5 -78.5q-25 -24 -88 -54l95 -263q4 -10 4 -14q0 -8 -12 -11l-97 -26q-9 -2 -12 -2q-7 0 -11 14l-85 285h-51l-56 -267q-2 -9 -5 -11.5t-13 -2.5h-94q-15 0 -15 11q0 3 3 15l137 646q2 9 5 11.5t13 2.5h143q112 0 159 -37q53 -42 53 -120z M412 517q0 41 -26 57q-19 10 -67 10h-40l-42 -197h36q71 0 102 31q16 16 26.5 44t10.5 55zM300 -75l-113 -152q-10 -14 -21 -14q-3 0 -11 2l-33 9q-12 4 -12 10q0 4 5 16l64 137q9 17 26 17h85q19 0 19 -8q0 -4 -9 -17z"/>
    <glyph glyph-name="rcommaaccent" unicode="ŗ" horiz-adv-x="352" d="M403 493q0 -2 -3 -8l-42 -101q-2 -6 -6 -6q-2 0 -8 2q-15 5 -26 5q-45 0 -81.5 -47.5t-53.5 -128.5l-42 -197q-2 -12 -14 -12h-92q-14 0 -14 10q0 2 2 12l64 299q12 54 12 87q0 18 -5 41l-1 12q0 9 10 12l79 34q6 2 8 2q8 0 14.5 -24.5t6.5 -56.5q0 -17 -2 -31 q33 51 55 70q41 39 94 39q45 0 45 -13zM141 -75l-113 -152q-10 -14 -21 -14q-3 0 -11 2l-33 9q-12 4 -12 10q0 4 5 16l64 137q9 17 26 17h85q19 0 19 -8q0 -4 -9 -17z"/>
    <glyph glyph-name="Rcaron" unicode="Ř" horiz-adv-x="537" d="M544 529q0 -49 -20.5 -98.5t-52.5 -78.5q-25 -24 -88 -54l95 -263q4 -10 4 -14q0 -8 -12 -11l-97 -26q-9 -2 -12 -2q-7 0 -11 14l-85 285h-51l-56 -267q-2 -9 -5 -11.5t-13 -2.5h-94q-15 0 -15 11q0 3 3 15l137 646q2 9 5 11.5t13 2.5h143q112 0 159 -37q53 -42 53 -120z M412 517q0 41 -26 57q-19 10 -67 10h-40l-42 -197h36q71 0 102 31q16 16 26.5 44t10.5 55zM520 853q0 -6 -9 -12l-138 -92q-13 -8 -17 -8t-11 8l-90 93q-10 11 -10 16t6 12l27 30q8 9 13 9t12 -5l71 -53l95 52q13 7 16 7q5 0 12 -11l16 -30q7 -10 7 -16z"/>
    <glyph glyph-name="rcaron" unicode="ř" horiz-adv-x="352" d="M403 493q0 -2 -3 -8l-42 -101q-2 -6 -6 -6q-2 0 -8 2q-15 5 -26 5q-45 0 -81.5 -47.5t-53.5 -128.5l-42 -197q-2 -12 -14 -12h-92q-14 0 -14 10q0 2 2 12l64 299q12 54 12 87q0 18 -5 41l-1 12q0 9 10 12l79 34q6 2 8 2q8 0 14.5 -24.5t6.5 -56.5q0 -17 -2 -31 q33 51 55 70q41 39 94 39q45 0 45 -13zM426 661q0 -6 -9 -12l-138 -92q-13 -8 -17 -8t-11 8l-90 93q-10 11 -10 16t6 12l27 30q8 9 13 9t12 -5l71 -53l95 52q13 7 16 7q5 0 12 -11l16 -30q7 -10 7 -16z"/>
    <glyph glyph-name="Sacute" unicode="Ś" horiz-adv-x="500" d="M521 649q0 -3 -5 -12l-41 -78q-3 -7 -10 -7q-8 0 -26 10q-57 31 -109 31q-49 0 -77 -24.5t-28 -66.5q0 -37 28 -61q17 -15 87 -59q61 -38 85.5 -74t24.5 -89q0 -104 -72.5 -168.5t-187.5 -64.5q-84 0 -174 40q-19 8 -19 15q0 2 2 7l43 82q6 11 11 11t43 -19 q52 -25 106 -25q52 0 81.5 25t29.5 69q0 33 -17 53.5t-74 57.5q-62 40 -86 62q-44 42 -44 118q0 102 68 160t188 58q39 0 83.5 -9.5t67.5 -23.5q16 -10 19 -12t3 -6zM521 825q0 -7 -13 -12l-188 -68q-13 -5 -16 -5q-7 0 -11 12l-13 29q-5 11 -5 16q0 7 11 12l178 95 q11 6 16 6q8 0 12 -12l24 -58q5 -12 5 -15z"/>
    <glyph glyph-name="sacute" unicode="ś" horiz-adv-x="389" d="M374 468q0 -3 -4 -15l-17 -50q-4 -10 -14 -10q-5 0 -15 5q-44 21 -81 21q-33 0 -53 -16.5t-20 -43.5q0 -23 15 -36q9 -8 59 -31q61 -28 82 -55t21 -77q0 -81 -51.5 -129t-139.5 -48q-74 0 -147 31q-21 9 -21 16l2 10l21 62q3 8 9 8q5 0 45 -16q44 -19 85 -19 q39 0 61 17.5t22 48.5q0 20 -10 30t-49 29q-73 35 -95 61t-22 75q0 78 52 126.5t135 48.5q45 0 87.5 -14t42.5 -29zM419 633q0 -7 -13 -12l-188 -68q-13 -5 -16 -5q-7 0 -11 12l-13 29q-5 11 -5 16q0 7 11 12l178 95q10 6 16 6q8 0 12 -12l24 -58q5 -12 5 -15z"/>
    <glyph glyph-name="Scircumflex" unicode="Ŝ" horiz-adv-x="500" d="M521 649q0 -3 -5 -12l-41 -78q-3 -7 -10 -7q-8 0 -26 10q-57 31 -109 31q-49 0 -77 -24.5t-28 -66.5q0 -37 28 -61q17 -15 87 -59q61 -38 85.5 -74t24.5 -89q0 -104 -72.5 -168.5t-187.5 -64.5q-84 0 -174 40q-19 8 -19 15q0 2 2 7l43 82q6 11 11 11t43 -19 q52 -25 106 -25q52 0 81.5 25t29.5 69q0 33 -17 53.5t-74 57.5q-62 40 -86 62q-44 42 -44 118q0 102 68 160t188 58q39 0 83.5 -9.5t67.5 -23.5q16 -10 19 -12t3 -6zM505 792q0 -4 -6 -11l-27 -30q-8 -9 -13 -9t-12 5l-71 53l-94 -52q-12 -7 -17 -7q-7 0 -12 11l-16 30 q-7 14 -7 16q0 5 10 12l137 92q11 7 17 7q4 0 11 -7l89 -93q11 -11 11 -17z"/>
    <glyph glyph-name="scircumflex" unicode="ŝ" horiz-adv-x="389" d="M374 468q0 -3 -4 -15l-17 -50q-4 -10 -14 -10q-5 0 -15 5q-44 21 -81 21q-33 0 -53 -16.5t-20 -43.5q0 -23 15 -36q9 -8 59 -31q61 -28 82 -55t21 -77q0 -81 -51.5 -129t-139.5 -48q-74 0 -147 31q-21 9 -21 16l2 10l21 62q3 8 9 8q5 0 45 -16q44 -19 85 -19 q39 0 61 17.5t22 48.5q0 20 -10 30t-49 29q-73 35 -95 61t-22 75q0 78 52 126.5t135 48.5q45 0 87.5 -14t42.5 -29zM403 600q0 -4 -6 -11l-27 -30q-8 -9 -13 -9t-12 5l-71 53l-94 -52q-12 -7 -17 -7q-7 0 -12 11l-16 30q-7 14 -7 16q0 5 10 12l137 92q11 7 17 7q4 0 11 -7 l89 -93q11 -11 11 -17z"/>
    <glyph glyph-name="Scedilla" unicode="Ş" horiz-adv-x="500" d="M275 -119q0 -46 -31 -73.5t-81 -27.5q-35 0 -58 5.5t-23 13.5q0 5 2 11l12 38q1 7 6 7q2 0 13 -4q12 -6 30 -6q36 0 36 28q0 11 -7 15.5t-30 6.5q-19 1 -19 7q0 1 2 11l24 75q-66 7 -135 38q-19 8 -19 15q0 2 2 7l43 82q6 11 11 11t43 -19q52 -25 106 -25q52 0 81.5 25 t29.5 69q0 33 -17 53.5t-74 57.5q-62 40 -86 62q-44 42 -44 118q0 102 68 160t188 58q39 0 83.5 -9.5t67.5 -23.5q16 -10 19 -12t3 -6q0 -3 -5 -12l-41 -78q-3 -7 -10 -7q-8 0 -26 10q-57 31 -109 31q-49 0 -77 -24.5t-28 -66.5q0 -37 28 -61q17 -15 87 -59q61 -38 85.5 -74 t24.5 -89q0 -94 -61 -157t-160 -74l-12 -44q58 -6 58 -63z"/>
    <glyph glyph-name="scedilla" unicode="ş" horiz-adv-x="389" d="M230 -119q0 -46 -31 -73.5t-81 -27.5q-35 0 -58 5.5t-23 13.5q0 5 2 11l12 38q1 7 6 7q2 0 13 -4q12 -6 30 -6q36 0 36 28q0 11 -7 15.5t-30 6.5q-19 1 -19 7q0 1 2 11l23 74q-44 6 -96 27q-21 9 -21 16l2 10l21 62q3 8 9 8q5 0 45 -16q44 -19 85 -19q39 0 61 17.5 t22 48.5q0 20 -10 30t-49 29q-73 35 -95 61t-22 75q0 78 52 126.5t135 48.5q45 0 87.5 -14t42.5 -29q0 -3 -4 -15l-17 -50q-4 -10 -14 -10q-5 0 -15 5q-44 21 -81 21q-33 0 -53 -16.5t-20 -43.5q0 -23 15 -36q9 -8 59 -31q61 -28 82 -55t21 -77q0 -75 -44 -121.5t-120 -54.5 l-11 -40q58 -6 58 -63z"/>
    <glyph glyph-name="Scaron" unicode="Š" horiz-adv-x="500" d="M519 843q0 -8 -10 -12l-147 -81q-15 -8 -17 -8q-4 0 -11 7l-93 83q-11 10 -11 16q0 5 7 12l26 31q8 9 14 9q7 0 12 -4l75 -42l102 42q13 5 17 5q5 0 12 -11l17 -31q7 -12 7 -16zM521 649q0 -3 -5 -12l-41 -78q-3 -7 -10 -7q-8 0 -26 10q-57 31 -109 31q-49 0 -77 -24.5 t-28 -66.5q0 -37 28 -61q17 -15 87 -59q61 -38 85.5 -74t24.5 -89q0 -104 -72.5 -168.5t-187.5 -64.5q-84 0 -174 40q-19 8 -19 15q0 2 2 7l43 82q6 11 11 11t43 -19q52 -25 106 -25q52 0 81.5 25t29.5 69q0 33 -17 53.5t-74 57.5q-62 40 -86 62q-44 42 -44 118 q0 102 68 160t188 58q39 0 83.5 -9.5t67.5 -23.5q16 -10 19 -12t3 -6z"/>
    <glyph glyph-name="scaron" unicode="š" horiz-adv-x="389" d="M421 661q0 -6 -9 -12l-138 -92q-13 -8 -17 -8t-11 8l-90 93q-10 11 -10 16t6 12l27 30q8 9 13 9q4 0 12 -5l71 -53l95 52q13 7 16 7q5 0 12 -11l16 -30q7 -10 7 -16zM374 468q0 -3 -4 -15l-17 -50q-4 -10 -14 -10q-5 0 -15 5q-44 21 -81 21q-33 0 -53 -16.5t-20 -43.5 q0 -23 15 -36q9 -8 59 -31q61 -28 82 -55t21 -77q0 -81 -51.5 -129t-139.5 -48q-74 0 -147 31q-21 9 -21 16l2 10l21 62q3 8 9 8q5 0 45 -16q44 -19 85 -19q39 0 61 17.5t22 48.5q0 20 -10 30t-49 29q-73 35 -95 61t-22 75q0 78 52 126.5t135 48.5q45 0 87.5 -14t42.5 -29z "/>
    <glyph glyph-name="Tcedilla" unicode="Ţ" horiz-adv-x="426" d="M533 677q0 -3 -6 -16l-39 -80q-5 -12 -19 -12h-127l-117 -555q-2 -9 -5 -11.5t-13 -2.5h-97q-15 0 -15 12q0 6 2 14l115 543h-130q-14 0 -14 11q0 5 2 14l17 77q2 10 5 12.5t12 2.5h414q15 0 15 -9zM214 -75l-113 -152q-10 -14 -21 -14q-3 0 -11 2l-33 9q-12 4 -12 10 q0 4 5 16l64 137q9 17 26 17h85q19 0 19 -8q0 -4 -9 -17z"/>
    <glyph glyph-name="tcedilla" unicode="ţ" horiz-adv-x="370" d="M406 485q0 -1 -4 -14l-19 -56q-4 -10 -15 -10h-128l-50 -238q-6 -32 -6 -49q0 -35 40 -35q39 0 77 18q10 5 13 5q6 0 7 -7l15 -62l1 -4q1 -3 1 -6q0 -13 -57.5 -28.5t-103.5 -15.5q-119 0 -119 102q0 23 8 63l54 257h-66q-14 0 -14 10q0 3 2 12l12 55q2 12 14 12h71 l27 124q1 11 13 12l89 13q10 1 12 1q8 0 8 -9l-1 -14l-28 -127h133q14 0 14 -9zM234 -75l-113 -152q-10 -14 -21 -14q-3 0 -11 2l-33 9q-12 4 -12 10q0 4 5 16l64 137q9 17 26 17h85q19 0 19 -8q0 -4 -9 -17z"/>
    <glyph glyph-name="Tcaron" unicode="Ť" horiz-adv-x="426" d="M533 677q0 -3 -6 -16l-39 -80q-5 -12 -19 -12h-127l-117 -555q-2 -9 -5 -11.5t-13 -2.5h-97q-15 0 -15 12q0 6 2 14l115 543h-130q-14 0 -14 11q0 5 2 14l17 77q2 10 5 12.5t12 2.5h414q15 0 15 -9zM468 853q0 -6 -9 -12l-138 -92q-13 -8 -17 -8t-11 8l-90 93 q-10 11 -10 16t6 12l27 30q8 9 13 9t12 -5l71 -53l95 52q13 7 16 7q5 0 12 -11l16 -30q7 -10 7 -16z"/>
    <glyph glyph-name="tcaron" unicode="ť" horiz-adv-x="370" d="M406 485q0 -1 -4 -14l-19 -56q-4 -10 -15 -10h-128l-50 -238q-6 -32 -6 -49q0 -35 40 -35q39 0 77 18q10 5 13 5q6 0 7 -7l15 -62l1 -4q1 -3 1 -6q0 -13 -57.5 -28.5t-103.5 -15.5q-119 0 -119 102q0 23 8 63l54 257h-66q-14 0 -14 10q0 3 2 12l12 55q2 12 14 12h71 l27 124q1 11 13 12l89 13q10 1 12 1q8 0 8 -9l-1 -14l-28 -127h133q14 0 14 -9zM515 703l-113 -152q-10 -14 -21 -14q-3 0 -11 2l-33 9q-12 4 -12 10q0 4 5 16l64 137q9 17 26 17h85q19 0 19 -8q0 -4 -9 -17z"/>
    <glyph glyph-name="Tbar" unicode="Ŧ" horiz-adv-x="426" d="M533 677q0 -3 -6 -16l-39 -80q-5 -12 -19 -12h-127l-37 -176h95q12 0 12 -7q0 -4 -1 -7l-12 -58q-1 -9 -4.5 -11.5t-12.5 -2.5h-95l-62 -293q-2 -9 -5 -11.5t-13 -2.5h-97q-15 0 -15 12v2q0 5 2 12l59 281h-95q-12 0 -12 7q0 4 1 7l12 58q4 14 17 14h95l38 176h-130 q-14 0 -14 11q0 5 2 14l17 77q2 10 5 12.5t12 2.5h414q15 0 15 -9z"/>
    <glyph glyph-name="tbar" unicode="ŧ" horiz-adv-x="370" d="M406 485q0 -1 -4 -14l-19 -56q-4 -10 -15 -10h-128l-21 -97h95q12 0 12 -7q0 -1 -0.5 -3t-0.5 -4l-10 -47q-4 -14 -17 -14h-94l-14 -66q-6 -32 -6 -49q0 -35 40 -35q39 0 77 18q10 5 13 5q6 0 7 -7l15 -62l1 -4q1 -3 1 -6q0 -13 -57.5 -28.5t-103.5 -15.5 q-119 0 -119 102q0 23 8 63l18 85h-59q-12 0 -12 6q0 5 1 8l10 47q1 9 4.5 11.5t12.5 2.5h58l21 97h-66q-14 0 -14 10q0 3 2 12l12 55q2 12 14 12h71l27 124q1 11 13 12l89 13q10 1 12 1q8 0 8 -9l-1 -14l-28 -127h133q14 0 14 -9z"/>
    <glyph glyph-name="Utilde" unicode="Ũ" horiz-adv-x="611" d="M73 232l93 440q2 9 5 11.5t13 2.5h99q13 0 13 -11q0 -5 -2 -15l-91 -428q-9 -45 -9 -64q0 -36 22 -55.5t63 -19.5q56 0 92 44q22 27 36 93l95 442q2 9 5 11.5t12 2.5h97q12 0 12 -11q0 -6 -2 -14l-91 -429q-18 -86 -34.5 -121.5t-51.5 -64.5q-70 -60 -184 -60 q-98 0 -150 41t-52 119q0 36 10 86zM571 846q0 -6 -18 -28q-43 -54 -96 -54q-31 0 -63 25q-15 12 -27 12q-21 0 -42 -30q-5 -8 -10 -8q-3 0 -11 6l-34 28q-5 5 -5 9t21 31q38 50 91 50q29 0 66 -23q19 -12 28 -12q21 0 42 29q6 7 9 7q4 0 9 -5l32 -26q8 -6 8 -11z"/>
    <glyph glyph-name="utilde" unicode="ũ" d="M498 493q0 -4 -2 -10l-72 -320q-11 -47 -11 -73t8 -55q1 -2 1 -7q0 -6 -12 -11l-79 -32l-8 -2q-9 0 -15 21t-6 53q0 17 1 30q-75 -104 -169 -104q-99 0 -99 104q0 31 10 78l69 302q2 9 4.5 12t11.5 4l89 18q8 2 11 2q9 0 9 -9q0 -4 -2 -12l-67 -290q-9 -42 -9 -61 q0 -18 11.5 -29t29.5 -11q44 0 78.5 50t53.5 143l39 183q3 14 16 16l89 19l11 1q9 0 9 -10zM487 654q0 -5 -18 -28q-43 -54 -96 -54q-31 0 -63 25q-15 12 -27 12q-21 0 -42 -30q-5 -8 -10 -8q-3 0 -11 6l-34 28q-5 5 -5 9t21 31q38 50 91 50q29 0 66 -23q19 -12 28 -12 q21 0 42 29q6 7 9 7q4 0 9 -5l32 -26q8 -6 8 -11z"/>
    <glyph glyph-name="Umacron" unicode="Ū" horiz-adv-x="611" d="M73 232l93 440q2 9 5 11.5t13 2.5h99q13 0 13 -11q0 -5 -2 -15l-91 -428q-9 -45 -9 -64q0 -36 22 -55.5t63 -19.5q56 0 92 44q22 27 36 93l95 442q2 9 5 11.5t12 2.5h97q12 0 12 -11q0 -6 -2 -14l-91 -429q-18 -86 -34.5 -121.5t-51.5 -64.5q-70 -60 -184 -60 q-98 0 -150 41t-52 119q0 36 10 86zM555 857q0 -3 -2 -11l-11 -51q-2 -9 -5 -11.5t-13 -2.5h-210q-17 0 -17 10q0 3 3 16l10 48q2 9 4.5 11.5t12.5 2.5h211q17 0 17 -12z"/>
    <glyph glyph-name="umacron" unicode="ū" d="M498 493q0 -4 -2 -10l-72 -320q-11 -47 -11 -73t8 -55q1 -2 1 -7q0 -6 -12 -11l-79 -32l-8 -2q-9 0 -15 21t-6 53q0 17 1 30q-75 -104 -169 -104q-99 0 -99 104q0 31 10 78l69 302q2 9 4.5 12t11.5 4l89 18q8 2 11 2q9 0 9 -9q0 -4 -2 -12l-67 -290q-9 -42 -9 -61 q0 -18 11.5 -29t29.5 -11q44 0 78.5 50t53.5 143l39 183q3 14 16 16l89 19l11 1q9 0 9 -10zM461 665q0 -3 -2 -11l-11 -51q-2 -9 -5 -11.5t-13 -2.5h-210q-17 0 -17 10q0 3 3 16l10 48q2 9 4.5 11.5t12.5 2.5h211q17 0 17 -12z"/>
    <glyph glyph-name="Ubreve" unicode="Ŭ" horiz-adv-x="611" d="M73 232l93 440q2 9 5 11.5t13 2.5h99q13 0 13 -11q0 -5 -2 -15l-91 -428q-9 -45 -9 -64q0 -36 22 -55.5t63 -19.5q56 0 92 44q22 27 36 93l95 442q2 9 5 11.5t12 2.5h97q12 0 12 -11q0 -6 -2 -14l-91 -429q-18 -86 -34.5 -121.5t-51.5 -64.5q-70 -60 -184 -60 q-98 0 -150 41t-52 119q0 36 10 86zM576 879q0 -12 -15 -42q-41 -83 -145 -83q-56 0 -87.5 30.5t-31.5 84.5q0 18 15 19l56 7q9 1 11 1q7 0 7 -9v-7q0 -47 39 -47q43 0 60 48q6 16 12 16q2 0 9 -1l60 -8q10 -2 10 -9z"/>
    <glyph glyph-name="ubreve" unicode="ŭ" d="M498 493q0 -4 -2 -10l-72 -320q-11 -47 -11 -73t8 -55q1 -2 1 -7q0 -6 -12 -11l-79 -32l-8 -2q-9 0 -15 21t-6 53q0 17 1 30q-75 -104 -169 -104q-99 0 -99 104q0 31 10 78l69 302q2 9 4.5 12t11.5 4l89 18q8 2 11 2q9 0 9 -9q0 -4 -2 -12l-67 -290q-9 -42 -9 -61 q0 -18 11.5 -29t29.5 -11q44 0 78.5 50t53.5 143l39 183q3 14 16 16l89 19l11 1q9 0 9 -10zM482 687q0 -12 -15 -42q-41 -83 -145 -83q-56 0 -87.5 30.5t-31.5 84.5q0 18 15 19l56 7q9 1 11 1q7 0 7 -9v-7q0 -47 39 -47q43 0 60 48q6 16 12 16q2 0 9 -1l60 -8q10 -2 10 -9z "/>
    <glyph glyph-name="Uring" unicode="Ů" horiz-adv-x="611" d="M73 232l93 440q2 9 5 11.5t13 2.5h99q13 0 13 -11q0 -5 -2 -15l-91 -428q-9 -45 -9 -64q0 -36 22 -55.5t63 -19.5q56 0 92 44q22 27 36 93l95 442q2 9 5 11.5t12 2.5h97q12 0 12 -11q0 -6 -2 -14l-91 -429q-18 -86 -34.5 -121.5t-51.5 -64.5q-70 -60 -184 -60 q-98 0 -150 41t-52 119q0 36 10 86zM523 839q0 -43 -30.5 -74t-74.5 -31q-43 0 -73.5 31t-30.5 74q0 44 30.5 74.5t75.5 30.5q42 0 72.5 -31t30.5 -74zM460 839q0 17 -12.5 29.5t-29.5 12.5t-29.5 -12.5t-12.5 -30.5q0 -17 12.5 -29.5t29.5 -12.5t29.5 13t12.5 30z"/>
    <glyph glyph-name="uring" unicode="ů" d="M498 493q0 -4 -2 -10l-72 -320q-11 -47 -11 -73t8 -55q1 -2 1 -7q0 -6 -12 -11l-79 -32l-8 -2q-9 0 -15 21t-6 53q0 17 1 30q-75 -104 -169 -104q-99 0 -99 104q0 31 10 78l69 302q2 9 4.5 12t11.5 4l89 18q8 2 11 2q9 0 9 -9q0 -4 -2 -12l-67 -290q-9 -42 -9 -61 q0 -18 11.5 -29t29.5 -11q44 0 78.5 50t53.5 143l39 183q3 14 16 16l89 19l11 1q9 0 9 -10zM439 647q0 -43 -30.5 -74t-74.5 -31q-43 0 -73.5 31t-30.5 74q0 44 30.5 74.5t75.5 30.5q42 0 72.5 -31t30.5 -74zM376 647q0 17 -12.5 29.5t-29.5 12.5t-29.5 -12.5t-12.5 -30.5 q0 -17 12.5 -29.5t29.5 -12.5t29.5 13t12.5 30z"/>
    <glyph glyph-name="Uhungarumlaut" unicode="Ű" horiz-adv-x="611" d="M73 232l93 440q2 9 5 11.5t13 2.5h99q13 0 13 -11q0 -5 -2 -15l-91 -428q-9 -45 -9 -64q0 -36 22 -55.5t63 -19.5q56 0 92 44q22 27 36 93l95 442q2 9 5 11.5t12 2.5h97q12 0 12 -11q0 -6 -2 -14l-91 -429q-18 -86 -34.5 -121.5t-51.5 -64.5q-70 -60 -184 -60 q-98 0 -150 41t-52 119q0 36 10 86zM625 868q0 -6 -8 -12l-138 -122q-6 -6 -12 -6q-5 0 -12 7l-17 17q-8 8 -8 12t9 15l116 136q8 8 13 8t12 -7l38 -36q7 -7 7 -12zM467 868q0 -5 -8 -12l-138 -122q-6 -6 -12 -6q-5 0 -12 7l-18 17q-7 7 -7 12t8 15l117 136q8 8 12 8 q6 0 12 -7l38 -36q8 -7 8 -12z"/>
    <glyph glyph-name="uhungarumlaut" unicode="ű" d="M498 493q0 -4 -2 -10l-72 -320q-11 -47 -11 -73t8 -55q1 -2 1 -7q0 -6 -12 -11l-79 -32l-8 -2q-9 0 -15 21t-6 53q0 17 1 30q-75 -104 -169 -104q-99 0 -99 104q0 31 10 78l69 302q2 9 4.5 12t11.5 4l89 18q8 2 11 2q9 0 9 -9q0 -4 -2 -12l-67 -290q-9 -42 -9 -61 q0 -18 11.5 -29t29.5 -11q44 0 78.5 50t53.5 143l39 183q3 14 16 16l89 19l11 1q9 0 9 -10zM541 676q0 -6 -8 -12l-138 -122q-6 -6 -12 -6q-5 0 -12 7l-17 17q-8 8 -8 12t9 15l116 136q8 8 13 8t12 -7l38 -36q7 -7 7 -12zM383 676q0 -5 -8 -12l-138 -122q-6 -6 -12 -6 q-5 0 -12 7l-18 17q-7 7 -7 12t8 15l117 136q8 8 12 8q6 0 12 -7l38 -36q8 -7 8 -12z"/>
    <glyph glyph-name="Uogonek" unicode="Ų" horiz-adv-x="611" d="M628 675q0 -6 -2 -14l-91 -429q-18 -86 -34.5 -121.5t-51.5 -64.5q-44 -38 -105 -52q-66 -53 -66 -100q0 -18 24 -18q22 0 45 11q9 4 11 4q3 0 6 -7l10 -37l2 -7q1 -2 1 -6q0 -11 -36 -24t-69 -13q-38 0 -60 18.5t-22 52.5q0 63 74 118q-98 1 -149.5 41.5t-51.5 118.5 q0 36 10 86l93 440q2 9 5 11.5t13 2.5h99q13 0 13 -11q0 -5 -2 -15l-91 -428q-9 -45 -9 -64q0 -36 22 -55.5t63 -19.5q56 0 92 44q22 27 36 93l95 442q2 9 5 11.5t12 2.5h97q12 0 12 -11z"/>
    <glyph glyph-name="uogonek" unicode="ų" d="M498 493q0 -4 -2 -10l-72 -320q-11 -47 -11 -73t8 -55q1 -2 1 -7q0 -6 -12 -11l-47 -19q-71 -55 -71 -104q0 -18 24 -18q22 0 45 11q9 4 11 4q3 0 6 -7l10 -37l2 -7q1 -2 1 -6q0 -11 -36 -24t-69 -13q-38 0 -60 18.5t-22 52.5q0 36 27.5 72.5t75.5 65.5q-5 22 -5 51 q0 17 1 30q-75 -104 -169 -104q-99 0 -99 104q0 31 10 78l69 302q2 9 4.5 12t11.5 4l89 18q8 2 11 2q9 0 9 -9q0 -4 -2 -12l-67 -290q-9 -42 -9 -61q0 -18 11.5 -29t29.5 -11q44 0 78.5 50t53.5 143l39 183q3 14 16 16l89 19l11 1q9 0 9 -10z"/>
    <glyph glyph-name="Wcircumflex" unicode="Ŵ" horiz-adv-x="741" d="M815 663q0 -4 -5 -14l-285 -647q-4 -8 -6.5 -10t-11.5 -2h-85q-10 0 -13.5 3t-3.5 14l9 358q3 61 10 142q-44 -122 -54 -143l-163 -362q-4 -9 -6 -10.5t-11 -1.5h-87q-11 0 -14 3t-3 14l11 652q0 10 2.5 13.5t12.5 4.5l91 17q3 1 8 1q7 0 8.5 -2.5t2.5 -15.5l-20 -365 q-3 -61 -14 -139l7.5 21.5t19 50.5t28.5 68l159 361q4 9 6.5 10.5t11.5 1.5h81q11 0 14 -3t3 -14l-2 -348q0 -32 -9 -146l23 76q13 40 24 70l140 362q5 12 12 12q3 0 11 -2l83 -18q15 -3 15 -12zM614 792q0 -4 -6 -11l-27 -30q-8 -9 -13 -9q-4 0 -12 5l-71 53l-94 -52 q-12 -7 -17 -7q-6 0 -12 11l-16 30q-7 14 -7 16q0 5 10 12l137 92q11 7 17 7q4 0 11 -7l89 -93q11 -11 11 -17z"/>
    <glyph glyph-name="wcircumflex" unicode="ŵ" horiz-adv-x="648" d="M689 478q0 -4 -4 -12l-233 -465q-4 -9 -16 -9h-88q-8 0 -10.5 3t-2.5 12l6 269q1 31 7 91q-18 -51 -35 -91l-122 -274q-4 -10 -15 -10h-79q-8 0 -10.5 3t-3.5 11l-26 462v8q0 9 11 10l83 14l13 1q9 0 9 -14l-3 -260q-1 -61 -5 -107q1 3 16 44.5t25 63.5l111 257q3 9 14 9 h87q8 0 11 -3t3 -11l-1 -244q0 -62 -8 -120q18 56 46 122l106 251q4 9 10 9q3 0 13 -1l78 -10q13 -1 13 -9zM530 600q0 -4 -6 -11l-27 -30q-8 -9 -13 -9q-4 0 -12 5l-71 53l-94 -52q-12 -7 -17 -7q-6 0 -12 11l-16 30q-7 14 -7 16q0 5 10 12l137 92q11 7 17 7q4 0 11 -7 l89 -93q11 -11 11 -17z"/>
    <glyph glyph-name="Ycircumflex" unicode="Ŷ" horiz-adv-x="482" d="M582 662q0 -6 -7 -15l-261 -366l-57 -267q-2 -9 -5 -11.5t-12 -2.5h-98q-15 0 -15 11q0 2 3 15l54 255l-112 372q-2 8 -2 10q0 8 15 11l96 20q9 2 12 2q7 0 10 -11l45 -174q13 -53 20 -110q35 64 62 105l125 181q6 9 13 9q5 0 8 -1l92 -21q14 -3 14 -12zM476 792 q0 -4 -6 -11l-27 -30q-8 -9 -13 -9q-4 0 -12 5l-71 53l-94 -52q-12 -7 -17 -7q-6 0 -12 11l-16 30q-7 14 -7 16q0 5 10 12l137 92q11 7 17 7q4 0 11 -7l89 -93q11 -11 11 -17z"/>
    <glyph glyph-name="ycircumflex" unicode="ŷ" horiz-adv-x="444" d="M486 479q0 -5 -4 -12l-201 -409q-81 -165 -114 -208q-53 -69 -141 -69q-35 0 -76.5 14.5t-41.5 26.5q0 3 3 9l36 63q5 8 10 8q3 0 10 -3q37 -18 64 -18q30 0 49 13t36 44l33 62h-40q-13 0 -14 13l-53 458q-1 3 -1 7q0 9 12 10l86 10q4 1 13 1q8 0 9 -13l19 -243 q5 -75 8 -164q14 33 17 41l24 61l24 58l112 253q4 9 10 9q1 0 12 -1l88 -12q11 -2 11 -9zM415 600q0 -4 -6 -11l-27 -30q-8 -9 -13 -9t-12 5l-71 53l-94 -52q-12 -7 -17 -7q-7 0 -12 11l-16 30q-7 14 -7 16q0 5 10 12l137 92q11 7 17 7q4 0 11 -7l89 -93q11 -11 11 -17z"/>
    <glyph glyph-name="Ydieresis" unicode="Ÿ" horiz-adv-x="482" d="M531 821q0 -29 -21 -50t-51 -21q-29 0 -50 21t-21 50q0 30 21 51t51 21q29 0 50 -21t21 -51zM333 822q0 -30 -21 -51t-51 -21q-29 0 -50 21t-21 50q0 31 21 51.5t51 20.5q29 0 50 -21t21 -50zM582 662q0 -6 -7 -15l-261 -366l-57 -267q-2 -9 -5 -11.5t-12 -2.5h-98 q-15 0 -15 11q0 2 3 15l54 255l-112 372q-2 8 -2 10q0 8 15 11l96 20q9 2 12 2q7 0 10 -11l45 -174q13 -53 20 -110q35 64 62 105l125 181q6 9 13 9q5 0 8 -1l92 -21q14 -3 14 -12z"/>
    <glyph glyph-name="Zacute" unicode="Ź" horiz-adv-x="481" d="M530 675q0 -5 -2 -15l-18 -85l-362 -456h281q16 0 16 -9q0 -6 -4 -15l-29 -82q-5 -13 -19 -13h-403q-17 0 -17 11q0 1 0.5 2t1 4.5t1.5 8.5l15 75l371 472h-239q-17 0 -17 9q0 5 5 16l36 78q5 10 17 10h350q16 0 16 -11zM491 825q0 -7 -13 -12l-188 -68q-13 -5 -16 -5 q-7 0 -11 12l-13 29q-5 11 -5 16q0 7 11 12l178 95q10 6 16 6q8 0 12 -12l24 -58q5 -12 5 -15z"/>
    <glyph glyph-name="zacute" unicode="ź" horiz-adv-x="426" d="M441 484l-1 -11l-15 -69l-291 -305h229q13 0 13 -8q0 -4 -5 -14l-44 -67q-7 -10 -21 -10h-320q-14 0 -14 9q0 2 2 12l14 64l296 310h-195q-12 0 -12 9q0 4 2 14l14 64q2 12 14 12h321q13 0 13 -10zM423 633q0 -7 -13 -12l-188 -68q-13 -5 -16 -5q-7 0 -11 12l-13 29 q-5 11 -5 16q0 7 11 12l178 95q11 6 16 6q8 0 12 -12l24 -58q5 -12 5 -15z"/>
    <glyph glyph-name="Zdotaccent" unicode="Ż" horiz-adv-x="481" d="M530 675q0 -5 -2 -15l-18 -85l-362 -456h281q16 0 16 -9q0 -6 -4 -15l-29 -82q-5 -13 -19 -13h-403q-17 0 -17 11q0 1 0.5 2t1 4.5t1.5 8.5l15 75l371 472h-239q-17 0 -17 9q0 5 5 16l36 78q5 10 17 10h350q16 0 16 -11zM437 826q0 -32 -22.5 -54t-53.5 -22t-53.5 22 t-22.5 54t22.5 54t54.5 22q31 0 53 -22.5t22 -53.5z"/>
    <glyph glyph-name="zdotaccent" unicode="ż" horiz-adv-x="426" d="M441 484l-1 -11l-15 -69l-291 -305h229q13 0 13 -8q0 -4 -5 -14l-44 -67q-7 -10 -21 -10h-320q-14 0 -14 9q0 2 2 12l14 64l296 310h-195q-12 0 -12 9q0 4 2 14l14 64q2 12 14 12h321q13 0 13 -10zM369 634q0 -32 -22.5 -54t-53.5 -22t-53.5 22t-22.5 54t22.5 54t54.5 22 q31 0 53 -22.5t22 -53.5z"/>
    <glyph glyph-name="Zcaron" unicode="Ž" horiz-adv-x="481" d="M511 843q0 -8 -10 -12l-147 -81q-15 -8 -17 -8q-4 0 -11 7l-93 83q-11 10 -11 16q0 5 7 12l26 31q8 9 14 9q7 0 12 -4l75 -42l102 42q13 5 17 5q5 0 12 -11l17 -31q7 -12 7 -16zM530 675q0 -5 -2 -15l-18 -85l-362 -456h281q16 0 16 -9q0 -6 -4 -15l-29 -82 q-5 -13 -19 -13h-403q-17 0 -17 11q0 1 0.5 2t1 4.5t1.5 8.5l15 75l371 472h-239q-17 0 -17 9q0 5 5 16l36 78q5 10 17 10h350q16 0 16 -11z"/>
    <glyph glyph-name="zcaron" unicode="ž" horiz-adv-x="426" d="M439 661q0 -6 -9 -12l-138 -92q-13 -8 -17 -8t-11 8l-90 93q-10 11 -10 16t6 12l27 30q8 9 13 9q4 0 12 -5l71 -53l95 52q13 7 16 7q5 0 12 -11l16 -30q7 -10 7 -16zM441 484l-1 -11l-15 -69l-291 -305h229q13 0 13 -8q0 -4 -5 -14l-44 -67q-7 -10 -21 -10h-320 q-14 0 -14 9q0 2 2 12l14 64l296 310h-195q-12 0 -12 9q0 4 2 14l14 64q2 12 14 12h321q13 0 13 -10z"/>
    <glyph glyph-name="florin" unicode="ƒ" d="M553 692q0 -4 -3 -10l-27 -70q-3 -6 -8 -6q-6 0 -18 6q-23 10 -42 10q-30 0 -44.5 -17t-27.5 -68l-11 -43h106q17 0 17 -11q0 -5 -4 -17l-18 -49q-3 -8 -6 -10t-12 -2h-107l-103 -412q-26 -105 -70 -146q-53 -52 -140 -52q-33 0 -57 4.5t-24 11.5q0 3 3 12l24 69q3 9 9 9 h3q21 -3 32 -3q46 0 65.5 21t37.5 90l102 396h-66q-17 0 -17 11q0 3 4 16l13 48q2 9 5 11.5t13 2.5h72l17 64q15 56 28.5 82t35.5 44q46 35 119 35q35 0 67 -8.5t32 -18.5z"/>
    <glyph glyph-name="AEacute" unicode="Ǽ" horiz-adv-x="741" d="M800 678q0 -5 -6 -17l-35 -70q-6 -11 -20 -11h-197l-36 -169h167q18 0 18 -11q0 -3 -2 -12l-15 -69q-2 -9 -5 -11.5t-13 -2.5h-172l-43 -200h210q18 0 18 -11q0 -1 -0.5 -2t-1 -4t-1.5 -8l-14 -66q-2 -9 -5 -11.5t-12 -2.5h-327q-16 0 -16 11q0 1 1 12l34 158h-157 l-103 -171q-6 -10 -19 -10h-102q-17 0 -17 10q0 6 7 16l420 650q6 10 19 10h409q16 0 16 -8zM425 623q-45 -87 -62 -116l-145 -235h129l49 230q7 33 29 121zM663 823q0 -7 -13 -12l-188 -68q-13 -5 -16 -5q-7 0 -11 12l-13 29q-5 11 -5 16q0 7 11 12l178 95q11 6 16 6 q8 0 12 -12l24 -58q5 -12 5 -15z"/>
    <glyph glyph-name="aeacute" unicode="ǽ" horiz-adv-x="704" d="M696 378q0 -125 -154 -157q-57 -12 -147 -12q-6 -28 -6 -52q0 -35 22.5 -55.5t60.5 -20.5q41 0 110 36q11 6 18 6q5 0 9 -8l23 -61q3 -8 3 -9q0 -7 -16 -16q-84 -46 -175 -46q-103 0 -149 77q-66 -77 -165 -77q-59 0 -94 35.5t-35 96.5q0 78 62 126q67 53 228 53l10 49 q4 24 4 32q0 47 -61 47q-50 0 -108 -30q-12 -6 -18 -6q-7 0 -11 11l-16 51q-3 8 -3 11q0 10 26 20q85 32 145 32q97 0 122 -68q43 37 80.5 52.5t86.5 15.5q70 0 109 -35.5t39 -97.5zM584 372q0 23 -14.5 36.5t-39.5 13.5q-45 0 -77 -34t-44 -94q94 0 134.5 18t40.5 60z M273 210q-86 0 -122 -19.5t-36 -66.5q0 -52 49 -52q79 0 99 92zM560 633q0 -7 -13 -12l-188 -68q-13 -5 -16 -5q-7 0 -11 12l-13 29q-5 11 -5 16q0 7 11 12l178 95q11 6 16 6q7 0 12 -12l24 -58q5 -12 5 -15z"/>
    <glyph glyph-name="Oslashacute" unicode="Ǿ" horiz-adv-x="574" d="M575 706q0 -4 -4 -12l-41 -62q34 -54 34 -137q0 -109 -34 -223.5t-87 -182.5q-82 -106 -211 -106q-55 0 -98 23l-31 -51q-6 -9 -12 -9q-4 0 -12 4l-33 21q-10 7 -10 12t4 12l39 61q-33 56 -33 132q0 110 34 225.5t87 183.5q82 106 210 106q60 0 98 -22l34 53q5 9 11 9 q5 0 12 -4l33 -21q10 -6 10 -12zM424 587q-17 19 -56 19q-40 0 -70.5 -25.5t-59.5 -83.5t-50.5 -143t-21.5 -144q0 -18 1 -32zM444 509l-256 -409q21 -20 55 -20q88 0 148 142q54 132 53 287zM560 823q0 -7 -13 -12l-188 -68q-13 -5 -16 -5q-7 0 -11 12l-13 29q-5 11 -5 16 q0 7 11 12l178 95q11 6 16 6q7 0 12 -12l24 -58q5 -12 5 -15z"/>
    <glyph glyph-name="oslashacute" unicode="ǿ" horiz-adv-x="500" d="M489 511q0 -3 -4 -10l-44 -55q29 -48 29 -117q0 -73 -26.5 -144.5t-72.5 -123.5q-70 -78 -177 -78q-60 0 -100 24l-38 -48q-5 -7 -10 -7q-4 0 -11 6l-24 20q-7 6 -7 9q0 5 4 10l41 51q-26 48 -26 116q0 71 25.5 141.5t70.5 122.5q74 83 183 83q54 0 94 -23l41 51 q6 7 10 7q3 0 9 -5l26 -20q7 -6 7 -10zM334 404q-23 15 -49 15q-68 0 -107 -88q-39 -86 -38 -180zM353 332v15l-195 -254q18 -18 49 -18q66 0 102 72q19 37 31.5 89.5t12.5 95.5zM483 633q0 -7 -13 -12l-188 -68q-13 -5 -16 -5q-7 0 -11 12l-13 29q-5 11 -5 16q0 7 11 12 l178 95q10 6 16 6q8 0 12 -12l24 -58q5 -12 5 -15z"/>
    <glyph glyph-name="Scommaaccent" unicode="Ș" horiz-adv-x="500" d="M521 649q0 -3 -5 -12l-41 -78q-3 -7 -10 -7q-8 0 -26 10q-57 31 -109 31q-49 0 -77 -24.5t-28 -66.5q0 -37 28 -61q17 -15 87 -59q61 -38 85.5 -74t24.5 -89q0 -104 -72.5 -168.5t-187.5 -64.5q-84 0 -174 40q-19 8 -19 15q0 2 2 7l43 82q6 11 11 11t43 -19 q52 -25 106 -25q52 0 81.5 25t29.5 69q0 33 -17 53.5t-74 57.5q-62 40 -86 62q-44 42 -44 118q0 102 68 160t188 58q39 0 83.5 -9.5t67.5 -23.5q16 -10 19 -12t3 -6zM248 -75l-113 -152q-10 -14 -21 -14q-3 0 -11 2l-33 9q-12 4 -12 10q0 4 5 16l64 137q9 17 26 17h85 q19 0 19 -8q0 -4 -9 -17z"/>
    <glyph glyph-name="scommaaccent" unicode="ș" horiz-adv-x="389" d="M374 468q0 -3 -4 -15l-17 -50q-4 -10 -14 -10q-5 0 -15 5q-44 21 -81 21q-33 0 -53 -16.5t-20 -43.5q0 -23 15 -36q9 -8 59 -31q61 -28 82 -55t21 -77q0 -81 -51.5 -129t-139.5 -48q-74 0 -147 31q-21 9 -21 16l2 10l21 62q3 8 9 8q5 0 45 -16q44 -19 85 -19 q39 0 61 17.5t22 48.5q0 20 -10 30t-49 29q-73 35 -95 61t-22 75q0 78 52 126.5t135 48.5q45 0 87.5 -14t42.5 -29zM213 -75l-113 -152q-10 -14 -21 -14q-3 0 -11 2l-33 9q-12 4 -12 10q0 4 5 16l64 137q9 17 26 17h85q19 0 19 -8q0 -4 -9 -17z"/>
    <glyph glyph-name="Tcommaaccent" unicode="Ț" horiz-adv-x="426" d="M533 677q0 -3 -6 -16l-39 -80q-5 -12 -19 -12h-127l-117 -555q-2 -9 -5 -11.5t-13 -2.5h-97q-15 0 -15 12q0 6 2 14l115 543h-130q-14 0 -14 11q0 5 2 14l17 77q2 10 5 12.5t12 2.5h414q15 0 15 -9zM214 -75l-113 -152q-10 -14 -21 -14q-3 0 -11 2l-33 9q-12 4 -12 10 q0 4 5 16l64 137q9 17 26 17h85q19 0 19 -8q0 -4 -9 -17z"/>
    <glyph glyph-name="tcommaaccent" unicode="ț" horiz-adv-x="370" d="M406 485q0 -1 -4 -14l-19 -56q-4 -10 -15 -10h-128l-50 -238q-6 -32 -6 -49q0 -35 40 -35q39 0 77 18q10 5 13 5q6 0 7 -7l15 -62l1 -4q1 -3 1 -6q0 -13 -57.5 -28.5t-103.5 -15.5q-119 0 -119 102q0 23 8 63l54 257h-66q-14 0 -14 10q0 3 2 12l12 55q2 12 14 12h71 l27 124q1 11 13 12l89 13q10 1 12 1q8 0 8 -9l-1 -14l-28 -127h133q14 0 14 -9zM234 -75l-113 -152q-10 -14 -21 -14q-3 0 -11 2l-33 9q-12 4 -12 10q0 4 5 16l64 137q9 17 26 17h85q19 0 19 -8q0 -4 -9 -17z"/>
    <glyph glyph-name="circumflex" unicode="ˆ" horiz-adv-x="500" d="M464 600q0 -4 -6 -11l-27 -30q-8 -9 -13 -9q-4 0 -12 5l-71 53l-94 -52q-12 -7 -17 -7q-6 0 -12 11l-16 30q-7 14 -7 16q0 5 10 12l137 92q11 7 17 7q4 0 11 -7l89 -93q11 -11 11 -17z"/>
    <glyph glyph-name="caron" unicode="ˇ" horiz-adv-x="500" d="M477 661q0 -6 -9 -12l-138 -92q-13 -8 -17 -8t-11 8l-90 93q-10 11 -10 16t6 12l27 30q8 9 13 9t12 -5l71 -53l95 52q13 7 16 7q5 0 12 -11l16 -30q7 -10 7 -16z"/>
    <glyph glyph-name="uni02C9" unicode="ˉ" horiz-adv-x="500" d="M459 665q0 -3 -2 -11l-11 -51q-2 -9 -5 -11.5t-13 -2.5h-210q-17 0 -17 10q0 3 3 16l10 48q2 9 4.5 11.5t12.5 2.5h211q17 0 17 -12z"/>
    <glyph glyph-name="breve" unicode="˘" horiz-adv-x="500" d="M480 687q0 -12 -15 -42q-41 -83 -145 -83q-56 0 -87.5 30.5t-31.5 84.5q0 18 15 19l56 7q9 1 11 1q7 0 7 -9v-7q0 -47 39 -47q43 0 60 48q6 16 12 16q2 0 9 -1l60 -8q10 -2 10 -9z"/>
    <glyph glyph-name="dotaccent" unicode="˙" horiz-adv-x="500" d="M406 634q0 -32 -22 -54t-54 -22t-54 22t-22 54t22.5 54t54.5 22q31 0 53 -22.5t22 -53.5z"/>
    <glyph glyph-name="ring" unicode="˚" horiz-adv-x="500" d="M437 647q0 -43 -30.5 -74t-74.5 -31q-43 0 -73.5 31t-30.5 74q0 44 30.5 74.5t75.5 30.5q42 0 72.5 -31t30.5 -74zM374 647q0 17 -12.5 29.5t-29.5 12.5t-29.5 -12.5t-12.5 -30.5q0 -17 12.5 -29.5t29.5 -12.5t29.5 13t12.5 30z"/>
    <glyph glyph-name="ogonek" unicode="˛" horiz-adv-x="500" d="M353 -151l2 -9q0 -1 0.5 -3t0.5 -3q0 -11 -36 -24t-69 -13q-38 0 -60 18.5t-22 52.5q0 37 29.5 75t80.5 67h65q-87 -63 -87 -116q0 -18 24 -18q22 0 45 11q9 4 11 4q5 0 6 -7z"/>
    <glyph glyph-name="tilde" unicode="˜" horiz-adv-x="500" d="M485 654q0 -5 -18 -28q-43 -54 -96 -54q-30 0 -63 25q-15 12 -27 12q-21 0 -42 -30q-5 -8 -10 -8q-3 0 -11 6l-34 28q-5 5 -5 9t21 31q38 50 91 50q29 0 66 -23q19 -12 28 -12q21 0 42 29q6 7 9 7q4 0 9 -5l32 -26q8 -6 8 -11z"/>
    <glyph glyph-name="hungarumlaut" unicode="˝" horiz-adv-x="500" d="M579 676q0 -6 -8 -12l-138 -122q-6 -6 -12 -6q-5 0 -12 7l-17 17q-8 8 -8 12t9 15l116 136q8 8 13 8t12 -7l38 -36q7 -7 7 -12zM421 676q0 -5 -8 -12l-138 -122q-6 -6 -12 -6q-5 0 -12 7l-18 17q-7 7 -7 12t8 15l117 136q8 8 12 8q6 0 12 -7l38 -36q8 -7 8 -12z"/>
    <glyph glyph-name="uni03A9" unicode="Ω" horiz-adv-x="737" d="M682 0h-261v105q122 115 122 269q0 100 -47 162t-131 62q-82 0 -133 -62.5t-51 -164.5q0 -154 123 -266v-105h-261v105h153q-154 115 -154 294q0 137 90.5 225t234.5 88q151 0 233.5 -87t82.5 -223q0 -184 -157 -297h156v-105z"/>
    <glyph glyph-name="uni03BC" unicode="μ" horiz-adv-x="518" d="M490 493q0 -5 -1 -10l-68 -320q-9 -41 -9 -68q0 -32 8 -60q1 -3 1 -7q0 -6 -11 -11l-79 -32l-8 -2q-22 0 -22 90v14q-62 -104 -137 -104q-22 0 -38 11l-36 -169q-3 -14 -16 -16l-89 -18q-6 -2 -11 -2q-9 0 -9 10q0 6 1 11l140 657q2 9 4.5 12t11.5 4l88 18q10 2 12 2 q9 0 9 -10q0 -3 -2 -11l-61 -290q-9 -47 -9 -60q0 -18 11.5 -29.5t29.5 -11.5q86 0 126 193l39 183q3 14 16 16l89 19l11 1q9 0 9 -10z"/>
    <glyph glyph-name="pi" unicode="π" horiz-adv-x="696" d="M630 95l22 -83q-36 -21 -95 -21q-75 0 -109.5 43.5t-34.5 113.5v258h-119v-256q0 -96 -18 -150h-133q21 64 21 160v246q-56 -2 -97 -25q-15 38 -35 83q60 36 164 36h450v-94h-103v-240q0 -81 53 -81q14 0 34 10z"/>
    <glyph glyph-name="Wgrave" unicode="Ẁ" horiz-adv-x="741" d="M815 663q0 -4 -5 -14l-285 -647q-4 -8 -6.5 -10t-11.5 -2h-85q-10 0 -13.5 3t-3.5 14l9 358q3 61 10 142q-44 -122 -54 -143l-163 -362q-4 -9 -6 -10.5t-11 -1.5h-87q-11 0 -14 3t-3 14l11 652q0 10 2.5 13.5t12.5 4.5l91 17q3 1 8 1q7 0 8.5 -2.5t2.5 -15.5l-20 -365 q-3 -61 -14 -139l7.5 21.5t19 50.5t28.5 68l159 361q4 9 6.5 10.5t11.5 1.5h81q11 0 14 -3t3 -14l-2 -348q0 -32 -9 -146l23 76q13 40 24 70l140 362q5 12 12 12q3 0 11 -2l83 -18q15 -3 15 -12zM571 787q0 -4 -11 -19l-15 -20q-7 -11 -13 -11q-4 0 -17 6l-154 74 q-9 5 -9 13q0 5 6 17l39 56q7 10 17 10q5 0 14 -8l137 -110q6 -4 6 -8z"/>
    <glyph glyph-name="wgrave" unicode="ẁ" horiz-adv-x="648" d="M689 478q0 -4 -4 -12l-233 -465q-4 -9 -16 -9h-88q-8 0 -10.5 3t-2.5 12l6 269q1 31 7 91q-18 -51 -35 -91l-122 -274q-4 -10 -15 -10h-79q-8 0 -10.5 3t-3.5 11l-26 462v8q0 9 11 10l83 14l13 1q9 0 9 -14l-3 -260q-1 -61 -5 -107q1 3 16 44.5t25 63.5l111 257q3 9 14 9 h87q8 0 11 -3t3 -11l-1 -244q0 -62 -8 -120q18 56 46 122l106 251q4 9 10 9q3 0 13 -1l78 -10q13 -1 13 -9zM476 595q0 -4 -11 -19l-15 -20q-7 -11 -13 -11q-4 0 -17 6l-154 74q-9 5 -9 13q0 5 6 17l39 56q7 10 17 10q5 0 14 -8l137 -110q6 -4 6 -8z"/>
    <glyph glyph-name="Wacute" unicode="Ẃ" horiz-adv-x="741" d="M815 663q0 -4 -5 -14l-285 -647q-4 -8 -6.5 -10t-11.5 -2h-85q-10 0 -13.5 3t-3.5 14l9 358q3 61 10 142q-44 -122 -54 -143l-163 -362q-4 -9 -6 -10.5t-11 -1.5h-87q-11 0 -14 3t-3 14l11 652q0 10 2.5 13.5t12.5 4.5l91 17q3 1 8 1q7 0 8.5 -2.5t2.5 -15.5l-20 -365 q-3 -61 -14 -139l7.5 21.5t19 50.5t28.5 68l159 361q4 9 6.5 10.5t11.5 1.5h81q11 0 14 -3t3 -14l-2 -348q0 -32 -9 -146l23 76q13 40 24 70l140 362q5 12 12 12q3 0 11 -2l83 -18q15 -3 15 -12zM621 825q0 -7 -13 -12l-188 -68q-13 -5 -16 -5q-7 0 -11 12l-13 29 q-5 11 -5 16q0 7 11 12l178 95q11 6 16 6q8 0 12 -12l24 -58q5 -12 5 -15z"/>
    <glyph glyph-name="wacute" unicode="ẃ" horiz-adv-x="648" d="M689 478q0 -4 -4 -12l-233 -465q-4 -9 -16 -9h-88q-8 0 -10.5 3t-2.5 12l6 269q1 31 7 91q-18 -51 -35 -91l-122 -274q-4 -10 -15 -10h-79q-8 0 -10.5 3t-3.5 11l-26 462v8q0 9 11 10l83 14l13 1q9 0 9 -14l-3 -260q-1 -61 -5 -107q1 3 16 44.5t25 63.5l111 257q3 9 14 9 h87q8 0 11 -3t3 -11l-1 -244q0 -62 -8 -120q18 56 46 122l106 251q4 9 10 9q3 0 13 -1l78 -10q13 -1 13 -9zM546 633q0 -7 -13 -12l-188 -68q-13 -5 -16 -5q-7 0 -11 12l-13 29q-5 11 -5 16q0 7 11 12l178 95q11 6 16 6q7 0 12 -12l24 -58q5 -12 5 -15z"/>
    <glyph glyph-name="Wdieresis" unicode="Ẅ" horiz-adv-x="741" d="M815 663q0 -4 -5 -14l-285 -647q-4 -8 -6.5 -10t-11.5 -2h-85q-10 0 -13.5 3t-3.5 14l9 358q3 61 10 142q-44 -122 -54 -143l-163 -362q-4 -9 -6 -10.5t-11 -1.5h-87q-11 0 -14 3t-3 14l11 652q0 10 2.5 13.5t12.5 4.5l91 17q3 1 8 1q7 0 8.5 -2.5t2.5 -15.5l-20 -365 q-3 -61 -14 -139l7.5 21.5t19 50.5t28.5 68l159 361q4 9 6.5 10.5t11.5 1.5h81q11 0 14 -3t3 -14l-2 -348q0 -32 -9 -146l23 76q13 40 24 70l140 362q5 12 12 12q3 0 11 -2l83 -18q15 -3 15 -12zM646 826q0 -29 -20.5 -49.5t-49.5 -20.5q-28 0 -48.5 20t-20.5 49t20.5 49.5 t50.5 20.5q28 0 48 -20.5t20 -48.5zM454 826q0 -29 -20.5 -49.5t-49.5 -20.5q-28 0 -48.5 20t-20.5 49t20.5 49.5t50.5 20.5q28 0 48 -20.5t20 -48.5z"/>
    <glyph glyph-name="wdieresis" unicode="ẅ" horiz-adv-x="648" d="M689 478q0 -4 -4 -12l-233 -465q-4 -9 -16 -9h-88q-8 0 -10.5 3t-2.5 12l6 269q1 31 7 91q-18 -51 -35 -91l-122 -274q-4 -10 -15 -10h-79q-8 0 -10.5 3t-3.5 11l-26 462v8q0 9 11 10l83 14l13 1q9 0 9 -14l-3 -260q-1 -61 -5 -107q1 3 16 44.5t25 63.5l111 257q3 9 14 9 h87q8 0 11 -3t3 -11l-1 -244q0 -62 -8 -120q18 56 46 122l106 251q4 9 10 9q3 0 13 -1l78 -10q13 -1 13 -9zM561 634q0 -29 -20.5 -49.5t-49.5 -20.5t-49 20t-20 49t20.5 49.5t50.5 20.5q28 0 48 -20.5t20 -48.5zM369 634q0 -29 -20.5 -49.5t-49.5 -20.5t-49 20t-20 49 t20.5 49.5t50.5 20.5q28 0 48 -20.5t20 -48.5z"/>
    <glyph glyph-name="Ygrave" unicode="Ỳ" horiz-adv-x="482" d="M582 662q0 -6 -7 -15l-261 -366l-57 -267q-2 -9 -5 -11.5t-12 -2.5h-98q-15 0 -15 11q0 2 3 15l54 255l-112 372q-2 8 -2 10q0 8 15 11l96 20q9 2 12 2q7 0 10 -11l45 -174q13 -53 20 -110q35 64 62 105l125 181q6 9 13 9q5 0 8 -1l92 -21q14 -3 14 -12zM422 787 q0 -4 -11 -19l-15 -20q-7 -11 -13 -11q-4 0 -17 6l-154 74q-9 5 -9 13q0 5 6 17l39 56q7 10 17 10q5 0 14 -8l137 -110q6 -4 6 -8z"/>
    <glyph glyph-name="ygrave" unicode="ỳ" horiz-adv-x="444" d="M486 479q0 -5 -4 -12l-201 -409q-81 -165 -114 -208q-53 -69 -141 -69q-35 0 -76.5 14.5t-41.5 26.5q0 3 3 9l36 63q5 8 10 8q3 0 10 -3q37 -18 64 -18q30 0 49 13t36 44l33 62h-40q-13 0 -14 13l-53 458q-1 3 -1 7q0 9 12 10l86 10q4 1 13 1q8 0 9 -13l19 -243 q5 -75 8 -164q14 33 17 41l24 61l24 58l112 253q4 9 10 9q1 0 12 -1l88 -12q11 -2 11 -9zM359 595q0 -4 -11 -19l-15 -20q-7 -11 -13 -11q-4 0 -17 6l-154 74q-9 5 -9 13q0 5 6 17l39 56q7 10 17 10q5 0 14 -8l137 -110q6 -4 6 -8z"/>
    <glyph glyph-name="endash" unicode="–" horiz-adv-x="463" d="M429 296q0 -5 -2 -11l-15 -71q-2 -9 -5 -11.5t-13 -2.5h-344q-17 0 -17 11q0 2 3 15l14 68q1 9 4.5 11.5t13.5 2.5h344q17 0 17 -12z"/>
    <glyph glyph-name="emdash" unicode="—" horiz-adv-x="963" d="M930 294q0 -1 -0.5 -2t-1 -4.5t-1.5 -8.5l-13 -63q-1 -9 -4.5 -11.5t-13.5 -2.5h-848q-17 0 -17 11q0 2 2 12l14 66q2 9 5 11.5t12 2.5h848q18 0 18 -11z"/>
    <glyph glyph-name="quoteleft" unicode="‘" horiz-adv-x="296" d="M342 691q0 -5 -6 -17l-102 -202q-4 -8 -6.5 -9.5t-11.5 -1.5h-107q-17 0 -17 11q0 6 7 15l170 235q6 9 12 9q3 0 14 -6l37 -23q10 -6 10 -11z"/>
    <glyph glyph-name="quoteright" unicode="’" horiz-adv-x="296" d="M347 713q0 -5 -7 -15l-170 -235q-7 -8 -12 -8q-4 0 -15 6l-36 22q-10 6 -10 11q0 6 6 17l101 202q4 7 7 9t12 2h106q18 0 18 -11z"/>
    <glyph glyph-name="quotesinglbase" unicode="‚" horiz-adv-x="296" d="M219 114q0 -6 -7 -15l-170 -235q-7 -8 -12 -8q-4 0 -15 6l-36 22q-10 6 -10 11q0 3 6 17l101 202q4 7 7 9t11 2h107q18 0 18 -11z"/>
    <glyph glyph-name="quotedblleft" unicode="“" horiz-adv-x="482" d="M527 691q0 -5 -6 -17l-102 -202q-5 -11 -18 -11h-107q-17 0 -17 11q0 6 7 15l170 235q6 9 12 9q3 0 15 -6l36 -23q10 -6 10 -11zM342 691q0 -5 -6 -17l-102 -202q-4 -8 -6.5 -9.5t-11.5 -1.5h-107q-17 0 -17 11q0 6 7 15l170 235q6 9 12 9q3 0 14 -6l37 -23q10 -6 10 -11 z"/>
    <glyph glyph-name="quotedblright" unicode="”" horiz-adv-x="482" d="M532 713q0 -6 -7 -15l-170 -235q-7 -8 -12 -8q-3 0 -14 6l-37 22q-10 6 -10 11q0 4 6 17l102 202q4 8 6.5 9.5t11.5 1.5h107q17 0 17 -11zM347 713q0 -5 -7 -15l-170 -235q-7 -8 -12 -8q-4 0 -15 6l-36 22q-10 6 -10 11q0 6 6 17l101 202q4 7 7 9t12 2h106q18 0 18 -11z "/>
    <glyph glyph-name="quotedblbase" unicode="„" horiz-adv-x="482" d="M404 114q0 -5 -7 -15l-170 -235q-7 -8 -12 -8q-3 0 -14 6l-37 22q-10 6 -10 11t6 17l102 202q4 8 6.5 9.5t11.5 1.5h107q17 0 17 -11zM219 114q0 -6 -7 -15l-170 -235q-7 -8 -12 -8q-4 0 -15 6l-36 22q-10 6 -10 11q0 3 6 17l101 202q4 7 7 9t11 2h107q18 0 18 -11z"/>
    <glyph glyph-name="dagger" unicode="†" horiz-adv-x="518" d="M495 467q0 -6 -2 -15l-13 -58q-2 -9 -5 -11.5t-12 -2.5h-117l-122 -571q-2 -9 -5 -11.5t-13 -2.5h-85q-17 0 -17 11q0 2 0.5 3t1 4.5t1.5 7.5l119 559h-112q-17 0 -17 11q0 1 3 15l12 58q2 9 4.5 11.5t12.5 2.5h117l42 194q2 9 5 11.5t12 2.5h86q17 0 17 -11q0 -3 -3 -15 l-39 -182h112q17 0 17 -11z"/>
    <glyph glyph-name="daggerdbl" unicode="‡" horiz-adv-x="518" d="M495 467q0 -4 -1 -6l-2 -9l-12 -58q-2 -9 -5 -11.5t-13 -2.5h-117l-57 -265h112q17 0 17 -11q0 -8 -2 -15l-13 -59q-2 -9 -5 -11.5t-12 -2.5h-117l-44 -207q-2 -9 -5 -11.5t-13 -2.5h-85q-17 0 -17 11q0 7 2 15l42 195h-112q-17 0 -17 11q0 2 0.5 3t1 4.5t1.5 7.5l12 59 q1 9 4.5 11.5t13.5 2.5h117l56 265h-112q-17 0 -17 11q0 3 3 15l12 58q2 9 5 11.5t13 2.5h117l41 194q2 9 5 11.5t13 2.5h85q17 0 17 -11q0 -1 -2 -15l-39 -182h111q18 0 18 -11z"/>
    <glyph glyph-name="bullet" unicode="•" horiz-adv-x="500" d="M411 348q0 -58 -41.5 -100t-100.5 -42t-101 41.5t-42 100.5q0 60 41.5 101.5t102.5 41.5q58 0 99.5 -42t41.5 -101z"/>
    <glyph glyph-name="ellipsis" unicode="…" horiz-adv-x="889" d="M802 77q0 -37 -27 -64t-64 -27t-64 27t-27 64q0 38 27 64.5t65 26.5q37 0 63.5 -27t26.5 -64zM505 77q0 -37 -26.5 -64t-64.5 -27t-64.5 27t-26.5 64q0 38 27 64.5t65 26.5q37 0 63.5 -27t26.5 -64zM209 77q0 -37 -26.5 -64t-64.5 -27t-64.5 27t-26.5 64q0 38 27 64.5 t65 26.5q37 0 63.5 -27t26.5 -64z"/>
    <glyph glyph-name="perthousand" unicode="‰" horiz-adv-x="1185" d="M1114 217q0 -51 -20 -102t-52 -84q-46 -46 -117 -46q-56 0 -88.5 33t-32.5 89q0 52 19.5 103.5t52.5 83.5q46 46 119 46q55 0 87 -33.5t32 -89.5zM771 217q0 -52 -19.5 -102.5t-52.5 -83.5q-46 -46 -117 -46q-56 0 -88.5 33t-32.5 89q0 53 19.5 104t52.5 83q46 46 119 46 q55 0 87 -33.5t32 -89.5zM697 669q0 -8 -6 -17l-429 -682q-6 -10 -18 -10h-62q-17 0 -17 9q0 7 6 17l429 682q6 10 18 10h62q17 0 17 -9zM408 539q0 -51 -19.5 -102t-52.5 -84q-46 -46 -117 -46q-55 0 -87.5 33t-32.5 89q0 53 19.5 104t52.5 84q46 46 119 46q54 0 86 -33.5 t32 -90.5zM1021 218q0 45 -39 45q-25 0 -40 -18q-19 -22 -32 -62t-13 -78q0 -20 10.5 -31.5t27.5 -11.5q26 0 41 18q20 22 32.5 60.5t12.5 77.5zM678 219q0 44 -39 44q-25 0 -40 -18q-19 -22 -32 -62t-13 -78q0 -20 10.5 -31.5t28.5 -11.5q25 0 40 18q20 23 32.5 61.5 t12.5 77.5zM315 542q0 44 -39 44q-24 0 -40 -18q-19 -22 -31.5 -61t-12.5 -78q0 -44 38 -44q25 0 41 18q19 23 31.5 62t12.5 77z"/>
    <glyph glyph-name="guilsinglleft" unicode="‹" horiz-adv-x="352" d="M353 447q0 -4 -7 -12l-169 -192l80 -185q5 -12 5 -13q0 -7 -9 -11l-57 -27q-12 -5 -14 -5q-6 0 -12 10l-126 233q-4 6 -4 10q0 5 6 10l232 229q6 7 12 7t12 -6l42 -36q9 -8 9 -12z"/>
    <glyph glyph-name="guilsinglright" unicode="›" horiz-adv-x="352" d="M310 248q0 -4 -6 -10l-233 -229q-6 -7 -12 -7q-5 0 -11 6l-43 36q-8 7 -8 12t7 12l168 192l-80 185q-4 8 -4 13q0 6 8 11l58 27q10 5 13 5q7 0 13 -10l125 -233q5 -7 5 -10z"/>
    <glyph glyph-name="fraction" unicode="⁄" horiz-adv-x="121" d="M329 669q0 -7 -6 -17l-430 -682q-6 -10 -17 -10h-63q-17 0 -17 9q0 5 6 17l429 682q7 10 18 10h63q17 0 17 -9z"/>
    <glyph glyph-name="zero.superior" unicode="⁰" horiz-adv-x="356" d="M410 717q1 -61 -18.5 -124t-52.5 -105q-55 -70 -141 -70q-59 0 -89.5 31t-30.5 88q0 63 20 125t54 105q53 67 138 67q56 0 87.5 -30.5t32.5 -86.5zM320 712q-1 46 -42 46q-43 0 -73 -59q-15 -32 -26.5 -81t-10.5 -78q0 -46 40 -46q45 0 75 61q15 32 26 79.5t11 77.5z"/>
    <glyph glyph-name="four.superior" unicode="⁴" horiz-adv-x="356" d="M238 508h-158q-15 0 -15 11q0 2 2 14l10 45q2 9 8 15l193 238q6 7 13 7q10 0 16 -3l42 -10q11 -3 11 -10q0 -6 -8 -16l-184 -220h84l29 87q2 8 5.5 10.5t12.5 2.5h41q16 0 16 -11q0 -3 -2 -11l-16 -77h38q13 0 13 -9q0 -1 -2 -13l-8 -35q-4 -15 -18 -15h-38l-15 -68 q-4 -14 -19 -14h-53q-15 0 -15 10q0 4 2 12z"/>
    <glyph glyph-name="five.superior" unicode="⁵" horiz-adv-x="356" d="M203 673q32 16 60 16q46 0 77 -27t32 -71t-19.5 -81t-56.5 -61q-47 -31 -116 -31q-61 0 -101 18q-14 6 -14 14q0 4 3 13q7 13 16 39q4 9 12 9q2 0 14 -4q47 -15 74 -15q46 0 75 25t28 66q0 37 -44 37q-41 0 -69 -25q-13 -9 -16 -9q-4 0 -15 3l-30 10q-9 3 -9 12q0 5 3 11 l64 190q5 14 15 14h198q11 0 11 -11q0 -3 -2 -11l-11 -36q-3 -14 -14 -14h-134q-2 -6 -31 -81z"/>
    <glyph glyph-name="six.superior" unicode="⁶" horiz-adv-x="356" d="M220 691q28 17 60 17q46 0 72.5 -27t27.5 -75q0 -78 -49 -133t-123 -55q-54 0 -85 30.5t-31 84.5t20 112t55 103q70 86 169 86q43 0 68 -14q9 -6 9 -12q0 -3 -3 -11l-21 -38q-4 -7 -11 -7q-4 0 -10 3q-17 6 -36 6q-71 0 -112 -70zM293 600q-2 38 -40 38q-36 0 -57 -35 q-17 -29 -17 -73q0 -39 38 -39q35 0 58 39q18 31 18 70z"/>
    <glyph glyph-name="seven.superior" unicode="⁷" horiz-adv-x="356" d="M299 747h-152q-13 0 -13 11q0 3 2 11q2 7 5.5 23t5.5 23q3 11 13 11h245q13 0 13 -11q0 -7 -7 -30q-2 -9 -6 -16l-219 -341q-4 -9 -13 -9q-3 0 -18 3l-51 8q-9 1 -9 9q0 5 5 13z"/>
    <glyph glyph-name="eight.superior" unicode="⁸" horiz-adv-x="356" d="M172 639q-41 29 -41 76q0 53 41 86t108 33q56 0 91 -25t35 -67q0 -71 -78 -106q53 -31 53 -85q0 -65 -51 -99t-122 -34q-64 0 -101 25t-37 72q0 86 102 124zM242 600q-83 -24 -83 -70q0 -40 59 -40q34 0 54.5 15t20.5 41q-3 38 -51 54zM255 671q64 25 64 61q0 32 -43 32 q-28 0 -43.5 -13t-15.5 -33q0 -27 38 -47z"/>
    <glyph glyph-name="nine.superior" unicode="⁹" horiz-adv-x="356" d="M265 563q-29 -18 -60 -18q-45 0 -72 27t-28 75q-1 79 48 133t124 54q55 0 85 -30t31 -85q0 -54 -20 -111.5t-54 -102.5q-69 -87 -168 -87q-30 0 -54 10q-14 4 -14 16q0 6 2 10l13 36q4 10 10 10q2 0 7.5 -1.5t6.5 -1.5q18 -6 32 -6q66 0 111 72zM192 652q0 -38 39 -38 q34 0 54 30q19 29 21 79q-2 38 -38 38q-35 0 -56 -35q-20 -30 -20 -74z"/>
    <glyph glyph-name="zero.inferior" unicode="₀" horiz-adv-x="356" d="M45 175q53 67 138 67q56 0 87.5 -30.5t32.5 -86.5v-4q0 -60 -19.5 -122t-51.5 -103q-55 -70 -141 -70q-59 0 -89.5 31t-30.5 88v8q0 59 20 120t54 102zM98 107q-15 -31 -26 -78.5t-11 -77.5v-3q0 -46 40 -46q45 0 75 61q15 32 26 79.5t11 77.5q-1 46 -42 46 q-43 0 -73 -59z"/>
    <glyph glyph-name="one.inferior" unicode="₁" horiz-adv-x="356" d="M242 220q0 -4 -1 -8l-69 -309h49q13 0 14 -9q0 -1 -2 -13q-2 -5 -4 -16t-3 -16q-2 -9 -5.5 -12t-13.5 -3h-194q-14 0 -14 12q0 7 1 12q3 10 7 30q4 15 19 15h60l52 234l-56 -27q-8 -5 -15 -5t-11 8l-13 27q-2 4 -2 8q0 8 12 15l115 64q12 6 16 6h43q15 0 15 -13z"/>
    <glyph glyph-name="two.inferior" unicode="₂" horiz-adv-x="356" d="M292 149q0 -61 -48 -103q-24 -21 -99 -67q-62 -36 -77 -69h155q13 0 13 -9q0 -4 -2 -16l-7 -34q-2 -10 -5.5 -13.5t-13.5 -3.5h-237q-13 0 -13 11q0 18 19 63q26 64 122 126q70 43 87 62q14 19 14 41q0 31 -36 31t-70 -50q-7 -11 -15 -11q-10 0 -14 3q-4 1 -11.5 3.5 l-13.5 4.5t-11 4q-9 3 -9 12q4 11 6 14q22 43 64 68t92 25q52 0 81 -24.5t29 -67.5z"/>
    <glyph glyph-name="three.inferior" unicode="₃" horiz-adv-x="356" d="M207 49q44 -24 44 -74q0 -67 -52 -108.5t-127 -41.5q-39 0 -78.5 13t-39.5 25q0 2 3 8l21 41q5 8 14 8q6 0 16 -5q36 -18 73 -18q35 0 57 19t22 51q0 41 -65 41h-26q-14 0 -14 10q0 5 2 15l7 31q2 9 5.5 11.5t13.5 2.5h27q34 0 56 16.5t22 45.5q0 31 -36 31 q-26 0 -60 -27q-11 -8 -20 -8q-8 0 -13 5l-28 22q-3 3 -3 10q0 8 18 23q49 45 120 45q51 0 81 -23t30 -63q0 -71 -70 -106z"/>
    <glyph glyph-name="four.inferior" unicode="₄" horiz-adv-x="356" d="M132 -84h-158q-15 0 -15 11q0 2 2 14l10 45q2 9 8 15l193 238q6 7 13 7q10 0 16 -3l42 -10q11 -3 11 -10q0 -6 -8 -16l-184 -220h84l29 87q2 8 5.5 10.5t12.5 2.5h41q16 0 16 -11q0 -3 -2 -11l-16 -77h38q13 0 13 -9q0 -1 -2 -13l-8 -35q-4 -15 -18 -15h-38l-15 -68 q-4 -14 -19 -14h-53q-15 0 -15 10q0 4 2 12z"/>
    <glyph glyph-name="five.inferior" unicode="₅" horiz-adv-x="356" d="M97 81q32 16 60 16q46 0 77 -27t32 -71t-19.5 -81t-56.5 -61q-47 -31 -116 -31q-61 0 -101 18q-14 6 -14 14q0 4 3 13q7 13 16 39q4 9 12 9q2 0 14 -4q47 -15 74 -15q46 0 75 25t28 66q0 37 -44 37q-41 0 -69 -25q-13 -9 -16 -9q-4 0 -15 3l-30 10q-9 3 -9 12q0 5 3 11 l64 190q5 14 15 14h198q11 0 11 -11q0 -3 -2 -11l-11 -36q-3 -14 -14 -14h-134q-2 -6 -31 -81z"/>
    <glyph glyph-name="six.inferior" unicode="₆" horiz-adv-x="356" d="M114 99q28 17 60 17q46 0 72.5 -27t27.5 -75q0 -78 -49 -133t-123 -55q-54 0 -85 30.5t-31 84.5t20 112t55 103q70 86 169 86q43 0 68 -14q9 -6 9 -12q0 -4 -3 -11l-21 -38q-4 -7 -11 -7q-4 0 -10 3q-16 6 -36 6q-71 0 -112 -70zM187 8q-2 38 -40 38q-36 0 -57 -35 q-17 -29 -17 -73q0 -39 38 -39q35 0 58 39q18 31 18 70z"/>
    <glyph glyph-name="seven.inferior" unicode="₇" horiz-adv-x="356" d="M193 155h-152q-13 0 -13 11q0 3 2 11q2 7 5.5 23t5.5 23q3 11 13 11h245q13 0 13 -11q0 -7 -7 -30q-2 -9 -6 -16l-219 -341q-4 -9 -13 -9q-3 0 -18 3l-51 8q-9 1 -9 9q0 5 5 13z"/>
    <glyph glyph-name="eight.inferior" unicode="₈" horiz-adv-x="356" d="M300 150q0 -71 -78 -106q53 -32 53 -85q0 -65 -51 -99t-122 -34q-63 0 -100.5 25.5t-37.5 71.5q0 86 102 124q-41 29 -41 76q0 53 41 86t108 33q56 0 91 -25t35 -67zM187 -46q-3 38 -51 54q-83 -24 -83 -70q0 -40 59 -40q34 0 54.5 15t20.5 41zM213 140q0 32 -43 32 q-28 0 -43.5 -13t-15.5 -33q0 -27 38 -47q64 25 64 61z"/>
    <glyph glyph-name="nine.inferior" unicode="₉" horiz-adv-x="356" d="M159 -29q-29 -18 -60 -18q-45 0 -72 27t-28 75q-1 79 48 133t124 54q55 0 85 -30t31 -85q0 -54 -20 -111.5t-54 -102.5q-69 -87 -168 -87q-30 0 -54 10q-14 4 -14 16q0 6 2 10l13 36q4 10 10 10q2 0 7.5 -1.5t6.5 -1.5q18 -6 32 -6q66 0 111 72zM86 60q0 -38 39 -38 q34 0 54 30q19 29 21 79q-2 38 -38 38q-35 0 -56 -35q-20 -30 -20 -74z"/>
    <glyph glyph-name="Euro" unicode="€" d="M585 620q0 -3 -4 -10l-46 -70q-5 -6 -10 -6q-7 0 -15 7q-30 24 -47 31.5t-40 7.5q-75 0 -121 -80q-26 -43 -37 -88h174q15 0 15 -8q0 -5 -4 -15l-3 -9q-4 -9 -7.5 -11.5t-13.5 -2.5h-174q-6 -32 -8 -48h160q15 0 15 -8q0 -3 -2 -9l-2 -6l-3 -9q-4 -9 -7 -11.5t-13 -2.5 h-155q-3 -30 -3 -58q0 -68 25.5 -96t78.5 -28q44 0 88 27q9 6 16 6q5 0 10 -13l20 -51q5 -15 5 -16q0 -8 -17 -17q-78 -43 -163 -43q-73 0 -123 45q-64 58 -64 186q0 39 2 58h-73q-16 0 -16 9q0 3 2 7t2 5l4 11q3 14 19 14h66q1 8 3.5 24t4.5 24h-66q-15 0 -15 8q0 3 2 7.5 t2 5.5l3 11q5 14 20 14h65q28 104 81 172q81 102 209 102q85 0 144 -46q16 -12 16 -20z"/>
    <glyph glyph-name="litre" unicode="ℓ" horiz-adv-x="513" d="M443 46q-71 -62 -145 -62q-65 0 -102 39q-43 44 -43 132v69l-54 -55q-7 12 -20.5 32.5t-16.5 25.5l91 90v205q0 98 41 152t112 54q60 0 88.5 -37t28.5 -85q0 -68 -30.5 -129t-88.5 -127l-34 -39v-141q0 -95 61 -95q37 0 77 40q28 -53 35 -69zM350 590q0 48 -34 48 q-46 0 -46 -94v-134q11 11 18 22q62 82 62 158z"/>
    <glyph glyph-name="trademark" unicode="™" horiz-adv-x="685" d="M703 304q0 -9 -13 -9h-56q-14 0 -14 18l-3 198v9q0 22 3 41q-11 -36 -16 -51l-42 -120q-2 -10 -14 -10h-29q-13 0 -16 12l-37 113q-6 17 -17 58q3 -39 3 -48v-11l-3 -197q0 -12 -13 -12h-53q-15 0 -14 19l19 360q0 12 13 12h60q13 0 17 -12l43 -140q4 -12 13 -56 q10 43 15 56l49 143q3 9 14 9h57q14 0 15 -18l19 -360v-4zM340 674q0 -1 -2 -7l-13 -49q-3 -10 -14 -10h-71v-301q0 -12 -13 -12h-61q-9 0 -12 4t-3 15v294h-73q-14 0 -14 18v48q0 12 13 12h248q15 0 15 -12z"/>
    <glyph glyph-name="Omega" unicode="Ω" horiz-adv-x="737" d="M682 0h-261v105q122 115 122 269q0 100 -47 162t-131 62q-82 0 -133 -62.5t-51 -164.5q0 -154 123 -266v-105h-261v105h153q-154 115 -154 294q0 137 90.5 225t234.5 88q151 0 233.5 -87t82.5 -223q0 -184 -157 -297h156v-105z"/>
    <glyph glyph-name="estimated" unicode="℮" horiz-adv-x="677" d="M636 294h-453v-203q67 -65 161 -65q135 0 217 133q24 -14 36 -22q-49 -74 -107.5 -111.5t-145.5 -37.5q-129 0 -208 88t-79 218q0 131 78.5 218.5t209.5 87.5q132 0 209.5 -86.5t81.5 -219.5zM507 332v164q-69 67 -163 67q-96 0 -161 -66v-165h324z"/>
    <glyph glyph-name="onethird" unicode="⅓" horiz-adv-x="833" d="M320 646q0 -4 -1 -8l-69 -309h49q13 0 14 -9q0 -1 -2 -13q-2 -5 -4 -16t-3 -16q-2 -9 -5.5 -12t-13.5 -3h-194q-14 0 -14 12q0 7 1 12q3 10 7 30q4 15 19 15h60l52 234l-56 -27q-8 -5 -15 -5t-11 8l-13 27q-2 4 -2 8q0 8 12 15l115 64q12 6 16 6h43q15 0 15 -13zM685 669 q0 -7 -6 -17l-430 -682q-6 -10 -17 -10h-63q-17 0 -17 9q0 5 6 17l429 682q7 10 18 10h63q17 0 17 -9zM712 215q44 -24 44 -74q0 -67 -52 -108.5t-127 -41.5q-39 0 -78.5 13t-39.5 25q0 2 3 8l21 41q5 8 14 8q6 0 16 -5q36 -18 73 -18q35 0 57 19t22 51q0 41 -65 41h-26 q-14 0 -14 10q0 5 2 15l7 31q2 9 5.5 11.5t13.5 2.5h27q34 0 56 16.5t22 45.5q0 31 -36 31q-26 0 -60 -27q-11 -8 -20 -8q-8 0 -13 5l-28 22q-3 3 -3 10q0 8 18 23q49 45 120 45q51 0 81 -23t30 -63q0 -71 -70 -106z"/>
    <glyph glyph-name="twothirds" unicode="⅔" horiz-adv-x="833" d="M370 575q0 -61 -48 -103q-24 -21 -99 -67q-62 -36 -77 -69h155q13 0 13 -9q0 -4 -2 -16l-7 -34q-2 -10 -5.5 -13.5t-13.5 -3.5h-237q-13 0 -13 11q0 18 19 63q26 64 122 126q70 43 87 62q14 19 14 41q0 31 -36 31t-70 -50q-7 -11 -15 -11q-10 0 -14 3q-4 1 -11.5 3.5 l-13.5 4.5t-11 4q-9 3 -9 12q4 11 6 14q22 43 64 68t92 25q52 0 81 -24.5t29 -67.5zM685 669q0 -7 -6 -17l-430 -682q-6 -10 -17 -10h-63q-17 0 -17 9q0 5 6 17l429 682q7 10 18 10h63q17 0 17 -9zM712 215q44 -24 44 -74q0 -67 -52 -108.5t-127 -41.5q-39 0 -78.5 13 t-39.5 25q0 2 3 8l21 41q5 8 14 8q6 0 16 -5q36 -18 73 -18q35 0 57 19t22 51q0 41 -65 41h-26q-14 0 -14 10q0 5 2 15l7 31q2 9 5.5 11.5t13.5 2.5h27q34 0 56 16.5t22 45.5q0 31 -36 31q-26 0 -60 -27q-11 -8 -20 -8q-8 0 -13 5l-28 22q-3 3 -3 10q0 8 18 23q49 45 120 45 q51 0 81 -23t30 -63q0 -71 -70 -106z"/>
    <glyph glyph-name="oneeighth" unicode="⅛" horiz-adv-x="833" d="M320 646q0 -4 -1 -8l-69 -309h49q13 0 14 -9q0 -1 -2 -13q-2 -5 -4 -16t-3 -16q-2 -9 -5.5 -12t-13.5 -3h-194q-14 0 -14 12q0 7 1 12q3 10 7 30q4 15 19 15h60l52 234l-56 -27q-8 -5 -15 -5t-11 8l-13 27q-2 4 -2 8q0 8 12 15l115 64q12 6 16 6h43q15 0 15 -13zM685 669 q0 -7 -6 -17l-430 -682q-6 -10 -17 -10h-63q-17 0 -17 9q0 5 6 17l429 682q7 10 18 10h63q17 0 17 -9zM805 316q0 -71 -78 -106q53 -32 53 -85q0 -65 -51 -99t-122 -34q-63 0 -100.5 25.5t-37.5 71.5q0 86 102 124q-41 29 -41 76q0 53 41 86t108 33q56 0 91 -25t35 -67z M692 120q-3 38 -51 54q-83 -24 -83 -70q0 -40 59 -40q34 0 54.5 15t20.5 41zM718 306q0 32 -43 32q-28 0 -43.5 -13t-15.5 -33q0 -27 38 -47q64 25 64 61z"/>
    <glyph glyph-name="threeeighths" unicode="⅜" horiz-adv-x="833" d="M285 475q44 -24 44 -74q0 -67 -52 -108.5t-127 -41.5q-39 0 -78.5 13t-39.5 25q0 2 3 8l21 41q5 8 14 8q6 0 16 -5q36 -18 73 -18q35 0 57 19t22 51q0 41 -65 41h-26q-14 0 -14 10q0 5 2 15l7 31q2 9 5.5 11.5t13.5 2.5h27q34 0 56 16.5t22 45.5q0 31 -36 31 q-26 0 -60 -27q-11 -8 -20 -8q-8 0 -13 5l-28 22q-3 3 -3 10q0 8 18 23q50 45 120 45q51 0 81 -23t30 -63q0 -71 -70 -106zM685 669q0 -7 -6 -17l-430 -682q-6 -10 -17 -10h-63q-17 0 -17 9q0 5 6 17l429 682q7 10 18 10h63q17 0 17 -9zM805 316q0 -71 -78 -106 q53 -32 53 -85q0 -65 -51 -99t-122 -34q-63 0 -100.5 25.5t-37.5 71.5q0 86 102 124q-41 29 -41 76q0 53 41 86t108 33q56 0 91 -25t35 -67zM692 120q-3 38 -51 54q-83 -24 -83 -70q0 -40 59 -40q34 0 54.5 15t20.5 41zM718 306q0 32 -43 32q-28 0 -43.5 -13t-15.5 -33 q0 -27 38 -47q64 25 64 61z"/>
    <glyph glyph-name="fiveeighths" unicode="⅝" horiz-adv-x="833" d="M175 507q32 16 60 16q46 0 77 -27t32 -71t-19.5 -81t-56.5 -61q-47 -31 -116 -31q-61 0 -101 18q-14 6 -14 14q0 4 3 13q7 13 16 39q4 9 12 9q2 0 14 -4q47 -15 74 -15q46 0 75 25t28 66q0 37 -44 37q-41 0 -69 -25q-13 -9 -16 -9q-4 0 -15 3l-30 10q-9 3 -9 12q0 5 3 11 l64 190q5 14 15 14h198q11 0 11 -11q0 -3 -2 -11l-11 -36q-3 -14 -14 -14h-134q-2 -6 -31 -81zM685 669q0 -7 -6 -17l-430 -682q-6 -10 -17 -10h-63q-17 0 -17 9q0 5 6 17l429 682q7 10 18 10h63q17 0 17 -9zM805 316q0 -71 -78 -106q53 -32 53 -85q0 -65 -51 -99t-122 -34 q-63 0 -100.5 25.5t-37.5 71.5q0 86 102 124q-41 29 -41 76q0 53 41 86t108 33q56 0 91 -25t35 -67zM692 120q-3 38 -51 54q-83 -24 -83 -70q0 -40 59 -40q34 0 54.5 15t20.5 41zM718 306q0 32 -43 32q-28 0 -43.5 -13t-15.5 -33q0 -27 38 -47q64 25 64 61z"/>
    <glyph glyph-name="seveneighths" unicode="⅞" horiz-adv-x="833" d="M271 581h-152q-13 0 -13 11q0 3 2 11q2 7 5.5 23t5.5 23q3 11 13 11h245q13 0 13 -11q0 -7 -7 -30q-2 -9 -6 -16l-219 -341q-4 -9 -13 -9q-3 0 -18 3l-51 8q-9 1 -9 9q0 5 5 13zM665 669q0 -7 -6 -17l-430 -682q-6 -10 -17 -10h-63q-17 0 -17 9q0 5 6 17l429 682 q7 10 18 10h63q17 0 17 -9zM805 316q0 -71 -78 -106q53 -32 53 -85q0 -65 -51 -99t-122 -34q-63 0 -100.5 25.5t-37.5 71.5q0 86 102 124q-41 29 -41 76q0 53 41 86t108 33q56 0 91 -25t35 -67zM692 120q-3 38 -51 54q-83 -24 -83 -70q0 -40 59 -40q34 0 54.5 15t20.5 41z M718 306q0 32 -43 32q-28 0 -43.5 -13t-15.5 -33q0 -27 38 -47q64 25 64 61z"/>
    <glyph glyph-name="partialdiff" unicode="∂" horiz-adv-x="602" d="M567 463q0 -93 -25 -188q-35 -126 -109.5 -206t-180.5 -80q-93 0 -150.5 56.5t-57.5 145.5q0 141 79.5 221.5t180.5 80.5q46 0 81 -18t50 -45h2q4 34 4 55q0 71 -34.5 110.5t-95.5 39.5q-55 0 -99 -28q-5 14 -14 42.5t-14 42.5q58 39 147 39q110 0 173 -71t63 -197z M422 334q-23 70 -93 70q-62 0 -108.5 -64t-46.5 -155q0 -45 22 -71.5t59 -26.5q60 0 104.5 71t62.5 176z"/>
    <glyph glyph-name="Delta" unicode="∆" horiz-adv-x="642" d="M651 0h-626v55l226 645h178l222 -645v-55zM496 106l-143 427q-6 18 -17 62h-4q0 -1 -5 -23t-10 -37l-145 -429h324z"/>
    <glyph glyph-name="product" unicode="∏" horiz-adv-x="753" d="M676 -230h-132v817h-335v-817h-132v930h599v-930z"/>
    <glyph glyph-name="summation" unicode="∑" horiz-adv-x="659" d="M606 -230h-584v69l302 401l-284 385v75h545v-105h-380l257 -353l-273 -367h417v-105z"/>
    <glyph glyph-name="minus" unicode="−" horiz-adv-x="500" d="M38 302v63q0 13 4 17t17 4h414q13 0 17 -4t4 -17v-63q0 -13 -4 -16.5t-17 -3.5h-414q-13 0 -17 3.5t-4 16.5z"/>
    <glyph glyph-name="uni2215" unicode="∕" horiz-adv-x="264" d="M401 669q0 -7 -6 -17l-430 -682q-6 -10 -17 -10h-63q-17 0 -17 9q0 5 6 17l429 682q7 10 18 10h63q17 0 17 -9z"/>
    <glyph glyph-name="uni2219" unicode="∙" horiz-adv-x="296" d="M234 334q0 -29 -21 -50t-50 -21q-30 0 -51.5 21t-21.5 50q0 31 21 51.5t51 20.5q29 0 50.5 -21t21.5 -51z"/>
    <glyph glyph-name="radical" unicode="√" horiz-adv-x="549" d="M358 -12h-100l-130 309l-57 -36l-38 63l149 98l125 -303l158 610h86z"/>
    <glyph glyph-name="infinity" unicode="∞" horiz-adv-x="823" d="M775 294q0 -79 -50.5 -130.5t-129.5 -51.5q-56 0 -105 28.5t-82 78.5h-2q-77 -107 -186 -107q-77 0 -129.5 48.5t-52.5 130.5t52.5 131t128.5 49q111 0 187 -108h2q29 44 76.5 76t107.5 32q80 0 131.5 -50t51.5 -127zM676 293q0 39 -23.5 64.5t-67.5 25.5q-70 0 -130 -91 q55 -93 130 -93q44 0 67.5 27t23.5 67zM358 292q-60 91 -131 91q-42 0 -66 -26.5t-24 -65.5t25.5 -65.5t65.5 -26.5q73 0 130 93z"/>
    <glyph glyph-name="integral" unicode="∫" horiz-adv-x="510" d="M428 642q-22 9 -45 9q-72 0 -72 -87v-599q0 -93 -46 -146.5t-136 -53.5q-55 0 -89 15q3 13 11 44.5l12 47.5q24 -8 46 -8q71 0 71 88v597q0 93 46.5 147t136.5 54q61 0 91 -17z"/>
    <glyph glyph-name="approxequal" unicode="≈" horiz-adv-x="500" d="M491 423q-30 -47 -63 -70t-78 -23q-60 0 -106 31q-47 32 -87 32q-18 0 -34.5 -12.5t-24 -23.5t-18.5 -30l-70 82q30 44 62 68t80 24q56 0 104 -30q54 -32 89 -32q41 0 76 66zM491 188q-30 -47 -63 -70t-78 -23q-60 0 -106 31q-47 32 -87 32q-18 0 -34.5 -12.5t-24 -23.5 t-18.5 -30l-70 82q30 44 62 68t80 24q53 0 104 -30q56 -33 89 -33q40 0 76 66z"/>
    <glyph glyph-name="notequal" unicode="≠" horiz-adv-x="500" d="M458 128h-218l-43 -104h-119l43 104h-78v108h123l53 128h-176v108h221l51 121h118l-50 -121h75v-108h-120l-54 -128h174v-108z"/>
    <glyph glyph-name="lessequal" unicode="≤" horiz-adv-x="500" d="M458 0h-415v108h415v-108zM458 143l-415 172v101l415 172v-112l-284 -110v-2l284 -111v-110z"/>
    <glyph glyph-name="greaterequal" unicode="≥" horiz-adv-x="500" d="M457 0h-414v108h414v-108zM458 315l-415 -171v112l284 110v2l-284 110v110l415 -172v-101z"/>
    <glyph glyph-name="lozenge" unicode="◊" horiz-adv-x="589" d="M311 700l211 -350l-211 -350h-61l-210 349l210 351h61zM426 350l-145 243l-145 -243l145 -243z"/>
    <glyph glyph-name="zero.fitted" unicode="" horiz-adv-x="560" d="M548 502q0 -103 -32 -219.5t-81 -187.5q-33 -49 -93 -80.5t-122 -31.5q-83 0 -131.5 49t-48.5 133q0 105 33.5 224t83.5 191q34 49 91.5 77.5t121.5 28.5q83 0 130.5 -49.5t47.5 -134.5zM423 488q0 91 -73 91q-76 0 -123 -113q-22 -53 -42 -144.5t-20 -140.5 q0 -91 72 -91q76 0 125 118q23 55 42 143t19 137z"/>
    <glyph glyph-name="two.fitted" unicode="" horiz-adv-x="494" d="M490 525q0 -98 -68 -165q-45 -45 -156 -119q-116 -76 -128 -134h239q17 0 17 -11q0 -2 -0.5 -3t-1 -4.5t-1.5 -7.5l-14 -66q-2 -10 -5 -12.5t-13 -2.5h-360q-12 0 -12 8t8.5 41t15.5 53q23 67 69.5 118.5t137.5 113.5q58 39 81 57t38 37q29 36 29 84q0 70 -58 70 q-66 0 -116 -89q-12 -20 -22 -20q-4 0 -10 2l-56 28q-9 5 -9 11q0 17 30 62q76 110 207 110q76 0 117 -42t41 -119z"/>
    <glyph glyph-name="three.fitted" unicode="" horiz-adv-x="460" d="M454 545q0 -62 -33.5 -113t-89.5 -73q41 -21 59.5 -52.5t18.5 -81.5q0 -104 -68 -172q-70 -70 -193 -70q-90 0 -157 35q-21 11 -21 16q0 4 4 11l33 72q3 9 10 9q5 0 12 -5q59 -35 127 -35q61 0 93 32q42 39 42 100q0 78 -110 78h-32q-17 0 -17 11q0 2 0.5 3t1 4.5 t1.5 7.5l14 67q2 10 5 12.5t13 2.5h38q39 0 61.5 8.5t40.5 30.5q29 34 29 78q0 62 -62 62q-49 0 -110 -58q-7 -6 -11 -6t-8 5l-49 45q-5 5 -5 9q0 8 23 31q75 77 179 77q74 0 117.5 -38t43.5 -103z"/>
    <glyph glyph-name="four.fitted" unicode="" horiz-adv-x="505" d="M475 236q0 -2 -3 -15l-12 -56q-2 -10 -5 -12.5t-12 -2.5h-64l-29 -136q-2 -9 -5 -11.5t-13 -2.5h-78q-17 0 -17 11q0 3 3 15l26 124h-244q-17 0 -17 12q0 1 0.5 2t1 4t1.5 8l20 96q1 9 8 17l327 410q6 8 11 8q3 0 13 -5l63 -31q12 -6 12 -13q0 -4 -6 -11l-320 -400h152 l57 171q3 8 6 10.5t12 2.5h56q17 0 17 -11q0 -3 -3 -15l-33 -158h58q17 0 17 -11z"/>
    <glyph glyph-name="five.fitted" unicode="" horiz-adv-x="488" d="M490 658q0 -1 -0.5 -3t-1 -5.5t-0.5 -6.5l-14 -64q-2 -9 -5 -11.5t-13 -2.5h-211l-50 -158q43 25 96 25q72 0 117 -44.5t45 -115.5q0 -56 -23.5 -111.5t-64.5 -96.5q-81 -81 -210 -81q-55 0 -112.5 14t-57.5 28q0 4 3 13l28 71q4 10 12 10q4 0 12 -4q63 -29 121 -29 q76 0 125 48t49 122q0 79 -78 79q-59 0 -112 -50q-8 -8 -14 -8q-2 0 -8 2l-53 18q-16 5 -16 13q0 4 5 15l101 331q3 9 5.5 11t12.5 2h295q17 0 17 -11z"/>
    <glyph glyph-name="six.fitted" unicode="" horiz-adv-x="498" d="M512 654q0 -4 -3 -12l-33 -65q-6 -10 -12 -10q-4 0 -17 6q-23 10 -55 10q-59 0 -110.5 -43.5t-87.5 -123.5q61 53 127 53q64 0 100.5 -45t36.5 -124q0 -74 -26 -140.5t-72 -112.5q-62 -64 -162 -64q-80 0 -123 48t-43 139q0 103 40 215.5t102 186.5q96 114 229 114 q39 0 74 -10.5t35 -21.5zM340 283q0 83 -69 83q-52 0 -86.5 -56.5t-34.5 -142.5q0 -81 66 -81q52 0 88 57t36 140z"/>
    <glyph glyph-name="seven.fitted" unicode="" horiz-adv-x="459" d="M511 658q0 -8 -2 -15l-5 -23q-2 -9 -3 -10l-2 -5l-3 -4l-352 -606q-6 -10 -12 -10q-5 0 -15 2l-77 18q-15 3 -15 11q0 5 6 15l327 528h-246q-17 0 -17 11q0 3 3 15l15 70q2 9 5 11.5t12 2.5h364q17 0 17 -11z"/>
    <glyph glyph-name="eight.fitted" unicode="" d="M519 537q0 -117 -143 -183q50 -27 72.5 -62.5t22.5 -87.5q0 -91 -72 -157q-71 -64 -192 -64q-94 0 -145 39.5t-51 113.5q0 141 176 216q-79 49 -79 138q0 88 62.5 142t163.5 54q82 0 133.5 -41.5t51.5 -107.5zM396 518q0 33 -19 51t-54 18q-43 0 -69.5 -26.5t-26.5 -67.5 q0 -32 15 -53t52 -41q102 40 102 119zM350 195q0 56 -42 85q-9 6 -44 24q-71 -31 -101 -62.5t-30 -75.5q0 -38 25.5 -59t72.5 -21q55 0 87 29.5t32 79.5z"/>
    <glyph glyph-name="nine.fitted" unicode="" horiz-adv-x="498" d="M490 498q0 -102 -38.5 -212.5t-99.5 -185.5q-94 -117 -231 -117q-35 0 -64 8.5t-29 18.5q0 3 3 12l22 67q3 10 11 10q4 0 18 -5q27 -8 48 -8q60 0 113.5 46.5t90.5 130.5q-65 -62 -133 -62q-64 0 -100.5 44.5t-36.5 121.5q0 159 98 255q64 64 162 64q81 0 123.5 -48 t42.5 -140zM372 507q0 36 -17.5 56t-48.5 20q-44 0 -73 -38q-51 -67 -51 -165q0 -35 18 -55.5t49 -20.5q45 0 72 35q23 29 37 76t14 92z"/>
    <glyph glyph-name="zero.taboldstyle" unicode="" d="M512 415q0 -94 -28 -181.5t-77 -149.5q-37 -46 -92.5 -73.5t-113.5 -27.5q-79 0 -128 46q-50 48 -50 149q0 98 29.5 187.5t80.5 151.5q82 96 203 96q78 0 127 -46q49 -48 49 -152zM388 413q0 93 -72 93q-52 0 -86 -47q-38 -53 -60.5 -129t-22.5 -149q0 -91 71 -91 q56 0 91 53q36 52 57.5 126.5t21.5 143.5z"/>
    <glyph glyph-name="one.taboldstyle" unicode="" d="M419 584q0 -1 -0.5 -3t-1 -5t-0.5 -6l-102 -480h74q15 0 15 -11q0 -1 -0.5 -2t-1 -4.5t-1.5 -8.5l-10 -49q-2 -10 -5 -12.5t-13 -2.5h-289q-15 0 -15 11q0 5 2 15l11 50q2 9 5 11.5t13 2.5h101l79 371l-100 -53q-14 -7 -18 -7q-6 0 -11 12l-15 37q-5 13 -5 17q0 5 10 11 l180 111q10 6 22 6h59q17 0 17 -11z"/>
    <glyph glyph-name="two.taboldstyle" unicode="" d="M498 472q0 -85 -60 -147q-26 -27 -52 -44t-98 -56q-66 -35 -89 -57.5t-32 -60.5h239q17 0 17 -11q0 -3 -3 -15l-14 -66q-2 -10 -5 -12.5t-13 -2.5h-360q-12 0 -12 8q0 20 23 94q22 65 65.5 109t140.5 100q84 47 102 68q26 31 26 67q0 63 -59 63q-65 0 -117 -90 q-11 -20 -21 -20q-4 0 -10 3l-56 28q-9 4 -9 11q0 17 31 62q73 110 208 110q71 0 114.5 -38.5t43.5 -102.5z"/>
    <glyph glyph-name="three.taboldstyle" unicode="" d="M467 472q0 -62 -33.5 -113t-89.5 -73q41 -21 59.5 -52.5t18.5 -81.5q0 -105 -68 -173q-70 -70 -193 -70q-93 0 -157 35q-21 11 -21 17q0 3 4 11l33 72q3 9 10 9q4 0 12 -5q59 -36 127 -36q61 0 93 32q42 40 42 101q0 78 -110 78h-32q-17 0 -17 11q0 2 0.5 3t1 4.5 t1.5 7.5l14 67q2 10 5 12.5t13 2.5h38q39 0 61.5 8.5t40.5 30.5q29 34 29 78q0 62 -62 62q-49 0 -110 -58q-7 -6 -11 -6t-8 5l-49 45q-5 5 -5 9q0 7 23 31q75 77 180 77q73 0 116.5 -38t43.5 -103z"/>
    <glyph glyph-name="four.taboldstyle" unicode="" d="M464 140q0 -2 -3 -15l-12 -57q-2 -9 -5 -11.5t-12 -2.5h-64l-29 -136q-2 -9 -5 -11.5t-12 -2.5h-79q-17 0 -17 11q0 3 3 15l26 124h-244q-17 0 -17 12q0 1 0.5 2t1 4t1.5 8l20 96q3 12 8 17l327 410q6 8 11 8q3 0 13 -5l63 -31q12 -5 12 -13q0 -4 -6 -11l-320 -400h152 l57 171q3 8 6 10.5t12 2.5h56q17 0 17 -11q0 -3 -3 -15l-33 -158h58q17 0 17 -11z"/>
    <glyph glyph-name="five.taboldstyle" unicode="" d="M496 585l-2 -16l-14 -64q-2 -9 -5 -11.5t-13 -2.5h-211l-50 -158q43 25 96 25q72 0 117 -44.5t45 -115.5q0 -56 -23.5 -112t-64.5 -96q-81 -81 -208 -81q-56 0 -114 14.5t-58 28.5q0 4 3 12l28 72q4 9 12 9q4 0 12 -4q66 -29 121 -29q76 0 125 48t49 122q0 79 -78 79 q-58 0 -112 -50q-8 -7 -14 -7q-5 0 -8 2l-53 18q-16 5 -16 13q0 3 5 15l101 330q3 9 5.5 11t12.5 2h295q17 0 17 -10z"/>
    <glyph glyph-name="six.taboldstyle" unicode="" d="M531 654q0 -4 -3 -12l-33 -65q-6 -10 -12 -10q-4 0 -17 6q-23 10 -55 10q-59 0 -110.5 -43.5t-87.5 -123.5q61 53 127 53q64 0 100.5 -45t36.5 -124q0 -74 -26 -140.5t-72 -112.5q-62 -64 -162 -64q-80 0 -123 48t-43 139q0 103 40 215.5t102 186.5q96 114 229 114 q39 0 74 -10.5t35 -21.5zM359 283q0 83 -69 83q-52 0 -86.5 -56.5t-34.5 -142.5q0 -81 66 -81q52 0 88 57t36 140z"/>
    <glyph glyph-name="seven.taboldstyle" unicode="" d="M515 584q0 -8 -2 -15l-5 -23q-3 -13 -8 -19l-352 -606q-6 -10 -12 -10q-5 0 -15 2l-77 18q-15 4 -15 11q0 5 6 15l327 528h-246q-17 0 -17 11q0 3 3 15l15 70q2 9 5 11.5t12 2.5h364q17 0 17 -11z"/>
    <glyph glyph-name="eight.taboldstyle" unicode="" d="M519 537q0 -117 -143 -183q50 -27 72.5 -62.5t22.5 -87.5q0 -91 -72 -157q-71 -64 -192 -64q-94 0 -145 39.5t-51 113.5q0 141 176 216q-79 49 -79 138q0 88 62.5 142t163.5 54q82 0 133.5 -41.5t51.5 -107.5zM396 518q0 33 -19 51t-54 18q-43 0 -69.5 -26.5t-26.5 -67.5 q0 -32 15 -53t52 -41q102 40 102 119zM350 195q0 56 -42 85q-9 6 -44 24q-71 -31 -101 -62.5t-30 -75.5q0 -38 25.5 -59t72.5 -21q55 0 87 29.5t32 79.5z"/>
    <glyph glyph-name="nine.taboldstyle" unicode="" d="M484 425q0 -102 -38.5 -213t-99.5 -186q-94 -117 -231 -117q-35 0 -64 8.5t-29 19.5q0 3 3 12l22 67q3 10 11 10q4 0 18 -5q24 -9 49 -9q59 0 112.5 47t90.5 131q-63 -62 -133 -62q-64 0 -100.5 44.5t-36.5 121.5q0 159 98 255q64 64 162 64q81 0 123.5 -48t42.5 -140z M366 434q0 36 -17.5 56t-48.5 20q-45 0 -73 -38q-51 -67 -51 -165q0 -35 18 -55.5t49 -20.5q45 0 72 35q23 29 37 76t14 92z"/>
    <glyph glyph-name="zero.denominator" unicode="" horiz-adv-x="356" d="M73 341q53 67 138 67q56 0 87.5 -30.5t32.5 -86.5v-4q0 -60 -19.5 -122t-51.5 -103q-55 -70 -141 -70q-59 0 -89.5 31t-30.5 88v8q0 59 20 120t54 102zM126 273q-15 -31 -26 -78.5t-11 -77.5v-3q0 -46 40 -46q45 0 75 61q15 32 26 79.5t11 77.5q-1 46 -42 46 q-43 0 -73 -59z"/>
    <glyph glyph-name="one.denominator" unicode="" horiz-adv-x="356" d="M270 386q0 -4 -1 -8l-69 -309h49q13 0 14 -9q0 -1 -2 -13q-2 -5 -4 -16t-3 -16q-2 -9 -5.5 -12t-13.5 -3h-194q-14 0 -14 12q0 7 1 12q3 10 7 30q4 15 19 15h60l52 234l-56 -27q-8 -5 -15 -5t-11 8l-13 27q-2 4 -2 8q0 8 12 15l115 64q12 6 16 6h43q15 0 15 -13z"/>
    <glyph glyph-name="two.denominator" unicode="" horiz-adv-x="356" d="M320 315q0 -61 -48 -103q-24 -21 -99 -67q-62 -36 -77 -69h155q13 0 13 -9q0 -4 -2 -16l-7 -34q-2 -10 -5.5 -13.5t-13.5 -3.5h-237q-13 0 -13 11q0 18 19 63q26 64 122 126q70 43 87 62q14 19 14 41q0 31 -36 31t-70 -50q-7 -11 -15 -11q-10 0 -14 3q-4 1 -11.5 3.5 l-13.5 4.5t-11 4q-9 3 -9 12q4 11 6 14q22 43 64 68t92 25q52 0 81 -24.5t29 -67.5z"/>
    <glyph glyph-name="three.denominator" unicode="" horiz-adv-x="356" d="M235 215q44 -24 44 -74q0 -67 -52 -108.5t-127 -41.5q-39 0 -78.5 13t-39.5 25q0 2 3 8l21 41q5 8 14 8q6 0 16 -5q36 -18 73 -18q35 0 57 19t22 51q0 41 -65 41h-26q-14 0 -14 10q0 5 2 15l7 31q2 9 5.5 11.5t13.5 2.5h27q34 0 56 16.5t22 45.5q0 31 -36 31 q-26 0 -60 -27q-11 -8 -20 -8q-8 0 -13 5l-28 22q-3 3 -3 10q0 8 18 23q50 45 120 45q51 0 81 -23t30 -63q0 -71 -70 -106z"/>
    <glyph glyph-name="four.denominator" unicode="" horiz-adv-x="356" d="M160 82h-158q-15 0 -15 11q0 2 2 14l10 45q2 9 8 15l193 238q6 7 13 7q10 0 16 -3l42 -10q11 -3 11 -10q0 -6 -8 -16l-184 -220h84l29 87q2 8 5.5 10.5t12.5 2.5h41q16 0 16 -11q0 -3 -2 -11l-16 -77h38q13 0 13 -9q0 -1 -2 -13l-8 -35q-4 -15 -18 -15h-38l-15 -68 q-4 -14 -19 -14h-53q-15 0 -15 10q0 4 2 12z"/>
    <glyph glyph-name="five.denominator" unicode="" horiz-adv-x="356" d="M125 247q32 16 60 16q46 0 77 -27t32 -71t-19.5 -81t-56.5 -61q-47 -31 -116 -31q-61 0 -101 18q-14 6 -14 14q0 4 3 13q7 13 16 39q4 9 12 9q2 0 14 -4q47 -15 74 -15q46 0 75 25t28 66q0 37 -44 37q-41 0 -69 -25q-13 -9 -16 -9q-4 0 -15 3l-30 10q-9 3 -9 12q0 5 3 11 l64 190q5 14 15 14h198q11 0 11 -11q0 -3 -2 -11l-11 -36q-3 -14 -14 -14h-134q-2 -6 -31 -81z"/>
    <glyph glyph-name="six.denominator" unicode="" horiz-adv-x="356" d="M142 265q28 17 60 17q46 0 72.5 -27t27.5 -75q0 -78 -49 -133t-123 -55q-54 0 -85 30.5t-31 84.5t20 112t55 103q70 86 169 86q43 0 68 -14q9 -6 9 -12q0 -3 -3 -11l-21 -38q-4 -7 -11 -7q-4 0 -10 3q-16 6 -36 6q-71 0 -112 -70zM215 174q-2 38 -40 38q-36 0 -57 -35 q-17 -29 -17 -73q0 -39 38 -39q35 0 58 39q18 31 18 70z"/>
    <glyph glyph-name="seven.denominator" unicode="" horiz-adv-x="356" d="M221 321h-152q-13 0 -13 11q0 3 2 11q2 7 5.5 23t5.5 23q3 11 13 11h245q13 0 13 -11q0 -7 -7 -30q-2 -9 -6 -16l-219 -341q-4 -9 -13 -9q-3 0 -18 3l-51 8q-9 1 -9 9q0 5 5 13z"/>
    <glyph glyph-name="eight.denominator" unicode="" horiz-adv-x="356" d="M328 316q0 -71 -78 -106q53 -32 53 -85q0 -65 -51 -99t-122 -34q-63 0 -100.5 25.5t-37.5 71.5q0 86 102 124q-41 29 -41 76q0 53 41 86t108 33q56 0 91 -25t35 -67zM215 120q-3 38 -51 54q-83 -24 -83 -70q0 -40 59 -40q34 0 54.5 15t20.5 41zM241 306q0 32 -43 32 q-28 0 -43.5 -13t-15.5 -33q0 -27 38 -47q64 25 64 61z"/>
    <glyph glyph-name="nine.denominator" unicode="" horiz-adv-x="356" d="M187 137q-29 -18 -60 -18q-45 0 -72 27t-28 75q-1 79 48 133t124 54q55 0 85 -30t31 -85q0 -54 -20 -111.5t-54 -102.5q-69 -87 -168 -87q-30 0 -54 10q-14 4 -14 16q0 6 2 10l13 36q4 10 10 10q2 0 7.5 -1.5t6.5 -1.5q18 -6 32 -6q66 0 111 72zM114 226q0 -38 39 -38 q34 0 54 30q19 29 21 79q-2 38 -38 38q-35 0 -56 -35q-20 -30 -20 -74z"/>
    <glyph glyph-name="zero.numerator" unicode="" horiz-adv-x="356" d="M381 551q1 -61 -18.5 -124t-52.5 -105q-55 -70 -141 -70q-59 0 -89.5 31t-30.5 88q0 63 20 125t54 105q53 67 138 67q56 0 87.5 -30.5t32.5 -86.5zM291 546q-1 46 -42 46q-43 0 -73 -59q-15 -32 -26.5 -81t-10.5 -78q0 -46 40 -46q45 0 75 61q15 32 26 79.5t11 77.5z"/>
    <glyph glyph-name="one.numerator" unicode="" horiz-adv-x="356" d="M320 646q0 -4 -1 -8l-69 -309h49q13 0 14 -9q0 -1 -2 -13q-2 -5 -4 -16t-3 -16q-2 -9 -5.5 -12t-13.5 -3h-194q-14 0 -14 12q0 7 1 12q3 10 7 30q4 15 19 15h60l52 234l-56 -27q-8 -5 -15 -5t-11 8l-13 27q-2 4 -2 8q0 8 12 15l115 64q12 6 16 6h43q15 0 15 -13z"/>
    <glyph glyph-name="two.numerator" unicode="" horiz-adv-x="356" d="M370 575q0 -61 -48 -103q-24 -21 -99 -67q-62 -36 -77 -69h155q13 0 13 -9q0 -4 -2 -16l-7 -34q-2 -10 -5.5 -13.5t-13.5 -3.5h-237q-13 0 -13 11q0 18 19 63q26 64 122 126q70 43 87 62q14 19 14 41q0 31 -36 31t-70 -50q-7 -11 -15 -11q-10 0 -14 3q-4 1 -11.5 3.5 l-13.5 4.5t-11 4q-9 3 -9 12q4 11 6 14q22 43 64 68t92 25q52 0 81 -24.5t29 -67.5z"/>
    <glyph glyph-name="three.numerator" unicode="" horiz-adv-x="356" d="M285 475q44 -24 44 -74q0 -67 -52 -108.5t-127 -41.5q-39 0 -78.5 13t-39.5 25q0 2 3 8l21 41q5 8 14 8q6 0 16 -5q36 -18 73 -18q35 0 57 19t22 51q0 41 -65 41h-26q-14 0 -14 10q0 5 2 15l7 31q2 9 5.5 11.5t13.5 2.5h27q34 0 56 16.5t22 45.5q0 31 -36 31 q-26 0 -60 -27q-11 -8 -20 -8q-8 0 -13 5l-28 22q-3 3 -3 10q0 8 18 23q50 45 120 45q51 0 81 -23t30 -63q0 -71 -70 -106z"/>
    <glyph glyph-name="four.numerator" unicode="" horiz-adv-x="356" d="M210 342h-158q-15 0 -15 11q0 2 2 14l10 45q2 9 8 15l193 238q6 7 13 7q10 0 16 -3l42 -10q11 -3 11 -10q0 -6 -8 -16l-184 -220h84l29 87q2 8 5.5 10.5t12.5 2.5h41q16 0 16 -11q0 -3 -2 -11l-16 -77h38q13 0 13 -9q0 -1 -2 -13l-8 -35q-4 -15 -18 -15h-38l-15 -68 q-4 -14 -19 -14h-53q-15 0 -15 10q0 4 2 12z"/>
    <glyph glyph-name="five.numerator" unicode="" horiz-adv-x="356" d="M175 507q32 16 60 16q46 0 77 -27t32 -71t-19.5 -81t-56.5 -61q-47 -31 -116 -31q-61 0 -101 18q-14 6 -14 14q0 4 3 13q7 13 16 39q4 9 12 9q2 0 14 -4q47 -15 74 -15q46 0 75 25t28 66q0 37 -44 37q-41 0 -69 -25q-13 -9 -16 -9q-4 0 -15 3l-30 10q-9 3 -9 12q0 5 3 11 l64 190q5 14 15 14h198q11 0 11 -11q0 -3 -2 -11l-11 -36q-3 -14 -14 -14h-134q-2 -6 -31 -81z"/>
    <glyph glyph-name="six.numerator" unicode="" horiz-adv-x="356" d="M192 525q28 17 60 17q46 0 72.5 -27t27.5 -75q0 -78 -49 -133t-123 -55q-54 0 -85 30.5t-31 84.5t20 112t55 103q70 86 169 86q43 0 68 -14q9 -6 9 -12q0 -4 -3 -11l-21 -38q-4 -7 -11 -7q-4 0 -10 3q-17 6 -36 6q-71 0 -112 -70zM265 434q-2 38 -40 38q-36 0 -57 -35 q-17 -29 -17 -73q0 -39 38 -39q35 0 58 39q18 31 18 70z"/>
    <glyph glyph-name="seven.numerator" unicode="" horiz-adv-x="356" d="M271 581h-152q-13 0 -13 11q0 3 2 11q2 7 5.5 23t5.5 23q3 11 13 11h245q13 0 13 -11q0 -7 -7 -30q-2 -9 -6 -16l-219 -341q-4 -9 -13 -9q-3 0 -18 3l-51 8q-9 1 -9 9q0 5 5 13z"/>
    <glyph glyph-name="eight.numerator" unicode="" horiz-adv-x="356" d="M144 473q-41 29 -41 76q0 53 41 86t108 33q56 0 91 -25t35 -67q0 -71 -78 -106q53 -31 53 -85q0 -65 -51 -99t-122 -34q-64 0 -101 25t-37 72q0 86 102 124zM214 434q-83 -24 -83 -70q0 -40 59 -40q34 0 54.5 15t20.5 41q-3 38 -51 54zM227 505q64 25 64 61q0 32 -43 32 q-28 0 -43.5 -13t-15.5 -33q0 -27 38 -47z"/>
    <glyph glyph-name="nine.numerator" unicode="" horiz-adv-x="356" d="M237 397q-29 -18 -60 -18q-45 0 -72 27t-28 75q-1 79 48 133t124 54q55 0 85 -30t31 -85q0 -54 -20 -111.5t-54 -102.5q-69 -87 -168 -87q-30 0 -54 10q-14 4 -14 16q0 6 2 10l13 36q4 10 10 10q2 0 7.5 -1.5t6.5 -1.5q18 -6 32 -6q66 0 111 72zM164 486q0 -38 39 -38 q34 0 54 30q19 29 21 79q-2 38 -38 38q-35 0 -56 -35q-20 -30 -20 -74z"/>
    <glyph glyph-name="guillemotleft.cap" unicode="" horiz-adv-x="593" d="M613 547q0 -5 -6 -12l-169 -192l80 -185q4 -8 4 -13q0 -7 -8 -11l-57 -27q-12 -5 -14 -5q-6 0 -12 10l-126 233q-4 5 -4 10t6 10l232 229q7 7 12 7t12 -6l42 -36q8 -7 8 -12zM373 547q0 -4 -7 -12l-169 -192l80 -185q5 -12 5 -13q0 -7 -9 -11l-57 -27q-12 -5 -14 -5 q-6 0 -12 10l-126 233q-4 6 -4 10q0 5 6 10l232 229q6 7 12 7t12 -6l42 -36q9 -8 9 -12z"/>
    <glyph glyph-name="guillemotright.cap" unicode="" horiz-adv-x="593" d="M570 348q0 -5 -6 -10l-232 -229q-7 -7 -12 -7t-11 6l-43 36q-8 7 -8 12t6 12l169 192l-80 185q-4 10 -4 13q0 6 8 11l57 27q10 5 14 5q6 0 12 -10l126 -233q4 -6 4 -10zM330 348q0 -4 -6 -10l-233 -229q-6 -7 -12 -7q-5 0 -11 6l-43 36q-8 7 -8 12t7 12l168 192l-80 185 q-4 8 -4 13q0 6 8 11l58 27q10 5 13 5q7 0 13 -10l125 -233q5 -7 5 -10z"/>
    <glyph glyph-name="guilsinglleft.cap" unicode="" horiz-adv-x="352" d="M373 547q0 -4 -7 -12l-169 -192l80 -185q5 -12 5 -13q0 -7 -9 -11l-57 -27q-12 -5 -14 -5q-6 0 -12 10l-126 233q-4 6 -4 10q0 5 6 10l232 229q6 7 12 7t12 -6l42 -36q9 -8 9 -12z"/>
    <glyph glyph-name="guilsinglright.cap" unicode="" horiz-adv-x="352" d="M330 348q0 -4 -6 -10l-233 -229q-6 -7 -12 -7q-5 0 -11 6l-43 36q-8 7 -8 12t7 12l168 192l-80 185q-4 8 -4 13q0 6 8 11l58 27q10 5 13 5q7 0 13 -10l125 -233q5 -7 5 -10z"/>
    <glyph glyph-name="at.cap" unicode="" horiz-adv-x="1019" d="M946 447q0 -130 -80 -218.5t-197 -88.5q-80 0 -93 69q-52 -69 -117 -69q-44 0 -68.5 31t-24.5 86q0 63 22.5 121.5t61.5 99.5q40 43 98 43q48 0 79 -34l5 11q6 11 15 11h67q12 0 12 -11q0 -4 -1 -9l-46 -214q-2 -12 -2 -26q0 -30 35 -30q19 0 43 11t40 28q28 29 46 80 t18 104q0 110 -71.5 173.5t-196.5 63.5q-166 0 -268 -105q-54 -56 -85 -135.5t-31 -163.5q0 -137 85 -214q78 -72 224 -72q163 0 288 67q15 6 19 6q7 0 10 -8l16 -40q3 -9 3 -12q0 -7 -15 -16q-53 -32 -141.5 -51.5t-182.5 -19.5q-194 0 -290 95q-106 103 -106 269 q0 97 39 189.5t108 157.5q133 127 332 127q84 0 155.5 -25t115.5 -71q79 -82 79 -210zM605 425q-23 24 -49 24q-27 0 -47 -38q-13 -26 -23.5 -73.5t-10.5 -80.5q0 -39 25 -39q34 0 59 36q12 16 22 59z"/>
    <glyph glyph-name="braceleft.cap" unicode="" horiz-adv-x="408" d="M476 799q0 -5 -2 -15l-13 -62q-2 -11 -6 -12.5t-26 -2.5q-68 -1 -82 -72l-33 -154q-11 -48 -31.5 -74.5t-62.5 -45.5q48 -28 48 -75q0 -23 -5 -46l-37 -175q-4 -20 -4 -27q0 -45 57 -45h10q14 0 14 -11q0 -3 -3 -15l-13 -62q-2 -10 -6 -13t-16 -3q-81 0 -123 32t-42 93 q0 29 7 60l34 161q3 13 3 26q0 25 -15 35t-50 10h-11q-17 0 -17 11q0 1 0.5 2t1 4.5t1.5 8.5l14 69q1 9 4.5 11.5t13.5 2.5h23q38 0 57.5 16.5t27.5 54.5l30 140q40 184 235 184q17 0 17 -11z"/>
    <glyph glyph-name="braceright.cap" unicode="" horiz-adv-x="408" d="M394 383q0 -3 -2 -15l-15 -70q-2 -9 -5 -11.5t-12 -2.5h-24q-38 0 -57.5 -16.5t-27.5 -54.5l-30 -140q-40 -184 -234 -184q-18 0 -18 11q0 6 2 15l14 62q2 10 5 12.5t12 2.5q44 -1 65.5 15t30.5 57l33 154q10 49 31.5 75.5t63.5 45.5q-27 16 -38 33t-11 43q0 18 6 45 l37 175q3 15 3 28q0 23 -15.5 33.5t-50.5 10.5q-14 0 -14 11q0 6 2 15l13 62q2 10 6.5 13t17.5 3q79 0 121 -32t42 -93q0 -27 -7 -60l-34 -161q-3 -13 -3 -26q0 -25 15 -35t50 -10h11q17 0 17 -11z"/>
    <glyph glyph-name="bracketleft.cap" unicode="" horiz-adv-x="445" d="M519 799q0 -1 -0.5 -2t-1 -4.5t-1.5 -8.5l-13 -63q-1 -9 -4.5 -11.5t-13.5 -2.5h-103l-152 -714h98q17 0 17 -11q0 -5 -2 -15l-14 -63q-2 -9 -5 -11.5t-13 -2.5h-205q-14 0 -14 11q0 3 3 15l187 880q2 9 5 11.5t12 2.5h203q17 0 17 -11z"/>
    <glyph glyph-name="bracketright.cap" unicode="" horiz-adv-x="445" d="M391 799q0 -2 -3 -15l-187 -880q-2 -9 -5 -11.5t-12 -2.5h-203q-17 0 -17 11q0 1 0.5 2t1 4.5t1.5 8.5l13 63q1 9 4.5 11.5t13.5 2.5h103l152 714h-98q-17 0 -17 11q0 3 2 15l14 62q2 10 5 12.5t12 2.5h206q14 0 14 -11z"/>
    <glyph glyph-name="emdash.cap" unicode="" horiz-adv-x="963" d="M950 399q0 -1 -0.5 -2t-1 -4.5t-1.5 -8.5l-13 -63q-1 -9 -4.5 -11.5t-13.5 -2.5h-848q-17 0 -17 11q0 2 2 12l14 66q2 9 5 11.5t12 2.5h848q18 0 18 -11z"/>
    <glyph glyph-name="endash.cap" unicode="" horiz-adv-x="463" d="M449 401q0 -5 -2 -11l-15 -71q-2 -9 -5 -11.5t-13 -2.5h-344q-17 0 -17 11q0 2 3 15l14 68q1 9 4.5 11.5t13.5 2.5h344q17 0 17 -12z"/>
    <glyph glyph-name="hyphen.cap" unicode="" horiz-adv-x="334" d="M325 405l-1 -12l-17 -78q-2 -9 -5 -11.5t-13 -2.5h-223q-17 0 -17 12q0 1 0.5 2t1 4t1.5 8l15 75q1 9 4.5 11.5t13.5 2.5h223q17 0 17 -11z"/>
    <glyph glyph-name="parenleft.cap" unicode="" horiz-adv-x="444" d="M524 795q0 -7 -16 -25q-35 -39 -84 -102.5t-69 -95.5q-106 -174 -106 -373q0 -77 19.5 -158.5t52.5 -138.5q7 -14 7 -19q0 -11 -11 -17l-51 -27q-4 -3 -11 -3q-8 0 -12.5 6t-21.5 38q-98 182 -98 338q0 185 100 353q55 94 176 218l38 39q17 18 27 18q6 0 10 -3l44 -37 q6 -4 6 -11z"/>
    <glyph glyph-name="parenright.cap" unicode="" horiz-adv-x="444" d="M356 465q0 -186 -99 -354q-56 -93 -177 -218l-25 -26l-13 -13q-18 -18 -27 -18q-5 0 -10 3l-44 37q-6 3 -6 10q0 8 17 26q31 33 82 100t70 98q106 173 106 374q0 160 -72 296q-7 14 -7 19q0 11 11 17l51 27q6 3 11 3q8 0 12 -5.5t22 -38.5q98 -183 98 -337z"/>
    <glyph glyph-name="exclamdown.cap" unicode="" horiz-adv-x="352" d="M55 11q0 5 2 12l109 407q2 9 5.5 11.5t12.5 2.5h60q17 0 17 -12q0 -3 -2 -13l-63 -401q-2 -12 -5 -15t-13 -3h-106q-17 0 -17 11zM169 623q0 33 23.5 56.5t56.5 23.5t56.5 -23.5t23.5 -56.5q0 -34 -23.5 -57t-57.5 -23q-32 0 -55.5 23.5t-23.5 56.5z"/>
    </font>
</defs>
</svg>
