<?xml version="1.0" encoding="UTF-8" standalone="no"?>
<!DOCTYPE svg PUBLIC "-//W3C//DTD SVG 1.1//EN" "http://www.w3.org/Graphics/SVG/1.1/DTD/svg11.dtd">
<svg>
<metadata>
Created by FontForge 20090622 at Wed Aug  5 13:06:21 2015
 By deploy user
Copyright 1997 International Typeface Corporation. All rights reserved.
</metadata>
<defs>
<font id="OfficinaSansITCPro-Book" horiz-adv-x="500">
  <font-face font-family="OfficinaSansITCPro Book" font-weight="400" font-stretch="normal" units-per-em="1000" panose-1="2 0 5 6 4 0 0 2 0 4" ascent="724" descent="-276" x-height="480" cap-height="686" bbox="-113 -243 1077 926" underline-thickness="50" underline-position="-50" unicode-range="U+0020-U+FB04"/>
<missing-glyph d="M12 665h475v-665h-475v665zM250 375l161 243h-323zM221 333l-161 242v-484zM278 333l162 -243v485zM250 290l-162 -242h323z"/>
    <glyph glyph-name="IJ" unicode="IJ" horiz-adv-x="777" d="M125 65v556h-88q-9 0 -11.5 2.5t-2.5 11.5v37q0 9 2.5 11.5t11.5 2.5h259q9 0 11.5 -2.5t2.5 -11.5v-37q0 -9 -2.5 -11.5t-11.5 -2.5h-89v-556h89q9 0 11.5 -2.5t2.5 -11.5v-37q0 -9 -2.5 -11.5t-11.5 -2.5h-259q-9 0 -11.5 2.5t-2.5 11.5v37q0 9 2.5 11.5t11.5 2.5h88z M610 617h-173q-9 0 -11.5 2.5t-2.5 11.5v41q0 9 2.5 11.5t11.5 2.5h241q9 0 11.5 -2.5t2.5 -11.5v-460q0 -75 -4.5 -101.5t-22.5 -53.5q-46 -71 -151 -71q-83 0 -127 49t-44 142q0 13 1.5 16.5t7.5 3.5h59q8 0 8 -10v-12q0 -122 96 -122q67 0 87 54q8 21 8 100v410z"/>
    <glyph glyph-name="ij" unicode="ij" horiz-adv-x="522" d="M190 658q0 -25 -17.5 -43t-42.5 -18q-26 0 -43.5 17.5t-17.5 43.5q0 25 18 42.5t44 17.5q24 0 41.5 -17.5t17.5 -42.5zM175 12q0 -7 -2 -9.5t-9 -2.5h-53q-7 0 -9 2.5t-2 9.5v406h-80q-7 0 -9.5 2t-2.5 9v39q0 8 2 10t10 2h144q7 0 9 -2.5t2 -9.5v-456zM453 658 q0 -25 -17.5 -43t-42.5 -18t-43 17.5t-18 43.5q0 25 18 42.5t44 17.5q24 0 41.5 -18t17.5 -42zM362 418h-80q-8 0 -9.5 2t-1.5 9v39q0 8 2 10t9 2h144q7 0 9 -2.5t2 -9.5v-511q0 -169 -144 -169q-37 0 -80 13.5t-43 25.5q0 3 2 8l19 40q2 6 8 6q1 0 7 -2q46 -24 90 -24 q19 0 32 6t19.5 14t10 25t4 28.5t0.5 35.5v454z"/>
    <glyph glyph-name="napostrophe" unicode="'n" horiz-adv-x="542" d="M186 366v-354q0 -7 -2 -9.5t-9 -2.5h-53q-7 0 -9 2.5t-2 9.5v343q0 54 -19 96q-2 4 -2 6q0 4 5 6l45 26q6 3 8 3q8 0 17 -19t14 -47q85 68 161 68q74 0 102 -48q17 -29 17 -101v-333q0 -7 -2 -9.5t-9 -2.5h-53q-7 0 -9 2.5t-2 9.5v334q0 44 -15.5 63.5t-50.5 19.5 q-64 0 -132 -63zM150 699q0 -2 -4 -9l-115 -212q-6 -9 -9 -9q-2 0 -9 2l-22 8q-11 4 -11 9q0 1 2 8l58 200q5 11 15 11h81q14 0 14 -8z"/>
    <glyph glyph-name="f_f" unicode="ff" horiz-adv-x="571" d="M617 689q0 -2 -2 -6l-17 -41q-2 -6 -7 -6q-4 0 -10 3q-44 21 -77 21q-32 0 -46 -20q-14 -19 -14 -83v-77h144q11 0 11 -7q0 -4 -1 -6l-13 -40q-3 -9 -13 -9h-128v-406q0 -7 -2 -9.5t-9 -2.5h-53q-7 0 -9 2.5t-2 9.5v406h-200v-406q0 -7 -2 -9.5t-9 -2.5h-53q-7 0 -9 2.5 t-2 9.5v406h-66q-7 0 -9.5 2t-2.5 9v39q0 8 2 10t10 2h66v78q0 81 26 116q38 50 112 50q35 0 72.5 -12t37.5 -23q0 -2 -2 -6l-17 -41q-1 -6 -7 -6q-4 0 -10 3q-44 21 -77 21q-32 0 -46 -20q-14 -19 -14 -83v-77h200v78q0 81 26 116q38 50 112 50q35 0 72.5 -12t37.5 -23z "/>
    <glyph glyph-name="fi" unicode="fi" horiz-adv-x="519" d="M453 655q0 -24 -17.5 -41.5t-41.5 -17.5q-25 0 -42.5 17.5t-17.5 42.5t17.5 42t42.5 17q24 0 41.5 -17.5t17.5 -42.5zM434 12q0 -8 -2 -10t-10 -2h-49q-7 0 -9 2.5t-2 9.5v406h-200v-406q0 -8 -2 -10t-10 -2h-49q-7 0 -9 2.5t-2 9.5v406h-63q-7 0 -9 2t-2 9v39q0 7 2 9.5 t9 2.5h63v78q0 82 24 116q35 50 103 50q29 0 56.5 -9t27.5 -18l-1 -7l-16 -40q-2 -5 -7 -5q-4 0 -6 1q-36 14 -54 14q-31 0 -43 -20q-12 -18 -12 -83v-77h260q8 0 10 -2t2 -10v-456z"/>
    <glyph glyph-name="fl" unicode="fl" horiz-adv-x="575" d="M570 11q0 -8 -28 -16.5t-56 -8.5q-41 0 -68.5 19t-34.5 51q-5 22 -5 124v515q0 10 10 13l52 12q4 1 6 1q7 0 7 -11v-532q0 -68 2 -92q7 -38 41 -38q22 0 45 12q6 2 8 2q5 0 7 -6l12 -37q2 -6 2 -8zM330 690l-1 -7l-17 -41q-2 -6 -7 -6q-3 0 -9 3q-40 21 -69 21 q-31 0 -45 -20q-13 -20 -13 -83v-77h144q11 0 11 -7q0 -4 -1 -6l-13 -40q-4 -9 -13 -9h-128v-406q0 -7 -2 -9.5t-9 -2.5h-53q-7 0 -9 2.5t-2 9.5v406h-66q-7 0 -9.5 2t-2.5 9v39q0 8 2 10t10 2h66v78q0 48 5 72t20 44q36 50 109 50q32 0 67 -11.5t35 -22.5z"/>
    <glyph glyph-name="f_f_i" unicode="ffi" horiz-adv-x="798" d="M732 655q0 -24 -17.5 -41.5t-41.5 -17.5q-25 0 -42.5 17.5t-17.5 42.5t17.5 42t42.5 17q24 0 41.5 -17.5t17.5 -42.5zM369 480v78q0 82 24 116q35 50 103 50q29 0 56.5 -9t27.5 -18l-1 -7l-16 -40q-2 -5 -7 -5q-4 0 -6 1q-36 14 -54 14q-31 0 -43 -20q-12 -18 -12 -83 v-77h260q7 0 9.5 -2t2.5 -10v-456q0 -8 -2.5 -10t-9.5 -2h-49q-7 0 -9 2.5t-2 9.5v406h-200v-406q0 -8 -2.5 -10t-9.5 -2h-49q-7 0 -9 2.5t-2 9.5v406h-200v-406q0 -7 -2 -9.5t-9 -2.5h-53q-7 0 -9 2.5t-2 9.5v406h-66q-7 0 -9.5 2t-2.5 9v39q0 8 2 10t10 2h66v78 q0 81 26 116q38 50 112 50q35 0 72.5 -12t37.5 -23q0 -2 -2 -6l-17 -41q-1 -6 -7 -6q-4 0 -10 3q-44 21 -77 21q-32 0 -46 -20q-14 -19 -14 -83v-77h200z"/>
    <glyph glyph-name="f_f_l" unicode="ffl" horiz-adv-x="850" d="M369 480v78q0 48 5 72t20 44q36 50 109 50q32 0 67 -11.5t35 -22.5l-1 -7l-17 -41q-2 -6 -7 -6q-3 0 -9 3q-40 21 -69 21q-31 0 -45 -20q-13 -20 -13 -83v-77h144q11 0 11 -7q0 -4 -1 -6l-13 -40q-4 -9 -13 -9h-128v-406q0 -7 -2 -9.5t-9 -2.5h-53q-7 0 -9 2.5t-2 9.5 v406h-200v-406q0 -7 -2 -9.5t-9 -2.5h-53q-7 0 -9 2.5t-2 9.5v406h-66q-7 0 -9.5 2t-2.5 9v39q0 8 2 10t10 2h66v78q0 81 26 116q38 50 112 50q35 0 72.5 -12t37.5 -23q0 -2 -2 -6l-17 -41q-1 -6 -7 -6q-4 0 -10 3q-44 21 -77 21q-32 0 -46 -20q-14 -19 -14 -83v-77h200z M845 11q0 -8 -28 -16.5t-56 -8.5q-41 0 -68.5 19t-34.5 51q-5 22 -5 124v515q0 10 10 13l52 12q4 1 6 1q7 0 7 -11v-532q0 -68 2 -92q7 -38 41 -38q23 0 45 12q6 2 8 2q6 0 7 -6l12 -37q2 -6 2 -8z"/>
    <glyph glyph-name=".notdef" d="M12 665h475v-665h-475v665zM250 375l161 243h-323zM221 333l-161 242v-484zM278 333l162 -243v485zM250 290l-162 -242h323z"/>
    <glyph glyph-name=".null" horiz-adv-x="0"/>
    <glyph glyph-name="nonmarkingreturn" horiz-adv-x="333"/>
    <glyph glyph-name="space" unicode=" " horiz-adv-x="206"/>
    <glyph glyph-name="exclam" unicode="!" horiz-adv-x="333" d="M216 672l-22 -394q-1 -9 -3 -11t-11 -2h-29q-8 0 -10.5 2.5t-3.5 10.5l-23 394v4q0 10 14 10h74q14 0 14 -11v-3zM237 57q0 -29 -20.5 -50t-49.5 -21q-30 0 -50.5 20.5t-20.5 50.5q0 29 21 49.5t51 20.5q28 0 48.5 -21t20.5 -49z"/>
    <glyph glyph-name="quotedbl" unicode="&quot;" d="M374 672l-15 -237q-1 -8 -3.5 -10.5t-10.5 -2.5h-23q-8 0 -10.5 2.5t-3.5 10.5l-16 237q-1 8 2 11t11 3h55q14 0 14 -10v-4zM207 672l-15 -237q-1 -8 -3.5 -10.5t-10.5 -2.5h-22q-9 0 -11 2t-3 11l-17 237v4q0 10 14 10h55q8 0 11 -3t2 -11z"/>
    <glyph glyph-name="numbersign" unicode="#" d="M465 391q0 -9 -2.5 -11.5t-11.5 -2.5h-62l-20 -199h55q9 0 11.5 -2.5t2.5 -11.5v-36q0 -9 -2.5 -11.5t-11.5 -2.5h-62l-19 -181q-1 -13 -14 -13h-36q-13 0 -13 11v4l19 179h-127l-19 -181q-1 -8 -3.5 -10.5t-10.5 -2.5h-35q-14 0 -14 9v6l19 179h-59q-9 0 -11.5 2.5 t-2.5 11.5v36q0 9 2.5 11.5t11.5 2.5h67l19 199h-59q-9 0 -11.5 2.5t-2.5 11.5v38q0 9 2.5 11.5t11.5 2.5h67l21 202q1 8 3.5 10.5t10.5 2.5h36q8 0 10.5 -2t2.5 -10v-2l-21 -201h127l21 202q1 9 3.5 11t10.5 2h35q14 0 14 -9v-5l-21 -201h54q9 0 11.5 -2.5t2.5 -11.5v-38z M326 377h-127l-19 -199h127z"/>
    <glyph glyph-name="dollar" unicode="$" d="M438 168q0 -70 -42.5 -119.5t-111.5 -59.5v-65q0 -9 -2.5 -11.5t-11.5 -2.5h-26q-9 0 -11.5 2.5t-2.5 11.5v61q-51 2 -110.5 20.5t-59.5 33.5l1 7l18 47q3 5 7 5t8 -3q88 -45 136 -43v251q-79 45 -100 64q-54 49 -54 121q0 65 43.5 111.5t110.5 53.5v57q0 9 2.5 11.5 t11.5 2.5h26q9 0 11.5 -2.5t2.5 -11.5v-55q46 -3 91.5 -19.5t45.5 -29.5q0 -1 -2 -7l-17 -43q-2 -5 -7 -5q-4 0 -16 6q-53 28 -95 32v-228q82 -47 108 -74q46 -49 46 -119zM230 382v204q-34 -4 -53.5 -28t-19.5 -62t15.5 -62t57.5 -52zM359 160q0 38 -16.5 64.5t-58.5 56.5 v-226q35 8 55 36t20 69z"/>
    <glyph glyph-name="percent" unicode="%" horiz-adv-x="759" d="M730 168q0 -84 -36 -131t-101 -47q-62 0 -95.5 42.5t-33.5 120.5q0 85 36.5 131.5t101.5 46.5q61 0 94.5 -43t33.5 -120zM552 652q0 -2 -3 -8l-272 -653q-4 -10 -19 -10h-38q-13 0 -13 7q0 5 2 9l273 653q3 10 15 10h41q14 0 14 -8zM294 490q0 -84 -36 -131t-100 -47 q-62 0 -95.5 42.5t-33.5 121.5q0 84 36 130.5t102 46.5q60 0 93.5 -43t33.5 -120zM664 163q0 113 -65 113q-33 0 -51 -31t-18 -88q0 -112 64 -112q70 0 70 118zM228 485q0 113 -64 113q-33 0 -51 -31t-18 -88q0 -112 64 -112q33 0 51 30.5t18 87.5z"/>
    <glyph glyph-name="ampersand" unicode="&amp;" horiz-adv-x="611" d="M577 33q0 -5 -6 -9l-40 -33q-6 -4 -10 -4q-5 0 -11 6l-60 69q-49 -40 -91 -56t-96 -16q-93 0 -149.5 49.5t-56.5 131.5q0 91 78 151l54 39q-48 55 -67.5 94.5t-19.5 78.5q0 71 50 116.5t127 45.5q68 0 109.5 -40.5t41.5 -106.5q0 -55 -32 -100t-104 -92l166 -187 q30 51 30 117v12q0 12 12 12h49q12 0 12 -17q0 -98 -58 -176l69 -79q3 -3 3 -6zM356 542q0 40 -24 65t-63 25t-65.5 -25.5t-26.5 -63.5q0 -56 78 -142q55 39 78 71t23 70zM408 111l-180 207q-52 -41 -70.5 -71t-18.5 -71q0 -56 35.5 -89t95.5 -33q74 0 138 57z"/>
    <glyph glyph-name="quotesingle" unicode="'" horiz-adv-x="333" d="M207 672l-15 -237q-1 -8 -3.5 -10.5t-10.5 -2.5h-22q-9 0 -11 2t-3 11l-17 237v4q0 10 14 10h55q13 0 13 -11v-3z"/>
    <glyph glyph-name="parenleft" unicode="(" horiz-adv-x="370" d="M317 -202q0 -6 -17 -17t-26 -11q-15 0 -69 81q-123 184 -123 398q0 230 145 429q24 32 32 41t15 9q5 0 12 -4l24 -15q7 -4 7 -9q0 -6 -9 -18q-76 -101 -110 -204t-34 -229t34 -229t110 -204q9 -13 9 -18z"/>
    <glyph glyph-name="parenright" unicode=")" horiz-adv-x="370" d="M288 249q0 -230 -145 -429q-23 -32 -31.5 -41t-15.5 -9q-5 0 -12 4l-24 14q-7 6 -7 10q0 6 9 18q76 102 110 204.5t34 228.5t-34 229t-110 204q-9 13 -9 18q0 4 3 6.5t20 12.5q14 9 20 9q13 0 69 -81q123 -182 123 -398z"/>
    <glyph glyph-name="asterisk" unicode="*" d="M415 543q0 -7 -11 -9l-114 -26l77 -88q5 -6 5 -9q0 -4 -8 -11l-35 -25q-6 -5 -9 -5q-6 0 -10 8l-60 100l-60 -100q-5 -8 -10 -8q-4 0 -10 5l-35 26q-8 6 -8 9t6 10l76 88l-113 26q-12 3 -12 9q0 3 2 8l14 42q4 11 9 11q1 0 8 -3l108 -46l-11 117v5q0 9 14 9h44 q13 0 13 -8v-6l-10 -117l107 46l4 1q4 2 5 2q5 0 9 -11l13 -42q2 -5 2 -8z"/>
    <glyph glyph-name="plus" unicode="+" d="M287 283v-176q0 -9 -2.5 -11.5t-11.5 -2.5h-47q-9 0 -11.5 2.5t-2.5 11.5v176h-176q-9 0 -11.5 2.5t-2.5 11.5v47q0 9 2.5 11.5t11.5 2.5h176v177q0 9 2 11t12 2h47q10 0 12 -2t2 -11v-177h177q9 0 11.5 -2.5t2.5 -11.5v-47q0 -9 -2.5 -11.5t-11.5 -2.5h-177z"/>
    <glyph glyph-name="comma" unicode="," horiz-adv-x="296" d="M233 107q0 -3 -4 -10l-115 -212q-4 -9 -10 -9q-3 0 -5 1l-3 1l-22 8q-11 4 -11 9q0 2 2 8l58 200q3 11 15 11h81q14 0 14 -7z"/>
    <glyph glyph-name="hyphen" unicode="-" horiz-adv-x="352" d="M301 218h-250q-9 0 -11.5 2.5t-2.5 11.5v47q0 9 2.5 11.5t11.5 2.5h250q9 0 11.5 -2.5t2.5 -11.5v-47q0 -9 -2.5 -11.5t-11.5 -2.5z"/>
    <glyph glyph-name="period" unicode="." horiz-adv-x="296" d="M219 57q0 -29 -20.5 -50t-49.5 -21q-30 0 -50.5 20.5t-20.5 50.5q0 29 21 49.5t51 20.5q28 0 48.5 -21t20.5 -49z"/>
    <glyph glyph-name="slash" unicode="/" horiz-adv-x="444" d="M427 721q0 -3 -3 -10l-388 -931q-4 -9 -16 -9h-39q-13 0 -13 7q0 4 3 9l387 931q5 10 16 10h39q14 0 14 -7z"/>
    <glyph glyph-name="zero" unicode="0" d="M456 328q0 -166 -53 -254t-154 -88q-87 0 -135 66q-69 94 -69 263q0 161 56.5 251.5t157.5 90.5q95 0 146 -85t51 -244zM375 326q0 260 -122 260q-60 0 -93.5 -70t-33.5 -195q0 -133 36 -206q28 -58 88 -58q68 0 95 67q30 72 30 202z"/>
    <glyph glyph-name="one" unicode="1" d="M248 66v489l-140 -81q-5 -4 -10 -4q-4 0 -8 9l-12 22q-3 5 -3 10q0 4 8 8l177 125h50q9 0 11.5 -2.5t2.5 -11.5v-564h87q9 0 11.5 -2.5t2.5 -11.5v-38q0 -9 -2.5 -11.5t-11.5 -2.5h-265q-9 0 -11.5 2.5t-2.5 11.5v38q0 9 2.5 11.5t11.5 2.5h102z"/>
    <glyph glyph-name="two" unicode="2" d="M157 73h259q9 0 11.5 -2.5t2.5 -11.5v-45q0 -9 -2.5 -11.5t-11.5 -2.5h-335q-8 0 -10 2.5t-2 11.5q0 108 39.5 183.5t130.5 134.5q59 39 84.5 71.5t25.5 76.5q0 49 -26.5 77.5t-71.5 28.5q-41 0 -67.5 -23t-45.5 -77q-3 -8 -8 -8q-3 0 -8 2l-44 13q-8 3 -8 9q0 12 13 40 t27 46q52 69 146 69q80 0 127 -49t47 -132q0 -58 -25.5 -98.5t-92.5 -87.5q-79 -54 -113 -101.5t-42 -115.5z"/>
    <glyph glyph-name="three" unicode="3" d="M432 179q0 -87 -58.5 -140t-155.5 -53q-51 0 -107 15t-56 29q0 3 3 8l19 45q4 6 9 6q1 0 5 -2q67 -30 128 -30q63 0 97.5 33t34.5 92q0 123 -146 123h-34q-10 0 -12 2.5t-2 11.5v40q0 9 2.5 11.5t11.5 2.5h33q59 0 94 32.5t35 87.5q0 44 -26.5 71t-70.5 27q-52 0 -98 -46 q-18 -18 -22 -18q-5 0 -7 2l-36 32q-4 3 -4 5q0 16 49 52q54 39 121 39q76 0 123.5 -45t47.5 -117q0 -107 -103 -147q42 -13 64 -31q61 -47 61 -138z"/>
    <glyph glyph-name="four" unicode="4" d="M110 207h191l11 161q1 8 3.5 10.5t10.5 2.5h36q9 0 11.5 -2.5t2.5 -11.5v-160h79q9 0 11.5 -2.5t2.5 -11.5v-37q0 -9 -2.5 -11.5t-11.5 -2.5h-79v-142q0 -9 -2.5 -11.5t-11.5 -2.5h-47q-9 0 -11.5 2.5t-2.5 11.5v142h-256q-9 0 -11.5 2.5t-2.5 11.5v56l259 429q5 8 11 8 h2h4l50 -8q12 -1 12 -9q0 -4 -4 -9z"/>
    <glyph glyph-name="five" unicode="5" d="M433 218q0 -105 -62 -168.5t-165 -63.5q-63 0 -125 16q-14 4 -14 13q0 6 1 8l10 45q2 7 9 7q2 0 10 -2q42 -16 98 -16q85 0 119 42q38 44 38 117q0 60 -27.5 93.5t-76.5 33.5q-61 0 -116 -55q-6 -6 -10 -6l-8 1l-35 11q-11 4 -11 10q0 3 1 6l31 321q1 8 3.5 10.5 t10.5 2.5h260q9 0 11.5 -2.5t2.5 -11.5v-42q0 -9 -2.5 -11.5t-11.5 -2.5h-209l-22 -203q58 43 120 43q76 0 123 -54t47 -142z"/>
    <glyph glyph-name="six" unicode="6" d="M442 224q0 -105 -54 -171.5t-139 -66.5q-48 0 -88 24t-64 68q-38 70 -38 182q0 181 75 289t201 108q31 0 58.5 -6.5t27.5 -14.5q0 -2 -1 -6l-12 -46q-2 -5 -6 -5q-2 0 -8 2q-31 11 -63 11q-80 0 -131 -71q-40 -56 -53 -148q31 35 60 50t67 15q76 0 122 -58.5t46 -155.5z M361 223q0 71 -28.5 108.5t-83.5 37.5q-52 0 -80.5 -37.5t-28.5 -106.5q0 -81 28.5 -124.5t81.5 -43.5t82 43t29 123z"/>
    <glyph glyph-name="seven" unicode="7" d="M426 607l-231 -606q-4 -10 -10 -10q-1 0 -6 1l-54 7q-12 3 -12 9q0 3 3 9l216 555h-258q-9 0 -11.5 2.5t-2.5 11.5v44q0 9 2.5 11.5t11.5 2.5h338q9 0 11.5 -2.5t2.5 -11.5v-23z"/>
    <glyph glyph-name="eight" unicode="8" d="M460 167q0 -65 -45 -114q-58 -67 -165 -67q-95 0 -152.5 49t-57.5 131q0 78 57 127q29 25 89 48q-118 49 -118 155q0 65 46 111q51 50 138 50q79 0 129 -42t50 -110q0 -55 -27 -94t-86 -69q142 -55 142 -175zM355 497q0 44 -28.5 70t-77.5 26q-46 0 -74 -26t-28 -68 q0 -74 106 -126q54 24 78 53.5t24 70.5zM378 162q0 46 -30.5 79t-99.5 61q-42 -18 -64 -31q-28 -17 -45 -47t-17 -62q0 -49 36 -79.5t94 -30.5q55 0 90.5 31t35.5 79z"/>
    <glyph glyph-name="nine" unicode="9" d="M433 383q0 -185 -67 -291t-185 -106q-41 0 -68 7t-27 17v7l5 39q0 8 8 8q2 0 8 -2q29 -8 61 -8q79 0 122.5 53.5t61.5 172.5q-46 -77 -130 -77q-76 0 -122.5 61t-46.5 161q0 104 54 168t141 64q185 0 185 -274zM352 432q0 154 -107 154q-51 0 -81 -42.5t-30 -114.5 q0 -74 28.5 -116t79.5 -42q53 0 81.5 41.5t28.5 119.5z"/>
    <glyph glyph-name="colon" unicode=":" horiz-adv-x="296" d="M219 403q0 -29 -20.5 -49.5t-49.5 -20.5q-30 0 -50.5 20.5t-20.5 50.5q0 29 21 49.5t51 20.5q28 0 48.5 -21t20.5 -50zM219 57q0 -29 -20.5 -50t-49.5 -21q-30 0 -50.5 20.5t-20.5 50.5q0 29 21 49.5t51 20.5q28 0 48.5 -21t20.5 -49z"/>
    <glyph glyph-name="semicolon" unicode=";" horiz-adv-x="296" d="M234 403q0 -29 -21 -49.5t-50 -20.5t-49.5 20.5t-20.5 50.5q0 29 21 49.5t51 20.5q28 0 48.5 -21t20.5 -50zM233 107q0 -3 -4 -10l-115 -212q-4 -9 -10 -9q-3 0 -5 1l-3 1l-22 8q-11 4 -11 9q0 2 2 8l58 200q3 11 15 11h81q14 0 14 -7z"/>
    <glyph glyph-name="less" unicode="&lt;" d="M473 74l-446 211v70l446 211v-81l-359 -165l359 -165v-81z"/>
    <glyph glyph-name="equal" unicode="=" d="M478 366q0 -9 -2.5 -11.5t-11.5 -2.5h-428q-8 0 -11 3t-3 11v47q0 9 2.5 11.5t11.5 2.5h428q9 0 11.5 -2.5t2.5 -11.5v-47zM478 228q0 -9 -2.5 -11.5t-11.5 -2.5h-428q-9 0 -11.5 2.5t-2.5 11.5v47q0 9 2.5 11.5t11.5 2.5h428q9 0 11.5 -2.5t2.5 -11.5v-47z"/>
    <glyph glyph-name="greater" unicode="&gt;" d="M473 285l-446 -211v81l359 165l-359 165v81l446 -211v-70z"/>
    <glyph glyph-name="question" unicode="?" horiz-adv-x="426" d="M365 539q0 -129 -153 -170v-90q0 -9 -2.5 -11.5t-11.5 -2.5h-40q-9 0 -11.5 2.5t-2.5 11.5v123q0 15 17 20q60 18 83 32q42 26 42 83q0 43 -27 66t-77 23q-52 0 -109 -25q-6 -2 -9 -2q-6 0 -9 8l-14 38q-2 5 -2 7q0 14 51 28.5t100 14.5q82 0 128.5 -41t46.5 -115z M251 57q0 -29 -21 -50t-50 -21t-49.5 21t-20.5 50t21 49.5t51 20.5q28 0 48.5 -21t20.5 -49z"/>
    <glyph glyph-name="at" unicode="@" horiz-adv-x="944" d="M876 365q0 -91 -38 -166t-106 -118q-51 -32 -103 -32q-39 0 -61 23.5t-24 66.5q-61 -89 -138 -89q-40 0 -63 30.5t-23 82.5q0 108 57 194q49 73 122 73q27 0 44 -8.5t37 -31.5l10 24q3 6 10 6h45q6 0 6 -4v-3l-1 -3l-49 -230q-2 -12 -2 -28q0 -48 40 -48q69 0 120.5 77.5 t51.5 181.5q0 100 -57 160q-76 78 -212 78q-171 0 -288 -120.5t-117 -296.5q0 -141 79 -222q77 -80 232 -80q165 0 297 72q12 6 16 6q6 0 10 -8l12 -29q2 -6 2 -8q0 -9 -17 -18q-67 -34 -156 -53.5t-173 -19.5q-177 0 -274 97q-97 99 -97 259q0 94 38 187t103 158 q64 64 151 99t181 35q165 0 260 -92q75 -72 75 -202zM566 338q-36 33 -71 33q-44 0 -74 -70q-29 -68 -29 -134q0 -55 35 -55q39 0 73 41t48 103z"/>
    <glyph glyph-name="A" unicode="A" horiz-adv-x="537" d="M517 8q0 -8 -14 -8h-64q-10 0 -15 11l-55 195h-203l-56 -195q-3 -11 -15 -11h-60q-14 0 -14 7q0 2 2 9l201 659q2 8 4.5 9.5t10.5 1.5h60q8 0 10.5 -1.5t4.5 -9.5l201 -659q2 -7 2 -8zM350 275l-60 220q-11 40 -23 96q-7 -34 -23 -95l-60 -221h166z"/>
    <glyph glyph-name="B" unicode="B" horiz-adv-x="556" d="M500 189q0 -63 -31 -110.5t-84 -65.5q-37 -13 -130 -13h-145q-9 0 -11.5 2.5t-2.5 11.5v658q0 9 2.5 11.5t11.5 2.5h163q94 0 136 -27q64 -42 64 -137q0 -116 -98 -163q48 -13 72 -35q53 -50 53 -135zM384 513q0 58 -25.5 82t-87.5 24h-93v-236h72q59 0 85 18 q49 34 49 112zM411 192q0 76 -57 108q-29 16 -82 16h-94v-249h98q61 0 92 24q43 33 43 101z"/>
    <glyph glyph-name="C" unicode="C" horiz-adv-x="463" d="M441 64q0 -11 -28 -32q-58 -46 -135 -46q-110 0 -168 93t-58 271q0 174 57 265q25 40 68.5 62.5t93.5 22.5q82 0 149 -56q16 -15 16 -20q0 -4 -2 -8l-29 -38q-2 -4 -8 -4q-4 0 -34 24q-47 35 -91 35q-68 0 -99.5 -65.5t-31.5 -208.5q0 -306 141 -306q51 0 112 53 q6 6 11 6q4 0 8 -7l25 -33q3 -3 3 -8z"/>
    <glyph glyph-name="D" unicode="D" horiz-adv-x="556" d="M503 355q0 -355 -280 -355h-113q-9 0 -11.5 2.5t-2.5 11.5v658q0 9 2.5 11.5t11.5 2.5h104q120 0 178 -40q111 -76 111 -291zM415 355q0 195 -85 240q-37 20 -111 20h-41v-544h51q58 0 88 13t54 48q44 65 44 223z"/>
    <glyph glyph-name="E" unicode="E" horiz-adv-x="463" d="M432 679q0 -2 -2 -9l-15 -44q-3 -11 -15 -11h-222v-225h196q9 0 11.5 -2.5t2.5 -11.5v-39q0 -9 -2.5 -11.5t-11.5 -2.5h-196v-252h239q9 0 11.5 -2.5t2.5 -11.5v-43q0 -9 -2.5 -11.5t-11.5 -2.5h-307q-10 0 -12 2t-2 12v658q0 9 2.5 11.5t11.5 2.5h308q14 0 14 -7z"/>
    <glyph glyph-name="F" unicode="F" horiz-adv-x="426" d="M432 679q0 -3 -1 -5l-1 -4l-15 -44q-3 -11 -15 -11h-222v-232h196q9 0 11.5 -2.5t2.5 -11.5v-39q0 -9 -2.5 -11.5t-11.5 -2.5h-196v-302q0 -9 -2.5 -11.5t-11.5 -2.5h-54q-9 0 -11.5 2.5t-2.5 11.5v658q0 9 2.5 11.5t11.5 2.5h308q14 0 14 -7z"/>
    <glyph glyph-name="G" unicode="G" horiz-adv-x="537" d="M386 72v206h-78q-9 0 -11.5 2.5t-2.5 11.5v41q0 9 2.5 11.5t11.5 2.5h146q9 0 11.5 -2.5t2.5 -11.5v-292q0 -11 -9 -15q-63 -40 -166 -40q-118 0 -179.5 90.5t-61.5 263.5q0 176 62.5 268t181.5 92q76 0 144 -41q20 -13 20 -20q0 -3 -3 -8l-21 -43q-2 -4 -6 -4t-31 18 q-48 31 -103 31q-80 0 -117.5 -68t-37.5 -214q0 -158 39 -228t127 -70q41 0 79 19z"/>
    <glyph glyph-name="H" unicode="H" horiz-adv-x="611" d="M178 391h256v281q0 9 2.5 11.5t11.5 2.5h54q9 0 11.5 -2.5t2.5 -11.5v-658q0 -9 -2.5 -11.5t-11.5 -2.5h-54q-9 0 -11.5 2.5t-2.5 11.5v308h-256v-308q0 -9 -2.5 -11.5t-11.5 -2.5h-54q-9 0 -11.5 2.5t-2.5 11.5v658q0 9 2.5 11.5t11.5 2.5h54q9 0 11.5 -2.5t2.5 -11.5 v-281z"/>
    <glyph glyph-name="I" unicode="I" horiz-adv-x="333" d="M125 65v556h-88q-9 0 -11.5 2.5t-2.5 11.5v37q0 9 2.5 11.5t11.5 2.5h259q9 0 11.5 -2.5t2.5 -11.5v-37q0 -9 -2.5 -11.5t-11.5 -2.5h-89v-556h89q9 0 11.5 -2.5t2.5 -11.5v-37q0 -9 -2.5 -11.5t-11.5 -2.5h-259q-9 0 -11.5 2.5t-2.5 11.5v37q0 9 2.5 11.5t11.5 2.5h88z "/>
    <glyph glyph-name="J" unicode="J" horiz-adv-x="444" d="M277 617h-173q-9 0 -11.5 2.5t-2.5 11.5v41q0 9 2.5 11.5t11.5 2.5h241q9 0 11.5 -2.5t2.5 -11.5v-460q0 -75 -4.5 -101.5t-22.5 -53.5q-46 -71 -151 -71q-83 0 -127 49t-44 142q0 13 1.5 16.5t7.5 3.5h59q8 0 8 -10v-12q0 -122 96 -122q67 0 87 54q8 21 8 100v410z"/>
    <glyph glyph-name="K" unicode="K" horiz-adv-x="518" d="M504 37q0 -4 -7 -10l-46 -32q-6 -4 -9 -4q-4 0 -10 7l-254 327v-311q0 -9 -2.5 -11.5t-11.5 -2.5h-54q-9 0 -11.5 2.5t-2.5 11.5v658q0 9 2.5 11.5t11.5 2.5h54q9 0 11.5 -2.5t2.5 -11.5v-325l257 340q7 8 10 8t9 -5l37 -25q8 -6 8 -10q0 -3 -5 -10l-235 -304l240 -295 q5 -5 5 -9z"/>
    <glyph glyph-name="L" unicode="L" horiz-adv-x="445" d="M445 64q0 -1 -2 -9l-16 -44q-5 -11 -15 -11h-302q-9 0 -11.5 2.5t-2.5 11.5v658q0 9 2.5 11.5t11.5 2.5h54q9 0 11.5 -2.5t2.5 -11.5v-601h253q14 0 14 -7z"/>
    <glyph glyph-name="M" unicode="M" horiz-adv-x="667" d="M170 524v-3l-15 -508q0 -8 -2.5 -10.5t-10.5 -2.5h-54q-14 0 -14 10v4l38 659q1 9 3 11t11 2h59q8 0 10.5 -1.5t4.5 -9.5l118 -345q11 -34 14 -62q6 41 13 62l119 345q4 11 15 11h63q8 0 10 -2t3 -11l38 -659v-2v-2q0 -10 -13 -10h-58q-9 0 -11.5 2.5t-2.5 10.5l-15 508 v5q0 6 1.5 25.5t1.5 25.5l1 20q-7 -47 -21 -88l-117 -338q-3 -11 -15 -11h-29q-11 0 -15 11l-113 338q-13 42 -19 88v-19l1 -18l1 -20v-16z"/>
    <glyph glyph-name="N" unicode="N" horiz-adv-x="574" d="M491 672v-658q0 -9 -2.5 -11.5t-11.5 -2.5h-54q-11 0 -15 10l-229 495q-15 32 -30 94q10 -59 10 -98v-487q0 -9 -2.5 -11.5t-11.5 -2.5h-45q-9 0 -11.5 2.5t-2.5 11.5v658q0 9 2.5 11.5t11.5 2.5h63q11 0 15 -10l219 -466q16 -34 28 -84q-7 52 -7 87v459q0 9 2.5 11.5 t11.5 2.5h45q9 0 11.5 -2.5t2.5 -11.5z"/>
    <glyph glyph-name="O" unicode="O" horiz-adv-x="556" d="M503 344q0 -176 -59 -267t-172 -91q-108 0 -164 89.5t-56 263.5q0 361 234 361q107 0 162 -90.5t55 -265.5zM414 337q0 162 -38 238q-30 58 -98 58q-34 0 -62 -17t-41 -46q-34 -71 -34 -225q0 -156 39 -234q28 -58 97 -58q73 0 103 63q34 74 34 221z"/>
    <glyph glyph-name="P" unicode="P" horiz-adv-x="482" d="M466 502q0 -138 -100 -190q-41 -22 -116 -22h-72v-276q0 -9 -2.5 -11.5t-11.5 -2.5h-54q-9 0 -11.5 2.5t-2.5 11.5v658q0 9 2.5 11.5t11.5 2.5h153q91 0 128 -23q75 -44 75 -161zM382 501q0 87 -56 108q-19 8 -70 8h-78v-255h66q65 0 94 23q44 36 44 116z"/>
    <glyph glyph-name="Q" unicode="Q" horiz-adv-x="556" d="M547 -23q0 -5 -4 -8l-53 -36q-3 -3 -9 -3q-11 0 -42.5 25t-61.5 57q-49 -26 -105 -26q-220 0 -220 355q0 176 59 267.5t172 91.5q220 0 220 -357q0 -182 -68 -279q29 -30 107 -79q5 -4 5 -8zM414 337q0 162 -38 238q-30 58 -98 58q-34 0 -62 -17t-41 -46 q-34 -71 -34 -225q0 -155 38 -234q28 -58 97 -58q74 0 104 63q34 74 34 221z"/>
    <glyph glyph-name="R" unicode="R" horiz-adv-x="519" d="M505 9q0 -4 -12 -7l-61 -12h-5q-7 0 -11 8l-162 313h-76v-297q0 -9 -2.5 -11.5t-11.5 -2.5h-54q-9 0 -11.5 2.5t-2.5 11.5v658q0 9 2.5 11.5t11.5 2.5h153q85 0 126 -21q75 -39 75 -150q0 -73 -34 -124.5t-96 -72.5l167 -298q4 -7 4 -11zM380 509q0 77 -49 101 q-21 11 -73 11h-80v-247h77q54 0 82 23q43 36 43 112z"/>
    <glyph glyph-name="S" unicode="S" horiz-adv-x="482" d="M438 182q0 -88 -58 -142t-152 -54q-56 0 -122.5 21t-66.5 39q0 4 2 8l19 48q2 5 7 5q4 0 17 -7q76 -42 145 -42q55 0 88.5 31t33.5 82q0 46 -25.5 76t-99.5 73q-62 36 -85 52t-41 36q-40 46 -40 111q0 80 55 130.5t142 50.5q50 0 108.5 -19t58.5 -35q0 -2 -2 -8l-18 -45 q-3 -6 -8 -6q-3 0 -43 20q-47 22 -97 22q-52 0 -81 -26t-29 -73q0 -54 40 -85q22 -17 120 -75q45 -26 64 -42t35 -38q33 -45 33 -108z"/>
    <glyph glyph-name="T" unicode="T" horiz-adv-x="407" d="M422 679q0 -4 -1 -6l-1 -3l-15 -43q-3 -11 -15 -11h-144v-602q0 -9 -2.5 -11.5t-11.5 -2.5h-54q-9 0 -11.5 2.5t-2.5 11.5v602h-146q-9 0 -11.5 2.5t-2.5 11.5v42q0 9 2.5 11.5t11.5 2.5h390q14 0 14 -7z"/>
    <glyph glyph-name="U" unicode="U" horiz-adv-x="592" d="M508 672v-488q0 -97 -58.5 -147.5t-160.5 -50.5q-205 0 -205 198v488q0 9 2.5 11.5t11.5 2.5h54q9 0 11.5 -2.5t2.5 -11.5v-485q0 -73 29 -103.5t98 -30.5q70 0 103 32.5t33 101.5v485q0 9 2.5 11.5t11.5 2.5h51q9 0 11.5 -2.5t2.5 -11.5z"/>
    <glyph glyph-name="V" unicode="V" horiz-adv-x="482" d="M468 672l-1 -9l-177 -652q-2 -11 -15 -11h-70q-8 0 -10.5 1.5t-4.5 9.5l-174 652q-2 6 -2 8q0 5 12 9l56 13l3 1q2 1 5 1q5 0 8 -12l127 -529q5 -23 11 -56l4 -23q7 42 15 77l131 531q3 11 9 11t8 -1l54 -13q11 -3 11 -8z"/>
    <glyph glyph-name="W" unicode="W" horiz-adv-x="685" d="M663 672q0 -3 -1 -4v-4l-138 -652q-2 -12 -15 -12h-66q-8 0 -10 2t-4 10l-86 553l-104 -553q-2 -12 -15 -12h-61q-8 0 -11 2t-4 10l-125 654q-1 6 -1 8q0 5 12 8l52 10q6 1 8 1q6 0 8 -12l86 -494q6 -37 9 -125q9 104 12 122l97 490q2 12 15 12h53q9 0 11 -2t4 -10 l82 -494q6 -33 11 -122q3 90 9 122l92 501q3 12 9 12q3 0 7 -1l52 -11q12 -3 12 -9z"/>
    <glyph glyph-name="X" unicode="X" horiz-adv-x="482" d="M472 19q0 -5 -11 -8l-54 -17l-3 -1q-2 -1 -5 -1q-4 0 -9 9l-129 243q-13 24 -20 48q-20 -46 -21 -47l-129 -244q-5 -9 -9 -9q-2 0 -8 2l-51 16q-11 4 -11 9q0 3 4 10l178 329l-164 298q-3 6 -3 10q0 5 10 8l50 18q6 2 8 2q4 0 10 -9l113 -208q3 -5 24 -52q12 32 26 57 l108 202q6 9 10 9l8 -2l49 -20q10 -4 10 -9q0 -3 -4 -10l-164 -292l183 -331q4 -7 4 -10z"/>
    <glyph glyph-name="Y" unicode="Y" horiz-adv-x="426" d="M450 669q0 -5 -3 -10l-190 -368v-277q0 -9 -2.5 -11.5t-11.5 -2.5h-54q-9 0 -11.5 2.5t-2.5 11.5v275l-196 369q-3 9 -3 10q0 5 11 8l60 16l4 1q2 1 4 1q5 0 10 -10l126 -260q14 -27 27 -62q12 33 27 63l122 259q5 9 10 9q4 0 8 -1l54 -15q11 -3 11 -8z"/>
    <glyph glyph-name="Z" unicode="Z" horiz-adv-x="444" d="M320 617h-264q-14 0 -14 8q0 2 1 4l1 3l10 42q3 12 15 12h333q9 0 11.5 -2.5t2.5 -11.5v-48l-296 -553h293q9 0 11.5 -2.5t2.5 -11.5v-43q0 -9 -2.5 -11.5t-11.5 -2.5h-373q-9 0 -11.5 2.5t-2.5 11.5v52z"/>
    <glyph glyph-name="bracketleft" unicode="[" horiz-adv-x="370" d="M193 653v-796h109q9 0 11.5 -2.5t2.5 -11.5v-34q0 -9 -2.5 -11.5t-11.5 -2.5h-172q-9 0 -11.5 2.5t-2.5 11.5v892q0 9 2.5 11.5t11.5 2.5h172q9 0 11.5 -2.5t2.5 -11.5v-34q0 -9 -2.5 -11.5t-11.5 -2.5h-109z"/>
    <glyph glyph-name="backslash" unicode="\" horiz-adv-x="444" d="M477 -222q0 -7 -14 -7h-38q-12 0 -17 9l-387 931q-3 7 -3 10q0 7 13 7h40q12 0 16 -10l387 -931q3 -6 3 -9z"/>
    <glyph glyph-name="bracketright" unicode="]" horiz-adv-x="370" d="M177 653h-110q-8 0 -10.5 2.5t-2.5 11.5v34q0 10 2 12t11 2h173q9 0 11.5 -2.5t2.5 -11.5v-892q0 -9 -2.5 -11.5t-11.5 -2.5h-172q-9 0 -11.5 2.5t-2.5 11.5v34q0 9 2 11.5t12 2.5h109v796z"/>
    <glyph glyph-name="asciicircum" unicode="^" d="M475 385h-77l-149 247l-147 -247h-77l179 303h93z"/>
    <glyph glyph-name="underscore" unicode="_" horiz-adv-x="514" d="M514 -127h-514v54h514v-54z"/>
    <glyph glyph-name="grave" unicode="`" d="M305 565q0 -1 -5 -9l-12 -17q-2 -5 -7 -5q-4 0 -10 3l-163 85q-9 5 -9 10q0 3 4 9l29 42q5 8 10 8q3 0 10 -5l145 -111q8 -6 8 -10z"/>
    <glyph glyph-name="a" unicode="a" horiz-adv-x="463" d="M409 25q0 -3 -4 -5l-43 -27q-4 -3 -8 -3q-7 0 -18.5 19t-19.5 44q-64 -63 -143 -63q-61 0 -96.5 37t-35.5 100q0 170 264 174v33q0 48 -21 68.5t-71 20.5t-119 -29q-6 -2 -7 -2q-5 0 -7 5l-15 40l-1 8q0 8 27 19q60 27 133 27q79 0 117.5 -34.5t38.5 -105.5v-189 q0 -51 5 -76.5t22 -54.5q2 -4 2 -6zM305 110v129q-187 -1 -187 -106q0 -35 20.5 -57.5t52.5 -22.5q50 0 114 57z"/>
    <glyph glyph-name="b" unicode="b" d="M449 272q0 -145 -45 -215.5t-137 -70.5q-69 0 -128 49q-7 -18 -17 -31.5t-15 -13.5q-3 0 -8 3l-43 27q-3 3 -3 5q0 3 3 7q28 36 28 105v561q0 10 11 13l52 12q1 1 7 1t6 -11v-268q71 49 133 49q156 0 156 -222zM368 261q0 87 -21 126.5t-68 39.5q-49 0 -119 -49v-285 q45 -39 104 -39q54 0 79 50t25 157z"/>
    <glyph glyph-name="c" unicode="c" horiz-adv-x="408" d="M398 430l-1 -6l-22 -39q-4 -7 -8 -7t-8 4q-37 27 -57.5 36t-45.5 9q-121 0 -121 -186q0 -187 111 -187q30 0 52.5 9.5t65.5 39.5q4 3 7 3q4 0 7 -6l15 -38q3 -9 3 -10q0 -7 -16 -19q-64 -47 -140 -47q-89 0 -139 64.5t-50 178.5q0 123 54.5 194t148.5 71q66 0 122 -39 q22 -15 22 -25z"/>
    <glyph glyph-name="d" unicode="d" d="M448 24q0 -4 -5 -6l-45 -25q-3 -3 -8 -3q-7 0 -17 18t-16 42q-48 -37 -80.5 -50.5t-68.5 -13.5q-74 0 -115.5 69t-41.5 190q0 116 48 182.5t131 66.5q52 0 110 -32v236q0 10 10 13l52 12q2 1 6 1q7 0 7 -11v-555q0 -47 5 -70.5t20 -47.5q8 -13 8 -16zM340 112v283 q-56 32 -102 32q-56 0 -81 -42t-25 -136q0 -104 22 -149.5t71 -45.5q53 0 115 58z"/>
    <glyph glyph-name="e" unicode="e" horiz-adv-x="463" d="M431 241q0 -18 -11 -18h-287q4 -82 37.5 -125.5t94.5 -43.5q53 0 116 36q5 3 10 3q4 0 7 -5l18 -39q2 -5 2 -7q0 -11 -36 -28q-61 -28 -123 -28q-95 0 -151.5 68.5t-56.5 184.5q0 117 53.5 186t143.5 69q60 0 104 -31.5t64 -88.5q15 -44 15 -133zM350 285q-1 72 -29 110 t-78 38q-103 0 -109 -148h216z"/>
    <glyph glyph-name="f" unicode="f" horiz-adv-x="296" d="M342 689q0 -2 -2 -6l-17 -41q-1 -6 -7 -6q-4 0 -10 3q-44 21 -77 21q-32 0 -46 -20q-14 -19 -14 -83v-77h144q11 0 11 -7q0 -4 -1 -6l-13 -40q-3 -9 -13 -9h-128v-406q0 -7 -2 -9.5t-9 -2.5h-53q-7 0 -9 2.5t-2 9.5v406h-66q-7 0 -9.5 2t-2.5 9v39q0 8 2 10t10 2h66v78 q0 81 26 116q38 50 112 50q35 0 72.5 -12t37.5 -23z"/>
    <glyph glyph-name="g" unicode="g" d="M447 462q0 -3 -6 -13q-25 -39 -25 -101v-154q0 -73 5 -171q2 -44 2 -57q0 -87 -45.5 -132t-132.5 -45q-79 0 -150 37q-13 7 -15.5 9.5t-2.5 7.5q0 1 2 7l18 40q1 6 6 6q3 0 8 -3q71 -37 131 -37q65 0 91 36q15 22 15 73q0 9 -0.5 26t-0.5 25l-1 41v11q-67 -55 -139 -55 t-113.5 59.5t-41.5 162.5q0 124 49 191.5t140 67.5q61 0 121 -42q18 46 28 46q4 0 8 -2l46 -28q3 -2 3 -6zM341 130v270q-56 28 -94 28q-56 0 -85 -44.5t-29 -129.5q0 -92 21 -132.5t68 -40.5q51 0 119 49z"/>
    <glyph glyph-name="h" unicode="h" horiz-adv-x="519" d="M160 366v-354q0 -7 -2 -9.5t-9 -2.5h-53q-7 0 -9 2.5t-2 9.5v686q0 10 10 13l52 12q1 1 7 1t6 -11v-285q40 37 75 51.5t80 14.5q66 0 96 -39q14 -19 19.5 -42t5.5 -70v-331q0 -7 -2 -9.5t-9 -2.5h-53q-7 0 -9 2.5t-2 9.5v333q0 47 -15 65.5t-54 18.5q-55 0 -132 -63z"/>
    <glyph glyph-name="i" unicode="i" horiz-adv-x="259" d="M190 658q0 -25 -17.5 -43t-42.5 -18q-26 0 -43.5 17.5t-17.5 43.5q0 25 18 42.5t44 17.5q24 0 41.5 -17.5t17.5 -42.5zM175 12q0 -7 -2 -9.5t-9 -2.5h-53q-7 0 -9 2.5t-2 9.5v406h-80q-7 0 -9.5 2t-2.5 9v39q0 8 2 10t10 2h144q7 0 9 -2.5t2 -9.5v-456z"/>
    <glyph glyph-name="j" unicode="j" horiz-adv-x="259" d="M190 658q0 -25 -17.5 -43t-42.5 -18q-26 0 -43.5 17.5t-17.5 43.5q0 25 18 42.5t44 17.5q24 0 41.5 -18t17.5 -42zM99 418h-80q-7 0 -9 2t-2 9v39q0 8 2 10t9 2h144q7 0 9 -2.5t2 -9.5v-511q0 -169 -144 -169q-37 0 -80 13.5t-43 25.5q0 3 2 8l19 40q2 6 8 6q1 0 7 -2 q46 -24 90 -24q19 0 32 6t19.5 14t10 25t4 28.5t0.5 35.5v454z"/>
    <glyph glyph-name="k" unicode="k" horiz-adv-x="444" d="M429 36q0 -3 -5 -8l-41 -31q-5 -4 -8 -4q-2 0 -6 4l-209 250v-235q0 -7 -2 -9.5t-9 -2.5h-53q-7 0 -9 2.5t-2 9.5v686q0 10 10 13l52 12l7 1q6 0 6 -11v-453l201 226q5 6 10 6q4 0 9 -4l38 -25q5 -5 5 -9t-5 -9l-171 -186l179 -215q3 -3 3 -8z"/>
    <glyph glyph-name="l" unicode="l" horiz-adv-x="278" d="M273 14q0 -8 -28.5 -16t-56.5 -8q-40 0 -67.5 19t-34.5 51q-5 21 -5 123v516q0 10 11 12l51 12q1 1 7 1t6 -11v-531q0 -80 2 -92q5 -38 41 -38q21 0 45 12q6 2 8 2q4 0 7 -7l12 -37q2 -6 2 -8z"/>
    <glyph glyph-name="m" unicode="m" horiz-adv-x="722" d="M161 386v-374q0 -8 -2.5 -10t-9.5 -2h-51q-8 0 -10 2t-2 10v359q0 42 -18 84q-1 1 -1 5t5 6l40 23q5 3 9 3q15 0 29 -57q75 59 140 59q70 0 95 -59q83 59 146 59q65 0 91 -44q18 -30 18 -97v-341q0 -8 -2 -10t-10 -2h-51q-7 0 -9.5 2t-2.5 10v344q0 73 -64 73 q-43 0 -102 -40v-377q0 -7 -2 -9.5t-9 -2.5h-52q-7 0 -9 2.5t-2 9.5v343q0 74 -64 74q-45 0 -100 -43z"/>
    <glyph glyph-name="n" unicode="n" horiz-adv-x="519" d="M163 366v-354q0 -7 -2 -9.5t-9 -2.5h-53q-7 0 -9 2.5t-2 9.5v343q0 54 -19 96q-2 4 -2 6q0 4 5 6l45 26q6 3 8 3q8 0 17 -19t14 -47q85 68 161 68q74 0 102 -48q17 -29 17 -101v-333q0 -7 -2 -9.5t-9 -2.5h-53q-7 0 -9 2.5t-2 9.5v334q0 44 -15.5 63.5t-50.5 19.5 q-64 0 -132 -63z"/>
    <glyph glyph-name="o" unicode="o" d="M449 243q0 -121 -54 -189t-151 -68q-91 0 -142 66.5t-51 185.5q0 121 54 188.5t151 67.5q91 0 142 -66.5t51 -184.5zM368 244q0 187 -119 187q-57 0 -87 -47t-30 -136q0 -104 31 -155q26 -44 88 -44q59 0 85 42q32 51 32 153z"/>
    <glyph glyph-name="p" unicode="p" d="M449 250q0 -123 -44.5 -193.5t-121.5 -70.5q-56 0 -118 44v-214q0 -10 -9 -13l-53 -14q-3 -1 -6 -1q-7 0 -7 11v543q0 65 -20 97q-10 16 -10 19q0 4 3 5l43 30q3 3 8 3q6 0 17.5 -18.5t19.5 -41.5q42 32 74 45t70 13q87 0 121 -69q33 -66 33 -175zM368 248q0 84 -15 127 q-9 24 -28.5 38t-43.5 14q-44 0 -116 -49v-282q62 -42 109 -42q51 0 72.5 44.5t21.5 149.5z"/>
    <glyph glyph-name="q" unicode="q" d="M440 461q0 -3 -6 -15q-22 -50 -22 -99v-530q0 -13 -9 -16l-54 -16q-3 -1 -6 -1q-7 0 -7 11v250q-63 -59 -132 -59q-71 0 -112 66.5t-41 180.5q0 123 46 192t128 69q37 0 66 -10.5t66 -37.5q7 21 16 35.5t15 14.5q1 0 5 -2l42 -25q5 -3 5 -8zM336 111v278q-58 38 -105 38 q-99 0 -99 -185q0 -104 27 -150q10 -16 28.5 -27t36.5 -11q48 0 112 57z"/>
    <glyph glyph-name="r" unicode="r" horiz-adv-x="333" d="M333 478q0 -3 -2 -7l-24 -56q-1 -3 -5 -3q-1 0 -17 5q-10 2 -17 2q-19 0 -40 -16t-59 -60v-331q0 -7 -2 -9.5t-9 -2.5h-53q-7 0 -9 2.5t-2 9.5v300q0 59 -4 82.5t-20 51.5q-4 7 -4 10q0 6 5 9l42 26q5 3 8 3q9 0 21 -26t17 -57q47 53 69.5 68t54.5 15q17 0 33.5 -5.5 t16.5 -10.5z"/>
    <glyph glyph-name="s" unicode="s" horiz-adv-x="389" d="M348 128q0 -64 -44 -103t-115 -39q-81 0 -148 39q-6 4 -6 9q0 2 1 4l19 44q2 4 6 4q2 0 8 -2q68 -34 122 -34q36 0 58 20t22 52q0 25 -14.5 42t-49.5 34q-85 39 -112 62q-46 37 -46 95q0 61 42.5 100t109.5 39q39 0 84 -14.5t45 -27.5q0 -2 -2 -7l-18 -37q-4 -6 -9 -6 l-8 2q-55 26 -94 26q-36 0 -56 -17.5t-20 -49.5q0 -31 20 -49q10 -10 23.5 -17t81.5 -40q56 -27 78 -55.5t22 -73.5z"/>
    <glyph glyph-name="t" unicode="t" horiz-adv-x="333" d="M343 30q0 -12 -46 -26t-84 -14q-80 0 -109 56q-13 26 -13 90v282h-71q-8 0 -10 1.5t-2 9.5v39q0 8 2 10t10 2h71v137q0 10 10 13l52 14q5 2 6 2q7 0 7 -12v-154h150q9 0 9 -7q0 -2 -1 -6l-11 -39q-3 -10 -14 -10h-133v-282q0 -48 10 -61q15 -20 50 -20q32 0 90 25 q4 2 7 2q5 0 7 -6l11 -41q2 -4 2 -5z"/>
    <glyph glyph-name="u" unicode="u" d="M451 23q0 -1 -4 -5l-45 -29q-4 -3 -7 -3q-6 0 -17 18t-18 42q-43 -33 -76.5 -46.5t-73.5 -13.5q-67 0 -102 34t-35 100v345q0 10 10 13l52 14q4 1 6 1q7 0 7 -11v-312q0 -66 15.5 -91t56.5 -25q65 0 126 51v360q0 10 10 13l53 14q4 1 6 1q7 0 7 -11v-349q0 -65 26 -103 q3 -4 3 -7z"/>
    <glyph glyph-name="v" unicode="v" horiz-adv-x="426" d="M423 468q0 -3 -2 -7l-182 -459q-3 -9 -13 -9h-38q-10 0 -13 9l-169 461q-2 4 -2 6q0 5 10 8l56 12l3 1h3q5 0 8 -9l107 -327q3 -7 7 -21l7 -24l5 -18q6 26 19 62l119 329q3 9 8 9q1 0 6 -1l52 -14q9 -3 9 -8z"/>
    <glyph glyph-name="w" unicode="w" horiz-adv-x="611" d="M600 469q0 -3 -1 -4l-1 -3l-132 -459q-2 -7 -3.5 -8.5t-8.5 -1.5h-39q-10 0 -12 10l-79 303q-3 11 -8 43l-2 15l-3 21q-5 -47 -15 -78l-94 -305q-3 -9 -13 -9h-37q-10 0 -12 10l-115 459q-1 4 -1 6q0 7 9 8l51 13q4 1 6 1q7 0 8 -10l68 -331l3 -16q0 -1 7 -39 q13 54 13 55l95 324q2 9 12 9h40q8 0 9 -1t3 -8l82 -337l3 -12l2 -16l2 -11l3 14l5 25l85 344q3 9 8 9l6 -1l46 -11q10 -3 10 -8z"/>
    <glyph glyph-name="x" unicode="x" horiz-adv-x="445" d="M429 17q0 -3 -9 -7l-53 -20q-5 -2 -7 -2q-3 0 -8 7l-102 156q-3 4 -9 14l-10 16l-6 10q-10 -18 -24 -38l-110 -158q-3 -6 -8 -6l-7 1l-52 22q-8 3 -8 8q0 3 4 7l164 218l-146 210q-3 3 -3 7q0 6 8 9l52 19q1 1 6 1t9 -6l87 -135l18 -28q1 -2 2 -3.5l3.5 -5.5l5.5 -9 q22 36 30 47l91 133q5 6 10 6q2 0 6 -2l49 -20q8 -3 8 -7q0 -5 -4 -9l-148 -198l157 -229q4 -5 4 -8z"/>
    <glyph glyph-name="y" unicode="y" horiz-adv-x="426" d="M421 461q0 -2 -1 -6l-114 -393q-39 -133 -66 -192q-39 -82 -121 -82q-36 0 -81 18t-45 33q0 4 2 6l20 40q2 5 7 5q2 0 7 -3q52 -36 88 -36q49 0 77 86l21 63h-40q-9 0 -12 9l-157 444q-2 4 -2 7q0 5 9 8l54 19l8 1q4 0 7 -9l128 -378q8 -24 20 -72q8 36 17 70l98 382 q4 8 10 8q1 0 5 -1l52 -19q9 -3 9 -8z"/>
    <glyph glyph-name="z" unicode="z" horiz-adv-x="407" d="M390 59q0 -3 -2 -8l-19 -42q-3 -9 -13 -9h-312q-8 0 -10 2t-2 10v40l253 365h-221q-8 0 -9.5 1.5t-1.5 9.5v41q0 7 1.5 9t9.5 2h304q7 0 9 -2t2 -9v-42l-249 -362h249q11 0 11 -6z"/>
    <glyph glyph-name="braceleft" unicode="{" horiz-adv-x="426" d="M97 234h-20q-9 0 -11.5 2.5t-2.5 11.5v34q0 9 2.5 11.5t11.5 2.5h19q48 0 68.5 20.5t20.5 68.5v178q0 79 40 115.5t127 36.5h19q9 0 11.5 -2.5t2.5 -11.5v-34q0 -9 -2.5 -11.5t-11.5 -2.5h-17q-51 0 -72 -20t-21 -69v-178q0 -48 -15 -75t-54 -46q39 -20 54 -46.5 t15 -74.5v-198q0 -47 20.5 -68t66.5 -21h23q9 0 11.5 -2.5t2.5 -11.5v-34q0 -9 -2.5 -11.5t-11.5 -2.5h-19q-87 0 -127 36.5t-40 115.5v198q0 48 -20.5 68.5t-67.5 20.5z"/>
    <glyph glyph-name="bar" unicode="|" horiz-adv-x="307" d="M191 -171h-75v857h75v-857z"/>
    <glyph glyph-name="braceright" unicode="}" horiz-adv-x="426" d="M165 -54v178q0 48 15 74.5t54 46.5q-40 21 -54.5 47t-14.5 74v198q0 47 -20.5 68t-66.5 21h-23q-9 0 -11.5 2.5t-2.5 11.5v34q0 9 2.5 11.5t11.5 2.5h19q87 0 127 -36.5t40 -115.5v-198q0 -48 20.5 -68.5t67.5 -20.5h20q9 0 11.5 -2.5t2.5 -11.5v-34q0 -9 -2.5 -11.5 t-11.5 -2.5h-20q-47 0 -67.5 -20.5t-20.5 -68.5v-178q0 -79 -40 -115.5t-127 -36.5h-19q-9 0 -11.5 2.5t-2.5 11.5v34q0 9 2.5 11.5t11.5 2.5h17q51 0 72 20t21 69z"/>
    <glyph glyph-name="asciitilde" unicode="~" d="M452 396l45 -34q-56 -117 -139 -117q-37 0 -118 41q-69 34 -100 34q-27 0 -47.5 -17t-44.5 -59l-45 34q56 116 139 116q41 0 118 -40q70 -35 98 -35q27 0 49 17.5t45 59.5z"/>
    <glyph glyph-name="uni00A0" unicode=" " horiz-adv-x="206"/>
    <glyph glyph-name="exclamdown" unicode="¡" horiz-adv-x="333" d="M237 423q0 -29 -21 -49.5t-50 -20.5t-49.5 21t-20.5 50t21 49.5t51 20.5q28 0 48.5 -21t20.5 -50zM219 -197q0 -9 -14 -9h-75q-14 0 -13 14l22 394q1 9 3 11t11 2h28q9 0 11 -2t3 -11l23 -394z"/>
    <glyph glyph-name="cent" unicode="¢" d="M430 520q0 -4 -3 -8l-21 -38q-3 -6 -8 -6q-4 0 -9 3q-42 25 -77 30v-366q34 6 83 32q5 3 8 3q5 0 6 -6l17 -42q2 -4 2 -7q0 -10 -38 -25.5t-78 -22.5v-59q0 -8 -2.5 -10.5t-11.5 -2.5h-25q-9 0 -11.5 2.5t-2.5 10.5v55q-85 7 -130.5 70t-45.5 173q0 113 47 183t129 79v53 q0 9 2.5 11.5t11.5 2.5h25q9 0 11.5 -2.5t2.5 -11.5v-52q56 -7 96 -29q22 -12 22 -20zM259 133v366q-99 -23 -99 -181q0 -168 99 -185z"/>
    <glyph glyph-name="sterling" unicode="£" d="M494 58q0 -2 -3 -8l-15 -40q-5 -10 -16 -10h-411q-9 0 -11.5 2.5t-2.5 11.5v38q0 9 2.5 11.5t11.5 2.5h85q15 67 15 119q0 56 -17 123h-90q-9 0 -11.5 2.5t-2.5 11.5v37q0 9 2.5 11.5t11.5 2.5h76q-16 63 -16 103q0 81 57.5 130.5t151.5 49.5q47 0 96.5 -15t49.5 -29 q0 -4 -2 -8l-19 -38q-4 -6 -8 -6q-5 0 -11 3q-54 28 -111 28q-58 0 -93.5 -31t-35.5 -81q0 -33 15 -106h134q9 0 11.5 -2.5t2.5 -11.5v-37q0 -9 -2.5 -11.5t-11.5 -2.5h-119q18 -77 18 -125q0 -51 -15 -116h270q14 0 14 -9z"/>
    <glyph glyph-name="currency" unicode="¤" horiz-adv-x="612" d="M525 174l-41 -42l-67 67q-51 -40 -117 -40t-117 40l-67 -67l-40 42l67 65q-38 55 -38 115q0 68 38 115l-36.5 36l-30.5 30l40 42l67 -67q55 39 117 39q68 0 117 -39l67 67l41 -42l-68 -66q39 -50 39 -115q0 -62 -39 -115zM438 355q0 59 -41.5 97.5t-95.5 38.5 q-58 0 -98 -40t-40 -96t40.5 -97t96.5 -41q57 0 97.5 41t40.5 97z"/>
    <glyph glyph-name="yen" unicode="¥" d="M292 247v-235q0 -7 -2 -9.5t-9 -2.5h-56q-7 0 -9 2.5t-2 9.5v235h-185q-7 0 -9.5 2.5t-2.5 9.5v21q0 8 2.5 10t9.5 2h184l-31 64h-153q-7 0 -9.5 2t-2.5 10v21q0 7 2.5 9.5t9.5 2.5h131l-125 260l-1 2q-2 4 -2 5q0 4 10 8l58 16l2 1q2 1 5 1q4 0 7 -9l114 -261l7 -16 q17 -39 20 -47q6 16 15.5 37.5t11.5 26.5l110 260q3 8 7 8q5 0 7 -1l53 -16q9 -3 9 -7q0 -2 -3 -8l-121 -260h127q7 0 9.5 -2.5t2.5 -9.5v-21q0 -8 -2.5 -10t-9.5 -2h-148l-31 -64h179q7 0 9.5 -2t2.5 -10v-21q0 -7 -2.5 -9.5t-9.5 -2.5h-179z"/>
    <glyph glyph-name="brokenbar" unicode="¦" horiz-adv-x="307" d="M191 342h-75v344h75v-344zM191 -171h-75v329h75v-329z"/>
    <glyph glyph-name="section" unicode="§" d="M422 213q0 -46 -28 -82.5t-91 -71.5q56 -31 77.5 -58.5t21.5 -68.5q0 -61 -48 -102.5t-118 -41.5q-43 0 -100.5 22t-57.5 38q0 4 4 12l18 36q4 7 9 7t9 -4q69 -45 124 -45q35 0 57 20t22 51q0 32 -20.5 52.5t-89.5 54.5q-78 39 -105.5 70t-27.5 81t27.5 86.5t89.5 68.5 q-49 23 -71 51t-22 67q0 58 45.5 96t114.5 38q40 0 84.5 -17t44.5 -32q0 -2 -4 -10l-18 -38q-4 -8 -8 -8t-26 14q-35 23 -79 23q-35 0 -56.5 -17t-21.5 -45q0 -30 28 -49q13 -10 82 -46q71 -37 98 -64q36 -36 36 -88zM346 203q0 32 -22 55t-80 51q-89 -48 -89 -116 q0 -47 42 -73l53 -29q53 29 74.5 54.5t21.5 57.5z"/>
    <glyph glyph-name="dieresis" unicode="¨" d="M402 607q0 -22 -16 -37.5t-38 -15.5t-37.5 16t-15.5 38t16 37.5t38 15.5t37.5 -16t15.5 -38zM205 607q0 -22 -15.5 -37.5t-37.5 -15.5t-38 16t-16 38t16 37.5t38 15.5t37.5 -16t15.5 -38z"/>
    <glyph glyph-name="copyright" unicode="©" horiz-adv-x="707" d="M673 343q0 -147 -93.5 -251.5t-225.5 -104.5t-226 104.5t-94 250.5q0 150 94 253.5t230 103.5q129 0 222 -105t93 -251zM620 342q0 129 -78 218t-191 89q-109 0 -186.5 -90t-77.5 -216q0 -127 78.5 -216.5t188.5 -89.5t188 89.5t78 215.5zM462 181q0 -17 -37.5 -34.5 t-72.5 -17.5q-73 0 -111 56t-38 162q0 209 145 209q35 0 73 -17t38 -33q0 -6 -3 -9l-18 -22q-3 -5 -10 -5q-5 0 -26 14q-28 19 -53 19q-40 0 -58 -36t-18 -115q0 -170 81 -170q27 0 67 29q8 5 12 5q6 0 10 -7l16 -19q3 -3 3 -9z"/>
    <glyph glyph-name="ordfeminine" unicode="ª" horiz-adv-x="333" d="M280 450q0 -5 -5 -8l-30 -15q-5 -3 -8 -3q-13 0 -26 33q-46 -33 -87 -33q-42 0 -66.5 23t-24.5 62q0 51 44 79.5t123 28.5v13v1q2 22 -10.5 33t-40.5 11t-71 -17q-6 -2 -8 -2q-7 0 -9 7l-9 25q-2 4 -2 7q0 11 34.5 22t71.5 11q106 0 106 -88v-110q0 -30 2.5 -42.5 t13.5 -30.5q2 -4 2 -7zM200 503v70q-55 -2 -79.5 -16.5t-24.5 -43.5q0 -17 10.5 -28t26.5 -11q32 0 67 29z"/>
    <glyph glyph-name="guillemotleft" unicode="«" horiz-adv-x="481" d="M436 39q0 -3 -10 -9l-27 -15q-7 -3 -9 -3q-4 0 -10 7l-168 211q-4 7 -4 10q0 2 4 9l168 211q6 7 10 7t8 -3l28 -15q9 -5 9 -9q0 -3 -4 -10l-129 -190l129 -191q5 -7 5 -10zM250 39q0 -4 -9 -9l-28 -15q-6 -3 -9 -3t-9 7l-168 211q-4 5 -4 10q0 4 4 9l168 211q4 7 10 7 q3 0 8 -3l28 -15q9 -5 9 -10q0 -3 -4 -9l-129 -190l129 -191q4 -8 4 -10z"/>
    <glyph glyph-name="logicalnot" unicode="¬" d="M402 352h-368q-8 0 -10 2.5t-2 11.5v47q0 9 2.5 11.5t11.5 2.5h428q9 0 11.5 -2.5t2.5 -10.5v-200q0 -9 -2.5 -11.5t-11.5 -2.5h-47q-9 0 -12 2.5t-3 11.5v138z"/>
    <glyph glyph-name="uni00AD" unicode="­" horiz-adv-x="352" d="M51 293h250q9 0 11.5 -2.5t2.5 -11.5v-47q0 -9 -2.5 -11.5t-11.5 -2.5h-250q-9 0 -11.5 2.5t-2.5 11.5v47q0 9 2.5 11.5t11.5 2.5z"/>
    <glyph glyph-name="registered" unicode="®" horiz-adv-x="424" d="M404 565q0 -89 -56.5 -151.5t-135.5 -62.5t-135.5 62.5t-56.5 150.5q0 90 56.5 152t138.5 62q77 0 133 -63t56 -150zM372 564q0 77 -46.5 130.5t-114.5 53.5q-65 0 -112 -53.5t-47 -129.5t47 -130t113 -54q67 0 113.5 53.5t46.5 129.5zM301 454q0 -5 -8 -7l-21 -3l-3 -1 q-6 0 -7 5l-59 104h-24v-97q0 -8 -9 -8h-19q-9 0 -9 8v223q0 9 9 9h57q33 0 48 -8q30 -14 30 -54q0 -50 -46 -69l58 -97q3 -3 3 -5zM248 622q0 20 -9.5 27.5t-33.5 7.5h-26v-76h24q45 0 45 41z"/>
    <glyph glyph-name="macron" unicode="¯" d="M141 625h217q9 0 11.5 -2.5t2.5 -11.5v-35q0 -9 -2.5 -11.5t-11.5 -2.5h-217q-9 0 -11.5 2.5t-2.5 11.5v35q0 9 2.5 11.5t11.5 2.5z"/>
    <glyph glyph-name="degree" unicode="°" d="M405 545q0 -64 -45.5 -109t-109.5 -45t-109 45t-45 109q0 65 45.5 110t110.5 45q63 0 108 -45.5t45 -109.5zM341 545q0 38 -26.5 64.5t-65.5 26.5q-37 0 -63 -26.5t-26 -64.5t26 -64.5t64 -26.5t64.5 26.5t26.5 64.5z"/>
    <glyph glyph-name="plusminus" unicode="±" d="M478 297q0 -9 -2.5 -11.5t-11.5 -2.5h-177v-155q0 -9 -2.5 -11.5t-11.5 -2.5h-47q-9 0 -11.5 2.5t-2.5 11.5v155h-176q-9 0 -11.5 2.5t-2.5 11.5v47q0 9 2.5 11.5t11.5 2.5h176v177q0 9 2 11t12 2h47q10 0 12 -2t2 -11v-177h177q9 0 11.5 -2.5t2.5 -11.5v-47zM478 26 q0 -9 -2.5 -11.5t-11.5 -2.5h-428q-9 0 -11.5 2.5t-2.5 11.5v44q0 9 2.5 11.5t11.5 2.5h428q9 0 11.5 -2.5t2.5 -11.5v-44z"/>
    <glyph glyph-name="two.superior" unicode="²" horiz-adv-x="352" d="M122 494h154q19 0 19 -18v-26q0 -18 -19 -18h-206q-19 0 -19 18q0 58 22 102q15 29 33 47.5t58 43.5q38 24 50 39t12 37q0 24 -13.5 37.5t-37.5 13.5q-23 0 -36 -11.5t-25 -42.5q-2 -6 -5 -9.5t-7 -2.5l-10 1l-27 7q-12 4 -12 14q0 26 27 58q36 42 98 42q53 0 85 -28.5 t32 -76.5q0 -39 -20.5 -66.5t-76.5 -63.5q-67 -42 -76 -97z"/>
    <glyph glyph-name="three.superior" unicode="³" horiz-adv-x="352" d="M302 543q0 -54 -40 -86.5t-107 -32.5q-39 0 -76 10t-37 21q0 5 2 9l13 26q4 8 10 8q2 0 17 -6q31 -13 73 -13q38 0 58.5 17.5t20.5 48.5q0 64 -89 64h-23q-9 0 -12 3t-3 12v23q0 9 3 12t12 3h23q36 0 57 17t21 46q0 23 -16 36.5t-42 13.5q-33 0 -70 -33q-5 -5 -9 -5t-9 3 l-23 19q-5 3 -5 7q0 15 35 37q37 24 83 24q53 0 86 -28t33 -73q0 -52 -53 -85q67 -29 67 -98z"/>
    <glyph glyph-name="acute" unicode="´" d="M401 632q0 -3 -9 -8l-164 -85q-7 -4 -10 -4t-9 8l-10 15q-4 7 -4 10q0 4 8 9l145 111q6 5 10 5t10 -8l29 -42q4 -7 4 -11z"/>
    <glyph glyph-name="mu" unicode="µ" d="M451 23q0 -1 -4 -5l-45 -29q-4 -3 -7 -3q-6 0 -17 18t-18 42q-74 -60 -140 -60q-40 0 -72 20v-190q0 -10 -9 -13l-53 -14q-2 -1 -6 -1q-7 0 -7 11v666q0 10 10 13l52 14q4 1 6 1q7 0 7 -11v-312q0 -66 15.5 -91t56.5 -25q65 0 126 51v360q0 10 10 13l53 14q4 1 6 1 q7 0 7 -11v-349q0 -65 26 -103q3 -4 3 -7z"/>
    <glyph glyph-name="paragraph" unicode="¶" horiz-adv-x="611" d="M558 635q0 -9 -2.5 -11.5t-11.5 -2.5h-66v-793q0 -9 -2.5 -11.5t-11.5 -2.5h-41q-9 0 -11.5 2.5t-2.5 11.5v793h-65v-793q0 -9 -2.5 -11.5t-11.5 -2.5h-41q-9 0 -11.5 2.5t-2.5 11.5v347q-45 -7 -76 -7q-90 0 -137 67t-47 196q0 178 109 233q43 22 151 22h269 q9 0 11.5 -2.5t2.5 -11.5v-37zM275 238v383q-59 0 -79.5 -2.5t-36.5 -12.5q-57 -34 -57 -176q0 -104 30 -150.5t97 -46.5q21 0 46 5z"/>
    <glyph glyph-name="periodcentered" unicode="·" horiz-adv-x="296" d="M205 320q0 -24 -16.5 -40.5t-39.5 -16.5q-24 0 -41 16.5t-17 40.5q0 23 16.5 39.5t40.5 16.5q23 0 40 -16.5t17 -39.5z"/>
    <glyph glyph-name="cedilla" unicode="¸" d="M331 -119q0 -35 -28.5 -57t-73.5 -22q-60 0 -60 18q0 3 1 8l4 30q0 6 5 6q4 0 6 -1q19 -7 46 -7q40 0 40 23q0 25 -49 23q-31 0 -29 13q1 6 1 12l8 73h58l-5 -55q42 -4 59 -18.5t17 -45.5z"/>
    <glyph glyph-name="one.superior" unicode="¹" horiz-adv-x="352" d="M168 750l-70 -35q-3 -3 -10 -3q-5 0 -11 8l-7 13q-3 5 -3 9q0 5 8 11l105 66h35q9 0 12 -3t3 -12v-320h52q9 0 12 -3t3 -12v-22q0 -9 -3 -12t-12 -3h-176q-9 0 -12 3t-3 12v22q0 9 3 12t12 3h62v266z"/>
    <glyph glyph-name="ordmasculine" unicode="º" horiz-adv-x="334" d="M298 579q0 -73 -36 -114t-100 -41q-60 0 -93.5 40.5t-33.5 111.5q0 73 35.5 114t99.5 41q60 0 94 -40.5t34 -111.5zM233 580q0 101 -67 101q-66 0 -66 -99q0 -108 67 -108q66 0 66 106z"/>
    <glyph glyph-name="guillemotright" unicode="»" horiz-adv-x="481" d="M459 239q0 -3 -5 -9l-167 -211q-6 -7 -10 -7q-3 0 -9 3l-28 15q-9 5 -9 9q0 3 5 10l129 190l-129 191q-5 6 -5 10t9 9l28 15q6 3 9 3t10 -7l167 -211q5 -6 5 -10zM273 239q0 -5 -4 -9l-167 -211q-6 -7 -11 -7q-2 0 -8 3l-28 15q-9 5 -9 9t5 10l128 190l-128 191 q-5 7 -5 9q0 5 9 10l28 15q6 3 9 3q4 0 9 -7l168 -211q4 -4 4 -10z"/>
    <glyph glyph-name="onequarter" unicode="¼" horiz-adv-x="834" d="M780 97q0 -9 -3 -12t-12 -3h-46v-75q0 -9 -3 -12t-12 -3h-32q-9 0 -12 3t-3 12v75h-163q-9 0 -12 3t-3 12v35l172 251q5 8 12 8q1 0 5 -1l33 -4q14 -1 14 -10q0 -6 -4 -11l-161 -231h107l7 87q1 14 16 14h24q9 0 12 -3t3 -12v-86h46q9 0 12 -3t3 -12v-22zM568 652 q0 -3 -3 -8l-272 -653q-4 -10 -19 -10h-37q-14 0 -14 7q0 3 3 9l272 653q4 10 15 10h42q13 0 13 -8zM287 282q0 -9 -3 -12t-12 -3h-176q-9 0 -12 3t-3 12v22q0 9 3 12t12 3h62v266l-70 -35q-3 -3 -10 -3q-5 0 -11 8l-7 13q-3 4 -3 9t8 11l105 66h35q9 0 12 -3t3 -12v-320h52 q9 0 12 -3t3 -12v-22z"/>
    <glyph glyph-name="onehalf" unicode="½" horiz-adv-x="834" d="M742 18q0 -18 -19 -18h-206q-18 0 -18 16v5q0 68 33 119q14 22 29.5 35.5t49.5 35.5q37 24 49.5 39t12.5 37q0 24 -13.5 37.5t-37.5 13.5q-23 0 -35.5 -11t-25.5 -43q-2 -6 -5.5 -9.5t-6.5 -2.5q-9 1 -10 1l-27 8q-12 4 -12 13q0 26 27 57q35 43 98 43q53 0 85 -28.5 t32 -76.5q0 -39 -21 -67t-76 -63q-69 -43 -76 -97h154q19 0 19 -18v-26zM563 652q0 -2 -3 -8l-272 -653q-4 -10 -19 -10h-38q-13 0 -13 8l2 8l273 653q3 10 15 10h41q14 0 14 -8zM285 282q0 -9 -3 -12t-12 -3h-176q-9 0 -12 3t-3 12v22q0 9 3 12t12 3h62v266l-70 -35 q-3 -3 -10 -3q-5 0 -11 8l-7 13q-3 4 -3 9t8 11l105 66h35q9 0 12 -3t3 -12v-320h52q9 0 12 -3t3 -12v-22z"/>
    <glyph glyph-name="threequarters" unicode="¾" horiz-adv-x="834" d="M786 97q0 -15 -15 -15h-46v-75q0 -9 -3 -12t-12 -3h-32q-9 0 -12 3t-3 12v75h-163q-9 0 -12 3t-3 12v35l172 251q5 8 12 8q1 0 5 -1l33 -4q14 -1 14 -10q0 -6 -4 -11l-161 -231h108l6 87q1 14 16 14h24q9 0 12 -3t3 -12v-86h46q9 0 12 -3t3 -12v-22zM601 652q0 -4 -2 -8 l-273 -653q-4 -10 -18 -10h-38q-13 0 -13 7q0 3 2 9l272 653q4 10 16 10h41q13 0 13 -8zM313 379q0 -54 -40 -86.5t-107 -32.5q-39 0 -76 10t-37 21q0 5 2 9l13 26q4 8 10 8q2 0 17 -6q31 -13 73 -13q38 0 58.5 17.5t20.5 48.5q0 64 -89 64h-23q-9 0 -12 3t-3 12v23 q0 9 3 12t12 3h23q36 0 57 17t21 46q0 23 -16 36.5t-42 13.5q-33 0 -70 -33q-5 -5 -9 -5q-5 0 -9 3l-23 19q-5 3 -5 7q0 15 35 37q38 24 83 24q53 0 86 -28t33 -73q0 -52 -53 -85q67 -29 67 -98z"/>
    <glyph glyph-name="questiondown" unicode="¿" horiz-adv-x="426" d="M317 423q0 -29 -20.5 -49.5t-49.5 -20.5q-30 0 -50.5 21t-20.5 50t21 49.5t51 20.5q28 0 48.5 -21t20.5 -50zM388 -173q0 -14 -51.5 -28.5t-100.5 -14.5q-82 0 -128 41.5t-46 115.5q0 129 153 170v90q0 9 2.5 11.5t11.5 2.5h40q9 0 11.5 -2.5t2.5 -11.5v-123 q0 -15 -17 -20q-60 -18 -83 -32q-42 -26 -42 -83q0 -43 26.5 -66.5t76.5 -23.5q51 0 110 25q6 2 9 2q5 0 9 -7l14 -39q2 -5 2 -7z"/>
    <glyph glyph-name="Agrave" unicode="À" horiz-adv-x="537" d="M310 781q0 -2 -4 -9l-11 -19q-3 -5 -8 -5q-4 0 -10 3l-174 69q-10 4 -10 10q0 3 3 9l26 45q5 8 10 8t10 -4l159 -97q9 -5 9 -10zM517 8q0 -8 -14 -8h-64q-10 0 -15 11l-55 195h-203l-56 -195q-3 -11 -15 -11h-60q-14 0 -14 7q0 2 2 9l201 659q2 8 4.5 9.5t10.5 1.5h60 q8 0 10.5 -1.5t4.5 -9.5l201 -659q2 -7 2 -8zM350 275l-60 220q-11 40 -23 96q-7 -34 -23 -95l-60 -221h166z"/>
    <glyph glyph-name="Aacute" unicode="Á" horiz-adv-x="537" d="M445 829q0 -5 -10 -9l-176 -70q-4 -2 -9 -2q-4 0 -9 8l-9 16q-4 5 -4 10q0 3 9 9l159 97q5 4 9 4q6 0 10 -8l26 -45q4 -5 4 -10zM517 8q0 -8 -14 -8h-64q-10 0 -15 11l-55 195h-203l-56 -195q-3 -11 -15 -11h-60q-14 0 -14 7q0 2 2 9l201 659q2 8 4.5 9.5t10.5 1.5h60 q8 0 10.5 -1.5t4.5 -9.5l201 -659q2 -7 2 -8zM350 275l-60 220q-11 40 -23 96q-7 -34 -23 -95l-60 -221h166z"/>
    <glyph glyph-name="Acircumflex" unicode="Â" horiz-adv-x="537" d="M404 779q0 -2 -4 -9l-12 -15q-6 -7 -10 -7t-10 3l-98 53l-98 -53q-6 -3 -10 -3t-10 7l-12 15q-4 5 -4 10q0 6 7 10l108 74q11 8 19 8q7 0 18 -8l109 -74q7 -6 7 -11zM517 8q0 -8 -14 -8h-64q-10 0 -15 11l-55 195h-203l-56 -195q-3 -11 -15 -11h-60q-14 0 -14 7q0 2 2 9 l201 659q2 8 4.5 9.5t10.5 1.5h60q8 0 10.5 -1.5t4.5 -9.5l201 -659q2 -7 2 -8zM350 275l-60 220q-11 40 -23 96q-7 -34 -23 -95l-60 -221h166z"/>
    <glyph glyph-name="Atilde" unicode="Ã" horiz-adv-x="537" d="M422 843q0 -19 -27 -48q-27 -31 -68 -31q-23 0 -62 21q-34 19 -53 19q-27 0 -44 -30q-4 -8 -10 -8q-3 0 -6 2l-28 11q-8 3 -8 9q0 5 10 21.5t19 26.5q26 30 65 30q27 0 86 -32q13 -8 28 -8q31 0 47 30q4 8 9 8l7 -1l27 -12q8 -3 8 -8zM517 8q0 -8 -14 -8h-64 q-10 0 -15 11l-55 195h-203l-56 -195q-3 -11 -15 -11h-60q-14 0 -14 7q0 2 2 9l201 659q2 8 4.5 9.5t10.5 1.5h60q8 0 10.5 -1.5t4.5 -9.5l201 -659q2 -7 2 -8zM350 275l-60 220q-11 40 -23 96q-7 -34 -23 -95l-60 -221h166z"/>
    <glyph glyph-name="Adieresis" unicode="Ä" horiz-adv-x="537" d="M425 801q0 -23 -16.5 -39t-38.5 -16q-23 0 -39 16t-16 39t16.5 39t39.5 16q22 0 38 -16.5t16 -38.5zM517 8q0 -8 -14 -8h-64q-10 0 -15 11l-55 195h-203l-56 -195q-3 -11 -15 -11h-60q-14 0 -14 7q0 2 2 9l201 659q2 8 4.5 9.5t10.5 1.5h60q8 0 10.5 -1.5t4.5 -9.5 l201 -659q2 -7 2 -8zM350 275l-60 220q-11 40 -23 96q-7 -34 -23 -95l-60 -221h166zM223 801q0 -23 -16.5 -39t-38.5 -16q-23 0 -39 16t-16 39t16.5 39t39.5 16q22 0 38 -16.5t16 -38.5z"/>
    <glyph glyph-name="Aring" unicode="Å" horiz-adv-x="537" d="M360 824q0 -38 -27 -65t-65 -27t-64.5 27t-26.5 65t27 64.5t66 26.5q37 0 63.5 -27t26.5 -64zM517 8q0 -8 -14 -8h-64q-10 0 -15 11l-55 195h-203l-56 -195q-3 -11 -15 -11h-60q-14 0 -14 7q0 2 2 9l201 659q2 8 4.5 9.5t10.5 1.5h60q8 0 10.5 -1.5t4.5 -9.5l201 -659 q2 -7 2 -8zM312 824q0 18 -13 31t-31 13t-30.5 -13t-12.5 -31q0 -19 12.5 -32t31.5 -13q18 0 30.5 13t12.5 32zM350 275l-60 220q-11 40 -23 96q-7 -34 -23 -95l-60 -221h166z"/>
    <glyph glyph-name="AE" unicode="Æ" horiz-adv-x="685" d="M654 678q0 -2 -2 -8l-15 -43q-4 -12 -17 -12h-220v-225h196q9 0 11.5 -2.5t2.5 -11.5v-39q0 -9 -2.5 -11.5t-11.5 -2.5h-196v-252h239q9 0 11.5 -2.5t2.5 -11.5v-43q0 -9 -2.5 -11.5t-11.5 -2.5h-307q-9 0 -11.5 2.5t-2.5 11.5v192h-183l-89 -195q-6 -11 -16 -11h-60 q-14 0 -14 8q0 2 3 9l315 659q4 10 16 10h350q14 0 14 -8zM319 632q-16 -47 -50 -122l-107 -235h156v228v32v37q0 34 1 60z"/>
    <glyph glyph-name="Ccedilla" unicode="Ç" horiz-adv-x="463" d="M294 -14l-3 -42q43 -5 60.5 -20.5t17.5 -46.5q0 -36 -29.5 -59t-75.5 -23q-62 0 -62 20v5l5 34q1 6 6 6l9 -3q21 -7 44 -7q41 0 41 24t-53 25q-29 0 -27 12q1 7 1 13l7 66q-183 41 -183 360q0 174 57 265q25 40 68.5 62.5t93.5 22.5q85 0 149 -56q16 -13 16 -20 q0 -4 -2 -8l-29 -38q-2 -4 -8 -4q-4 0 -34 24q-47 35 -91 35q-68 0 -99.5 -65.5t-31.5 -208.5q0 -306 141 -306q51 0 112 53q6 6 11 6q4 0 8 -7l25 -34q3 -3 3 -7q0 -13 -36 -38q-47 -33 -111 -40z"/>
    <glyph glyph-name="Egrave" unicode="È" horiz-adv-x="463" d="M326 781q0 -2 -4 -9l-11 -19q-3 -5 -8 -5q-4 0 -10 3l-174 69q-10 4 -10 10q0 3 3 9l26 45q5 8 10 8t10 -4l159 -97q9 -5 9 -10zM432 679q0 -2 -2 -9l-15 -44q-3 -11 -15 -11h-222v-225h196q9 0 11.5 -2.5t2.5 -11.5v-39q0 -9 -2.5 -11.5t-11.5 -2.5h-196v-252h239 q9 0 11.5 -2.5t2.5 -11.5v-43q0 -9 -2.5 -11.5t-11.5 -2.5h-307q-10 0 -12 2t-2 12v658q0 9 2.5 11.5t11.5 2.5h308q14 0 14 -7z"/>
    <glyph glyph-name="Eacute" unicode="É" horiz-adv-x="463" d="M419 829q0 -5 -10 -9l-176 -70q-4 -2 -9 -2q-4 0 -9 8l-9 16q-4 5 -4 10q0 3 9 9l159 97q5 4 9 4q6 0 10 -8l26 -45q4 -5 4 -10zM432 679q0 -2 -2 -9l-15 -44q-3 -11 -15 -11h-222v-225h196q9 0 11.5 -2.5t2.5 -11.5v-39q0 -9 -2.5 -11.5t-11.5 -2.5h-196v-252h239 q9 0 11.5 -2.5t2.5 -11.5v-43q0 -9 -2.5 -11.5t-11.5 -2.5h-307q-10 0 -12 2t-2 12v658q0 9 2.5 11.5t11.5 2.5h308q14 0 14 -7z"/>
    <glyph glyph-name="Ecircumflex" unicode="Ê" horiz-adv-x="463" d="M401 779q0 -2 -4 -9l-12 -15q-6 -7 -10 -7t-10 3l-98 53l-98 -53q-6 -3 -10 -3t-10 7l-12 15q-4 5 -4 10q0 6 7 10l108 74q11 8 19 8q7 0 18 -8l109 -74q7 -6 7 -11zM432 679q0 -2 -2 -9l-15 -44q-3 -11 -15 -11h-222v-225h196q9 0 11.5 -2.5t2.5 -11.5v-39 q0 -9 -2.5 -11.5t-11.5 -2.5h-196v-252h239q9 0 11.5 -2.5t2.5 -11.5v-43q0 -9 -2.5 -11.5t-11.5 -2.5h-307q-10 0 -12 2t-2 12v658q0 9 2.5 11.5t11.5 2.5h308q14 0 14 -7z"/>
    <glyph glyph-name="Edieresis" unicode="Ë" horiz-adv-x="463" d="M422 811q0 -23 -16 -39t-39 -16t-39 16t-16 39t16.5 39t39.5 16q22 0 38 -16.5t16 -38.5zM432 679q0 -2 -2 -9l-15 -44q-3 -11 -15 -11h-222v-225h196q9 0 11.5 -2.5t2.5 -11.5v-39q0 -9 -2.5 -11.5t-11.5 -2.5h-196v-252h239q9 0 11.5 -2.5t2.5 -11.5v-43 q0 -9 -2.5 -11.5t-11.5 -2.5h-307q-10 0 -12 2t-2 12v658q0 9 2.5 11.5t11.5 2.5h308q14 0 14 -7zM219 811q0 -23 -16.5 -39t-38.5 -16q-23 0 -39 16t-16 39t16.5 39t39.5 16q22 0 38 -16.5t16 -38.5z"/>
    <glyph glyph-name="Igrave" unicode="Ì" horiz-adv-x="333" d="M256 781q0 -2 -4 -9l-11 -19q-3 -5 -8 -5q-4 0 -10 3l-174 69q-10 4 -10 10q0 3 3 9l26 45q5 8 10 8t10 -4l159 -97q9 -5 9 -10zM310 14q0 -9 -2.5 -11.5t-11.5 -2.5h-259q-9 0 -11.5 2.5t-2.5 11.5v37q0 9 2.5 11.5t11.5 2.5h88v556h-88q-9 0 -11.5 2.5t-2.5 11.5v37 q0 9 2.5 11.5t11.5 2.5h259q9 0 11.5 -2.5t2.5 -11.5v-37q0 -9 -2.5 -11.5t-11.5 -2.5h-89v-556h89q9 0 11.5 -2.5t2.5 -11.5v-37z"/>
    <glyph glyph-name="Iacute" unicode="Í" horiz-adv-x="333" d="M308 829q0 -5 -10 -9l-176 -70q-4 -2 -9 -2q-4 0 -9 8l-9 16q-4 5 -4 10q0 3 9 9l159 97q5 4 9 4q6 0 10 -8l26 -45q4 -5 4 -10zM310 14q0 -9 -2.5 -11.5t-11.5 -2.5h-259q-9 0 -11.5 2.5t-2.5 11.5v37q0 9 2.5 11.5t11.5 2.5h88v556h-88q-9 0 -11.5 2.5t-2.5 11.5v37 q0 9 2.5 11.5t11.5 2.5h259q9 0 11.5 -2.5t2.5 -11.5v-37q0 -9 -2.5 -11.5t-11.5 -2.5h-89v-556h89q9 0 11.5 -2.5t2.5 -11.5v-37z"/>
    <glyph glyph-name="Icircumflex" unicode="Î" horiz-adv-x="333" d="M301 779q0 -2 -4 -9l-12 -15q-6 -7 -10 -7t-10 3l-98 53l-98 -53q-6 -3 -10 -3t-10 7l-12 15q-4 5 -4 10q0 6 7 10l108 74q11 8 19 8q7 0 18 -8l109 -74q7 -6 7 -11zM310 14q0 -9 -2.5 -11.5t-11.5 -2.5h-259q-9 0 -11.5 2.5t-2.5 11.5v37q0 9 2.5 11.5t11.5 2.5h88v556 h-88q-9 0 -11.5 2.5t-2.5 11.5v37q0 9 2.5 11.5t11.5 2.5h259q9 0 11.5 -2.5t2.5 -11.5v-37q0 -9 -2.5 -11.5t-11.5 -2.5h-89v-556h89q9 0 11.5 -2.5t2.5 -11.5v-37z"/>
    <glyph glyph-name="Idieresis" unicode="Ï" horiz-adv-x="333" d="M309 811q0 -23 -16.5 -39t-38.5 -16q-23 0 -39 16t-16 39t16.5 39t39.5 16q22 0 38 -16.5t16 -38.5zM310 14q0 -9 -2.5 -11.5t-11.5 -2.5h-259q-9 0 -11.5 2.5t-2.5 11.5v37q0 9 2.5 11.5t11.5 2.5h88v556h-88q-9 0 -11.5 2.5t-2.5 11.5v37q0 9 2.5 11.5t11.5 2.5h259 q9 0 11.5 -2.5t2.5 -11.5v-37q0 -9 -2.5 -11.5t-11.5 -2.5h-89v-556h89q9 0 11.5 -2.5t2.5 -11.5v-37zM133 811q0 -23 -16.5 -39t-38.5 -16q-23 0 -39 16t-16 39t16.5 39t39.5 16q22 0 38 -16.5t16 -38.5z"/>
    <glyph glyph-name="Eth" unicode="Ð" horiz-adv-x="556" d="M503 355q0 -355 -280 -355h-113q-9 0 -11.5 2.5t-2.5 11.5v311h-61q-9 0 -11.5 2.5t-2.5 11.5v37q0 9 2.5 11.5t11.5 2.5h61v282q0 9 2.5 11.5t11.5 2.5h104q120 0 178 -40q111 -76 111 -291zM415 355q0 195 -86 240q-36 20 -110 20h-41v-225h120q10 0 12 -2t2 -12v-37 q0 -10 -2 -12t-12 -2h-120v-254h51q58 0 88 13t54 48q44 65 44 223z"/>
    <glyph glyph-name="Ntilde" unicode="Ñ" horiz-adv-x="574" d="M452 843q0 -19 -27 -48q-27 -31 -68 -31q-23 0 -62 21q-34 19 -53 19q-27 0 -44 -30q-4 -8 -10 -8q-3 0 -6 2l-28 11q-8 3 -8 9q0 5 10 21.5t19 26.5q25 30 65 30q27 0 86 -32q13 -8 28 -8q31 0 47 30q4 8 9 8l7 -1l27 -12q8 -3 8 -8zM491 14q0 -9 -2.5 -11.5t-11.5 -2.5 h-54q-11 0 -15 10l-229 495q-15 32 -30 94q10 -59 10 -98v-487q0 -9 -2.5 -11.5t-11.5 -2.5h-45q-9 0 -11.5 2.5t-2.5 11.5v658q0 9 2.5 11.5t11.5 2.5h63q11 0 15 -10l219 -466q16 -34 28 -84q-7 52 -7 87v459q0 9 2.5 11.5t11.5 2.5h45q9 0 11.5 -2.5t2.5 -11.5v-658z"/>
    <glyph glyph-name="Ograve" unicode="Ò" horiz-adv-x="556" d="M332 781q0 -2 -4 -9l-11 -19q-3 -5 -8 -5q-4 0 -10 3l-174 69q-10 4 -10 10q0 3 3 9l26 45q5 8 10 8t10 -4l159 -97q9 -5 9 -10zM503 344q0 -176 -59 -267t-172 -91q-108 0 -164 89.5t-56 263.5q0 361 234 361q107 0 162 -90.5t55 -265.5zM414 337q0 162 -38 238 q-30 58 -98 58q-34 0 -62 -17t-41 -46q-34 -71 -34 -225q0 -156 39 -234q28 -58 97 -58q73 0 103 63q34 74 34 221z"/>
    <glyph glyph-name="Oacute" unicode="Ó" horiz-adv-x="556" d="M440 829q0 -5 -10 -9l-176 -70q-4 -2 -9 -2q-4 0 -9 8l-9 16q-4 5 -4 10q0 3 9 9l159 97q5 4 9 4q6 0 10 -8l26 -45q4 -5 4 -10zM503 344q0 -176 -59 -267t-172 -91q-108 0 -164 89.5t-56 263.5q0 361 234 361q107 0 162 -90.5t55 -265.5zM414 337q0 162 -38 238 q-30 58 -98 58q-34 0 -62 -17t-41 -46q-34 -71 -34 -225q0 -156 39 -234q28 -58 97 -58q73 0 103 63q34 74 34 221z"/>
    <glyph glyph-name="Ocircumflex" unicode="Ô" horiz-adv-x="556" d="M412 779q0 -2 -4 -9l-12 -15q-6 -7 -10 -7t-10 3l-98 53l-98 -53q-6 -3 -10 -3t-10 7l-12 15q-4 5 -4 10q0 6 7 10l108 74q11 8 19 8q7 0 18 -8l109 -74q7 -6 7 -11zM503 344q0 -176 -59 -267t-172 -91q-108 0 -164 89.5t-56 263.5q0 361 234 361q107 0 162 -90.5 t55 -265.5zM414 337q0 162 -38 238q-30 58 -98 58q-34 0 -62 -17t-41 -46q-34 -71 -34 -225q0 -156 39 -234q28 -58 97 -58q73 0 103 63q34 74 34 221z"/>
    <glyph glyph-name="Otilde" unicode="Õ" horiz-adv-x="556" d="M430 843q0 -19 -27 -48q-27 -31 -68 -31q-23 0 -62 21q-34 19 -53 19q-27 0 -44 -30q-4 -8 -10 -8q-3 0 -6 2l-28 11q-8 3 -8 9q0 5 10 21.5t19 26.5q25 30 65 30q27 0 86 -32q13 -8 28 -8q31 0 47 30q4 8 9 8l7 -1l27 -12q8 -3 8 -8zM503 344q0 -176 -59 -267t-172 -91 q-108 0 -164 89.5t-56 263.5q0 361 234 361q107 0 162 -90.5t55 -265.5zM414 337q0 162 -38 238q-30 58 -98 58q-34 0 -62 -17t-41 -46q-34 -71 -34 -225q0 -156 39 -234q28 -58 97 -58q73 0 103 63q34 74 34 221z"/>
    <glyph glyph-name="Odieresis" unicode="Ö" horiz-adv-x="556" d="M434 801q0 -23 -16 -39t-39 -16t-39 16t-16 39t16.5 39t39.5 16q22 0 38 -16.5t16 -38.5zM503 344q0 -176 -59 -267t-172 -91q-108 0 -164 89.5t-56 263.5q0 361 234 361q107 0 162 -90.5t55 -265.5zM414 337q0 162 -38 238q-30 58 -98 58q-34 0 -62 -17t-41 -46 q-34 -71 -34 -225q0 -156 39 -234q28 -58 97 -58q73 0 103 63q34 74 34 221zM231 801q0 -23 -16.5 -39t-38.5 -16q-23 0 -39 16t-16 39t16.5 39t39.5 16q22 0 38 -16.5t16 -38.5z"/>
    <glyph glyph-name="multiply" unicode="×" d="M434 186q0 -3 -6 -9l-34 -34q-6 -6 -9 -6q-5 0 -10 6l-125 126l-125 -126q-5 -6 -9 -6q-5 0 -10 6l-34 34q-6 5 -6 9t6 10l126 125l-126 124q-6 6 -6 11q0 3 6 9l34 34q6 6 10 6q3 0 9 -6l125 -126l125 126q6 6 9 6q4 0 10 -6l34 -34q6 -6 6 -10q0 -3 -6 -10l-126 -124 l126 -125q6 -6 6 -10z"/>
    <glyph glyph-name="Oslash" unicode="Ø" horiz-adv-x="556" d="M503 344q0 -175 -58.5 -266.5t-171.5 -91.5q-77 0 -130 46l-33 -64q-4 -9 -9 -9t-9 3l-29 14q-10 5 -10 9q0 3 4 10l46 89q-51 95 -51 256q0 177 58.5 268.5t171.5 91.5q66 0 119 -37l34 66q5 9 9 9q3 0 9 -3l30 -15q9 -4 9 -8q0 -7 -3 -10l-45 -87q59 -92 59 -271z M364 600q-32 33 -84 33q-77 0 -111 -68.5t-34 -224.5q0 -86 13 -175zM420 344q0 124 -18 196l-219 -442q32 -45 92 -45q77 0 111 67.5t34 223.5z"/>
    <glyph glyph-name="Ugrave" unicode="Ù" horiz-adv-x="592" d="M351 781q0 -2 -4 -9l-11 -19q-3 -5 -8 -5q-4 0 -10 3l-174 69q-10 4 -10 10q0 3 3 9l26 45q5 8 10 8t10 -4l159 -97q9 -5 9 -10zM508 184q0 -92 -50 -141q-58 -57 -169 -57q-205 0 -205 198v488q0 9 2.5 11.5t11.5 2.5h54q9 0 11.5 -2.5t2.5 -11.5v-485q0 -73 29 -103.5 t98 -30.5q70 0 103 32.5t33 101.5v485q0 9 2.5 11.5t11.5 2.5h51q9 0 11.5 -2.5t2.5 -11.5v-488z"/>
    <glyph glyph-name="Uacute" unicode="Ú" horiz-adv-x="592" d="M458 829q0 -5 -10 -9l-176 -70q-4 -2 -9 -2q-4 0 -9 8l-9 16q-4 5 -4 10q0 3 9 9l159 97q5 4 9 4q6 0 10 -8l26 -45q4 -5 4 -10zM508 184q0 -92 -50 -141q-58 -57 -169 -57q-205 0 -205 198v488q0 9 2.5 11.5t11.5 2.5h54q9 0 11.5 -2.5t2.5 -11.5v-485q0 -73 29 -103.5 t98 -30.5q70 0 103 32.5t33 101.5v485q0 9 2.5 11.5t11.5 2.5h51q9 0 11.5 -2.5t2.5 -11.5v-488z"/>
    <glyph glyph-name="Ucircumflex" unicode="Û" horiz-adv-x="592" d="M431 779q0 -2 -4 -9l-12 -15q-6 -7 -10 -7t-10 3l-98 53l-98 -53q-6 -3 -10 -3t-10 7l-12 15q-4 5 -4 10q0 6 7 10l108 74q11 8 19 8q7 0 18 -8l109 -74q7 -6 7 -11zM508 184q0 -92 -50 -141q-58 -57 -169 -57q-205 0 -205 198v488q0 9 2.5 11.5t11.5 2.5h54 q9 0 11.5 -2.5t2.5 -11.5v-485q0 -73 29 -103.5t98 -30.5q70 0 103 32.5t33 101.5v485q0 9 2.5 11.5t11.5 2.5h51q9 0 11.5 -2.5t2.5 -11.5v-488z"/>
    <glyph glyph-name="Udieresis" unicode="Ü" horiz-adv-x="592" d="M452 801q0 -23 -16 -39t-39 -16t-39 16t-16 39t16.5 39t39.5 16q22 0 38 -16.5t16 -38.5zM508 184q0 -92 -50 -141q-58 -57 -169 -57q-205 0 -205 198v488q0 9 2.5 11.5t11.5 2.5h54q9 0 11.5 -2.5t2.5 -11.5v-485q0 -73 29 -103.5t98 -30.5q70 0 103 32.5t33 101.5v485 q0 9 2.5 11.5t11.5 2.5h51q9 0 11.5 -2.5t2.5 -11.5v-488zM249 801q0 -23 -16.5 -39t-38.5 -16q-23 0 -39 16t-16 39t16.5 39t39.5 16q22 0 38 -16.5t16 -38.5z"/>
    <glyph glyph-name="Yacute" unicode="Ý" horiz-adv-x="426" d="M403 829q0 -5 -10 -9l-176 -70q-4 -2 -9 -2q-4 0 -9 8l-9 16q-4 5 -4 10q0 3 9 9l159 97q5 4 9 4q6 0 10 -8l26 -45q4 -5 4 -10zM450 669q0 -5 -3 -10l-190 -368v-277q0 -9 -2.5 -11.5t-11.5 -2.5h-54q-9 0 -11.5 2.5t-2.5 11.5v275l-196 369q-3 9 -3 10q0 5 11 8l60 16 l4 1q2 1 4 1q5 0 10 -10l126 -260q14 -27 27 -62q12 33 27 63l122 259q5 9 10 9q4 0 8 -1l54 -15q11 -3 11 -8z"/>
    <glyph glyph-name="Thorn" unicode="Þ" horiz-adv-x="482" d="M466 392q0 -138 -100 -190q-41 -22 -116 -22h-72v-166q0 -9 -2.5 -11.5t-11.5 -2.5h-54q-9 0 -11.5 2.5t-2.5 11.5v658q0 9 2.5 11.5t11.5 2.5h54q9 0 11.5 -2.5t2.5 -11.5v-96h85q91 0 128 -23q75 -44 75 -161zM382 391q0 85 -56 108q-19 8 -70 8h-78v-255h66 q65 0 94 23q44 35 44 116z"/>
    <glyph glyph-name="germandbls" unicode="ß" horiz-adv-x="581" d="M530 150q0 -81 -47 -125q-36 -36 -116 -36q-42 0 -80 10.5t-38 21.5q0 2 1 6l12 43q2 7 8 7q4 0 8 -3q50 -22 95 -22q84 0 84 84q0 36 -18.5 58t-92.5 75q-49 35 -63 50q-27 29 -27 72q0 32 12 55t42 48q31 27 42 45.5t11 43.5q0 37 -25 58.5t-68 21.5q-52 0 -80 -25 q-30 -26 -30 -97v-529q0 -7 -2 -9.5t-9 -2.5h-53q-7 0 -9 2.5t-2 9.5v530q0 87 40 131q46 51 151 51q76 0 120.5 -34.5t44.5 -93.5q0 -47 -26 -85q-10 -14 -51 -52q-34 -33 -34 -56q0 -19 13 -32t93 -71q50 -38 72 -72.5t22 -77.5z"/>
    <glyph glyph-name="agrave" unicode="à" horiz-adv-x="463" d="M259 579q0 -1 -5 -9l-12 -17q-2 -5 -7 -5q-4 0 -10 3l-163 85q-9 5 -9 10q0 3 4 9l29 42q5 8 10 8q3 0 10 -5l145 -111q8 -6 8 -10zM409 25q0 -3 -4 -5l-43 -27q-4 -3 -8 -3q-7 0 -18.5 19t-19.5 44q-64 -63 -143 -63q-61 0 -96.5 37t-35.5 100q0 170 264 174v33 q0 48 -21 68.5t-71 20.5t-119 -29q-6 -2 -7 -2q-5 0 -7 5l-15 40l-1 8q0 8 27 19q60 27 133 27q79 0 117.5 -34.5t38.5 -105.5v-189q0 -51 5 -76.5t22 -54.5q2 -4 2 -6zM305 110v129q-187 -1 -187 -106q0 -35 20.5 -57.5t52.5 -22.5q50 0 114 57z"/>
    <glyph glyph-name="aacute" unicode="á" horiz-adv-x="463" d="M396 645q0 -3 -9 -8l-164 -85q-7 -4 -10 -4t-9 8l-10 15q-4 7 -4 10q0 4 8 9l145 111q6 5 10 5t10 -8l29 -42q4 -7 4 -11zM409 25q0 -3 -4 -5l-43 -27q-4 -3 -8 -3q-7 0 -18.5 19t-19.5 44q-64 -63 -143 -63q-61 0 -96.5 37t-35.5 100q0 170 264 174v33q0 48 -21 68.5 t-71 20.5t-119 -29q-6 -2 -7 -2q-5 0 -7 5l-15 40l-1 8q0 8 27 19q60 27 133 27q79 0 117.5 -34.5t38.5 -105.5v-189q0 -51 5 -76.5t22 -54.5q2 -4 2 -6zM305 110v129q-187 -1 -187 -106q0 -35 20.5 -57.5t52.5 -22.5q50 0 114 57z"/>
    <glyph glyph-name="acircumflex" unicode="â" horiz-adv-x="463" d="M349 595q0 -3 -5 -10l-13 -18q-4 -5 -8 -5q-2 0 -9 4l-92 59l-92 -59q-7 -4 -9 -4q-3 0 -10 7l-11 16q-5 7 -5 10q0 4 7 10l111 87q5 5 9 5t9 -5l111 -87q7 -7 7 -10zM409 25q0 -3 -4 -5l-43 -27q-4 -3 -8 -3q-7 0 -18.5 19t-19.5 44q-64 -63 -143 -63q-61 0 -96.5 37 t-35.5 100q0 170 264 174v33q0 48 -21 68.5t-71 20.5t-119 -29q-6 -2 -7 -2q-5 0 -7 5l-15 40l-1 8q0 8 27 19q60 27 133 27q79 0 117.5 -34.5t38.5 -105.5v-189q0 -51 5 -76.5t22 -54.5q2 -4 2 -6zM305 110v129q-187 -1 -187 -106q0 -35 20.5 -57.5t52.5 -22.5q50 0 114 57 z"/>
    <glyph glyph-name="atilde" unicode="ã" horiz-adv-x="463" d="M370 658q0 -13 -27 -48q-25 -31 -66 -31q-23 0 -60 21q-33 19 -51 19q-26 0 -43 -30q-4 -8 -9 -8l-6 1l-27 12q-8 3 -8 9q0 14 28 48q25 30 63 30q26 0 83 -32q16 -8 28 -8q31 0 45 30q4 8 9 8l7 -1l27 -12q7 -3 7 -8zM409 25q0 -3 -4 -5l-43 -27q-4 -3 -8 -3 q-7 0 -18.5 19t-19.5 44q-64 -63 -143 -63q-61 0 -96.5 37t-35.5 100q0 170 264 174v33q0 48 -21 68.5t-71 20.5t-119 -29q-6 -2 -7 -2q-5 0 -7 5l-15 40l-1 8q0 8 27 19q60 27 133 27q79 0 117.5 -34.5t38.5 -105.5v-189q0 -51 5 -76.5t22 -54.5q2 -4 2 -6zM305 110v129 q-187 -1 -187 -106q0 -35 20.5 -57.5t52.5 -22.5q50 0 114 57z"/>
    <glyph glyph-name="adieresis" unicode="ä" horiz-adv-x="463" d="M377 630q0 -22 -16 -37.5t-38 -15.5t-37.5 16t-15.5 38t16 37.5t38 15.5t37.5 -16t15.5 -38zM180 630q0 -22 -15.5 -37.5t-37.5 -15.5q-23 0 -38.5 15.5t-15.5 38.5q0 22 16 37.5t38 15.5t37.5 -16t15.5 -38zM409 25q0 -3 -4 -5l-43 -27q-4 -3 -8 -3q-7 0 -18.5 19 t-19.5 44q-64 -63 -143 -63q-61 0 -96.5 37t-35.5 100q0 170 264 174v33q0 48 -21 68.5t-71 20.5t-119 -29q-6 -2 -7 -2q-5 0 -7 5l-15 40l-1 8q0 8 27 19q60 27 133 27q79 0 117.5 -34.5t38.5 -105.5v-189q0 -51 5 -76.5t22 -54.5q2 -4 2 -6zM305 110v129 q-187 -1 -187 -106q0 -35 20.5 -57.5t52.5 -22.5q50 0 114 57z"/>
    <glyph glyph-name="aring" unicode="å" horiz-adv-x="463" d="M314 641q0 -37 -26 -63t-63 -26t-63 26.5t-26 63.5t26.5 62.5t64.5 25.5q35 0 61 -26t26 -63zM409 25q0 -3 -4 -5l-43 -27q-4 -3 -8 -3q-7 0 -18.5 19t-19.5 44q-64 -63 -143 -63q-61 0 -96.5 37t-35.5 100q0 170 264 174v33q0 48 -21 68.5t-71 20.5t-119 -29 q-6 -2 -7 -2q-5 0 -7 5l-15 40l-1 8q0 8 27 19q60 27 133 27q79 0 117.5 -34.5t38.5 -105.5v-189q0 -51 5 -76.5t22 -54.5q2 -4 2 -6zM268 641q0 18 -13 30.5t-31 12.5q-17 0 -29.5 -13t-12.5 -30q0 -18 12.5 -30.5t30.5 -12.5t30.5 12.5t12.5 30.5zM305 110v129 q-187 -1 -187 -106q0 -35 20.5 -57.5t52.5 -22.5q50 0 114 57z"/>
    <glyph glyph-name="ae" unicode="æ" horiz-adv-x="708" d="M676 249q0 -19 -13 -19h-285q3 -80 30 -122q37 -56 100 -56q53 0 115 37q5 4 10 4t8 -5l18 -39q2 -6 2 -8q0 -8 -37 -26q-61 -29 -121 -29q-50 0 -86 18t-69 61q-81 -75 -173 -75q-62 0 -98 36.5t-36 100.5q0 163 267 167v40q0 47 -22 68t-71 21q-44 0 -115 -29 q-6 -2 -9 -2q-4 0 -6 5l-14 39l-2 9q0 14 54 30.5t100 15.5q47 -1 78 -15t56 -47q56 65 140 65q86 0 132.5 -63.5t46.5 -181.5zM594 292q-13 141 -106 141q-59 0 -86 -49q-18 -30 -22 -92h214zM308 110v122q-103 -3 -146.5 -26t-43.5 -74q0 -35 20.5 -57t53.5 -22 q58 0 116 57z"/>
    <glyph glyph-name="ccedilla" unicode="ç" horiz-adv-x="408" d="M398 443l-1 -5l-23 -41q-3 -6 -8 -6q-4 0 -8 3q-59 33 -100 33q-123 0 -123 -186q0 -187 114 -187q51 0 116 37q4 2 6 2q5 0 6 -6l17 -41q2 -6 2 -8q0 -10 -41 -26.5t-79 -23.5l-3 -43q41 -4 58.5 -19t17.5 -46q0 -35 -28 -57t-74 -22q-60 0 -60 19v8l5 30q0 6 5 6 q3 0 6 -1q20 -8 46 -8q40 0 40 24q0 23 -50 23q-30 0 -28 13q1 9 1 11l6 61q-81 10 -124 72.5t-43 169.5q0 124 54.5 194.5t151.5 70.5q64 0 118 -30q23 -12 23 -21z"/>
    <glyph glyph-name="egrave" unicode="è" horiz-adv-x="463" d="M310 580q0 -2 -5 -9l-12 -17q-3 -5 -7 -5t-10 3l-163 85q-9 5 -9 10q0 3 4 9l29 42q5 8 10 8q3 0 10 -5l145 -111q8 -6 8 -10zM431 241q0 -18 -11 -18h-287q4 -82 37.5 -125.5t94.5 -43.5q53 0 116 36q5 3 10 3q4 0 7 -5l18 -39q2 -5 2 -7q0 -11 -36 -28 q-61 -28 -123 -28q-95 0 -151.5 68.5t-56.5 184.5q0 117 53.5 186t143.5 69q60 0 104 -31.5t64 -88.5q15 -44 15 -133zM350 285q-1 72 -29 110t-78 38q-103 0 -109 -148h216z"/>
    <glyph glyph-name="eacute" unicode="é" horiz-adv-x="463" d="M419 645q0 -3 -9 -8l-164 -85q-7 -4 -10 -4t-9 8l-10 15q-4 7 -4 10q0 4 8 9l145 111q6 5 10 5t10 -8l29 -42q4 -7 4 -11zM431 241q0 -18 -11 -18h-287q4 -82 37.5 -125.5t94.5 -43.5q53 0 116 36q5 3 10 3q4 0 7 -5l18 -39q2 -5 2 -7q0 -11 -36 -28q-61 -28 -123 -28 q-95 0 -151.5 68.5t-56.5 184.5q0 117 53.5 186t143.5 69q60 0 104 -31.5t64 -88.5q15 -44 15 -133zM350 285q-1 72 -29 110t-78 38q-103 0 -109 -148h216z"/>
    <glyph glyph-name="ecircumflex" unicode="ê" horiz-adv-x="463" d="M379 595q0 -3 -5 -10l-13 -18q-4 -5 -8 -5q-2 0 -9 4l-92 59l-92 -59q-7 -4 -9 -4q-3 0 -10 7l-11 16q-5 7 -5 10q0 4 7 10l111 87q5 5 9 5t9 -5l111 -87q7 -7 7 -10zM431 241q0 -18 -11 -18h-287q4 -82 37.5 -125.5t94.5 -43.5q53 0 116 36q5 3 10 3q4 0 7 -5l18 -39 q2 -5 2 -7q0 -11 -36 -28q-61 -28 -123 -28q-95 0 -151.5 68.5t-56.5 184.5q0 117 53.5 186t143.5 69q60 0 104 -31.5t64 -88.5q15 -44 15 -133zM350 285q-1 72 -29 110t-78 38q-103 0 -109 -148h216z"/>
    <glyph glyph-name="edieresis" unicode="ë" horiz-adv-x="463" d="M404 630q0 -22 -16 -37.5t-38 -15.5t-37.5 16t-15.5 38t16 37.5t38 15.5t37.5 -16t15.5 -38zM207 630q0 -22 -15.5 -37.5t-37.5 -15.5t-38 15.5t-16 38.5q0 22 16 37.5t38 15.5t37.5 -16t15.5 -38zM431 241q0 -18 -11 -18h-287q4 -82 37.5 -125.5t94.5 -43.5q53 0 116 36 q5 3 10 3q4 0 7 -5l18 -39q2 -5 2 -7q0 -11 -36 -28q-61 -28 -123 -28q-95 0 -151.5 68.5t-56.5 184.5q0 117 53.5 186t143.5 69q60 0 104 -31.5t64 -88.5q15 -44 15 -133zM350 285q-1 72 -29 110t-78 38q-103 0 -109 -148h216z"/>
    <glyph glyph-name="igrave" unicode="ì" horiz-adv-x="259" d="M185 580q0 -2 -5 -9l-12 -17q-2 -5 -7 -5q-4 0 -10 3l-163 85q-9 5 -9 10q0 3 4 9l29 42q5 8 10 8q3 0 10 -5l145 -111q8 -6 8 -10zM175 12q0 -7 -2 -9.5t-9 -2.5h-53q-7 0 -9 2.5t-2 9.5v406h-80q-7 0 -9.5 2t-2.5 9v39q0 8 2 10t10 2h144q7 0 9 -2.5t2 -9.5v-456z"/>
    <glyph glyph-name="iacute" unicode="í" horiz-adv-x="259" d="M297 645q0 -3 -9 -8l-164 -85q-7 -4 -10 -4t-9 8l-10 15q-4 7 -4 10q0 4 8 9l145 111q6 5 10 5t10 -8l29 -42q4 -7 4 -11zM175 12q0 -7 -2 -9.5t-9 -2.5h-53q-7 0 -9 2.5t-2 9.5v406h-80q-7 0 -9.5 2t-2.5 9v39q0 8 2 10t10 2h144q7 0 9 -2.5t2 -9.5v-456z"/>
    <glyph glyph-name="icircumflex" unicode="î" horiz-adv-x="259" d="M257 595q0 -3 -5 -10l-13 -18q-4 -5 -8 -5q-2 0 -9 4l-92 59l-92 -59q-7 -4 -9 -4q-3 0 -10 7l-11 16q-5 7 -5 10q0 4 7 10l111 87q5 5 9 5t9 -5l111 -87q7 -7 7 -10zM175 12q0 -7 -2 -9.5t-9 -2.5h-53q-7 0 -9 2.5t-2 9.5v406h-80q-7 0 -9.5 2t-2.5 9v39q0 8 2 10t10 2 h144q7 0 9 -2.5t2 -9.5v-456z"/>
    <glyph glyph-name="idieresis" unicode="ï" horiz-adv-x="259" d="M254 630q0 -22 -16 -37.5t-38 -15.5t-37.5 16t-15.5 38t16 37.5t38 15.5t37.5 -16t15.5 -38zM112 630q0 -22 -15.5 -37.5t-37.5 -15.5q-23 0 -38.5 15.5t-15.5 38.5q0 22 16 37.5t38 15.5t37.5 -16t15.5 -38zM175 12q0 -7 -2 -9.5t-9 -2.5h-53q-7 0 -9 2.5t-2 9.5v406 h-80q-7 0 -9.5 2t-2.5 9v39q0 8 2 10t10 2h144q7 0 9 -2.5t2 -9.5v-456z"/>
    <glyph glyph-name="eth" unicode="ð" d="M449 262q0 -131 -54.5 -203.5t-151.5 -72.5q-90 0 -141 68t-51 188q0 116 52.5 184t140.5 68q51 0 95 -35q-31 79 -74 141l-81 -43q-4 -2 -8 -2t-7 7l-13 24q-3 6 -3 8q0 5 8 8l78 42l-41 65q-9 14 -9 17q0 7 11 9l39 8h5q7 0 18 -13.5t38 -54.5l81 44l8 2q4 0 7 -8 l14 -24q2 -6 2 -7q0 -4 -7 -8l-77 -41q121 -200 121 -371zM369 239q0 94 -30.5 143t-89.5 49q-57 0 -87 -45.5t-30 -132.5q0 -108 34 -161q27 -43 87 -43q61 0 87 44q29 48 29 146z"/>
    <glyph glyph-name="ntilde" unicode="ñ" horiz-adv-x="519" d="M420 658q0 -13 -27 -48q-25 -31 -66 -31q-23 0 -60 21q-33 19 -51 19q-26 0 -43 -30q-4 -8 -9 -8l-6 1l-27 12q-8 3 -8 9q0 14 28 48q25 30 63 30q26 0 83 -32q16 -8 28 -8q31 0 45 30q4 8 9 8l7 -1l27 -12q7 -3 7 -8zM436 12q0 -7 -2 -9.5t-9 -2.5h-53q-7 0 -9 2.5 t-2 9.5v334q0 44 -15.5 63.5t-50.5 19.5q-64 0 -132 -63v-354q0 -7 -2 -9.5t-9 -2.5h-53q-7 0 -9 2.5t-2 9.5v343q0 54 -19 96q-2 4 -2 6q0 4 5 6l45 26q6 3 8 3q8 0 17 -19t14 -47q85 68 161 68q74 0 102 -48q17 -29 17 -101v-333z"/>
    <glyph glyph-name="ograve" unicode="ò" d="M319 580q0 -2 -5 -9l-12 -17q-2 -5 -7 -5q-4 0 -10 3l-163 85q-9 5 -9 10q0 3 4 9l29 42q5 8 10 8q3 0 10 -5l145 -111q8 -6 8 -10zM449 243q0 -121 -54 -189t-151 -68q-91 0 -142 66.5t-51 185.5q0 121 54 188.5t151 67.5q91 0 142 -66.5t51 -184.5zM368 244 q0 187 -119 187q-57 0 -87 -47t-30 -136q0 -104 31 -155q26 -44 88 -44q59 0 85 42q32 51 32 153z"/>
    <glyph glyph-name="oacute" unicode="ó" d="M401 645q0 -3 -9 -8l-164 -85q-7 -4 -10 -4t-9 8l-10 15q-4 7 -4 10q0 4 8 9l145 111q6 5 10 5t10 -8l29 -42q4 -7 4 -11zM449 243q0 -121 -54 -189t-151 -68q-91 0 -142 66.5t-51 185.5q0 121 54 188.5t151 67.5q91 0 142 -66.5t51 -184.5zM368 244q0 187 -119 187 q-57 0 -87 -47t-30 -136q0 -104 31 -155q26 -44 88 -44q59 0 85 42q32 51 32 153z"/>
    <glyph glyph-name="ocircumflex" unicode="ô" d="M377 595q0 -3 -5 -10l-13 -18q-4 -5 -8 -5q-2 0 -9 4l-92 59l-92 -59q-7 -4 -9 -4q-3 0 -10 7l-11 16q-5 7 -5 10q0 4 7 10l111 87q5 5 9 5t9 -5l111 -87q7 -7 7 -10zM449 243q0 -121 -54 -189t-151 -68q-91 0 -142 66.5t-51 185.5q0 121 54 188.5t151 67.5 q91 0 142 -66.5t51 -184.5zM368 244q0 187 -119 187q-57 0 -87 -47t-30 -136q0 -104 31 -155q26 -44 88 -44q59 0 85 42q32 51 32 153z"/>
    <glyph glyph-name="otilde" unicode="õ" d="M399 658q0 -13 -27 -48q-25 -31 -66 -31q-23 0 -60 21q-33 19 -51 19q-26 0 -43 -30q-4 -8 -9 -8l-6 1l-27 12q-8 3 -8 9q0 14 28 48q25 30 63 30q26 0 83 -32q16 -8 28 -8q31 0 45 30q4 8 9 8l7 -1l27 -12q7 -3 7 -8zM449 243q0 -121 -54 -189t-151 -68q-91 0 -142 66.5 t-51 185.5q0 121 54 188.5t151 67.5q91 0 142 -66.5t51 -184.5zM368 244q0 187 -119 187q-57 0 -87 -47t-30 -136q0 -104 31 -155q26 -44 88 -44q59 0 85 42q32 51 32 153z"/>
    <glyph glyph-name="odieresis" unicode="ö" d="M402 630q0 -22 -16 -37.5t-38 -15.5t-37.5 16t-15.5 38t16 37.5t38 15.5t37.5 -16t15.5 -38zM205 630q0 -22 -15.5 -37.5t-37.5 -15.5t-38 15.5t-16 38.5q0 22 16 37.5t38 15.5t37.5 -16t15.5 -38zM449 243q0 -121 -54 -189t-151 -68q-91 0 -142 66.5t-51 185.5 q0 121 54 188.5t151 67.5q91 0 142 -66.5t51 -184.5zM368 244q0 187 -119 187q-57 0 -87 -47t-30 -136q0 -104 31 -155q26 -44 88 -44q59 0 85 42q32 51 32 153z"/>
    <glyph glyph-name="divide" unicode="÷" d="M306 495q0 -24 -16.5 -40.5t-39.5 -16.5q-24 0 -40.5 16.5t-16.5 40.5q0 23 16.5 39.5t40.5 16.5q23 0 39.5 -16.5t16.5 -39.5zM478 297q0 -9 -2.5 -11.5t-11.5 -2.5h-428q-9 0 -11.5 2.5t-2.5 11.5v47q0 9 2.5 11.5t11.5 2.5h428q9 0 11.5 -2.5t2.5 -11.5v-47zM306 146 q0 -23 -16.5 -39.5t-39.5 -16.5q-24 0 -40.5 16.5t-16.5 39.5q0 24 16.5 40.5t40.5 16.5q23 0 39.5 -16.5t16.5 -40.5z"/>
    <glyph glyph-name="oslash" unicode="ø" d="M449 243q0 -121 -54 -189t-151 -68q-52 0 -93 22l-30 -56q-3 -7 -7 -7q-3 0 -8 3l-32 16q-7 5 -7 8t3 8l36 66q-55 68 -55 192q0 121 53.5 188.5t149.5 67.5q51 0 92 -21l28 51q3 7 7 7q2 0 8 -2l31 -17q8 -4 8 -8q0 -1 -3 -7l-33 -61q57 -66 57 -193zM375 250 q0 72 -21 129l-163 -313q27 -17 61 -17q61 0 90 42q33 50 33 159zM309 415q-26 16 -59 16q-124 0 -124 -188q0 -78 20 -141z"/>
    <glyph glyph-name="ugrave" unicode="ù" d="M305 580q0 -2 -5 -9l-12 -17q-2 -5 -7 -5q-4 0 -10 3l-163 85q-9 5 -9 10q0 3 4 9l29 42q5 8 10 8q3 0 10 -5l145 -111q8 -6 8 -10zM451 23q0 -1 -4 -5l-45 -29q-4 -3 -7 -3q-6 0 -17 18t-18 42q-43 -33 -76.5 -46.5t-73.5 -13.5q-67 0 -102 34t-35 100v345q0 10 10 13 l52 14q4 1 6 1q7 0 7 -11v-312q0 -66 15.5 -91t56.5 -25q65 0 126 51v360q0 10 10 13l53 14q4 1 6 1q7 0 7 -11v-349q0 -65 26 -103q3 -4 3 -7z"/>
    <glyph glyph-name="uacute" unicode="ú" d="M410 645q0 -3 -9 -8l-164 -85q-7 -4 -10 -4t-9 8l-10 15q-4 7 -4 10q0 4 8 9l145 111q6 5 10 5t10 -8l29 -42q4 -7 4 -11zM451 23q0 -1 -4 -5l-45 -29q-4 -3 -7 -3q-6 0 -17 18t-18 42q-43 -33 -76.5 -46.5t-73.5 -13.5q-67 0 -102 34t-35 100v345q0 10 10 13l52 14 q4 1 6 1q7 0 7 -11v-312q0 -66 15.5 -91t56.5 -25q65 0 126 51v360q0 10 10 13l53 14q4 1 6 1q7 0 7 -11v-349q0 -65 26 -103q3 -4 3 -7z"/>
    <glyph glyph-name="ucircumflex" unicode="û" d="M377 595q0 -3 -5 -10l-13 -18q-4 -5 -8 -5q-2 0 -9 4l-92 59l-92 -59q-7 -4 -9 -4q-3 0 -10 7l-11 16q-5 7 -5 10q0 4 7 10l111 87q5 5 9 5t9 -5l111 -87q7 -7 7 -10zM451 23q0 -1 -4 -5l-45 -29q-4 -3 -7 -3q-6 0 -17 18t-18 42q-43 -33 -76.5 -46.5t-73.5 -13.5 q-67 0 -102 34t-35 100v345q0 10 10 13l52 14q4 1 6 1q7 0 7 -11v-312q0 -66 15.5 -91t56.5 -25q65 0 126 51v360q0 10 10 13l53 14q4 1 6 1q7 0 7 -11v-349q0 -65 26 -103q3 -4 3 -7z"/>
    <glyph glyph-name="udieresis" unicode="ü" d="M414 630q0 -22 -16 -37.5t-38 -15.5t-37.5 16t-15.5 38t16 37.5t38 15.5t37.5 -16t15.5 -38zM217 630q0 -22 -15.5 -37.5t-37.5 -15.5t-38 15.5t-16 38.5q0 22 16 37.5t38 15.5t37.5 -16t15.5 -38zM451 23q0 -1 -4 -5l-45 -29q-4 -3 -7 -3q-6 0 -17 18t-18 42 q-43 -33 -76.5 -46.5t-73.5 -13.5q-67 0 -102 34t-35 100v345q0 10 10 13l52 14q4 1 6 1q7 0 7 -11v-312q0 -66 15.5 -91t56.5 -25q65 0 126 51v360q0 10 10 13l53 14q4 1 6 1q7 0 7 -11v-349q0 -65 26 -103q3 -4 3 -7z"/>
    <glyph glyph-name="yacute" unicode="ý" horiz-adv-x="426" d="M392 645q0 -3 -9 -8l-164 -85q-7 -4 -10 -4t-9 8l-10 15q-4 7 -4 10q0 4 8 9l145 111q6 5 10 5t10 -8l29 -42q4 -7 4 -11zM421 461q0 -2 -1 -6l-114 -393q-39 -133 -66 -192q-39 -82 -121 -82q-36 0 -81 18t-45 33q0 4 2 6l20 40q2 5 7 5q2 0 7 -3q52 -36 88 -36 q49 0 77 86l21 63h-40q-9 0 -12 9l-157 444q-2 4 -2 7q0 5 9 8l54 19l8 1q4 0 7 -9l128 -378q8 -24 20 -72q8 36 17 70l98 382q4 8 10 8q1 0 5 -1l52 -19q9 -3 9 -8z"/>
    <glyph glyph-name="thorn" unicode="þ" d="M449 251q0 -124 -44.5 -194.5t-121.5 -70.5q-56 0 -118 44v-214q0 -10 -9 -13l-53 -14q-2 -1 -6 -1q-7 0 -7 11v899q0 10 10 13l52 12q1 0 7 1q6 0 6 -11v-271q68 52 130 52q154 0 154 -243zM368 248q0 84 -15 127q-9 24 -28.5 38t-43.5 14q-44 0 -116 -49v-282 q62 -42 110 -42q50 0 71.5 44.5t21.5 149.5z"/>
    <glyph glyph-name="ydieresis" unicode="ÿ" horiz-adv-x="426" d="M364 630q0 -22 -16 -37.5t-38 -15.5t-37.5 16t-15.5 38t16 37.5t38 15.5t37.5 -16t15.5 -38zM167 630q0 -22 -15.5 -37.5t-37.5 -15.5t-38 15.5t-16 38.5q0 22 16 37.5t38 15.5t37.5 -16t15.5 -38zM421 461q0 -2 -1 -6l-114 -393q-39 -133 -66 -192q-39 -82 -121 -82 q-36 0 -81 18t-45 33q0 4 2 6l20 40q2 5 7 5q2 0 7 -3q52 -36 88 -36q49 0 77 86l21 63h-40q-9 0 -12 9l-157 444q-2 4 -2 7q0 5 9 8l54 19l8 1q4 0 7 -9l128 -378q8 -24 20 -72q8 36 17 70l98 382q4 8 10 8q1 0 5 -1l52 -19q9 -3 9 -8z"/>
    <glyph glyph-name="Amacron" unicode="Ā" horiz-adv-x="537" d="M517 8q0 -8 -14 -8h-64q-10 0 -15 11l-55 195h-203l-56 -195q-3 -11 -15 -11h-60q-14 0 -14 7q0 2 2 9l201 659q2 8 4.5 9.5t10.5 1.5h60q8 0 10.5 -1.5t4.5 -9.5l201 -659q2 -7 2 -8zM350 275l-60 220q-11 40 -23 96q-7 -34 -23 -95l-60 -221h166zM159 834h217 q9 0 11.5 -2.5t2.5 -11.5v-35q0 -9 -2.5 -11.5t-11.5 -2.5h-217q-9 0 -11.5 2.5t-2.5 11.5v35q0 9 2.5 11.5t11.5 2.5z"/>
    <glyph glyph-name="amacron" unicode="ā" horiz-adv-x="463" d="M409 25q0 -3 -4 -5l-43 -27q-4 -3 -8 -3q-7 0 -18.5 19t-19.5 44q-64 -63 -143 -63q-61 0 -96.5 37t-35.5 100q0 170 264 174v33q0 48 -21 68.5t-71 20.5t-119 -29q-6 -2 -7 -2q-5 0 -7 5l-15 40l-1 8q0 8 27 19q60 27 133 27q79 0 117.5 -34.5t38.5 -105.5v-189 q0 -51 5 -76.5t22 -54.5q2 -4 2 -6zM305 110v129q-187 -1 -187 -106q0 -35 20.5 -57.5t52.5 -22.5q50 0 114 57zM111 625h217q9 0 11.5 -2.5t2.5 -11.5v-35q0 -9 -2.5 -11.5t-11.5 -2.5h-217q-9 0 -11.5 2.5t-2.5 11.5v35q0 9 2.5 11.5t11.5 2.5z"/>
    <glyph glyph-name="Abreve" unicode="Ă" horiz-adv-x="537" d="M517 8q0 -8 -14 -8h-64q-10 0 -15 11l-55 195h-203l-56 -195q-3 -11 -15 -11h-60q-14 0 -14 7q0 2 2 9l201 659q2 8 4.5 9.5t10.5 1.5h60q8 0 10.5 -1.5t4.5 -9.5l201 -659q2 -7 2 -8zM350 275l-60 220q-11 40 -23 96q-7 -34 -23 -95l-60 -221h166zM397 861 q0 -28 -29 -67q-34 -46 -100 -46q-77 0 -111 59q-18 32 -18 54q0 11 11 12l39 7h4q7 0 10 -10q13 -69 64 -69q27 0 42.5 16t22.5 53q2 10 11 10h4l39 -7q11 -1 11 -12z"/>
    <glyph glyph-name="abreve" unicode="ă" horiz-adv-x="463" d="M409 25q0 -3 -4 -5l-43 -27q-4 -3 -8 -3q-7 0 -18.5 19t-19.5 44q-64 -63 -143 -63q-61 0 -96.5 37t-35.5 100q0 170 264 174v33q0 48 -21 68.5t-71 20.5t-119 -29q-6 -2 -7 -2q-5 0 -7 5l-15 40l-1 8q0 8 27 19q60 27 133 27q79 0 117.5 -34.5t38.5 -105.5v-189 q0 -51 5 -76.5t22 -54.5q2 -4 2 -6zM305 110v129q-187 -1 -187 -106q0 -35 20.5 -57.5t52.5 -22.5q50 0 114 57zM349 652q0 -28 -29 -67q-34 -46 -100 -46q-77 0 -111 59q-18 32 -18 54q0 11 11 12l39 7h4q7 0 10 -10q13 -69 64 -69q27 0 42.5 16t22.5 53q2 10 11 10h4 l39 -7q11 -1 11 -12z"/>
    <glyph glyph-name="Aogonek" unicode="Ą" horiz-adv-x="537" d="M534 -147q0 -7 -29 -19.5t-53 -12.5q-41 0 -65 21.5t-24 59.5q0 50 59 117l-53 187h-203l-56 -195q-3 -11 -15 -11h-60q-14 0 -14 7q0 2 2 9l201 659q2 8 4.5 9.5t10.5 1.5h60q8 0 10.5 -1.5t4.5 -9.5l201 -659q2 -7 2 -8q0 -8 -14 -8h-43q-38 -47 -38 -93q0 -34 34 -34 q24 0 56 20q4 2 6 2q3 0 4 -6l10 -28q2 -6 2 -8zM350 275l-60 220q-11 40 -23 96q-7 -34 -23 -95l-60 -221h166z"/>
    <glyph glyph-name="aogonek" unicode="ą" horiz-adv-x="463" d="M436 -147q0 -7 -29 -19.5t-53 -12.5q-41 0 -65 21.5t-24 59.5q0 25 16.5 60t45.5 62q-7 16 -11 29q-64 -63 -143 -63q-61 0 -96.5 37t-35.5 100q0 170 264 174v33q0 48 -21 68.5t-71 20.5t-119 -29q-6 -2 -7 -2q-5 0 -7 5l-15 40l-1 8q0 8 27 19q60 27 133 27 q79 0 117.5 -34.5t38.5 -105.5v-189q0 -51 5 -76.5t22 -54.5q2 -4 2 -6q0 -3 -4 -5l-43 -27q-4 -3 -8 -3h-2q-28 -38 -28 -83q0 -34 34 -34q24 0 56 20q4 2 6 2q3 0 4 -6l10 -28q2 -6 2 -8zM305 110v129q-187 -1 -187 -106q0 -35 20.5 -57.5t52.5 -22.5q50 0 114 57z"/>
    <glyph glyph-name="Cacute" unicode="Ć" horiz-adv-x="463" d="M441 64q0 -11 -28 -32q-58 -46 -135 -46q-110 0 -168 93t-58 271q0 174 57 265q25 40 68.5 62.5t93.5 22.5q82 0 149 -56q16 -15 16 -20q0 -4 -2 -8l-29 -38q-2 -4 -8 -4q-4 0 -34 24q-47 35 -91 35q-68 0 -99.5 -65.5t-31.5 -208.5q0 -306 141 -306q51 0 112 53 q6 6 11 6q4 0 8 -7l25 -33q3 -3 3 -8zM398 841q0 -3 -9 -8l-164 -85q-7 -4 -10 -4t-9 8l-10 15q-4 7 -4 10q0 4 8 9l145 111q6 5 10 5t10 -8l29 -42q4 -7 4 -11z"/>
    <glyph glyph-name="cacute" unicode="ć" horiz-adv-x="408" d="M398 430l-1 -6l-22 -39q-4 -7 -8 -7t-8 4q-37 27 -57.5 36t-45.5 9q-121 0 -121 -186q0 -187 111 -187q30 0 52.5 9.5t65.5 39.5q4 3 7 3q4 0 7 -6l15 -38q3 -9 3 -10q0 -7 -16 -19q-64 -47 -140 -47q-89 0 -139 64.5t-50 178.5q0 123 54.5 194t148.5 71q66 0 122 -39 q22 -15 22 -25zM375 632q0 -3 -9 -8l-164 -85q-7 -4 -10 -4t-9 8l-10 15q-4 7 -4 10q0 4 8 9l145 111q6 5 10 5t10 -8l29 -42q4 -7 4 -11z"/>
    <glyph glyph-name="Ccircumflex" unicode="Ĉ" horiz-adv-x="463" d="M441 64q0 -11 -28 -32q-58 -46 -135 -46q-110 0 -168 93t-58 271q0 174 57 265q25 40 68.5 62.5t93.5 22.5q82 0 149 -56q16 -15 16 -20q0 -4 -2 -8l-29 -38q-2 -4 -8 -4q-4 0 -34 24q-47 35 -91 35q-68 0 -99.5 -65.5t-31.5 -208.5q0 -306 141 -306q51 0 112 53 q6 6 11 6q4 0 8 -7l25 -33q3 -3 3 -8zM404 781q0 -3 -5 -10l-13 -18q-4 -5 -8 -5q-2 0 -9 4l-92 59l-92 -59q-7 -4 -9 -4q-3 0 -10 7l-11 16q-5 7 -5 10q0 4 7 10l111 87q5 5 9 5t9 -5l111 -87q7 -7 7 -10z"/>
    <glyph glyph-name="ccircumflex" unicode="ĉ" horiz-adv-x="408" d="M398 430l-1 -6l-22 -39q-4 -7 -8 -7t-8 4q-37 27 -57.5 36t-45.5 9q-121 0 -121 -186q0 -187 111 -187q30 0 52.5 9.5t65.5 39.5q4 3 7 3q4 0 7 -6l15 -38q3 -9 3 -10q0 -7 -16 -19q-64 -47 -140 -47q-89 0 -139 64.5t-50 178.5q0 123 54.5 194t148.5 71q66 0 122 -39 q22 -15 22 -25zM381 572q0 -3 -5 -10l-13 -18q-4 -5 -8 -5q-2 0 -9 4l-92 59l-92 -59q-7 -4 -9 -4q-3 0 -10 7l-11 16q-5 8 -5 10q0 4 7 10l111 87q5 5 9 5t9 -5l111 -87q7 -7 7 -10z"/>
    <glyph glyph-name="Cdotaccent" unicode="Ċ" horiz-adv-x="463" d="M441 64q0 -11 -28 -32q-58 -46 -135 -46q-110 0 -168 93t-58 271q0 174 57 265q25 40 68.5 62.5t93.5 22.5q82 0 149 -56q16 -15 16 -20q0 -4 -2 -8l-29 -38q-2 -4 -8 -4q-4 0 -34 24q-47 35 -91 35q-68 0 -99.5 -65.5t-31.5 -208.5q0 -306 141 -306q51 0 112 53 q6 6 11 6q4 0 8 -7l25 -33q3 -3 3 -8zM339 813q0 -25 -18.5 -43.5t-43.5 -18.5q-26 0 -44.5 18.5t-18.5 44.5t18.5 44t45.5 18q25 0 43 -18.5t18 -44.5z"/>
    <glyph glyph-name="cdotaccent" unicode="ċ" horiz-adv-x="408" d="M398 430l-1 -6l-22 -39q-4 -7 -8 -7t-8 4q-37 27 -57.5 36t-45.5 9q-121 0 -121 -186q0 -187 111 -187q30 0 52.5 9.5t65.5 39.5q4 3 7 3q4 0 7 -6l15 -38q3 -9 3 -10q0 -7 -16 -19q-64 -47 -140 -47q-89 0 -139 64.5t-50 178.5q0 123 54.5 194t148.5 71q66 0 122 -39 q22 -15 22 -25zM316 604q0 -26 -18 -44t-44 -18t-44.5 18.5t-18.5 44.5t18.5 44t45.5 18q25 0 43 -18.5t18 -44.5z"/>
    <glyph glyph-name="Ccaron" unicode="Č" horiz-adv-x="463" d="M441 64q0 -11 -28 -32q-58 -46 -135 -46q-110 0 -168 93t-58 271q0 174 57 265q25 40 68.5 62.5t93.5 22.5q82 0 149 -56q16 -15 16 -20q0 -4 -2 -8l-29 -38q-2 -4 -8 -4q-4 0 -34 24q-47 35 -91 35q-68 0 -99.5 -65.5t-31.5 -208.5q0 -306 141 -306q51 0 112 53 q6 6 11 6q4 0 8 -7l25 -33q3 -3 3 -8zM404 845q0 -3 -7 -9l-111 -88q-5 -5 -9 -5q-2 0 -9 5l-111 88q-7 6 -7 9q0 4 5 10l13 18q4 5 8 5q2 0 9 -4l92 -59l92 59q6 4 9 4q4 0 10 -7l11 -16q5 -6 5 -10z"/>
    <glyph glyph-name="ccaron" unicode="č" horiz-adv-x="408" d="M398 430l-1 -6l-22 -39q-4 -7 -8 -7t-8 4q-37 27 -57.5 36t-45.5 9q-121 0 -121 -186q0 -187 111 -187q30 0 52.5 9.5t65.5 39.5q4 3 7 3q4 0 7 -6l15 -38q3 -9 3 -10q0 -7 -16 -19q-64 -47 -140 -47q-89 0 -139 64.5t-50 178.5q0 123 54.5 194t148.5 71q66 0 122 -39 q22 -15 22 -25zM381 636q0 -3 -7 -9l-111 -88q-5 -5 -9 -5q-2 0 -9 5l-111 88q-7 6 -7 9q0 4 5 10l13 18q4 5 8 5q2 0 9 -4l92 -59l92 59q6 4 9 4q4 0 10 -7l11 -16q5 -6 5 -10z"/>
    <glyph glyph-name="Dcaron" unicode="Ď" horiz-adv-x="556" d="M503 355q0 -355 -280 -355h-113q-9 0 -11.5 2.5t-2.5 11.5v658q0 9 2.5 11.5t11.5 2.5h104q120 0 178 -40q111 -76 111 -291zM415 355q0 195 -85 240q-37 20 -111 20h-41v-544h51q58 0 88 13t54 48q44 65 44 223zM379 846q0 -3 -7 -9l-111 -88q-5 -5 -9 -5q-2 0 -9 5 l-111 88q-7 6 -7 9q0 4 5 10l13 18q4 5 8 5q2 0 9 -4l92 -59l92 59q6 4 9 4q4 0 10 -7l11 -16q5 -6 5 -10z"/>
    <glyph glyph-name="dcaron" unicode="ď" d="M448 24q0 -4 -5 -6l-45 -25q-3 -3 -8 -3q-7 0 -17 18t-16 42q-48 -37 -80.5 -50.5t-68.5 -13.5q-74 0 -115.5 69t-41.5 190q0 116 48 182.5t131 66.5q52 0 110 -32v236q0 10 10 13l52 12q2 1 6 1q7 0 7 -11v-555q0 -47 5 -70.5t20 -47.5q8 -13 8 -16zM340 112v283 q-56 32 -102 32q-56 0 -81 -42t-25 -136q0 -104 22 -149.5t71 -45.5q53 0 115 58zM579 682l-78 -152q-9 -15 -18 -15q-4 0 -12 3q-16 5 -16 15q0 2 2 12l40 145q5 17 22 17h45q21 0 21 -10q0 -6 -6 -15z"/>
    <glyph glyph-name="Dcroat" unicode="Đ" horiz-adv-x="556" d="M503 355q0 -355 -280 -355h-113q-9 0 -11.5 2.5t-2.5 11.5v311h-61q-9 0 -11.5 2.5t-2.5 11.5v37q0 9 2.5 11.5t11.5 2.5h61v282q0 9 2.5 11.5t11.5 2.5h104q120 0 178 -40q111 -76 111 -291zM415 355q0 195 -86 240q-36 20 -110 20h-41v-225h120q10 0 12 -2t2 -12v-37 q0 -10 -2 -12t-12 -2h-120v-254h51q58 0 88 13t54 48q44 65 44 223z"/>
    <glyph glyph-name="dcroat" unicode="đ" d="M500 580q0 -8 -3 -11t-11 -3h-71v-408q0 -47 5 -70.5t20 -47.5q8 -13 8 -16q0 -4 -5 -6l-45 -25q-3 -3 -8 -3q-7 0 -17 18t-16 42q-48 -37 -80.5 -50.5t-68.5 -13.5q-74 0 -115.5 69t-41.5 190q0 116 48 182.5t131 66.5q52 0 110 -32v104h-132q-9 0 -11.5 2.5t-2.5 11.5 v32q0 9 2.5 11.5t11.5 2.5h132v72q0 10 10 13l52 12q2 1 6 1q7 0 7 -11v-87h71q9 0 11.5 -2.5t2.5 -11.5v-32zM340 112v283q-56 32 -102 32q-56 0 -81 -42t-25 -136q0 -104 22 -149.5t71 -45.5q53 0 115 58z"/>
    <glyph glyph-name="Emacron" unicode="Ē" horiz-adv-x="463" d="M432 679q0 -2 -2 -9l-15 -44q-3 -11 -15 -11h-222v-225h196q9 0 11.5 -2.5t2.5 -11.5v-39q0 -9 -2.5 -11.5t-11.5 -2.5h-196v-252h239q9 0 11.5 -2.5t2.5 -11.5v-43q0 -9 -2.5 -11.5t-11.5 -2.5h-307q-10 0 -12 2t-2 12v658q0 9 2.5 11.5t11.5 2.5h308q14 0 14 -7z M150 834h217q9 0 11.5 -2.5t2.5 -11.5v-35q0 -9 -2.5 -11.5t-11.5 -2.5h-217q-9 0 -11.5 2.5t-2.5 11.5v35q0 9 2.5 11.5t11.5 2.5z"/>
    <glyph glyph-name="emacron" unicode="ē" horiz-adv-x="463" d="M431 241q0 -18 -11 -18h-287q4 -82 37.5 -125.5t94.5 -43.5q53 0 116 36q5 3 10 3q4 0 7 -5l18 -39q2 -5 2 -7q0 -11 -36 -28q-61 -28 -123 -28q-95 0 -151.5 68.5t-56.5 184.5q0 117 53.5 186t143.5 69q60 0 104 -31.5t64 -88.5q15 -44 15 -133zM350 285q-1 72 -29 110 t-78 38q-103 0 -109 -148h216zM140 625h217q9 0 11.5 -2.5t2.5 -11.5v-35q0 -9 -2.5 -11.5t-11.5 -2.5h-217q-9 0 -11.5 2.5t-2.5 11.5v35q0 9 2.5 11.5t11.5 2.5z"/>
    <glyph glyph-name="Ebreve" unicode="Ĕ" horiz-adv-x="463" d="M432 679q0 -2 -2 -9l-15 -44q-3 -11 -15 -11h-222v-225h196q9 0 11.5 -2.5t2.5 -11.5v-39q0 -9 -2.5 -11.5t-11.5 -2.5h-196v-252h239q9 0 11.5 -2.5t2.5 -11.5v-43q0 -9 -2.5 -11.5t-11.5 -2.5h-307q-10 0 -12 2t-2 12v658q0 9 2.5 11.5t11.5 2.5h308q14 0 14 -7z M388 861q0 -28 -29 -67q-34 -46 -100 -46q-77 0 -111 59q-18 32 -18 54q0 11 11 12l39 7h4q8 0 10 -10q13 -69 64 -69q27 0 42.5 16t22.5 53q3 10 11 10h4l39 -7q11 -1 11 -12z"/>
    <glyph glyph-name="ebreve" unicode="ĕ" horiz-adv-x="463" d="M431 241q0 -18 -11 -18h-287q4 -82 37.5 -125.5t94.5 -43.5q53 0 116 36q5 3 10 3q4 0 7 -5l18 -39q2 -5 2 -7q0 -11 -36 -28q-61 -28 -123 -28q-95 0 -151.5 68.5t-56.5 184.5q0 117 53.5 186t143.5 69q60 0 104 -31.5t64 -88.5q15 -44 15 -133zM350 285q-1 72 -29 110 t-78 38q-103 0 -109 -148h216zM378 652q0 -28 -29 -67q-34 -46 -100 -46q-77 0 -111 59q-18 32 -18 54q0 11 11 12l39 7h4q8 0 10 -10q13 -69 64 -69q27 0 42.5 16t22.5 53q3 10 11 10h4l39 -7q11 -1 11 -12z"/>
    <glyph glyph-name="Edotaccent" unicode="Ė" horiz-adv-x="463" d="M432 679q0 -2 -2 -9l-15 -44q-3 -11 -15 -11h-222v-225h196q9 0 11.5 -2.5t2.5 -11.5v-39q0 -9 -2.5 -11.5t-11.5 -2.5h-196v-252h239q9 0 11.5 -2.5t2.5 -11.5v-43q0 -9 -2.5 -11.5t-11.5 -2.5h-307q-10 0 -12 2t-2 12v658q0 9 2.5 11.5t11.5 2.5h308q14 0 14 -7z M321 813q0 -25 -18.5 -43.5t-43.5 -18.5q-26 0 -44.5 18.5t-18.5 44.5t18.5 44t45.5 18q25 0 43 -18.5t18 -44.5z"/>
    <glyph glyph-name="edotaccent" unicode="ė" horiz-adv-x="463" d="M431 241q0 -18 -11 -18h-287q4 -82 37.5 -125.5t94.5 -43.5q53 0 116 36q5 3 10 3q4 0 7 -5l18 -39q2 -5 2 -7q0 -11 -36 -28q-61 -28 -123 -28q-95 0 -151.5 68.5t-56.5 184.5q0 117 53.5 186t143.5 69q60 0 104 -31.5t64 -88.5q15 -44 15 -133zM350 285q-1 72 -29 110 t-78 38q-103 0 -109 -148h216zM311 604q0 -26 -18.5 -44t-43.5 -18q-26 0 -44.5 18.5t-18.5 44.5t18.5 44t45.5 18q25 0 43 -18.5t18 -44.5z"/>
    <glyph glyph-name="Eogonek" unicode="Ę" horiz-adv-x="463" d="M432 679q0 -2 -2 -9l-15 -44q-3 -11 -15 -11h-222v-225h196q9 0 11.5 -2.5t2.5 -11.5v-39q0 -9 -2.5 -11.5t-11.5 -2.5h-196v-252h239q9 0 11.5 -2.5t2.5 -11.5v-43q0 -9 -2.5 -11.5t-11.5 -2.5h-91q-36 -43 -36 -93q0 -34 34 -34q24 0 56 20q4 2 6 2q3 0 4 -6l10 -28 q2 -6 2 -8q0 -7 -29 -19.5t-53 -12.5q-41 0 -65 21.5t-24 59.5q0 46 40 98h-161q-10 0 -12 2t-2 12v658q0 9 2.5 11.5t11.5 2.5h308q14 0 14 -7z"/>
    <glyph glyph-name="eogonek" unicode="ę" horiz-adv-x="463" d="M431 241q0 -18 -11 -18h-287q4 -82 37.5 -125.5t94.5 -43.5q53 0 116 36q5 3 10 3q4 0 7 -5l18 -39q2 -5 2 -7q0 -11 -36 -28q-39 -19 -85 -25q-27 -38 -27 -82q0 -34 34 -34q24 0 56 20q4 2 6 2q3 0 4 -6l10 -28q2 -6 2 -8q0 -7 -29 -19.5t-53 -12.5q-41 0 -65 21.5 t-24 59.5t30 85q-88 6 -139 73.5t-51 178.5q0 117 53.5 186t143.5 69q60 0 104 -31.5t64 -88.5q15 -44 15 -133zM350 285q-1 72 -29 110t-78 38q-103 0 -109 -148h216z"/>
    <glyph glyph-name="Ecaron" unicode="Ě" horiz-adv-x="463" d="M432 679q0 -2 -2 -9l-15 -44q-3 -11 -15 -11h-222v-225h196q9 0 11.5 -2.5t2.5 -11.5v-39q0 -9 -2.5 -11.5t-11.5 -2.5h-196v-252h239q9 0 11.5 -2.5t2.5 -11.5v-43q0 -9 -2.5 -11.5t-11.5 -2.5h-307q-10 0 -12 2t-2 12v658q0 9 2.5 11.5t11.5 2.5h308q14 0 14 -7z M386 845q0 -3 -7 -9l-111 -88q-5 -5 -9 -5q-2 0 -9 5l-111 88q-7 6 -7 9q0 4 5 10l13 18q4 5 8 5q2 0 9 -4l92 -59l92 59q6 4 9 4q4 0 10 -7l11 -16q5 -6 5 -10z"/>
    <glyph glyph-name="ecaron" unicode="ě" horiz-adv-x="463" d="M431 241q0 -18 -11 -18h-287q4 -82 37.5 -125.5t94.5 -43.5q53 0 116 36q5 3 10 3q4 0 7 -5l18 -39q2 -5 2 -7q0 -11 -36 -28q-61 -28 -123 -28q-95 0 -151.5 68.5t-56.5 184.5q0 117 53.5 186t143.5 69q60 0 104 -31.5t64 -88.5q15 -44 15 -133zM350 285q-1 72 -29 110 t-78 38q-103 0 -109 -148h216zM376 636q0 -3 -7 -9l-111 -88q-5 -5 -9 -5q-2 0 -9 5l-111 88q-7 6 -7 9q0 4 5 10l13 18q4 5 8 5q2 0 9 -4l92 -59l92 59q6 4 9 4q4 0 10 -7l11 -16q5 -6 5 -10z"/>
    <glyph glyph-name="Gcircumflex" unicode="Ĝ" horiz-adv-x="537" d="M386 72v206h-78q-9 0 -11.5 2.5t-2.5 11.5v41q0 9 2.5 11.5t11.5 2.5h146q9 0 11.5 -2.5t2.5 -11.5v-292q0 -11 -9 -15q-63 -40 -166 -40q-118 0 -179.5 90.5t-61.5 263.5q0 176 62.5 268t181.5 92q76 0 144 -41q20 -13 20 -20q0 -3 -3 -8l-21 -43q-2 -4 -6 -4t-31 18 q-48 31 -103 31q-80 0 -117.5 -68t-37.5 -214q0 -158 39 -228t127 -70q41 0 79 19zM424 781q0 -3 -5 -10l-13 -18q-4 -5 -8 -5q-2 0 -9 4l-92 59l-92 -59q-7 -4 -9 -4q-3 0 -10 7l-11 16q-5 7 -5 10q0 4 7 10l111 87q5 5 9 5t9 -5l111 -87q7 -7 7 -10z"/>
    <glyph glyph-name="gcircumflex" unicode="ĝ" d="M447 462q0 -3 -6 -13q-25 -39 -25 -101v-154q0 -73 5 -171q2 -44 2 -57q0 -87 -45.5 -132t-132.5 -45q-79 0 -150 37q-13 7 -15.5 9.5t-2.5 7.5q0 1 2 7l18 40q1 6 6 6q3 0 8 -3q71 -37 131 -37q65 0 91 36q15 22 15 73q0 9 -0.5 26t-0.5 25l-1 41v11q-67 -55 -139 -55 t-113.5 59.5t-41.5 162.5q0 124 49 191.5t140 67.5q61 0 121 -42q18 46 28 46q4 0 8 -2l46 -28q3 -2 3 -6zM341 130v270q-56 28 -94 28q-56 0 -85 -44.5t-29 -129.5q0 -92 21 -132.5t68 -40.5q51 0 119 49zM377 572q0 -3 -5 -10l-13 -18q-4 -5 -8 -5q-2 0 -9 4l-92 59 l-92 -59q-7 -4 -9 -4q-3 0 -10 7l-11 16q-5 8 -5 10q0 4 7 10l111 87q5 5 9 5t9 -5l111 -87q7 -7 7 -10z"/>
    <glyph glyph-name="Gbreve" unicode="Ğ" horiz-adv-x="537" d="M386 72v206h-78q-9 0 -11.5 2.5t-2.5 11.5v41q0 9 2.5 11.5t11.5 2.5h146q9 0 11.5 -2.5t2.5 -11.5v-292q0 -11 -9 -15q-63 -40 -166 -40q-118 0 -179.5 90.5t-61.5 263.5q0 176 62.5 268t181.5 92q76 0 144 -41q20 -13 20 -20q0 -3 -3 -8l-21 -43q-2 -4 -6 -4t-31 18 q-48 31 -103 31q-80 0 -117.5 -68t-37.5 -214q0 -158 39 -228t127 -70q41 0 79 19zM426 861q0 -28 -29 -67q-34 -46 -100 -46q-77 0 -111 59q-18 32 -18 54q0 11 11 12l39 7h4q8 0 10 -10q13 -69 64 -69q27 0 42.5 16t22.5 53q3 10 11 10h4l39 -7q11 -1 11 -12z"/>
    <glyph glyph-name="gbreve" unicode="ğ" d="M447 462q0 -3 -6 -13q-25 -39 -25 -101v-154q0 -73 5 -171q2 -44 2 -57q0 -87 -45.5 -132t-132.5 -45q-79 0 -150 37q-13 7 -15.5 9.5t-2.5 7.5q0 1 2 7l18 40q1 6 6 6q3 0 8 -3q71 -37 131 -37q65 0 91 36q15 22 15 73q0 9 -0.5 26t-0.5 25l-1 41v11q-67 -55 -139 -55 t-113.5 59.5t-41.5 162.5q0 124 49 191.5t140 67.5q61 0 121 -42q18 46 28 46q4 0 8 -2l46 -28q3 -2 3 -6zM341 130v270q-56 28 -94 28q-56 0 -85 -44.5t-29 -129.5q0 -92 21 -132.5t68 -40.5q51 0 119 49zM379 652q0 -28 -29 -67q-34 -46 -100 -46q-77 0 -111 59 q-18 32 -18 54q0 11 11 12l39 7h4q7 0 10 -10q13 -69 64 -69q27 0 42.5 16t22.5 53q2 10 11 10h4l39 -7q11 -1 11 -12z"/>
    <glyph glyph-name="Gdotaccent" unicode="Ġ" horiz-adv-x="537" d="M386 72v206h-78q-9 0 -11.5 2.5t-2.5 11.5v41q0 9 2.5 11.5t11.5 2.5h146q9 0 11.5 -2.5t2.5 -11.5v-292q0 -11 -9 -15q-63 -40 -166 -40q-118 0 -179.5 90.5t-61.5 263.5q0 176 62.5 268t181.5 92q76 0 144 -41q20 -13 20 -20q0 -3 -3 -8l-21 -43q-2 -4 -6 -4t-31 18 q-48 31 -103 31q-80 0 -117.5 -68t-37.5 -214q0 -158 39 -228t127 -70q41 0 79 19zM359 813q0 -25 -18.5 -43.5t-43.5 -18.5q-26 0 -44.5 18.5t-18.5 44.5t18.5 44t45.5 18q25 0 43 -18.5t18 -44.5z"/>
    <glyph glyph-name="gdotaccent" unicode="ġ" d="M447 462q0 -3 -6 -13q-25 -39 -25 -101v-154q0 -73 5 -171q2 -44 2 -57q0 -87 -45.5 -132t-132.5 -45q-79 0 -150 37q-13 7 -15.5 9.5t-2.5 7.5q0 1 2 7l18 40q1 6 6 6q3 0 8 -3q71 -37 131 -37q65 0 91 36q15 22 15 73q0 9 -0.5 26t-0.5 25l-1 41v11q-67 -55 -139 -55 t-113.5 59.5t-41.5 162.5q0 124 49 191.5t140 67.5q61 0 121 -42q18 46 28 46q4 0 8 -2l46 -28q3 -2 3 -6zM341 130v270q-56 28 -94 28q-56 0 -85 -44.5t-29 -129.5q0 -92 21 -132.5t68 -40.5q51 0 119 49zM312 604q0 -26 -18 -44t-44 -18t-44.5 18.5t-18.5 44.5t18.5 44 t45.5 18q25 0 43 -18.5t18 -44.5z"/>
    <glyph glyph-name="Gcommaaccent" unicode="Ģ" horiz-adv-x="537" d="M386 72v206h-78q-9 0 -11.5 2.5t-2.5 11.5v41q0 9 2.5 11.5t11.5 2.5h146q9 0 11.5 -2.5t2.5 -11.5v-292q0 -11 -9 -15q-63 -40 -166 -40q-118 0 -179.5 90.5t-61.5 263.5q0 176 62.5 268t181.5 92q76 0 144 -41q20 -13 20 -20q0 -3 -3 -8l-21 -43q-2 -4 -6 -4t-31 18 q-48 31 -103 31q-80 0 -117.5 -68t-37.5 -214q0 -158 39 -228t127 -70q41 0 79 19zM337 -76l-78 -152q-9 -15 -18 -15q-5 0 -12 3q-16 5 -16 15q0 2 2 12l40 145q5 17 22 17h45q21 0 21 -10q0 -6 -6 -15z"/>
    <glyph glyph-name="gcommaaccent" unicode="ģ" d="M202 567l78 152q8 14 18 14q2 0 12 -2q16 -5 16 -15q0 -2 -2 -12l-40 -145q-5 -17 -22 -17h-45q-21 0 -21 10q0 6 6 15zM447 462q0 -3 -6 -13q-25 -39 -25 -101v-154q0 -73 5 -171q2 -44 2 -57q0 -87 -45.5 -132t-132.5 -45q-79 0 -150 37q-13 7 -15.5 9.5t-2.5 7.5 q0 1 2 7l18 40q1 6 6 6q3 0 8 -3q71 -37 131 -37q65 0 91 36q15 22 15 73q0 9 -0.5 26t-0.5 25l-1 41v11q-67 -55 -139 -55t-113.5 59.5t-41.5 162.5q0 124 49 191.5t140 67.5q61 0 121 -42q18 46 28 46q4 0 8 -2l46 -28q3 -2 3 -6zM341 130v270q-56 28 -94 28 q-56 0 -85 -44.5t-29 -129.5q0 -92 21 -132.5t68 -40.5q51 0 119 49z"/>
    <glyph glyph-name="Hcircumflex" unicode="Ĥ" horiz-adv-x="611" d="M178 391h256v281q0 9 2.5 11.5t11.5 2.5h54q9 0 11.5 -2.5t2.5 -11.5v-658q0 -9 -2.5 -11.5t-11.5 -2.5h-54q-9 0 -11.5 2.5t-2.5 11.5v308h-256v-308q0 -9 -2.5 -11.5t-11.5 -2.5h-54q-9 0 -11.5 2.5t-2.5 11.5v658q0 9 2.5 11.5t11.5 2.5h54q9 0 11.5 -2.5t2.5 -11.5 v-281zM432 781q0 -3 -5 -10l-13 -18q-4 -5 -8 -5q-2 0 -9 4l-92 59l-92 -59q-7 -4 -9 -4q-3 0 -10 7l-11 16q-5 7 -5 10q0 4 7 10l111 87q5 5 9 5t9 -5l111 -87q7 -7 7 -10z"/>
    <glyph glyph-name="hcircumflex" unicode="ĥ" horiz-adv-x="519" d="M160 366v-354q0 -7 -2 -9.5t-9 -2.5h-53q-7 0 -9 2.5t-2 9.5v686q0 10 10 13l52 12q1 1 7 1t6 -11v-285q40 37 75 51.5t80 14.5q66 0 96 -39q14 -19 19.5 -42t5.5 -70v-331q0 -7 -2 -9.5t-9 -2.5h-53q-7 0 -9 2.5t-2 9.5v333q0 47 -15 65.5t-54 18.5q-55 0 -132 -63z M256 798q0 -3 -5 -10l-13 -18q-4 -5 -8 -5q-2 0 -9 4l-92 59l-92 -59q-7 -4 -9 -4q-3 0 -10 7l-11 16q-5 8 -5 10q0 4 7 10l111 87q5 5 9 5t9 -5l111 -87q7 -7 7 -10z"/>
    <glyph glyph-name="Hbar" unicode="Ħ" horiz-adv-x="611" d="M516 14q0 -9 -2.5 -11.5t-11.5 -2.5h-54q-9 0 -11.5 2.5t-2.5 11.5v308h-256v-308q0 -9 -2.5 -11.5t-11.5 -2.5h-54q-9 0 -11.5 2.5t-2.5 11.5v490h-72q-9 0 -11.5 2.5t-2.5 11.5v37q0 9 2.5 11.5t11.5 2.5h72v103q0 9 2.5 11.5t11.5 2.5h54q9 0 11.5 -2.5t2.5 -11.5 v-103h256v103q0 9 2.5 11.5t11.5 2.5h54q9 0 11.5 -2.5t2.5 -11.5v-103h71q9 0 11.5 -2.5t2.5 -11.5v-37q0 -8 -3 -11t-11 -3h-71v-490zM178 391h256v113h-256v-113z"/>
    <glyph glyph-name="hbar" unicode="ħ" horiz-adv-x="519" d="M160 366v-354q0 -7 -2 -9.5t-9 -2.5h-53q-7 0 -9 2.5t-2 9.5v554h-71q-9 0 -11.5 2.5t-2.5 11.5v32q0 9 2.5 11.5t11.5 2.5h71v72q0 10 10 13l52 12q1 1 7 1t6 -11v-87h132q9 0 11.5 -2.5t2.5 -11.5v-32q0 -8 -3 -11t-11 -3h-132v-138q40 37 75 51.5t80 14.5q66 0 96 -39 q14 -19 19.5 -42t5.5 -70v-331q0 -7 -2 -9.5t-9 -2.5h-53q-7 0 -9 2.5t-2 9.5v333q0 47 -15 65.5t-54 18.5q-55 0 -132 -63z"/>
    <glyph glyph-name="Itilde" unicode="Ĩ" horiz-adv-x="333" d="M125 65v556h-88q-9 0 -11.5 2.5t-2.5 11.5v37q0 9 2.5 11.5t11.5 2.5h259q9 0 11.5 -2.5t2.5 -11.5v-37q0 -9 -2.5 -11.5t-11.5 -2.5h-89v-556h89q9 0 11.5 -2.5t2.5 -11.5v-37q0 -9 -2.5 -11.5t-11.5 -2.5h-259q-9 0 -11.5 2.5t-2.5 11.5v37q0 9 2.5 11.5t11.5 2.5h88z M314 844q0 -13 -27 -48q-25 -31 -66 -31q-23 0 -60 21q-33 19 -51 19q-26 0 -43 -30q-4 -8 -9 -8l-6 1l-27 12q-8 3 -8 9q0 14 28 48q25 30 63 30q26 0 83 -32q16 -8 28 -8q31 0 45 30q4 8 9 8l7 -1l27 -12q7 -3 7 -8z"/>
    <glyph glyph-name="itilde" unicode="ĩ" horiz-adv-x="259" d="M100 418h-80q-7 0 -9.5 2t-2.5 9v39q0 8 2 10t10 2h144q7 0 9 -2.5t2 -9.5v-456q0 -7 -2 -9.5t-9 -2.5h-53q-7 0 -9 2.5t-2 9.5v406zM255 636q0 -13 -27 -48q-25 -31 -66 -31q-23 0 -60 21q-33 19 -51 19q-26 0 -43 -30q-4 -8 -9 -8l-6 1l-27 12q-8 3 -8 9q0 14 28 48 q25 30 63 30q26 0 83 -32q16 -8 28 -8q31 0 45 30q4 8 9 8l7 -1l27 -12q7 -3 7 -8z"/>
    <glyph glyph-name="Imacron" unicode="Ī" horiz-adv-x="333" d="M125 65v556h-88q-9 0 -11.5 2.5t-2.5 11.5v37q0 9 2.5 11.5t11.5 2.5h259q9 0 11.5 -2.5t2.5 -11.5v-37q0 -9 -2.5 -11.5t-11.5 -2.5h-89v-556h89q9 0 11.5 -2.5t2.5 -11.5v-37q0 -9 -2.5 -11.5t-11.5 -2.5h-259q-9 0 -11.5 2.5t-2.5 11.5v37q0 9 2.5 11.5t11.5 2.5h88z M57 834h217q9 0 11.5 -2.5t2.5 -11.5v-35q0 -9 -2.5 -11.5t-11.5 -2.5h-217q-9 0 -11.5 2.5t-2.5 11.5v35q0 9 2.5 11.5t11.5 2.5z"/>
    <glyph glyph-name="imacron" unicode="ī" horiz-adv-x="259" d="M100 418h-80q-7 0 -9.5 2t-2.5 9v39q0 8 2 10t10 2h144q7 0 9 -2.5t2 -9.5v-456q0 -7 -2 -9.5t-9 -2.5h-53q-7 0 -9 2.5t-2 9.5v406zM-2 626h217q9 0 11.5 -2.5t2.5 -11.5v-35q0 -9 -2.5 -11.5t-11.5 -2.5h-217q-9 0 -11.5 2.5t-2.5 11.5v35q0 9 2.5 11.5t11.5 2.5z"/>
    <glyph glyph-name="Ibreve" unicode="Ĭ" horiz-adv-x="333" d="M125 65v556h-88q-9 0 -11.5 2.5t-2.5 11.5v37q0 9 2.5 11.5t11.5 2.5h259q9 0 11.5 -2.5t2.5 -11.5v-37q0 -9 -2.5 -11.5t-11.5 -2.5h-89v-556h89q9 0 11.5 -2.5t2.5 -11.5v-37q0 -9 -2.5 -11.5t-11.5 -2.5h-259q-9 0 -11.5 2.5t-2.5 11.5v37q0 9 2.5 11.5t11.5 2.5h88z M295 861q0 -28 -29 -67q-34 -46 -100 -46q-77 0 -111 59q-18 32 -18 54q0 11 11 12l39 7h4q7 0 10 -10q13 -69 64 -69q27 0 42.5 16t22.5 53q2 10 11 10h4l39 -7q11 -1 11 -12z"/>
    <glyph glyph-name="ibreve" unicode="ĭ" horiz-adv-x="259" d="M100 418h-80q-7 0 -9.5 2t-2.5 9v39q0 8 2 10t10 2h144q7 0 9 -2.5t2 -9.5v-456q0 -7 -2 -9.5t-9 -2.5h-53q-7 0 -9 2.5t-2 9.5v406zM236 653q0 -28 -29 -67q-34 -46 -100 -46q-77 0 -111 59q-18 32 -18 54q0 11 11 12l39 7h4q8 0 10 -10q13 -69 64 -69q27 0 42.5 16 t22.5 53q3 10 11 10h4l39 -7q11 -1 11 -12z"/>
    <glyph glyph-name="Iogonek" unicode="Į" horiz-adv-x="333" d="M125 65v556h-88q-9 0 -11.5 2.5t-2.5 11.5v37q0 9 2.5 11.5t11.5 2.5h259q9 0 11.5 -2.5t2.5 -11.5v-37q0 -9 -2.5 -11.5t-11.5 -2.5h-89v-556h89q9 0 11.5 -2.5t2.5 -11.5v-37q0 -9 -2.5 -11.5t-11.5 -2.5h-60q-36 -43 -36 -93q0 -34 34 -34q24 0 56 20q4 2 6 2 q3 0 4 -6l10 -28q2 -6 2 -8q0 -7 -29 -19.5t-53 -12.5q-41 0 -65 21.5t-24 59.5q0 46 40 98h-144q-9 0 -11.5 2.5t-2.5 11.5v37q0 9 2.5 11.5t11.5 2.5h88z"/>
    <glyph glyph-name="iogonek" unicode="į" horiz-adv-x="259" d="M175 12q0 -7 -2 -9.5t-9 -2.5h-28q-36 -43 -36 -93q0 -34 34 -34q24 0 56 20q4 2 6 2q3 0 4 -6l10 -28q2 -6 2 -8q0 -7 -29 -19.5t-53 -12.5q-41 0 -65 21.5t-24 59.5q0 25 15.5 58.5t43.5 60.5v397h-80q-7 0 -9.5 2t-2.5 9v39q0 8 2 10t10 2h144q7 0 9 -2.5t2 -9.5v-456 zM190 658q0 -25 -17.5 -43t-42.5 -18q-26 0 -43.5 17.5t-17.5 43.5q0 25 18 42.5t44 17.5q24 0 41.5 -17.5t17.5 -42.5z"/>
    <glyph glyph-name="Idotaccent" unicode="İ" horiz-adv-x="333" d="M125 65v556h-88q-9 0 -11.5 2.5t-2.5 11.5v37q0 9 2.5 11.5t11.5 2.5h259q9 0 11.5 -2.5t2.5 -11.5v-37q0 -9 -2.5 -11.5t-11.5 -2.5h-89v-556h89q9 0 11.5 -2.5t2.5 -11.5v-37q0 -9 -2.5 -11.5t-11.5 -2.5h-259q-9 0 -11.5 2.5t-2.5 11.5v37q0 9 2.5 11.5t11.5 2.5h88z M228 813q0 -25 -18 -43.5t-44 -18.5t-44.5 18.5t-18.5 44.5t18.5 44t45.5 18q25 0 43 -18.5t18 -44.5z"/>
    <glyph glyph-name="dotlessi" unicode="ı" horiz-adv-x="259" d="M100 418h-80q-7 0 -9.5 2t-2.5 9v39q0 8 2 10t10 2h144q7 0 9 -2.5t2 -9.5v-456q0 -7 -2 -9.5t-9 -2.5h-53q-7 0 -9 2.5t-2 9.5v406z"/>
    <glyph glyph-name="Jcircumflex" unicode="Ĵ" horiz-adv-x="444" d="M277 617h-173q-9 0 -11.5 2.5t-2.5 11.5v41q0 9 2.5 11.5t11.5 2.5h241q9 0 11.5 -2.5t2.5 -11.5v-460q0 -75 -4.5 -101.5t-22.5 -53.5q-46 -71 -151 -71q-83 0 -127 49t-44 142q0 13 1.5 16.5t7.5 3.5h59q8 0 8 -10v-12q0 -122 96 -122q67 0 87 54q8 21 8 100v410z M361 781q0 -3 -5 -10l-13 -18q-4 -5 -8 -5q-2 0 -9 4l-92 59l-92 -59q-7 -4 -9 -4q-3 0 -10 7l-11 16q-5 7 -5 10q0 4 7 10l111 87q5 5 9 5t9 -5l111 -87q7 -7 7 -10z"/>
    <glyph glyph-name="jcircumflex" unicode="ĵ" horiz-adv-x="259" d="M174 -53q0 -79 -33 -115q-39 -44 -111 -44q-37 0 -80 13.5t-43 25.5q0 3 2 8l19 40q2 6 8 6q1 0 7 -2q46 -24 90 -24q45 0 58 33q8 21 8 76v454h-80q-7 0 -9 2t-2 9v39q0 8 2 10t9 2h144q7 0 9 -2.5t2 -9.5v-521zM232 572q0 -3 -5 -10l-13 -18q-4 -5 -8 -5q-2 0 -9 4 l-92 59l-92 -59q-7 -4 -9 -4q-3 0 -10 7l-11 16q-5 8 -5 10q0 4 7 10l111 87q5 5 9 5t9 -5l111 -87q7 -7 7 -10z"/>
    <glyph glyph-name="Kcommaaccent" unicode="Ķ" horiz-adv-x="518" d="M504 37q0 -4 -7 -10l-46 -32q-6 -4 -9 -4q-4 0 -10 7l-254 327v-311q0 -9 -2.5 -11.5t-11.5 -2.5h-54q-9 0 -11.5 2.5t-2.5 11.5v658q0 9 2.5 11.5t11.5 2.5h54q9 0 11.5 -2.5t2.5 -11.5v-325l257 340q7 8 10 8t9 -5l37 -25q8 -6 8 -10q0 -3 -5 -10l-235 -304l240 -295 q5 -5 5 -9zM335 -75l-78 -152q-9 -15 -18 -15q-5 0 -12 3q-16 5 -16 15q0 2 2 12l40 145q5 17 22 17h45q21 0 21 -10q0 -6 -6 -15z"/>
    <glyph glyph-name="kcommaaccent" unicode="ķ" horiz-adv-x="444" d="M429 36q0 -3 -5 -8l-41 -31q-5 -4 -8 -4q-2 0 -6 4l-209 250v-235q0 -7 -2 -9.5t-9 -2.5h-53q-7 0 -9 2.5t-2 9.5v686q0 10 10 13l52 12l7 1q6 0 6 -11v-453l201 226q5 6 10 6q4 0 9 -4l38 -25q5 -5 5 -9t-5 -9l-171 -186l179 -215q3 -3 3 -8zM290 -75l-78 -152 q-9 -15 -18 -15q-4 0 -12 3q-16 5 -16 15q0 2 2 12l40 145q5 17 22 17h45q21 0 21 -10q0 -6 -6 -15z"/>
    <glyph glyph-name="kgreenlandic" unicode="ĸ" horiz-adv-x="444" d="M160 247v-235q0 -7 -2 -9.5t-9 -2.5h-53q-7 0 -9 2.5t-2 9.5v343q0 54 -19 96q-2 4 -2 6q0 4 5 6l49 26q6 3 8 3q13 0 23.5 -34.5t10.5 -82.5v-115l201 226q5 6 10 6q4 0 9 -4l38 -25q5 -5 5 -9t-5 -9l-171 -186l179 -215q3 -3 3 -8q0 -3 -5 -8l-41 -31q-5 -4 -8 -4 q-2 0 -6 4z"/>
    <glyph glyph-name="Lacute" unicode="Ĺ" horiz-adv-x="445" d="M445 64q0 -1 -2 -9l-16 -44q-5 -11 -15 -11h-302q-9 0 -11.5 2.5t-2.5 11.5v658q0 9 2.5 11.5t11.5 2.5h54q9 0 11.5 -2.5t2.5 -11.5v-601h253q14 0 14 -7zM287 841q0 -3 -9 -8l-164 -85q-7 -4 -10 -4t-9 8l-10 15q-4 7 -4 10q0 4 8 9l145 111q6 5 10 5t10 -8l29 -42 q4 -7 4 -11z"/>
    <glyph glyph-name="lacute" unicode="ĺ" horiz-adv-x="278" d="M273 14q0 -8 -28.5 -16t-56.5 -8q-40 0 -67.5 19t-34.5 51q-5 21 -5 123v516q0 10 11 12l51 12q1 1 7 1t6 -11v-531q0 -80 2 -92q5 -38 41 -38q21 0 45 12q6 2 8 2q4 0 7 -7l12 -37q2 -6 2 -8zM280 858q0 -3 -9 -8l-164 -85q-7 -4 -10 -4t-9 8l-10 15q-4 7 -4 10q0 4 8 9 l145 111q6 5 10 5t10 -8l29 -42q4 -7 4 -11z"/>
    <glyph glyph-name="Lcommaaccent" unicode="Ļ" horiz-adv-x="445" d="M445 64q0 -1 -2 -9l-16 -44q-5 -11 -15 -11h-302q-9 0 -11.5 2.5t-2.5 11.5v658q0 9 2.5 11.5t11.5 2.5h54q9 0 11.5 -2.5t2.5 -11.5v-601h253q14 0 14 -7zM311 -74l-78 -152q-9 -15 -18 -15q-4 0 -12 3q-16 5 -16 15q0 2 2 12l40 145q5 17 22 17h45q21 0 21 -10 q0 -6 -6 -15z"/>
    <glyph glyph-name="lcommaaccent" unicode="ļ" horiz-adv-x="278" d="M273 14q0 -8 -28.5 -16t-56.5 -8q-40 0 -67.5 19t-34.5 51q-5 21 -5 123v516q0 10 11 12l51 12q1 1 7 1t6 -11v-531q0 -80 2 -92q5 -38 41 -38q21 0 45 12q6 2 8 2q4 0 7 -7l12 -37q2 -6 2 -8zM218 -76l-78 -152q-9 -15 -18 -15q-4 0 -12 3q-16 5 -16 15q0 2 2 12l40 145 q5 17 22 17h45q21 0 21 -10q0 -6 -6 -15z"/>
    <glyph glyph-name="Lcaron" unicode="Ľ" horiz-adv-x="445" d="M445 64q0 -1 -2 -9l-16 -44q-5 -11 -15 -11h-302q-9 0 -11.5 2.5t-2.5 11.5v658q0 9 2.5 11.5t11.5 2.5h54q9 0 11.5 -2.5t2.5 -11.5v-601h253q14 0 14 -7zM263 845q0 -3 -7 -9l-111 -88q-5 -5 -9 -5q-2 0 -9 5l-111 88q-7 6 -7 9q0 4 5 10l13 18q4 5 8 5q2 0 9 -4 l92 -59l92 59q6 4 9 4q4 0 10 -7l11 -16q5 -6 5 -10z"/>
    <glyph glyph-name="lcaron" unicode="ľ" horiz-adv-x="278" d="M273 14q0 -8 -28.5 -16t-56.5 -8q-40 0 -67.5 19t-34.5 51q-5 21 -5 123v516q0 10 11 12l51 12q1 1 7 1t6 -11v-531q0 -80 2 -92q5 -38 41 -38q21 0 45 12q6 2 8 2q4 0 7 -7l12 -37q2 -6 2 -8zM319 682l-78 -152q-9 -15 -18 -15q-5 0 -12 3q-16 5 -16 15q0 2 2 12l40 145 q5 17 22 17h45q21 0 21 -10q0 -6 -6 -15z"/>
    <glyph glyph-name="Ldot" unicode="Ŀ" horiz-adv-x="445" d="M445 64q0 -1 -2 -9l-16 -44q-5 -11 -15 -11h-302q-9 0 -11.5 2.5t-2.5 11.5v658q0 9 2.5 11.5t11.5 2.5h54q9 0 11.5 -2.5t2.5 -11.5v-601h253q14 0 14 -7zM423 358q0 -26 -18.5 -44t-43.5 -18q-26 0 -44.5 18.5t-18.5 44.5t18.5 44t45.5 18q25 0 43 -18.5t18 -44.5z"/>
    <glyph glyph-name="ldot" unicode="ŀ" horiz-adv-x="385" d="M273 14q0 -8 -28.5 -16t-56.5 -8q-40 0 -67.5 19t-34.5 51q-5 21 -5 123v516q0 10 11 12l51 12q1 1 7 1t6 -11v-531q0 -80 2 -92q5 -38 41 -38q21 0 45 12q6 2 8 2q4 0 7 -7l12 -37q2 -6 2 -8zM385 358q0 -26 -18.5 -44t-43.5 -18q-26 0 -44.5 18.5t-18.5 44.5t18.5 44 t45.5 18q25 0 43 -18.5t18 -44.5z"/>
    <glyph glyph-name="Lslash" unicode="Ł" horiz-adv-x="445" d="M445 64q0 -3 -3 -9l-15 -44q-4 -11 -16 -11h-301q-9 0 -11.5 2.5t-2.5 11.5v256l-67 -45q-9 -3 -10 -3q-5 0 -5 11v45q0 8 7 12l75 50v332q0 9 2.5 11.5t11.5 2.5h54q9 0 11.5 -2.5t2.5 -11.5v-278l132 87q5 4 8 4q6 0 6 -11v-44q0 -8 -9 -14l-137 -91v-254h253 q14 0 14 -7z"/>
    <glyph glyph-name="lslash" unicode="ł" horiz-adv-x="302" d="M179 428l104 70q5 3 9 3q6 0 6 -11v-37q0 -8 -9 -14l-110 -73v-178q0 -73 3 -91q5 -38 40 -38q20 0 46 12q6 2 7 2q5 0 7 -7l12 -37q2 -5 2 -7q0 -8 -28 -16.5t-56 -8.5q-41 0 -68.5 19t-34.5 51q-5 22 -5 123v129l-88 -59q-4 -3 -10 -3q-5 0 -5 11v37q0 9 7 13l96 64 v316q0 10 10 13l52 12q2 1 6 1q7 0 7 -11v-285z"/>
    <glyph glyph-name="Nacute" unicode="Ń" horiz-adv-x="574" d="M491 672v-658q0 -9 -2.5 -11.5t-11.5 -2.5h-54q-11 0 -15 10l-229 495q-15 32 -30 94q10 -59 10 -98v-487q0 -9 -2.5 -11.5t-11.5 -2.5h-45q-9 0 -11.5 2.5t-2.5 11.5v658q0 9 2.5 11.5t11.5 2.5h63q11 0 15 -10l219 -466q16 -34 28 -84q-7 52 -7 87v459q0 9 2.5 11.5 t11.5 2.5h45q9 0 11.5 -2.5t2.5 -11.5zM438 841q0 -3 -9 -8l-164 -85q-7 -4 -10 -4t-9 8l-10 15q-4 7 -4 10q0 4 8 9l145 111q6 5 10 5t10 -8l29 -42q4 -7 4 -11z"/>
    <glyph glyph-name="nacute" unicode="ń" horiz-adv-x="519" d="M163 366v-354q0 -7 -2 -9.5t-9 -2.5h-53q-7 0 -9 2.5t-2 9.5v343q0 54 -19 96q-2 4 -2 6q0 4 5 6l45 26q6 3 8 3q8 0 17 -19t14 -47q85 68 161 68q74 0 102 -48q17 -29 17 -101v-333q0 -7 -2 -9.5t-9 -2.5h-53q-7 0 -9 2.5t-2 9.5v334q0 44 -15.5 63.5t-50.5 19.5 q-64 0 -132 -63zM424 632q0 -3 -9 -8l-164 -85q-7 -4 -10 -4t-9 8l-10 15q-4 7 -4 10q0 4 8 9l145 111q6 5 10 5t10 -8l29 -42q4 -7 4 -11z"/>
    <glyph glyph-name="Ncommaaccent" unicode="Ņ" horiz-adv-x="574" d="M491 672v-658q0 -9 -2.5 -11.5t-11.5 -2.5h-54q-11 0 -15 10l-229 495q-15 32 -30 94q10 -59 10 -98v-487q0 -9 -2.5 -11.5t-11.5 -2.5h-45q-9 0 -11.5 2.5t-2.5 11.5v658q0 9 2.5 11.5t11.5 2.5h63q11 0 15 -10l219 -466q16 -34 28 -84q-7 52 -7 87v459q0 9 2.5 11.5 t11.5 2.5h45q9 0 11.5 -2.5t2.5 -11.5zM333 -75l-78 -152q-9 -15 -18 -15q-5 0 -12 3q-16 5 -16 15q0 2 2 12l40 145q5 17 22 17h45q21 0 21 -10q0 -6 -6 -15z"/>
    <glyph glyph-name="ncommaaccent" unicode="ņ" horiz-adv-x="519" d="M163 366v-354q0 -7 -2 -9.5t-9 -2.5h-53q-7 0 -9 2.5t-2 9.5v343q0 54 -19 96q-2 4 -2 6q0 4 5 6l45 26q6 3 8 3q8 0 17 -19t14 -47q85 68 161 68q74 0 102 -48q17 -29 17 -101v-333q0 -7 -2 -9.5t-9 -2.5h-53q-7 0 -9 2.5t-2 9.5v334q0 44 -15.5 63.5t-50.5 19.5 q-64 0 -132 -63zM305 -75l-78 -152q-9 -15 -18 -15q-5 0 -12 3q-16 5 -16 15q0 2 2 12l40 145q5 17 22 17h45q21 0 21 -10q0 -6 -6 -15z"/>
    <glyph glyph-name="Ncaron" unicode="Ň" horiz-adv-x="574" d="M491 672v-658q0 -9 -2.5 -11.5t-11.5 -2.5h-54q-11 0 -15 10l-229 495q-15 32 -30 94q10 -59 10 -98v-487q0 -9 -2.5 -11.5t-11.5 -2.5h-45q-9 0 -11.5 2.5t-2.5 11.5v658q0 9 2.5 11.5t11.5 2.5h63q11 0 15 -10l219 -466q16 -34 28 -84q-7 52 -7 87v459q0 9 2.5 11.5 t11.5 2.5h45q9 0 11.5 -2.5t2.5 -11.5zM414 845q0 -3 -7 -9l-111 -88q-5 -5 -9 -5q-2 0 -9 5l-111 88q-7 6 -7 9q0 4 5 10l13 18q4 5 8 5q2 0 9 -4l92 -59l92 59q6 4 9 4q4 0 10 -7l11 -16q5 -6 5 -10z"/>
    <glyph glyph-name="ncaron" unicode="ň" horiz-adv-x="519" d="M163 366v-354q0 -7 -2 -9.5t-9 -2.5h-53q-7 0 -9 2.5t-2 9.5v343q0 54 -19 96q-2 4 -2 6q0 4 5 6l45 26q6 3 8 3q8 0 17 -19t14 -47q85 68 161 68q74 0 102 -48q17 -29 17 -101v-333q0 -7 -2 -9.5t-9 -2.5h-53q-7 0 -9 2.5t-2 9.5v334q0 44 -15.5 63.5t-50.5 19.5 q-64 0 -132 -63zM400 636q0 -3 -7 -9l-111 -88q-5 -5 -9 -5q-2 0 -9 5l-111 88q-7 6 -7 9q0 4 5 10l13 18q4 5 8 5q2 0 9 -4l92 -59l92 59q6 4 9 4q4 0 10 -7l11 -16q5 -6 5 -10z"/>
    <glyph glyph-name="Eng" unicode="Ŋ" horiz-adv-x="574" d="M418 7l-239 498q-15 32 -30 94q10 -59 10 -98v-487q0 -9 -2.5 -11.5t-11.5 -2.5h-45q-9 0 -11.5 2.5t-2.5 11.5v658q0 9 2.5 11.5t11.5 2.5h63q11 0 15 -10l219 -456q16 -34 28 -84q-7 52 -7 87v449q0 9 2.5 11.5t11.5 2.5h45q9 0 11.5 -2.5t2.5 -11.5v-715 q0 -169 -142 -169q-37 0 -80 13.5t-43 25.5q0 3 2 8l19 40q2 6 8 6q1 0 7 -2q46 -24 90 -24q40 0 53 20.5t13 88.5v43z"/>
    <glyph glyph-name="eng" unicode="ŋ" horiz-adv-x="519" d="M295 -145q39 0 52.5 24.5t13.5 94.5v372q0 44 -15.5 63.5t-50.5 19.5q-64 0 -132 -63v-354q0 -7 -2 -9.5t-9 -2.5h-53q-7 0 -9 2.5t-2 9.5v343q0 54 -19 96q-2 4 -2 6q0 4 5 6l45 26q6 3 8 3q8 0 17 -19t14 -47q85 68 161 68q74 0 102 -48q17 -29 17 -101v-388 q0 -169 -144 -169q-40 0 -75 12q-14 5 -14 13q0 3 3 10l18 39q2 6 8 6q1 0 4.5 -1.5t5.5 -1.5q30 -10 53 -10z"/>
    <glyph glyph-name="Omacron" unicode="Ō" horiz-adv-x="556" d="M503 344q0 -176 -59 -267t-172 -91q-108 0 -164 89.5t-56 263.5q0 361 234 361q107 0 162 -90.5t55 -265.5zM414 337q0 162 -38 238q-30 58 -98 58q-34 0 -62 -17t-41 -46q-34 -71 -34 -225q0 -156 39 -234q28 -58 97 -58q73 0 103 63q34 74 34 221zM169 834h217 q9 0 11.5 -2.5t2.5 -11.5v-35q0 -9 -2.5 -11.5t-11.5 -2.5h-217q-9 0 -11.5 2.5t-2.5 11.5v35q0 9 2.5 11.5t11.5 2.5z"/>
    <glyph glyph-name="omacron" unicode="ō" d="M449 243q0 -121 -54 -189t-151 -68q-91 0 -142 66.5t-51 185.5q0 121 54 188.5t151 67.5q91 0 142 -66.5t51 -184.5zM368 244q0 187 -119 187q-57 0 -87 -47t-30 -136q0 -104 31 -155q26 -44 88 -44q59 0 85 42q32 51 32 153zM141 625h217q9 0 11.5 -2.5t2.5 -11.5v-35 q0 -9 -2.5 -11.5t-11.5 -2.5h-217q-9 0 -11.5 2.5t-2.5 11.5v35q0 9 2.5 11.5t11.5 2.5z"/>
    <glyph glyph-name="Obreve" unicode="Ŏ" horiz-adv-x="556" d="M503 344q0 -176 -59 -267t-172 -91q-108 0 -164 89.5t-56 263.5q0 361 234 361q107 0 162 -90.5t55 -265.5zM414 337q0 162 -38 238q-30 58 -98 58q-34 0 -62 -17t-41 -46q-34 -71 -34 -225q0 -156 39 -234q28 -58 97 -58q73 0 103 63q34 74 34 221zM407 861 q0 -28 -29 -67q-34 -46 -100 -46q-77 0 -111 59q-18 32 -18 54q0 11 11 12l39 7h4q7 0 10 -10q13 -69 64 -69q27 0 42.5 16t22.5 53q2 10 11 10h4l39 -7q11 -1 11 -12z"/>
    <glyph glyph-name="obreve" unicode="ŏ" d="M449 243q0 -121 -54 -189t-151 -68q-91 0 -142 66.5t-51 185.5q0 121 54 188.5t151 67.5q91 0 142 -66.5t51 -184.5zM368 244q0 187 -119 187q-57 0 -87 -47t-30 -136q0 -104 31 -155q26 -44 88 -44q59 0 85 42q32 51 32 153zM379 652q0 -28 -29 -67q-34 -46 -100 -46 q-77 0 -111 59q-18 32 -18 54q0 11 11 12l39 7h4q7 0 10 -10q13 -69 64 -69q27 0 42.5 16t22.5 53q2 10 11 10h4l39 -7q11 -1 11 -12z"/>
    <glyph glyph-name="Ohungarumlaut" unicode="Ő" horiz-adv-x="556" d="M503 344q0 -176 -59 -267t-172 -91q-108 0 -164 89.5t-56 263.5q0 361 234 361q107 0 162 -90.5t55 -265.5zM414 337q0 162 -38 238q-30 58 -98 58q-34 0 -62 -17t-41 -46q-34 -71 -34 -225q0 -156 39 -234q28 -58 97 -58q73 0 103 63q34 74 34 221zM481 870q0 -3 -7 -10 l-127 -112q-5 -5 -9 -5t-10 6l-11 9q-6 8 -6 11t5 8l105 132q5 7 10 7q3 0 9 -5l34 -31q7 -6 7 -10zM345 870q0 -3 -7 -10l-127 -112q-5 -5 -9 -5q-2 0 -10 6l-10 9q-7 7 -7 10q0 4 5 9l105 132q6 7 10 7q3 0 9 -5l34 -31q7 -6 7 -10z"/>
    <glyph glyph-name="ohungarumlaut" unicode="ő" d="M449 243q0 -121 -54 -189t-151 -68q-91 0 -142 66.5t-51 185.5q0 121 54 188.5t151 67.5q91 0 142 -66.5t51 -184.5zM368 244q0 187 -119 187q-57 0 -87 -47t-30 -136q0 -104 31 -155q26 -44 88 -44q59 0 85 42q32 51 32 153zM453 661q0 -3 -7 -10l-127 -112q-5 -5 -9 -5 t-10 6l-11 9q-6 7 -6 11q0 3 5 8l105 132q5 7 10 7q3 0 9 -5l34 -31q7 -6 7 -10zM317 661q0 -3 -7 -10l-127 -112q-5 -5 -9 -5q-2 0 -10 6l-10 9q-7 7 -7 10q0 4 5 9l105 132q6 7 10 7q3 0 9 -5l34 -31q7 -6 7 -10z"/>
    <glyph glyph-name="OE" unicode="Œ" horiz-adv-x="759" d="M728 679q0 -3 -2 -9l-15 -44q-3 -11 -15 -11h-222v-225h196q9 0 11.5 -2.5t2.5 -11.5v-39q0 -9 -2.5 -11.5t-11.5 -2.5h-196v-252h239q9 0 11.5 -2.5t2.5 -11.5v-43q0 -9 -2.5 -11.5t-11.5 -2.5h-307q-9 0 -11.5 2.5t-2.5 11.5v28q-55 -56 -127 -56q-90 0 -144 73 q-69 94 -69 282q0 205 75 293q55 66 145 66q72 0 120 -47v19q0 9 2.5 11.5t11.5 2.5h308q14 0 14 -7zM392 113v457q-53 63 -117 63q-59 0 -88 -49q-46 -78 -46 -242q0 -141 33.5 -215t97.5 -74q61 0 120 60z"/>
    <glyph glyph-name="oe" unicode="œ" horiz-adv-x="778" d="M746 240q0 -17 -11 -17h-289q7 -78 30 -113q38 -58 102 -58q28 0 50.5 7.5t68.5 31.5q6 2 8 2q5 0 7 -5l18 -38q3 -6 3 -9q0 -9 -37 -26q-58 -29 -124 -29q-55 0 -98 24t-65 67q-50 -91 -163 -91q-93 0 -144 66t-51 186t53.5 188t148.5 68q98 0 157 -89q31 47 67 68 t88 21q106 0 152 -91q29 -57 29 -163zM665 285q-10 148 -107 148q-101 0 -110 -148h217zM370 244q0 187 -122 187q-56 0 -86 -47t-30 -135q0 -104 32 -157q28 -44 88 -44t86 42q32 51 32 154z"/>
    <glyph glyph-name="Racute" unicode="Ŕ" horiz-adv-x="519" d="M505 9q0 -4 -12 -7l-61 -12h-5q-7 0 -11 8l-162 313h-76v-297q0 -9 -2.5 -11.5t-11.5 -2.5h-54q-9 0 -11.5 2.5t-2.5 11.5v658q0 9 2.5 11.5t11.5 2.5h153q85 0 126 -21q75 -39 75 -150q0 -73 -34 -124.5t-96 -72.5l167 -298q4 -7 4 -11zM380 509q0 77 -49 101 q-21 11 -73 11h-80v-247h77q54 0 82 23q43 36 43 112zM410 841q0 -3 -9 -8l-164 -85q-7 -4 -10 -4t-9 8l-10 15q-4 7 -4 10q0 4 8 9l145 111q6 5 10 5t10 -8l29 -42q4 -7 4 -11z"/>
    <glyph glyph-name="racute" unicode="ŕ" horiz-adv-x="333" d="M333 478q0 -3 -2 -7l-24 -56q-1 -3 -5 -3q-1 0 -17 5q-10 2 -17 2q-19 0 -40 -16t-59 -60v-331q0 -7 -2 -9.5t-9 -2.5h-53q-7 0 -9 2.5t-2 9.5v300q0 59 -4 82.5t-20 51.5q-4 7 -4 10q0 6 5 9l42 26q5 3 8 3q9 0 21 -26t17 -57q47 53 69.5 68t54.5 15q17 0 33.5 -5.5 t16.5 -10.5zM351 632q0 -3 -9 -8l-164 -85q-7 -4 -10 -4t-9 8l-10 15q-4 7 -4 10q0 4 8 9l145 111q6 5 10 5t10 -8l29 -42q4 -7 4 -11z"/>
    <glyph glyph-name="Rcommaaccent" unicode="Ŗ" horiz-adv-x="519" d="M505 9q0 -4 -12 -7l-61 -12h-5q-7 0 -11 8l-162 313h-76v-297q0 -9 -2.5 -11.5t-11.5 -2.5h-54q-9 0 -11.5 2.5t-2.5 11.5v658q0 9 2.5 11.5t11.5 2.5h153q85 0 126 -21q75 -39 75 -150q0 -73 -34 -124.5t-96 -72.5l167 -298q4 -7 4 -11zM380 509q0 77 -49 101 q-21 11 -73 11h-80v-247h77q54 0 82 23q43 36 43 112zM305 -75l-78 -152q-9 -15 -18 -15q-5 0 -12 3q-16 5 -16 15q0 2 2 12l40 145q5 17 22 17h45q21 0 21 -10q0 -6 -6 -15z"/>
    <glyph glyph-name="rcommaaccent" unicode="ŗ" horiz-adv-x="333" d="M333 478q0 -3 -2 -7l-24 -56q-1 -3 -5 -3q-1 0 -17 5q-10 2 -17 2q-19 0 -40 -16t-59 -60v-331q0 -7 -2 -9.5t-9 -2.5h-53q-7 0 -9 2.5t-2 9.5v300q0 59 -4 82.5t-20 51.5q-4 7 -4 10q0 6 5 9l42 26q5 3 8 3q9 0 21 -26t17 -57q47 53 69.5 68t54.5 15q17 0 33.5 -5.5 t16.5 -10.5zM173 -76l-78 -152q-9 -15 -18 -15q-5 0 -12 3q-16 5 -16 15q0 2 2 12l40 145q5 17 22 17h45q21 0 21 -10q0 -6 -6 -15z"/>
    <glyph glyph-name="Rcaron" unicode="Ř" horiz-adv-x="519" d="M505 9q0 -4 -12 -7l-61 -12h-5q-7 0 -11 8l-162 313h-76v-297q0 -9 -2.5 -11.5t-11.5 -2.5h-54q-9 0 -11.5 2.5t-2.5 11.5v658q0 9 2.5 11.5t11.5 2.5h153q85 0 126 -21q75 -39 75 -150q0 -73 -34 -124.5t-96 -72.5l167 -298q4 -7 4 -11zM380 509q0 77 -49 101 q-21 11 -73 11h-80v-247h77q54 0 82 23q43 36 43 112zM386 845q0 -3 -7 -9l-111 -88q-5 -5 -9 -5q-2 0 -9 5l-111 88q-7 6 -7 9q0 4 5 10l13 18q4 5 8 5q2 0 9 -4l92 -59l92 59q6 4 9 4q4 0 10 -7l11 -16q5 -6 5 -10z"/>
    <glyph glyph-name="rcaron" unicode="ř" horiz-adv-x="333" d="M333 478q0 -3 -2 -7l-24 -56q-1 -3 -5 -3q-1 0 -17 5q-10 2 -17 2q-19 0 -40 -16t-59 -60v-331q0 -7 -2 -9.5t-9 -2.5h-53q-7 0 -9 2.5t-2 9.5v300q0 59 -4 82.5t-20 51.5q-4 7 -4 10q0 6 5 9l42 26q5 3 8 3q9 0 21 -26t17 -57q47 53 69.5 68t54.5 15q17 0 33.5 -5.5 t16.5 -10.5zM327 636q0 -3 -7 -9l-111 -88q-5 -5 -9 -5q-2 0 -9 5l-111 88q-7 6 -7 9q0 4 5 10l13 18q4 5 8 5q2 0 9 -4l92 -59l92 59q6 4 9 4q4 0 10 -7l11 -16q5 -6 5 -10z"/>
    <glyph glyph-name="Sacute" unicode="Ś" horiz-adv-x="482" d="M438 182q0 -88 -58 -142t-152 -54q-56 0 -122.5 21t-66.5 39q0 4 2 8l19 48q2 5 7 5q4 0 17 -7q76 -42 145 -42q55 0 88.5 31t33.5 82q0 46 -25.5 76t-99.5 73q-62 36 -85 52t-41 36q-40 46 -40 111q0 80 55 130.5t142 50.5q50 0 108.5 -19t58.5 -35q0 -2 -2 -8l-18 -45 q-3 -6 -8 -6q-3 0 -43 20q-47 22 -97 22q-52 0 -81 -26t-29 -73q0 -54 40 -85q22 -17 120 -75q45 -26 64 -42t35 -38q33 -45 33 -108zM409 841q0 -3 -9 -8l-164 -85q-7 -4 -10 -4t-9 8l-10 15q-4 7 -4 10q0 4 8 9l145 111q6 5 10 5t10 -8l29 -42q4 -7 4 -11z"/>
    <glyph glyph-name="sacute" unicode="ś" horiz-adv-x="389" d="M348 128q0 -64 -44 -103t-115 -39q-81 0 -148 39q-6 4 -6 9q0 2 1 4l19 44q2 4 6 4q2 0 8 -2q68 -34 122 -34q36 0 58 20t22 52q0 25 -14.5 42t-49.5 34q-85 39 -112 62q-46 37 -46 95q0 61 42.5 100t109.5 39q39 0 84 -14.5t45 -27.5q0 -2 -2 -7l-18 -37q-4 -6 -9 -6 l-8 2q-55 26 -94 26q-36 0 -56 -17.5t-20 -49.5q0 -31 20 -49q10 -10 23.5 -17t81.5 -40q56 -27 78 -55.5t22 -73.5zM333 632q0 -3 -9 -8l-164 -85q-7 -4 -10 -4t-9 8l-10 15q-4 7 -4 10q0 4 8 9l145 111q6 5 10 5t10 -8l29 -42q4 -7 4 -11z"/>
    <glyph glyph-name="Scircumflex" unicode="Ŝ" horiz-adv-x="482" d="M438 182q0 -88 -58 -142t-152 -54q-56 0 -122.5 21t-66.5 39q0 4 2 8l19 48q2 5 7 5q4 0 17 -7q76 -42 145 -42q55 0 88.5 31t33.5 82q0 46 -25.5 76t-99.5 73q-62 36 -85 52t-41 36q-40 46 -40 111q0 80 55 130.5t142 50.5q50 0 108.5 -19t58.5 -35q0 -2 -2 -8l-18 -45 q-3 -6 -8 -6q-3 0 -43 20q-47 22 -97 22q-52 0 -81 -26t-29 -73q0 -54 40 -85q22 -17 120 -75q45 -26 64 -42t35 -38q33 -45 33 -108zM385 781q0 -3 -5 -10l-13 -18q-4 -5 -8 -5q-2 0 -9 4l-92 59l-92 -59q-7 -4 -9 -4q-3 0 -10 7l-11 16q-5 7 -5 10q0 4 7 10l111 87 q5 5 9 5t9 -5l111 -87q7 -7 7 -10z"/>
    <glyph glyph-name="scircumflex" unicode="ŝ" horiz-adv-x="389" d="M348 128q0 -64 -44 -103t-115 -39q-81 0 -148 39q-6 4 -6 9q0 2 1 4l19 44q2 4 6 4q2 0 8 -2q68 -34 122 -34q36 0 58 20t22 52q0 25 -14.5 42t-49.5 34q-85 39 -112 62q-46 37 -46 95q0 61 42.5 100t109.5 39q39 0 84 -14.5t45 -27.5q0 -2 -2 -7l-18 -37q-4 -6 -9 -6 l-8 2q-55 26 -94 26q-36 0 -56 -17.5t-20 -49.5q0 -31 20 -49q10 -10 23.5 -17t81.5 -40q56 -27 78 -55.5t22 -73.5zM329 572q0 -3 -5 -10l-13 -18q-4 -5 -8 -5q-2 0 -9 4l-92 59l-92 -59q-7 -4 -9 -4q-3 0 -10 7l-11 16q-5 8 -5 10q0 4 7 10l111 87q5 5 9 5t9 -5l111 -87 q7 -7 7 -10z"/>
    <glyph glyph-name="Scedilla" unicode="Ş" horiz-adv-x="482" d="M314 -120q0 -35 -28.5 -57t-73.5 -22q-60 0 -60 18q0 3 1 8l4 30q0 6 5 6q4 0 6 -1q19 -7 46 -7q40 0 40 23q0 25 -49 23q-31 0 -29 13q1 6 1 12l7 64q-53 7 -99 24t-46 32q0 4 2 8l19 48q2 5 7 5q4 0 17 -7q76 -42 145 -42q55 0 88.5 31t33.5 82q0 46 -25.5 76t-99.5 73 q-62 36 -85 52t-41 36q-40 46 -40 111q0 80 55 130.5t142 50.5q50 0 108.5 -19t58.5 -35q0 -2 -2 -8l-18 -45q-3 -6 -8 -6q-3 0 -43 20q-47 22 -97 22q-52 0 -81 -26t-29 -73q0 -54 40 -85q22 -17 120 -75q45 -26 64 -42t35 -38q33 -45 33 -108q0 -84 -54 -137.5t-142 -58.5 l-4 -42q42 -4 59 -18.5t17 -45.5z"/>
    <glyph glyph-name="scedilla" unicode="ş" horiz-adv-x="389" d="M275 -119q0 -35 -28.5 -57t-73.5 -22q-60 0 -60 18q0 3 1 8l4 30q0 6 5 6q4 0 6 -1q19 -7 46 -7q40 0 40 23q0 25 -49 23q-31 0 -29 13q1 6 1 12l7 63q-61 10 -104 35q-6 4 -6 9q0 2 1 4l19 44q2 4 6 4q2 0 8 -2q68 -34 122 -34q36 0 58 20t22 52q0 25 -14.5 42t-49.5 34 q-85 39 -112 62q-46 37 -46 95q0 61 42.5 100t109.5 39q39 0 84 -14.5t45 -27.5q0 -2 -2 -7l-18 -37q-4 -6 -9 -6l-8 2q-55 26 -94 26q-36 0 -56 -17.5t-20 -49.5q0 -31 20 -49q10 -10 23.5 -17t81.5 -40q56 -27 78 -55.5t22 -73.5q0 -60 -39.5 -98.5t-105.5 -42.5l-4 -42 q42 -4 59 -18.5t17 -45.5z"/>
    <glyph glyph-name="Scaron" unicode="Š" horiz-adv-x="482" d="M389 839q0 -4 -7 -10l-109 -74q-11 -8 -18 -8q-6 0 -19 8l-108 74q-7 4 -7 11q0 4 4 9l12 16q6 6 9 6q6 0 11 -3l98 -52l98 52q5 3 10 3q4 0 10 -6l12 -16q4 -7 4 -10zM438 182q0 -88 -58 -142t-152 -54q-56 0 -122.5 21t-66.5 39q0 4 2 8l19 48q2 5 7 5q4 0 17 -7 q76 -42 145 -42q55 0 88.5 31t33.5 82q0 46 -25.5 76t-99.5 73q-62 36 -85 52t-41 36q-40 46 -40 111q0 80 55 130.5t142 50.5q50 0 108.5 -19t58.5 -35q0 -2 -2 -8l-18 -45q-3 -6 -8 -6q-3 0 -43 20q-47 22 -97 22q-52 0 -81 -26t-29 -73q0 -54 40 -85q22 -17 120 -75 q45 -26 64 -42t35 -38q33 -45 33 -108z"/>
    <glyph glyph-name="scaron" unicode="š" horiz-adv-x="389" d="M335 664q0 -3 -7 -9l-111 -88q-5 -5 -9 -5q-2 0 -9 5l-111 88q-7 6 -7 9q0 4 5 10l13 18q4 5 8 5q2 0 9 -4l92 -59l92 59q6 4 9 4q4 0 10 -7l11 -16q5 -6 5 -10zM348 128q0 -64 -44 -103t-115 -39q-81 0 -148 39q-6 4 -6 9q0 2 1 4l19 44q2 4 6 4q2 0 8 -2 q68 -34 122 -34q36 0 58 20t22 52q0 25 -14.5 42t-49.5 34q-85 39 -112 62q-46 37 -46 95q0 61 42.5 100t109.5 39q39 0 84 -14.5t45 -27.5q0 -2 -2 -7l-18 -37q-4 -6 -9 -6l-8 2q-55 26 -94 26q-36 0 -56 -17.5t-20 -49.5q0 -31 20 -49q10 -10 23.5 -17t81.5 -40 q56 -27 78 -55.5t22 -73.5z"/>
    <glyph glyph-name="Tcedilla" unicode="Ţ" horiz-adv-x="407" d="M422 679q0 -4 -1 -6l-1 -3l-15 -43q-3 -11 -15 -11h-144v-602q0 -9 -2.5 -11.5t-11.5 -2.5h-54q-9 0 -11.5 2.5t-2.5 11.5v602h-146q-9 0 -11.5 2.5t-2.5 11.5v42q0 9 2.5 11.5t11.5 2.5h390q14 0 14 -7zM249 -75l-78 -152q-9 -15 -18 -15q-5 0 -12 3q-16 5 -16 15 q0 2 2 12l40 145q5 17 22 17h45q21 0 21 -10q0 -6 -6 -15z"/>
    <glyph glyph-name="tcedilla" unicode="ţ" horiz-adv-x="333" d="M343 30q0 -12 -46 -26t-84 -14q-80 0 -109 56q-13 26 -13 90v282h-71q-8 0 -10 1.5t-2 9.5v39q0 8 2 10t10 2h71v137q0 10 10 13l52 14q5 2 6 2q7 0 7 -12v-154h150q9 0 9 -7q0 -2 -1 -6l-11 -39q-3 -10 -14 -10h-133v-282q0 -48 10 -61q15 -20 50 -20q32 0 90 25 q4 2 7 2q5 0 7 -6l11 -41q2 -4 2 -5zM251 -76l-78 -152q-9 -15 -18 -15q-5 0 -12 3q-16 5 -16 15q0 2 2 12l40 145q5 17 22 17h45q21 0 21 -10q0 -6 -6 -15z"/>
    <glyph glyph-name="Tcaron" unicode="Ť" horiz-adv-x="407" d="M422 679q0 -4 -1 -6l-1 -3l-15 -43q-3 -11 -15 -11h-144v-602q0 -9 -2.5 -11.5t-11.5 -2.5h-54q-9 0 -11.5 2.5t-2.5 11.5v602h-146q-9 0 -11.5 2.5t-2.5 11.5v42q0 9 2.5 11.5t11.5 2.5h390q14 0 14 -7zM330 845q0 -3 -7 -9l-111 -88q-5 -5 -9 -5q-2 0 -9 5l-111 88 q-7 6 -7 9q0 4 5 10l13 18q4 5 8 5q2 0 9 -4l92 -59l92 59q6 4 9 4q4 0 10 -7l11 -16q5 -6 5 -10z"/>
    <glyph glyph-name="tcaron" unicode="ť" horiz-adv-x="333" d="M343 30q0 -12 -46 -26t-84 -14q-80 0 -109 56q-13 26 -13 90v282h-71q-8 0 -10 1.5t-2 9.5v39q0 8 2 10t10 2h71v137q0 10 10 13l52 14q5 2 6 2q7 0 7 -12v-154h150q9 0 9 -7q0 -2 -1 -6l-11 -39q-3 -10 -14 -10h-133v-282q0 -48 10 -61q15 -20 50 -20q32 0 90 25 q4 2 7 2q5 0 7 -6l11 -41q2 -4 2 -5zM357 702l-78 -152q-9 -15 -18 -15q-5 0 -12 3q-16 5 -16 15q0 2 2 12l40 145q5 17 22 17h45q21 0 21 -10q0 -6 -6 -15z"/>
    <glyph glyph-name="Tbar" unicode="Ŧ" horiz-adv-x="407" d="M422 679q0 -4 -1 -6l-1 -3l-15 -43q-3 -11 -15 -11h-144v-227h109q9 0 11.5 -2.5t2.5 -11.5v-37q0 -8 -3 -11t-11 -3h-109v-310q0 -9 -2.5 -11.5t-11.5 -2.5h-54q-9 0 -11.5 2.5t-2.5 11.5v310h-109q-9 0 -11.5 2.5t-2.5 11.5v37q0 9 2.5 11.5t11.5 2.5h109v227h-146 q-9 0 -11.5 2.5t-2.5 11.5v42q0 9 2.5 11.5t11.5 2.5h390q14 0 14 -7z"/>
    <glyph glyph-name="tbar" unicode="ŧ" horiz-adv-x="333" d="M343 30q0 -12 -46 -26t-84 -14q-80 0 -109 56q-13 26 -13 90v105h-56q-9 0 -11.5 2.5t-2.5 11.5v32q0 9 2.5 11.5t11.5 2.5h56v117h-71q-8 0 -10 1.5t-2 9.5v39q0 8 2 10t10 2h71v137q0 10 10 13l52 14q5 2 6 2q7 0 7 -12v-154h150q9 0 9 -7q0 -2 -1 -6l-11 -39 q-3 -10 -14 -10h-133v-117h107q9 0 11.5 -2.5t2.5 -11.5v-32q0 -8 -3 -11t-11 -3h-107v-105q0 -48 10 -61q15 -20 50 -20q32 0 90 25q4 2 7 2q5 0 7 -6l11 -41q2 -4 2 -5z"/>
    <glyph glyph-name="Utilde" unicode="Ũ" horiz-adv-x="592" d="M508 672v-488q0 -97 -58.5 -147.5t-160.5 -50.5q-205 0 -205 198v488q0 9 2.5 11.5t11.5 2.5h54q9 0 11.5 -2.5t2.5 -11.5v-485q0 -73 29 -103.5t98 -30.5q70 0 103 32.5t33 101.5v485q0 9 2.5 11.5t11.5 2.5h51q9 0 11.5 -2.5t2.5 -11.5zM444 844q0 -13 -27 -48 q-25 -31 -66 -31q-23 0 -60 21q-33 19 -51 19q-26 0 -43 -30q-4 -8 -9 -8l-6 1l-27 12q-8 3 -8 9q0 14 28 48q25 30 63 30q26 0 83 -32q16 -8 28 -8q31 0 45 30q4 8 9 8l7 -1l27 -12q7 -3 7 -8z"/>
    <glyph glyph-name="utilde" unicode="ũ" d="M451 23q0 -1 -4 -5l-45 -29q-4 -3 -7 -3q-6 0 -17 18t-18 42q-43 -33 -76.5 -46.5t-73.5 -13.5q-67 0 -102 34t-35 100v345q0 10 10 13l52 14q4 1 6 1q7 0 7 -11v-312q0 -66 15.5 -91t56.5 -25q65 0 126 51v360q0 10 10 13l53 14q4 1 6 1q7 0 7 -11v-349q0 -65 26 -103 q3 -4 3 -7zM398 635q0 -13 -27 -48q-25 -31 -66 -31q-23 0 -60 21q-33 19 -51 19q-26 0 -43 -30q-4 -8 -9 -8l-6 1l-27 12q-8 3 -8 9q0 14 28 48q25 30 63 30q26 0 83 -32q16 -8 28 -8q31 0 45 30q4 8 9 8l7 -1l27 -12q7 -3 7 -8z"/>
    <glyph glyph-name="Umacron" unicode="Ū" horiz-adv-x="592" d="M508 672v-488q0 -97 -58.5 -147.5t-160.5 -50.5q-205 0 -205 198v488q0 9 2.5 11.5t11.5 2.5h54q9 0 11.5 -2.5t2.5 -11.5v-485q0 -73 29 -103.5t98 -30.5q70 0 103 32.5t33 101.5v485q0 9 2.5 11.5t11.5 2.5h51q9 0 11.5 -2.5t2.5 -11.5zM187 834h217q9 0 11.5 -2.5 t2.5 -11.5v-35q0 -9 -2.5 -11.5t-11.5 -2.5h-217q-9 0 -11.5 2.5t-2.5 11.5v35q0 9 2.5 11.5t11.5 2.5z"/>
    <glyph glyph-name="umacron" unicode="ū" d="M451 23q0 -1 -4 -5l-45 -29q-4 -3 -7 -3q-6 0 -17 18t-18 42q-43 -33 -76.5 -46.5t-73.5 -13.5q-67 0 -102 34t-35 100v345q0 10 10 13l52 14q4 1 6 1q7 0 7 -11v-312q0 -66 15.5 -91t56.5 -25q65 0 126 51v360q0 10 10 13l53 14q4 1 6 1q7 0 7 -11v-349q0 -65 26 -103 q3 -4 3 -7zM141 625h217q9 0 11.5 -2.5t2.5 -11.5v-35q0 -9 -2.5 -11.5t-11.5 -2.5h-217q-9 0 -11.5 2.5t-2.5 11.5v35q0 9 2.5 11.5t11.5 2.5z"/>
    <glyph glyph-name="Ubreve" unicode="Ŭ" horiz-adv-x="592" d="M508 672v-488q0 -97 -58.5 -147.5t-160.5 -50.5q-205 0 -205 198v488q0 9 2.5 11.5t11.5 2.5h54q9 0 11.5 -2.5t2.5 -11.5v-485q0 -73 29 -103.5t98 -30.5q70 0 103 32.5t33 101.5v485q0 9 2.5 11.5t11.5 2.5h51q9 0 11.5 -2.5t2.5 -11.5zM425 861q0 -28 -29 -67 q-34 -46 -100 -46q-77 0 -111 59q-18 32 -18 54q0 11 11 12l39 7h4q7 0 10 -10q13 -69 64 -69q27 0 42.5 16t22.5 53q2 10 11 10h4l39 -7q11 -1 11 -12z"/>
    <glyph glyph-name="ubreve" unicode="ŭ" d="M451 23q0 -1 -4 -5l-45 -29q-4 -3 -7 -3q-6 0 -17 18t-18 42q-43 -33 -76.5 -46.5t-73.5 -13.5q-67 0 -102 34t-35 100v345q0 10 10 13l52 14q4 1 6 1q7 0 7 -11v-312q0 -66 15.5 -91t56.5 -25q65 0 126 51v360q0 10 10 13l53 14q4 1 6 1q7 0 7 -11v-349q0 -65 26 -103 q3 -4 3 -7zM379 652q0 -28 -29 -67q-34 -46 -100 -46q-77 0 -111 59q-18 32 -18 54q0 11 11 12l39 7h4q7 0 10 -10q13 -69 64 -69q27 0 42.5 16t22.5 53q2 10 11 10h4l39 -7q11 -1 11 -12z"/>
    <glyph glyph-name="Uring" unicode="Ů" horiz-adv-x="592" d="M508 672v-488q0 -97 -58.5 -147.5t-160.5 -50.5q-205 0 -205 198v488q0 9 2.5 11.5t11.5 2.5h54q9 0 11.5 -2.5t2.5 -11.5v-485q0 -73 29 -103.5t98 -30.5q70 0 103 32.5t33 101.5v485q0 9 2.5 11.5t11.5 2.5h51q9 0 11.5 -2.5t2.5 -11.5zM385 837q0 -37 -26 -63t-63 -26 t-63 26.5t-26 63.5t26.5 62.5t64.5 25.5q35 0 61 -26t26 -63zM339 837q0 18 -13 30.5t-31 12.5q-17 0 -29.5 -13t-12.5 -30q0 -18 12.5 -30.5t30.5 -12.5t30.5 12.5t12.5 30.5z"/>
    <glyph glyph-name="uring" unicode="ů" d="M451 23q0 -1 -4 -5l-45 -29q-4 -3 -7 -3q-6 0 -17 18t-18 42q-43 -33 -76.5 -46.5t-73.5 -13.5q-67 0 -102 34t-35 100v345q0 10 10 13l52 14q4 1 6 1q7 0 7 -11v-312q0 -66 15.5 -91t56.5 -25q65 0 126 51v360q0 10 10 13l53 14q4 1 6 1q7 0 7 -11v-349q0 -65 26 -103 q3 -4 3 -7zM339 628q0 -37 -26 -63t-63 -26t-63 26.5t-26 63.5t26.5 62.5t64.5 25.5q35 0 61 -26t26 -63zM293 628q0 18 -13 30.5t-31 12.5q-17 0 -29.5 -13t-12.5 -30q0 -18 12.5 -30.5t30.5 -12.5t30.5 12.5t12.5 30.5z"/>
    <glyph glyph-name="Uhungarumlaut" unicode="Ű" horiz-adv-x="592" d="M508 672v-488q0 -97 -58.5 -147.5t-160.5 -50.5q-205 0 -205 198v488q0 9 2.5 11.5t11.5 2.5h54q9 0 11.5 -2.5t2.5 -11.5v-485q0 -73 29 -103.5t98 -30.5q70 0 103 32.5t33 101.5v485q0 9 2.5 11.5t11.5 2.5h51q9 0 11.5 -2.5t2.5 -11.5zM499 870q0 -3 -7 -10l-127 -112 q-5 -5 -9 -5t-10 6l-11 9q-6 8 -6 11t5 8l105 132q5 7 10 7q3 0 9 -5l34 -31q7 -6 7 -10zM363 870q0 -3 -7 -10l-127 -112q-5 -5 -9 -5q-2 0 -10 6l-10 9q-7 7 -7 10q0 4 5 9l105 132q6 7 10 7q3 0 9 -5l34 -31q7 -6 7 -10z"/>
    <glyph glyph-name="uhungarumlaut" unicode="ű" d="M451 23q0 -1 -4 -5l-45 -29q-4 -3 -7 -3q-6 0 -17 18t-18 42q-43 -33 -76.5 -46.5t-73.5 -13.5q-67 0 -102 34t-35 100v345q0 10 10 13l52 14q4 1 6 1q7 0 7 -11v-312q0 -66 15.5 -91t56.5 -25q65 0 126 51v360q0 10 10 13l53 14q4 1 6 1q7 0 7 -11v-349q0 -65 26 -103 q3 -4 3 -7zM453 661q0 -3 -7 -10l-127 -112q-5 -5 -9 -5t-10 6l-11 9q-6 7 -6 11q0 3 5 8l105 132q5 7 10 7q3 0 9 -5l34 -31q7 -6 7 -10zM317 661q0 -3 -7 -10l-127 -112q-5 -5 -9 -5q-2 0 -10 6l-10 9q-7 7 -7 10q0 4 5 9l105 132q6 7 10 7q3 0 9 -5l34 -31q7 -6 7 -10z "/>
    <glyph glyph-name="Uogonek" unicode="Ų" horiz-adv-x="592" d="M291 -14h-2q-205 0 -205 198v488q0 9 2.5 11.5t11.5 2.5h54q9 0 11.5 -2.5t2.5 -11.5v-485q0 -73 29 -103.5t98 -30.5q70 0 103 32.5t33 101.5v485q0 9 2.5 11.5t11.5 2.5h51q9 0 11.5 -2.5t2.5 -11.5v-488q0 -92 -50 -141q-45 -43 -110 -53q-28 -38 -28 -83 q0 -34 34 -34q24 0 56 20q4 2 6 2q3 0 4 -6l10 -28q2 -6 2 -8q0 -7 -29 -19.5t-53 -12.5q-41 0 -65 21.5t-24 59.5q0 39 30 84z"/>
    <glyph glyph-name="uogonek" unicode="ų" d="M451 23q0 -1 -4 -5l-45 -29q-4 -3 -7 -3h-1l-2 1q-26 -37 -26 -80q0 -34 34 -34q24 0 56 20q4 2 6 2q3 0 4 -6l10 -28q2 -6 2 -8q0 -7 -29 -19.5t-53 -12.5q-41 0 -65 21.5t-24 59.5q0 25 16.5 59.5t44.5 61.5q-5 13 -8 23q-43 -33 -76.5 -46.5t-73.5 -13.5 q-67 0 -102 34t-35 100v345q0 10 10 13l52 14q4 1 6 1q7 0 7 -11v-312q0 -66 15.5 -91t56.5 -25q65 0 126 51v360q0 10 10 13l53 14q4 1 6 1q7 0 7 -11v-349q0 -65 26 -103q3 -4 3 -7z"/>
    <glyph glyph-name="Wcircumflex" unicode="Ŵ" horiz-adv-x="685" d="M663 672q0 -3 -1 -4v-4l-138 -652q-2 -12 -15 -12h-66q-8 0 -10 2t-4 10l-86 553l-104 -553q-2 -12 -15 -12h-61q-8 0 -11 2t-4 10l-125 654q-1 6 -1 8q0 5 12 8l52 10q6 1 8 1q6 0 8 -12l86 -494q6 -37 9 -125q9 104 12 122l97 490q2 12 15 12h53q9 0 11 -2t4 -10 l82 -494q6 -33 11 -122q3 90 9 122l92 501q3 12 9 12q3 0 7 -1l52 -11q12 -3 12 -9zM469 781q0 -3 -5 -10l-13 -18q-4 -5 -8 -5q-2 0 -9 4l-92 59l-92 -59q-7 -4 -9 -4q-3 0 -10 7l-11 16q-5 7 -5 10q0 4 7 10l111 87q5 5 9 5t9 -5l111 -87q7 -7 7 -10z"/>
    <glyph glyph-name="wcircumflex" unicode="ŵ" horiz-adv-x="611" d="M600 469q0 -3 -1 -4l-1 -3l-132 -459q-2 -7 -3.5 -8.5t-8.5 -1.5h-39q-10 0 -12 10l-79 303q-3 11 -8 43l-2 15l-3 21q-5 -47 -15 -78l-94 -305q-3 -9 -13 -9h-37q-10 0 -12 10l-115 459q-1 4 -1 6q0 7 9 8l51 13q4 1 6 1q7 0 8 -10l68 -331l3 -16q0 -1 7 -39 q13 54 13 55l95 324q2 9 12 9h40q8 0 9 -1t3 -8l82 -337l3 -12l2 -16l2 -11l3 14l5 25l85 344q3 9 8 9l6 -1l46 -11q10 -3 10 -8zM443 572q0 -3 -5 -10l-13 -18q-4 -5 -8 -5q-2 0 -9 4l-92 59l-92 -59q-7 -4 -9 -4q-3 0 -10 7l-11 16q-5 8 -5 10q0 4 7 10l111 87q5 5 9 5 t9 -5l111 -87q7 -7 7 -10z"/>
    <glyph glyph-name="Ycircumflex" unicode="Ŷ" horiz-adv-x="426" d="M450 669q0 -5 -3 -10l-190 -368v-277q0 -9 -2.5 -11.5t-11.5 -2.5h-54q-9 0 -11.5 2.5t-2.5 11.5v275l-196 369q-3 9 -3 10q0 5 11 8l60 16l4 1q2 1 4 1q5 0 10 -10l126 -260q14 -27 27 -62q12 33 27 63l122 259q5 9 10 9q4 0 8 -1l54 -15q11 -3 11 -8zM340 781 q0 -3 -5 -10l-13 -18q-4 -5 -8 -5q-2 0 -9 4l-92 59l-92 -59q-7 -4 -9 -4q-3 0 -10 7l-11 16q-5 7 -5 10q0 4 7 10l111 87q5 5 9 5t9 -5l111 -87q7 -7 7 -10z"/>
    <glyph glyph-name="ycircumflex" unicode="ŷ" horiz-adv-x="426" d="M421 461q0 -2 -1 -6l-114 -393q-39 -133 -66 -192q-39 -82 -121 -82q-36 0 -81 18t-45 33q0 4 2 6l20 40q2 5 7 5q2 0 7 -3q52 -36 88 -36q49 0 77 86l21 63h-40q-9 0 -12 9l-157 444q-2 4 -2 7q0 5 9 8l54 19l8 1q4 0 7 -9l128 -378q8 -24 20 -72q8 36 17 70l98 382 q4 8 10 8q1 0 5 -1l52 -19q9 -3 9 -8zM340 572q0 -3 -5 -10l-13 -18q-4 -5 -8 -5q-2 0 -9 4l-92 59l-92 -59q-7 -4 -9 -4q-3 0 -10 7l-11 16q-5 8 -5 10q0 4 7 10l111 87q5 5 9 5t9 -5l111 -87q7 -7 7 -10z"/>
    <glyph glyph-name="Ydieresis" unicode="Ÿ" horiz-adv-x="426" d="M369 811q0 -23 -16.5 -39t-38.5 -16q-23 0 -39 16t-16 39t16.5 39t39.5 16q22 0 38 -16.5t16 -38.5zM450 669q0 -5 -3 -10l-190 -368v-277q0 -9 -2.5 -11.5t-11.5 -2.5h-54q-9 0 -11.5 2.5t-2.5 11.5v275l-196 369q-3 9 -3 10q0 5 11 8l60 16l4 1q2 1 4 1q5 0 10 -10 l126 -260q14 -27 27 -62q12 33 27 63l122 259q5 9 10 9q4 0 8 -1l54 -15q11 -3 11 -8zM166 811q0 -23 -16 -39t-39 -16t-39 16t-16 39t16.5 39t39.5 16q22 0 38 -16.5t16 -38.5z"/>
    <glyph glyph-name="Zacute" unicode="Ź" horiz-adv-x="444" d="M320 617h-264q-14 0 -14 8q0 2 1 4l1 3l10 42q3 12 15 12h333q9 0 11.5 -2.5t2.5 -11.5v-48l-296 -553h293q9 0 11.5 -2.5t2.5 -11.5v-43q0 -9 -2.5 -11.5t-11.5 -2.5h-373q-9 0 -11.5 2.5t-2.5 11.5v52zM385 841q0 -3 -9 -8l-164 -85q-7 -4 -10 -4t-9 8l-10 15 q-4 7 -4 10q0 4 8 9l145 111q6 5 10 5t10 -8l29 -42q4 -7 4 -11z"/>
    <glyph glyph-name="zacute" unicode="ź" horiz-adv-x="407" d="M390 59q0 -3 -2 -8l-19 -42q-3 -9 -13 -9h-312q-8 0 -10 2t-2 10v40l253 365h-221q-8 0 -9.5 1.5t-1.5 9.5v41q0 7 1.5 9t9.5 2h304q7 0 9 -2t2 -9v-42l-249 -362h249q11 0 11 -6zM370 632q0 -3 -9 -8l-164 -85q-7 -4 -10 -4t-9 8l-10 15q-4 7 -4 10q0 4 8 9l145 111 q6 5 10 5t10 -8l29 -42q4 -7 4 -11z"/>
    <glyph glyph-name="Zdotaccent" unicode="Ż" horiz-adv-x="444" d="M320 617h-264q-14 0 -14 8q0 2 1 4l1 3l10 42q3 12 15 12h333q9 0 11.5 -2.5t2.5 -11.5v-48l-296 -553h293q9 0 11.5 -2.5t2.5 -11.5v-43q0 -9 -2.5 -11.5t-11.5 -2.5h-373q-9 0 -11.5 2.5t-2.5 11.5v52zM296 813q0 -25 -18 -43.5t-44 -18.5t-44.5 18.5t-18.5 44.5 t18.5 44t45.5 18q25 0 43 -18.5t18 -44.5z"/>
    <glyph glyph-name="zdotaccent" unicode="ż" horiz-adv-x="407" d="M390 59q0 -3 -2 -8l-19 -42q-3 -9 -13 -9h-312q-8 0 -10 2t-2 10v40l253 365h-221q-8 0 -9.5 1.5t-1.5 9.5v41q0 7 1.5 9t9.5 2h304q7 0 9 -2t2 -9v-42l-249 -362h249q11 0 11 -6zM281 604q0 -26 -18.5 -44t-43.5 -18q-26 0 -44.5 18.5t-18.5 44.5t18.5 44t45.5 18 q25 0 43 -18.5t18 -44.5z"/>
    <glyph glyph-name="Zcaron" unicode="Ž" horiz-adv-x="444" d="M357 839q0 -4 -7 -10l-109 -74q-11 -8 -18 -8q-6 0 -19 8l-108 74q-7 4 -7 11q0 4 4 9l12 16q6 6 9 6q6 0 11 -3l98 -52l98 52q5 3 10 3q4 0 10 -6l12 -16q4 -7 4 -10zM427 14q0 -9 -2.5 -11.5t-11.5 -2.5h-373q-9 0 -11.5 2.5t-2.5 11.5v52l294 551h-264q-14 0 -14 8 q0 2 1 4l1 3l10 42q3 12 15 12h333q9 0 11.5 -2.5t2.5 -11.5v-48l-296 -553h293q9 0 11.5 -2.5t2.5 -11.5v-43z"/>
    <glyph glyph-name="zcaron" unicode="ž" horiz-adv-x="407" d="M351 664q0 -3 -7 -9l-111 -88q-5 -5 -9 -5q-2 0 -9 5l-111 88q-7 6 -7 9q0 4 5 10l13 18q4 5 8 5q2 0 9 -4l92 -59l92 59q6 4 9 4q4 0 10 -7l11 -16q5 -6 5 -10zM390 59q0 -3 -2 -8l-19 -42q-3 -9 -13 -9h-312q-8 0 -10 2t-2 10v40l253 365h-221q-8 0 -9.5 1.5t-1.5 9.5 v41q0 7 1.5 9t9.5 2h304q7 0 9 -2t2 -9v-42l-249 -362h249q11 0 11 -6z"/>
    <glyph glyph-name="florin" unicode="ƒ" d="M548 690q0 -2 -1 -4l-1 -3l-18 -43q-2 -5 -7 -5q-2 0 -6 2q-47 19 -84 19q-36 0 -54 -19t-28 -69l-18 -84h131q14 0 14 -8q0 -1 -3 -8l-13 -36q-4 -10 -15 -10h-128l-97 -450q-20 -92 -65 -134t-125 -42q-33 0 -55.5 5.5t-22.5 13.5q0 1 2 6l15 47q2 5 5 5q4 0 6 -1 q23 -9 58 -9q43 0 68.5 27t38.5 86l97 446h-65q-13 0 -13 8q0 5 1 7l7 35q1 6 2 8t3.5 3t8.5 1h72l20 93q15 73 47 103q42 40 114 40q35 0 72 -10t37 -20z"/>
    <glyph glyph-name="AEacute" unicode="Ǽ" horiz-adv-x="685" d="M654 678q0 -2 -2 -8l-15 -43q-4 -12 -17 -12h-220v-225h196q9 0 11.5 -2.5t2.5 -11.5v-39q0 -9 -2.5 -11.5t-11.5 -2.5h-196v-252h239q9 0 11.5 -2.5t2.5 -11.5v-43q0 -9 -2.5 -11.5t-11.5 -2.5h-307q-9 0 -11.5 2.5t-2.5 11.5v192h-183l-89 -195q-6 -11 -16 -11h-60 q-14 0 -14 8q0 2 3 9l315 659q4 10 16 10h350q14 0 14 -8zM319 632q-16 -47 -50 -122l-107 -235h156v228v32v37q0 34 1 60zM505 836q0 -3 -9 -8l-164 -85q-7 -4 -10 -4t-9 8l-10 15q-4 7 -4 10q0 4 8 9l145 111q6 5 10 5t10 -8l29 -42q4 -7 4 -11z"/>
    <glyph glyph-name="aeacute" unicode="ǽ" horiz-adv-x="708" d="M676 249q0 -19 -13 -19h-285q3 -80 30 -122q37 -56 100 -56q53 0 115 37q5 4 10 4t8 -5l18 -39q2 -6 2 -8q0 -8 -37 -26q-61 -29 -121 -29q-50 0 -86 18t-69 61q-81 -75 -173 -75q-62 0 -98 36.5t-36 100.5q0 163 267 167v40q0 47 -22 68t-71 21q-44 0 -115 -29 q-6 -2 -9 -2q-4 0 -6 5l-14 39l-2 9q0 14 54 30.5t100 15.5q47 -1 78 -15t56 -47q56 65 140 65q86 0 132.5 -63.5t46.5 -181.5zM594 292q-13 141 -106 141q-59 0 -86 -49q-18 -30 -22 -92h214zM308 110v122q-103 -3 -146.5 -26t-43.5 -74q0 -35 20.5 -57t53.5 -22 q58 0 116 57zM499 632q0 -3 -9 -8l-164 -85q-7 -4 -10 -4t-9 8l-10 15q-4 7 -4 10q0 4 8 9l145 111q6 5 10 5t10 -8l29 -42q4 -7 4 -11z"/>
    <glyph glyph-name="Oslashacute" unicode="Ǿ" horiz-adv-x="556" d="M503 344q0 -175 -58.5 -266.5t-171.5 -91.5q-77 0 -130 46l-33 -64q-4 -9 -9 -9t-9 3l-29 14q-10 5 -10 9q0 3 4 10l46 89q-51 95 -51 256q0 177 58.5 268.5t171.5 91.5q66 0 119 -37l34 66q5 9 9 9q3 0 9 -3l30 -15q9 -4 9 -8q0 -7 -3 -10l-45 -87q59 -92 59 -271z M364 600q-32 33 -84 33q-77 0 -111 -68.5t-34 -224.5q0 -86 13 -175zM420 344q0 124 -18 196l-219 -442q32 -45 92 -45q77 0 111 67.5t34 223.5zM411 836q0 -3 -9 -8l-164 -85q-7 -4 -10 -4t-9 8l-10 15q-4 7 -4 10q0 4 8 9l145 111q6 5 10 5t10 -8l29 -42q4 -7 4 -11z"/>
    <glyph glyph-name="oslashacute" unicode="ǿ" d="M449 243q0 -121 -54 -189t-151 -68q-52 0 -93 22l-30 -56q-3 -7 -7 -7q-3 0 -8 3l-32 16q-7 5 -7 8t3 8l36 66q-55 68 -55 192q0 121 53.5 188.5t149.5 67.5q51 0 92 -21l28 51q3 7 7 7q2 0 8 -2l31 -17q8 -4 8 -8q0 -1 -3 -7l-33 -61q57 -66 57 -193zM375 250 q0 72 -21 129l-163 -313q27 -17 61 -17q61 0 90 42q33 50 33 159zM309 415q-26 16 -59 16q-124 0 -124 -188q0 -78 20 -141zM383 632q0 -3 -9 -8l-164 -85q-7 -4 -10 -4t-9 8l-10 15q-4 7 -4 10q0 4 8 9l145 111q6 5 10 5t10 -8l29 -42q4 -7 4 -11z"/>
    <glyph glyph-name="Scommaaccent" unicode="Ș" horiz-adv-x="482" d="M438 182q0 -88 -58 -142t-152 -54q-56 0 -122.5 21t-66.5 39q0 4 2 8l19 48q2 5 7 5q4 0 17 -7q76 -42 145 -42q55 0 88.5 31t33.5 82q0 46 -25.5 76t-99.5 73q-62 36 -85 52t-41 36q-40 46 -40 111q0 80 55 130.5t142 50.5q50 0 108.5 -19t58.5 -35q0 -2 -2 -8l-18 -45 q-3 -6 -8 -6q-3 0 -43 20q-47 22 -97 22q-52 0 -81 -26t-29 -73q0 -54 40 -85q22 -17 120 -75q45 -26 64 -42t35 -38q33 -45 33 -108zM279 -76l-78 -152q-9 -15 -18 -15q-5 0 -12 3q-16 5 -16 15q0 2 2 12l40 145q5 17 22 17h45q21 0 21 -10q0 -6 -6 -15z"/>
    <glyph glyph-name="scommaaccent" unicode="ș" horiz-adv-x="389" d="M348 128q0 -64 -44 -103t-115 -39q-81 0 -148 39q-6 4 -6 9q0 2 1 4l19 44q2 4 6 4q2 0 8 -2q68 -34 122 -34q36 0 58 20t22 52q0 25 -14.5 42t-49.5 34q-85 39 -112 62q-46 37 -46 95q0 61 42.5 100t109.5 39q39 0 84 -14.5t45 -27.5q0 -2 -2 -7l-18 -37q-4 -6 -9 -6 l-8 2q-55 26 -94 26q-36 0 -56 -17.5t-20 -49.5q0 -31 20 -49q10 -10 23.5 -17t81.5 -40q56 -27 78 -55.5t22 -73.5zM240 -75l-78 -152q-9 -15 -18 -15q-4 0 -12 3q-16 5 -16 15q0 2 2 12l40 145q5 17 22 17h45q21 0 21 -10q0 -6 -6 -15z"/>
    <glyph glyph-name="Tcommaaccent" unicode="Ț" horiz-adv-x="407" d="M422 679q0 -4 -1 -6l-1 -3l-15 -43q-3 -11 -15 -11h-144v-602q0 -9 -2.5 -11.5t-11.5 -2.5h-54q-9 0 -11.5 2.5t-2.5 11.5v602h-146q-9 0 -11.5 2.5t-2.5 11.5v42q0 9 2.5 11.5t11.5 2.5h390q14 0 14 -7zM249 -75l-78 -152q-9 -15 -18 -15q-5 0 -12 3q-16 5 -16 15 q0 2 2 12l40 145q5 17 22 17h45q21 0 21 -10q0 -6 -6 -15z"/>
    <glyph glyph-name="tcommaaccent" unicode="ț" horiz-adv-x="333" d="M343 30q0 -12 -46 -26t-84 -14q-80 0 -109 56q-13 26 -13 90v282h-71q-8 0 -10 1.5t-2 9.5v39q0 8 2 10t10 2h71v137q0 10 10 13l52 14q5 2 6 2q7 0 7 -12v-154h150q9 0 9 -7q0 -2 -1 -6l-11 -39q-3 -10 -14 -10h-133v-282q0 -48 10 -61q15 -20 50 -20q32 0 90 25 q4 2 7 2q5 0 7 -6l11 -41q2 -4 2 -5zM251 -76l-78 -152q-9 -15 -18 -15q-5 0 -12 3q-16 5 -16 15q0 2 2 12l40 145q5 17 22 17h45q21 0 21 -10q0 -6 -6 -15z"/>
    <glyph glyph-name="circumflex" unicode="ˆ" d="M377 572q0 -3 -5 -10l-13 -18q-4 -5 -8 -5q-2 0 -9 4l-92 59l-92 -59q-7 -4 -9 -4q-3 0 -10 7l-11 16q-5 8 -5 10q0 4 7 10l111 87q5 5 9 5t9 -5l111 -87q7 -7 7 -10z"/>
    <glyph glyph-name="caron" unicode="ˇ" d="M377 636q0 -3 -7 -9l-111 -88q-5 -5 -9 -5q-2 0 -9 5l-111 88q-7 6 -7 9q0 4 5 10l13 18q4 5 8 5q2 0 9 -4l92 -59l92 59q6 4 9 4q4 0 10 -7l11 -16q5 -6 5 -10z"/>
    <glyph glyph-name="uni02C9" unicode="ˉ" d="M141 625h217q9 0 11.5 -2.5t2.5 -11.5v-35q0 -9 -2.5 -11.5t-11.5 -2.5h-217q-9 0 -11.5 2.5t-2.5 11.5v35q0 9 2.5 11.5t11.5 2.5z"/>
    <glyph glyph-name="breve" unicode="˘" d="M379 652q0 -28 -29 -67q-34 -46 -100 -46q-77 0 -111 59q-18 32 -18 54q0 11 11 12l39 7h4q7 0 10 -10q13 -69 64 -69q27 0 42.5 16t22.5 53q2 10 11 10h4l39 -7q11 -1 11 -12z"/>
    <glyph glyph-name="dotaccent" unicode="˙" d="M312 604q0 -26 -18 -44t-44 -18t-44.5 18.5t-18.5 44.5t18.5 44t45.5 18q25 0 43 -18.5t18 -44.5z"/>
    <glyph glyph-name="ring" unicode="˚" d="M339 628q0 -37 -26 -63t-63 -26t-63 26.5t-26 63.5t26.5 62.5t64.5 25.5q35 0 61 -26t26 -63zM293 628q0 18 -13 30.5t-31 12.5q-17 0 -29.5 -13t-12.5 -30q0 -18 12.5 -30.5t30.5 -12.5t30.5 12.5t12.5 30.5z"/>
    <glyph glyph-name="ogonek" unicode="˛" d="M336 -147q0 -10 -28 -21t-54 -11q-41 0 -65 21.5t-24 59.5q0 25 11 47t45 66l85 21q-82 -93 -82 -129q0 -34 34 -34q24 0 56 20q4 2 6 2q3 0 4 -6l10 -28q2 -6 2 -8z"/>
    <glyph glyph-name="tilde" unicode="˜" d="M398 635q0 -13 -27 -48q-25 -31 -66 -31q-23 0 -60 21q-33 19 -51 19q-26 0 -43 -30q-4 -8 -9 -8l-6 1l-27 12q-8 3 -8 9q0 14 28 48q25 30 63 30q26 0 83 -32q16 -8 28 -8q31 0 45 30q4 8 9 8l7 -1l27 -12q7 -3 7 -8z"/>
    <glyph glyph-name="hungarumlaut" unicode="˝" d="M453 661q0 -3 -7 -10l-127 -112q-5 -5 -9 -5t-10 6l-11 9q-6 7 -6 11q0 3 5 8l105 132q5 7 10 7q3 0 9 -5l34 -31q7 -6 7 -10zM317 661q0 -3 -7 -10l-127 -112q-5 -5 -9 -5q-2 0 -10 6l-10 9q-7 7 -7 10q0 4 5 9l105 132q6 7 10 7q3 0 9 -5l34 -31q7 -6 7 -10z"/>
    <glyph glyph-name="uni03A9" unicode="Ω" horiz-adv-x="709" d="M654 0h-230v68q145 128 145 308q0 117 -56.5 191t-159.5 74q-99 0 -160 -74t-61 -192q0 -183 146 -307v-68h-230v68h152q-154 123 -154 320q0 140 86 232t222 92q141 0 220.5 -89t79.5 -233q0 -106 -45 -188.5t-109 -133.5h154v-68z"/>
    <glyph glyph-name="uni03BC" unicode="μ" d="M451 23q0 -1 -4 -5l-45 -29q-4 -3 -7 -3q-6 0 -17 18t-18 42q-74 -60 -140 -60q-40 0 -72 20v-190q0 -10 -9 -13l-53 -14q-2 -1 -6 -1q-7 0 -7 11v666q0 10 10 13l52 14q4 1 6 1q7 0 7 -11v-312q0 -66 15.5 -91t56.5 -25q65 0 126 51v360q0 10 10 13l53 14q4 1 6 1 q7 0 7 -11v-349q0 -65 26 -103q3 -4 3 -7z"/>
    <glyph glyph-name="pi" unicode="π" horiz-adv-x="650" d="M588 63l16 -55q-26 -15 -69 -15q-62 0 -91.5 37t-29.5 97v310h-175v-301q0 -85 -14 -136h-83q16 57 16 141v296q-53 0 -101 -23q-7 19 -23 57q56 29 144 29h423v-63h-106v-301q0 -80 61 -80q14 0 32 7z"/>
    <glyph glyph-name="Wgrave" unicode="Ẁ" horiz-adv-x="685" d="M663 672q0 -3 -1 -4v-4l-138 -652q-2 -12 -15 -12h-66q-8 0 -10 2t-4 10l-86 553l-104 -553q-2 -12 -15 -12h-61q-8 0 -11 2t-4 10l-125 654q-1 6 -1 8q0 5 12 8l52 10q6 1 8 1q6 0 8 -12l86 -494q6 -37 9 -125q9 104 12 122l97 490q2 12 15 12h53q9 0 11 -2t4 -10 l82 -494q6 -33 11 -122q3 90 9 122l92 501q3 12 9 12q3 0 7 -1l52 -11q12 -3 12 -9zM397 774q0 -2 -5 -9l-12 -17q-2 -5 -7 -5q-4 0 -10 3l-163 85q-9 5 -9 10q0 3 4 9l29 42q5 8 10 8q3 0 10 -5l145 -111q8 -6 8 -10z"/>
    <glyph glyph-name="wgrave" unicode="ẁ" horiz-adv-x="611" d="M600 469q0 -3 -1 -4l-1 -3l-132 -459q-2 -7 -3.5 -8.5t-8.5 -1.5h-39q-10 0 -12 10l-79 303q-3 11 -8 43l-2 15l-3 21q-5 -47 -15 -78l-94 -305q-3 -9 -13 -9h-37q-10 0 -12 10l-115 459q-1 4 -1 6q0 7 9 8l51 13q4 1 6 1q7 0 8 -10l68 -331l3 -16q0 -1 7 -39 q13 54 13 55l95 324q2 9 12 9h40q8 0 9 -1t3 -8l82 -337l3 -12l2 -16l2 -11l3 14l5 25l85 344q3 9 8 9l6 -1l46 -11q10 -3 10 -8zM371 565q0 -1 -5 -9l-12 -17q-2 -5 -7 -5q-4 0 -10 3l-163 85q-9 5 -9 10q0 3 4 9l29 42q5 8 10 8q3 0 10 -5l145 -111q8 -6 8 -10z"/>
    <glyph glyph-name="Wacute" unicode="Ẃ" horiz-adv-x="685" d="M663 672q0 -3 -1 -4v-4l-138 -652q-2 -12 -15 -12h-66q-8 0 -10 2t-4 10l-86 553l-104 -553q-2 -12 -15 -12h-61q-8 0 -11 2t-4 10l-125 654q-1 6 -1 8q0 5 12 8l52 10q6 1 8 1q6 0 8 -12l86 -494q6 -37 9 -125q9 104 12 122l97 490q2 12 15 12h53q9 0 11 -2t4 -10 l82 -494q6 -33 11 -122q3 90 9 122l92 501q3 12 9 12q3 0 7 -1l52 -11q12 -3 12 -9zM493 841q0 -3 -9 -8l-164 -85q-7 -4 -10 -4t-9 8l-10 15q-4 7 -4 10q0 4 8 9l145 111q6 5 10 5t10 -8l29 -42q4 -7 4 -11z"/>
    <glyph glyph-name="wacute" unicode="ẃ" horiz-adv-x="611" d="M600 469q0 -3 -1 -4l-1 -3l-132 -459q-2 -7 -3.5 -8.5t-8.5 -1.5h-39q-10 0 -12 10l-79 303q-3 11 -8 43l-2 15l-3 21q-5 -47 -15 -78l-94 -305q-3 -9 -13 -9h-37q-10 0 -12 10l-115 459q-1 4 -1 6q0 7 9 8l51 13q4 1 6 1q7 0 8 -10l68 -331l3 -16q0 -1 7 -39 q13 54 13 55l95 324q2 9 12 9h40q8 0 9 -1t3 -8l82 -337l3 -12l2 -16l2 -11l3 14l5 25l85 344q3 9 8 9l6 -1l46 -11q10 -3 10 -8zM467 632q0 -3 -9 -8l-164 -85q-7 -4 -10 -4t-9 8l-10 15q-4 7 -4 10q0 4 8 9l145 111q6 5 10 5t10 -8l29 -42q4 -7 4 -11z"/>
    <glyph glyph-name="Wdieresis" unicode="Ẅ" horiz-adv-x="685" d="M663 672q0 -3 -1 -4v-4l-138 -652q-2 -12 -15 -12h-66q-8 0 -10 2t-4 10l-86 553l-104 -553q-2 -12 -15 -12h-61q-8 0 -11 2t-4 10l-125 654q-1 6 -1 8q0 5 12 8l52 10q6 1 8 1q6 0 8 -12l86 -494q6 -37 9 -125q9 104 12 122l97 490q2 12 15 12h53q9 0 11 -2t4 -10 l82 -494q6 -33 11 -122q3 90 9 122l92 501q3 12 9 12q3 0 7 -1l52 -11q12 -3 12 -9zM494 816q0 -22 -16 -37.5t-38 -15.5t-37.5 16t-15.5 38t16 37.5t38 15.5t37.5 -16t15.5 -38zM297 816q0 -22 -15.5 -37.5t-37.5 -15.5t-38 15.5t-16 38.5q0 22 16 37.5t38 15.5t37.5 -16 t15.5 -38z"/>
    <glyph glyph-name="wdieresis" unicode="ẅ" horiz-adv-x="611" d="M600 469q0 -3 -1 -4l-1 -3l-132 -459q-2 -7 -3.5 -8.5t-8.5 -1.5h-39q-10 0 -12 10l-79 303q-3 11 -8 43l-2 15l-3 21q-5 -47 -15 -78l-94 -305q-3 -9 -13 -9h-37q-10 0 -12 10l-115 459q-1 4 -1 6q0 7 9 8l51 13q4 1 6 1q7 0 8 -10l68 -331l3 -16q0 -1 7 -39 q13 54 13 55l95 324q2 9 12 9h40q8 0 9 -1t3 -8l82 -337l3 -12l2 -16l2 -11l3 14l5 25l85 344q3 9 8 9l6 -1l46 -11q10 -3 10 -8zM468 607q0 -22 -16 -37.5t-38 -15.5t-37.5 16t-15.5 38t16 37.5t38 15.5t37.5 -16t15.5 -38zM271 607q0 -22 -15.5 -37.5t-37.5 -15.5t-38 16 t-16 38t16 37.5t38 15.5t37.5 -16t15.5 -38z"/>
    <glyph glyph-name="Ygrave" unicode="Ỳ" horiz-adv-x="426" d="M450 669q0 -5 -3 -10l-190 -368v-277q0 -9 -2.5 -11.5t-11.5 -2.5h-54q-9 0 -11.5 2.5t-2.5 11.5v275l-196 369q-3 9 -3 10q0 5 11 8l60 16l4 1q2 1 4 1q5 0 10 -10l126 -260q14 -27 27 -62q12 33 27 63l122 259q5 9 10 9q4 0 8 -1l54 -15q11 -3 11 -8zM268 774 q0 -2 -5 -9l-12 -17q-3 -5 -7 -5t-10 3l-163 85q-9 5 -9 10q0 3 4 9l29 42q5 8 10 8q3 0 10 -5l145 -111q8 -6 8 -10z"/>
    <glyph glyph-name="ygrave" unicode="ỳ" horiz-adv-x="426" d="M421 461q0 -2 -1 -6l-114 -393q-39 -133 -66 -192q-39 -82 -121 -82q-36 0 -81 18t-45 33q0 4 2 6l20 40q2 5 7 5q2 0 7 -3q52 -36 88 -36q49 0 77 86l21 63h-40q-9 0 -12 9l-157 444q-2 4 -2 7q0 5 9 8l54 19l8 1q4 0 7 -9l128 -378q8 -24 20 -72q8 36 17 70l98 382 q4 8 10 8q1 0 5 -1l52 -19q9 -3 9 -8zM268 565q0 -1 -5 -9l-12 -17q-3 -5 -7 -5t-10 3l-163 85q-9 5 -9 10q0 3 4 9l29 42q5 8 10 8q3 0 10 -5l145 -111q8 -6 8 -10z"/>
    <glyph glyph-name="endash" unicode="–" d="M53 289h395q9 0 11.5 -2.5t2.5 -11.5v-39q0 -9 -2.5 -11.5t-11.5 -2.5h-395q-9 0 -11.5 2.5t-2.5 11.5v39q0 9 2.5 11.5t11.5 2.5z"/>
    <glyph glyph-name="emdash" unicode="—" horiz-adv-x="778" d="M51 288h676q9 0 11.5 -2.5t2.5 -11.5v-37q0 -10 -2 -12t-12 -2h-676q-9 0 -11.5 2.5t-2.5 11.5v37q0 9 2.5 11.5t11.5 2.5z"/>
    <glyph glyph-name="quoteleft" unicode="‘" horiz-adv-x="241" d="M194 695q0 -2 -1 -4l-1 -4l-59 -200q-3 -11 -15 -11h-80q-14 0 -14 7q0 5 4 10l115 212q5 9 9 9q1 0 2 -0.5t3 -1t4 -0.5l22 -8q11 -4 11 -9z"/>
    <glyph glyph-name="quoteright" unicode="’" horiz-adv-x="241" d="M217 699q0 -2 -4 -9l-115 -212q-6 -9 -9 -9q-2 0 -9 2l-22 8q-11 4 -11 9q0 1 2 8l58 200q5 11 15 11h81q14 0 14 -8z"/>
    <glyph glyph-name="quotesinglbase" unicode="‚" horiz-adv-x="241" d="M217 107q0 -3 -4 -10l-115 -212q-4 -9 -10 -9q-2 0 -8 2l-22 8q-11 4 -11 9q0 1 2 8l58 200q3 11 15 11h81q14 0 14 -7z"/>
    <glyph glyph-name="quotedblleft" unicode="“" horiz-adv-x="408" d="M360 695l-2 -8l-58 -200q-3 -11 -15 -11h-81q-13 0 -13 7q0 4 3 10l116 212q4 9 9 9q3 0 8 -2l22 -8q11 -4 11 -9zM194 695q0 -2 -1 -4l-1 -4l-59 -200q-3 -11 -15 -11h-80q-14 0 -14 7q0 5 4 10l115 212q5 9 10 9q2 0 8 -2l22 -8q11 -4 11 -9z"/>
    <glyph glyph-name="quotedblright" unicode="”" horiz-adv-x="408" d="M383 700q0 -1 -3 -10l-116 -212q-5 -9 -9 -9q-3 0 -8 2l-23 8q-10 4 -10 9q0 4 2 8l58 200q3 11 15 11h81q13 0 13 -7zM217 699q0 -2 -4 -9l-115 -212q-6 -9 -9 -9q-2 0 -9 2l-22 8q-11 4 -11 9q0 1 2 8l58 200q5 11 15 11h81q14 0 14 -8z"/>
    <glyph glyph-name="quotedblbase" unicode="„" horiz-adv-x="408" d="M383 107q0 -1 -3 -10l-116 -212q-4 -9 -9 -9q-2 0 -8 2l-23 8q-10 4 -10 9q0 4 2 8l58 200q3 11 15 11h81q13 0 13 -7zM217 107q0 -3 -4 -10l-115 -212q-4 -9 -10 -9q-2 0 -8 2l-22 8q-11 4 -11 9q0 1 2 8l58 200q3 11 15 11h81q14 0 14 -7z"/>
    <glyph glyph-name="dagger" unicode="†" d="M212 460v212q0 9 2.5 11.5t11.5 2.5h47q9 0 11.5 -2.5t2.5 -11.5v-212h118q9 0 11.5 -2.5t2.5 -11.5v-44q0 -9 -2.5 -11.5t-11.5 -2.5h-118v-586q0 -9 -2.5 -11.5t-11.5 -2.5h-47q-9 0 -11.5 2.5t-2.5 11.5v586h-117q-9 0 -11.5 2.5t-2.5 11.5v44q0 9 2.5 11.5t11.5 2.5 h117z"/>
    <glyph glyph-name="daggerdbl" unicode="‡" d="M213 460v212q0 9 2.5 11.5t11.5 2.5h46q9 0 11.5 -2.5t2.5 -11.5v-212h118q10 0 12 -2.5t2 -14.5v-38q0 -9 -2.5 -11.5t-11.5 -2.5h-118v-302h118q9 0 11.5 -2.5t2.5 -11.5v-40q0 -9 -2.5 -11.5t-11.5 -2.5h-118v-219q0 -9 -2.5 -11.5t-11.5 -2.5h-46q-9 0 -11.5 2.5 t-2.5 11.5v219h-118q-9 0 -11.5 2.5t-2.5 11.5v40q0 9 2.5 11.5t11.5 2.5h118v302h-118q-9 0 -11.5 2.5t-2.5 11.5v41q0 9 2.5 11.5t11.5 2.5h118z"/>
    <glyph glyph-name="bullet" unicode="•" d="M393 348q0 -58 -41.5 -100t-100.5 -42t-101.5 42t-42.5 100q0 60 41.5 101.5t102.5 41.5q58 0 100 -42t42 -101z"/>
    <glyph glyph-name="ellipsis" unicode="…" horiz-adv-x="889" d="M812 57q0 -29 -20.5 -50t-49.5 -21q-30 0 -50.5 21t-20.5 50t21 49.5t51 20.5q28 0 48.5 -21t20.5 -49zM515 57q0 -29 -20.5 -50t-49.5 -21q-30 0 -50.5 21t-20.5 50t21 49.5t51 20.5q28 0 48.5 -21t20.5 -49zM219 57q0 -29 -20.5 -50t-49.5 -21q-30 0 -50.5 20.5 t-20.5 50.5q0 29 21 49.5t51 20.5q28 0 48.5 -21t20.5 -49z"/>
    <glyph glyph-name="perthousand" unicode="‰" horiz-adv-x="1111" d="M1077 168q0 -84 -36 -131t-100 -47q-62 0 -95.5 42.5t-33.5 120.5q0 85 36.5 131.5t101.5 46.5q60 0 93.5 -43t33.5 -120zM735 168q0 -84 -36 -131t-101 -47q-62 0 -95.5 42.5t-33.5 120.5q0 85 36.5 131.5t101.5 46.5q61 0 94.5 -43t33.5 -120zM557 652q0 -2 -3 -8 l-272 -653q-4 -10 -19 -10h-38q-13 0 -13 7q0 5 2 9l273 653q3 10 15 10h41q14 0 14 -8zM299 490q0 -84 -36 -131t-100 -47q-62 0 -95.5 42.5t-33.5 121.5q0 84 36 130.5t102 46.5q60 0 93.5 -43t33.5 -120zM1011 163q0 113 -64 113q-33 0 -51 -31t-18 -88q0 -112 63 -112 q70 0 70 118zM669 163q0 113 -65 113q-33 0 -51 -31t-18 -88q0 -112 64 -112q70 0 70 118zM233 485q0 113 -64 113q-33 0 -51 -31t-18 -88q0 -112 64 -112q33 0 51 30.5t18 87.5z"/>
    <glyph glyph-name="guilsinglleft" unicode="‹" horiz-adv-x="296" d="M273 40q0 -4 -9 -10l-28 -15q-6 -3 -9 -3q-5 0 -9 7l-168 211q-4 6 -4 10q0 3 4 9l168 211q4 7 10 7q4 0 8 -3l28 -15q9 -5 9 -9q0 -3 -4 -10l-129 -190l129 -191q4 -6 4 -9z"/>
    <glyph glyph-name="guilsinglright" unicode="›" horiz-adv-x="296" d="M250 239q0 -5 -4 -9l-167 -211q-6 -7 -11 -7q-2 0 -8 3l-28 15q-9 5 -9 9t5 10l128 190l-128 191q-5 7 -5 9q0 5 9 10l28 15q6 3 9 3q4 0 9 -7l168 -211q4 -4 4 -10z"/>
    <glyph glyph-name="fraction" unicode="⁄" horiz-adv-x="130" d="M232 652q0 -2 -3 -8l-272 -653q-4 -10 -19 -10h-37q-14 0 -14 8q0 2 3 8l272 653q4 10 15 10h41q14 0 14 -8z"/>
    <glyph glyph-name="zero.superior" unicode="⁰" horiz-adv-x="352" d="M315 629q0 -205 -140 -205q-74 0 -105.5 55.5t-31.5 141.5q0 99 37.5 152.5t106.5 53.5q133 0 133 -198zM249 628q0 145 -71 145q-35 0 -54.5 -38t-19.5 -110q0 -71 15 -109t57 -38q43 0 58 33.5t15 116.5z"/>
    <glyph glyph-name="four.superior" unicode="⁴" horiz-adv-x="352" d="M204 566l7 87q1 14 16 14h24q9 0 12 -3t3 -12v-86h46q9 0 12 -3t3 -12v-22q0 -9 -3 -12t-12 -3h-46v-75q0 -9 -3 -12t-12 -3h-32q-9 0 -12 3t-3 12v75h-163q-9 0 -12 3t-3 12v35l172 251q5 8 12 8q1 0 5 -1l33 -4q14 -1 14 -10q0 -6 -4 -11l-161 -231h107z"/>
    <glyph glyph-name="five.superior" unicode="⁵" horiz-adv-x="352" d="M300 563q0 -65 -41 -102t-111 -37q-44 0 -82 9q-14 4 -14 14q0 4 1 6l6 27q5 9 15 9l3 -1h3q27 -10 61 -10q47 0 70 20t23 64q0 33 -15.5 51.5t-43.5 18.5q-35 0 -69 -30q-5 -7 -12 -7l-7 1l-22 6q-12 4 -12 12v5l20 188q2 12 16 12h166q10 0 13 -2.5t3 -11.5v-25 q0 -9 -3 -12t-13 -3h-126q-2 -19 -6.5 -48t-6.5 -49q30 18 68 18q52 0 84 -34t32 -89z"/>
    <glyph glyph-name="six.superior" unicode="⁶" horiz-adv-x="352" d="M306 566q0 -65 -36 -103.5t-95 -38.5q-66 0 -97 46.5t-31 117.5q0 111 49.5 175t133.5 64q22 0 42.5 -6t20.5 -13t-1 -9l-8 -25q-2 -7 -10 -7q-3 0 -21 6q-11 3 -25 3q-41 0 -70 -29t-38 -72q17 17 31 21.5t40 4.5q52 0 83.5 -36.5t31.5 -98.5zM240 566q0 81 -65 81 q-62 0 -62 -80q0 -89 63 -89q64 0 64 88z"/>
    <glyph glyph-name="seven.superior" unicode="⁷" horiz-adv-x="352" d="M296 791l-149 -357q-5 -10 -17 -10l-36 4q-12 7 -12 8q-1 1 -1 4q0 4 3 8v-1l135 317h-156q-9 0 -12.5 3t-3.5 12v26q0 9 3.5 11.5t12.5 2.5h217q9 0 12.5 -2.5t3.5 -11.5v-14z"/>
    <glyph glyph-name="eight.superior" unicode="⁸" horiz-adv-x="352" d="M317 532q-2 -52 -41.5 -80t-99.5 -28q-65 0 -103 28t-38 80q0 36 23 64.5t59 40.5q-64 33 -64 93q0 47 36 72t88 25q55 0 88.5 -24.5t33.5 -67.5q0 -62 -64 -97q82 -34 82 -106zM251 529q0 25 -17.5 42.5t-58.5 34.5q-74 -23 -74 -77q0 -26 20.5 -40t55.5 -14q34 0 54 14 t20 40zM236 730q0 47 -61 47q-27 0 -42.5 -12t-15.5 -34q0 -40 60 -68q59 25 59 67z"/>
    <glyph glyph-name="nine.superior" unicode="⁹" horiz-adv-x="352" d="M44 685q0 65 36 103.5t95 38.5q66 0 97 -46.5t31 -117.5q0 -111 -49.5 -175t-133.5 -64q-22 0 -42.5 6t-20.5 13t1 9l8 25q2 7 10 7q3 0 21 -6q11 -3 25 -3q41 0 70 29t38 72q-17 -17 -31 -21.5t-40 -4.5q-52 0 -83.5 36.5t-31.5 98.5zM110 685q0 -81 65 -81q62 0 62 80 q0 89 -63 89q-64 0 -64 -88z"/>
    <glyph glyph-name="zero.inferior" unicode="₀" horiz-adv-x="352" d="M315 32q0 -205 -140 -205q-74 0 -105.5 55.5t-31.5 141.5q0 99 37.5 152.5t106.5 53.5q133 0 133 -198zM249 31q0 145 -71 145q-35 0 -54.5 -38t-19.5 -110q0 -71 15 -109t57 -38q43 0 58 33.5t15 116.5z"/>
    <glyph glyph-name="one.inferior" unicode="₁" horiz-adv-x="352" d="M168 -113v266l-70 -35q-3 -3 -10 -3q-5 0 -11 8l-7 13q-3 4 -3 9t8 11l105 66h35q9 0 12 -3t3 -12v-320h52q9 0 12 -3t3 -12v-22q0 -9 -3 -12t-12 -3h-176q-9 0 -12 3t-3 12v22q0 9 3 12t12 3h62z"/>
    <glyph glyph-name="two.inferior" unicode="₂" horiz-adv-x="352" d="M122 -103h154q19 0 19 -18v-26q0 -18 -19 -18h-206q-19 0 -19 18q0 58 22 102q15 29 33 47.5t58 43.5q38 24 50 39t12 37q0 24 -13.5 37.5t-37.5 13.5q-23 0 -36 -11.5t-25 -42.5q-2 -6 -5 -9.5t-7 -2.5l-10 1l-27 7q-12 5 -12 14q0 26 27 58q36 42 98 42q53 0 85 -28.5 t32 -76.5q0 -39 -20.5 -66.5t-76.5 -63.5q-67 -42 -76 -97z"/>
    <glyph glyph-name="three.inferior" unicode="₃" horiz-adv-x="352" d="M302 -54q0 -54 -40 -86.5t-107 -32.5q-39 0 -76 10t-37 21q0 5 2 9l13 26q4 8 10 8q2 0 17 -6q31 -13 73 -13q38 0 58.5 17.5t20.5 48.5q0 64 -89 64h-23q-9 0 -12 3t-3 12v23q0 9 3 12t12 3h23q36 0 57 17t21 46q0 23 -16 36.5t-42 13.5q-33 0 -70 -33q-5 -5 -9 -5t-9 3 l-23 19q-5 3 -5 7q0 15 35 37q37 24 83 24q53 0 86 -28t33 -73q0 -52 -53 -85q67 -29 67 -98z"/>
    <glyph glyph-name="four.inferior" unicode="₄" horiz-adv-x="352" d="M204 -31l7 87q1 14 16 14h24q9 0 12 -3t3 -12v-86h46q9 0 12 -3t3 -12v-22q0 -9 -3 -12t-12 -3h-46v-75q0 -9 -3 -12t-12 -3h-32q-9 0 -12 3t-3 12v75h-163q-9 0 -12 3t-3 12v35l172 251q5 8 12 8q1 0 5 -1l33 -4q14 -1 14 -10q0 -6 -4 -11l-161 -231h107z"/>
    <glyph glyph-name="five.inferior" unicode="₅" horiz-adv-x="352" d="M300 -34q0 -65 -41 -102t-111 -37q-44 0 -82 9q-14 4 -14 14q0 4 1 6l6 27q5 9 15 9h3l3 -1q27 -10 61 -10q47 0 70 20t23 64q0 33 -15.5 51.5t-43.5 18.5q-35 0 -69 -30q-5 -7 -12 -7l-7 1l-22 6q-12 4 -12 12v5l20 188q2 12 16 12h166q10 0 13 -2.5t3 -11.5v-25 q0 -9 -3 -12t-13 -3h-126q-2 -19 -6.5 -48t-6.5 -49q30 18 68 18q52 0 84 -34t32 -89z"/>
    <glyph glyph-name="six.inferior" unicode="₆" horiz-adv-x="352" d="M306 -31q0 -65 -36 -103.5t-95 -38.5q-66 0 -97 46.5t-31 117.5q0 111 49.5 175t133.5 64q22 0 42.5 -6t20.5 -13t-1 -9l-8 -25q-2 -7 -10 -7q-3 0 -21 6q-10 3 -25 3q-41 0 -70 -29t-38 -72q17 17 31 21.5t40 4.5q52 0 83.5 -36.5t31.5 -98.5zM240 -31q0 81 -65 81 q-62 0 -62 -80q0 -89 63 -89q64 0 64 88z"/>
    <glyph glyph-name="seven.inferior" unicode="₇" horiz-adv-x="352" d="M296 194l-149 -357q-5 -10 -17 -10l-36 4q-12 7 -12 8q-1 1 -1 4q0 4 3 8v-1l135 317h-156q-9 0 -12.5 3t-3.5 12v26q0 9 3.5 11.5t12.5 2.5h217q9 0 12.5 -2.5t3.5 -11.5v-14z"/>
    <glyph glyph-name="eight.inferior" unicode="₈" horiz-adv-x="352" d="M317 -65q-2 -52 -41.5 -80t-99.5 -28q-65 0 -103 28t-38 80q0 36 23 64.5t59 40.5q-64 33 -64 93q0 47 36 72t88 25q55 0 88.5 -24.5t33.5 -67.5q0 -62 -64 -97q82 -34 82 -106zM251 -68q0 25 -17.5 42.5t-58.5 34.5q-74 -23 -74 -77q0 -26 20.5 -40t55.5 -14q34 0 54 14 t20 40zM236 133q0 47 -61 47q-27 0 -42.5 -12t-15.5 -34q0 -40 60 -68q59 25 59 67z"/>
    <glyph glyph-name="nine.inferior" unicode="₉" horiz-adv-x="352" d="M44 88q0 65 36 103.5t95 38.5q66 0 97 -46.5t31 -117.5q0 -111 -49.5 -175t-133.5 -64q-22 0 -42.5 6t-20.5 13t1 9l8 25q2 7 10 7q3 0 21 -6q11 -3 25 -3q41 0 70 29t38 72q-17 -17 -31 -21.5t-40 -4.5q-52 0 -83.5 36.5t-31.5 98.5zM110 88q0 -81 65 -81q62 0 62 80 q0 89 -63 89q-64 0 -64 -88z"/>
    <glyph glyph-name="Euro" unicode="€" d="M497 58q0 -10 -27 -31q-59 -43 -131 -43q-55 0 -96 22.5t-64.5 61.5t-36.5 83t-18 96h-74q-10 0 -10 6q0 2 2 12l3 15q2 12 14 12h62q0 9 -0.5 21t-0.5 14q0 16 1 29h-71q-10 0 -10 6q0 3 2 11l3 16q2 12 14 12h64q9 110 52 175q25 37 66.5 58.5t90.5 21.5q79 0 145 -53 q15 -12 15 -19q0 -6 -2 -7l-32 -40q-2 -4 -8 -4q-2 0 -33 23q-39 30 -84 30q-52 0 -88 -45.5t-43 -139.5h189q10 0 10 -6q0 -1 -0.5 -4t-0.5 -4l-4 -19q-2 -12 -14 -12h-180q-1 -10 -1 -31q0 -5 0.5 -16t0.5 -17h168q10 0 10 -6q0 -1 -0.5 -4t-0.5 -4l-4 -19q-2 -12 -14 -12 h-157q18 -190 139 -190q58 0 104 45q6 6 11 6q1 0 8 -7l25 -32q6 -8 6 -11z"/>
    <glyph glyph-name="litre" unicode="ℓ" horiz-adv-x="492" d="M405 52q-64 -66 -132 -66q-53 0 -84 33q-37 37 -37 119v109l-59 -63q-10 13 -32 39l91 100v228q0 87 33 132t91 45q50 0 74 -33t24 -74q0 -67 -29 -129t-84 -133q-28 -37 -33 -42v-178q0 -91 63 -91q40 0 85 49zM317 612q0 55 -37 55q-52 0 -52 -111v-158q11 12 20 27 q69 100 69 187z"/>
    <glyph glyph-name="trademark" unicode="™" horiz-adv-x="685" d="M629 305q0 -10 -13 -10h-35q-13 0 -13 11l-9 281l-75 -194q-4 -8 -13 -8h-19q-9 0 -13 8l-72 194l-9 -281q-1 -11 -13 -11h-34q-13 0 -12 12l23 368q1 11 13 11h37q10 0 13 -8l73 -193l2 -6l3 -10q1 4 1.5 7t1.5 5.5t1 3.5l74 193q3 8 13 8h39q12 0 13 -11l23 -368v-2z M277 678q0 -2 -2 -6l-9 -24q-3 -8 -13 -8h-85v-334q0 -11 -13 -11h-33q-13 0 -13 11v334h-86q-13 0 -13 11v24q0 11 13 11h241q13 0 13 -8z"/>
    <glyph glyph-name="Omega" unicode="Ω" horiz-adv-x="709" d="M654 0h-230v68q145 128 145 308q0 117 -56.5 191t-159.5 74q-99 0 -160 -74t-61 -192q0 -183 146 -307v-68h-230v68h152q-154 123 -154 320q0 140 86 232t222 92q141 0 220.5 -89t79.5 -233q0 -106 -45 -188.5t-109 -133.5h154v-68z"/>
    <glyph glyph-name="estimated" unicode="℮" horiz-adv-x="660" d="M613 291h-449v-200q65 -65 159 -65q136 0 215 132q7 -4 19 -11.5l17 -10.5q-49 -73 -107 -110.5t-144 -37.5q-127 0 -205.5 87t-78.5 216q0 130 77.5 217t207.5 87q131 0 208 -86t81 -218zM485 329v162q-69 67 -162 67q-96 0 -159 -66v-163h321z"/>
    <glyph glyph-name="onethird" unicode="⅓" horiz-adv-x="834" d="M168 319v266l-70 -35q-3 -3 -10 -3q-5 0 -11 8l-7 13q-3 4 -3 9t8 11l105 66h35q9 0 12 -3t3 -12v-320h52q9 0 12 -3t3 -12v-22q0 -9 -3 -12t-12 -3h-176q-9 0 -12 3t-3 12v22q0 9 3 12t12 3h62zM584 652q0 -2 -3 -8l-272 -653q-4 -10 -19 -10h-37q-14 0 -14 8q0 2 3 8 l272 653q4 10 15 10h41q14 0 14 -8zM784 111q0 -54 -40 -86.5t-107 -32.5q-39 0 -76 10t-37 21q0 5 2 9l13 26q4 8 10 8q2 0 17 -6q31 -13 73 -13q38 0 58.5 17.5t20.5 48.5q0 64 -89 64h-23q-9 0 -12 3t-3 12v23q0 9 3 12t12 3h23q36 0 57 17t21 46q0 23 -16 36.5t-42 13.5 q-33 0 -70 -33q-5 -5 -9 -5t-9 3l-23 19q-5 3 -5 7q0 15 35 37q38 24 83 24q53 0 86 -28t33 -73q0 -52 -53 -85q67 -29 67 -98z"/>
    <glyph glyph-name="twothirds" unicode="⅔" horiz-adv-x="834" d="M122 329h154q19 0 19 -18v-26q0 -18 -19 -18h-206q-19 0 -19 18q0 58 22 102q15 29 33 47t58 44q38 24 50 39t12 37q0 24 -13.5 37.5t-37.5 13.5q-23 0 -36 -11.5t-25 -42.5q-2 -6 -5 -9.5t-7 -2.5l-10 1l-27 7q-12 5 -12 14q0 26 27 58q36 42 98 42q53 0 85 -28.5 t32 -76.5q0 -39 -20.5 -66.5t-76.5 -63.5q-67 -42 -76 -97zM584 652q0 -2 -3 -8l-272 -653q-4 -10 -19 -10h-37q-14 0 -14 8q0 2 3 8l272 653q4 10 15 10h41q14 0 14 -8zM784 111q0 -54 -40 -86.5t-107 -32.5q-39 0 -76 10t-37 21q0 5 2 9l13 26q4 8 10 8q2 0 17 -6 q31 -13 73 -13q38 0 58.5 17.5t20.5 48.5q0 64 -89 64h-23q-9 0 -12 3t-3 12v23q0 9 3 12t12 3h23q36 0 57 17t21 46q0 23 -16 36.5t-42 13.5q-33 0 -70 -33q-5 -5 -9 -5t-9 3l-23 19q-5 3 -5 7q0 15 35 37q38 24 83 24q53 0 86 -28t33 -73q0 -52 -53 -85q67 -29 67 -98z "/>
    <glyph glyph-name="oneeighth" unicode="⅛" horiz-adv-x="834" d="M168 319v266l-70 -35q-3 -3 -10 -3q-5 0 -11 8l-7 13q-3 4 -3 9t8 11l105 66h35q9 0 12 -3t3 -12v-320h52q9 0 12 -3t3 -12v-22q0 -9 -3 -12t-12 -3h-176q-9 0 -12 3t-3 12v22q0 9 3 12t12 3h62zM584 652q0 -2 -3 -8l-272 -653q-4 -10 -19 -10h-37q-14 0 -14 8q0 2 3 8 l272 653q4 10 15 10h41q14 0 14 -8zM799 100q-2 -52 -41.5 -80t-99.5 -28q-65 0 -103 28t-38 80q0 36 23 64.5t59 40.5q-64 33 -64 93q0 47 36 72t88 25q55 0 88.5 -24.5t33.5 -67.5q0 -62 -64 -97q82 -34 82 -106zM733 97q0 25 -17.5 42.5t-58.5 34.5q-74 -23 -74 -77 q0 -26 20.5 -40t55.5 -14q34 0 54 14t20 40zM718 298q0 47 -61 47q-27 0 -42.5 -12t-15.5 -34q0 -40 60 -68q59 25 59 67z"/>
    <glyph glyph-name="threeeighths" unicode="⅜" horiz-adv-x="834" d="M302 378q0 -54 -40 -86.5t-107 -32.5q-39 0 -76 10t-37 21q0 5 2 9l13 26q4 8 10 8q2 0 17 -6q31 -13 73 -13q38 0 58.5 17.5t20.5 48.5q0 64 -89 64h-23q-9 0 -12 3t-3 12v23q0 9 3 12t12 3h23q36 0 57 17t21 46q0 23 -16 36.5t-42 13.5q-33 0 -70 -33q-5 -5 -9 -5t-9 3 l-23 19q-5 3 -5 7q0 15 35 37q37 24 83 24q53 0 86 -28t33 -73q0 -52 -53 -85q67 -29 67 -98zM584 652q0 -2 -3 -8l-272 -653q-4 -10 -19 -10h-37q-14 0 -14 8q0 2 3 8l272 653q4 10 15 10h41q14 0 14 -8zM799 100q-2 -52 -41.5 -80t-99.5 -28q-65 0 -103 28t-38 80 q0 36 23 64.5t59 40.5q-64 33 -64 93q0 47 36 72t88 25q55 0 88.5 -24.5t33.5 -67.5q0 -62 -64 -97q82 -34 82 -106zM733 97q0 25 -17.5 42.5t-58.5 34.5q-74 -23 -74 -77q0 -26 20.5 -40t55.5 -14q34 0 54 14t20 40zM718 298q0 47 -61 47q-27 0 -42.5 -12t-15.5 -34 q0 -40 60 -68q59 25 59 67z"/>
    <glyph glyph-name="fiveeighths" unicode="⅝" horiz-adv-x="834" d="M300 398q0 -65 -41 -102t-111 -37q-44 0 -82 9q-14 4 -14 14q0 4 1 6l6 27q5 9 15 9h3l3 -1q27 -10 61 -10q47 0 70 20t23 64q0 33 -15.5 51.5t-43.5 18.5q-35 0 -69 -30q-5 -7 -12 -7l-7 1l-22 6q-12 4 -12 12v5l20 188q2 12 16 12h166q10 0 13 -2.5t3 -11.5v-25 q0 -9 -3 -12t-13 -3h-126q-2 -19 -6.5 -48t-6.5 -49q30 18 68 18q52 0 84 -34t32 -89zM584 652q0 -2 -3 -8l-272 -653q-4 -10 -19 -10h-37q-14 0 -14 8q0 2 3 8l272 653q4 10 15 10h41q14 0 14 -8zM799 100q-2 -52 -41.5 -80t-99.5 -28q-65 0 -103 28t-38 80q0 36 23 64.5 t59 40.5q-64 33 -64 93q0 47 36 72t88 25q55 0 88.5 -24.5t33.5 -67.5q0 -62 -64 -97q82 -34 82 -106zM733 97q0 25 -17.5 42.5t-58.5 34.5q-74 -23 -74 -77q0 -26 20.5 -40t55.5 -14q34 0 54 14t20 40zM718 298q0 47 -61 47q-27 0 -42.5 -12t-15.5 -34q0 -40 60 -68 q59 25 59 67z"/>
    <glyph glyph-name="seveneighths" unicode="⅞" horiz-adv-x="834" d="M306 626l-149 -357q-5 -10 -17 -10l-36 4q-12 7 -12 8q-1 1 -1 4q0 4 3 8v-1l135 317h-156q-9 0 -12.5 3t-3.5 12v26q0 9 3.5 11.5t12.5 2.5h217q9 0 12.5 -2.5t3.5 -11.5v-14zM559 652q0 -2 -3 -8l-272 -653q-4 -10 -19 -10h-37q-14 0 -14 8q0 2 3 8l272 653q4 10 15 10 h41q14 0 14 -8zM799 100q-2 -52 -41.5 -80t-99.5 -28q-65 0 -103 28t-38 80q0 36 23 64.5t59 40.5q-64 33 -64 93q0 47 36 72t88 25q55 0 88.5 -24.5t33.5 -67.5q0 -62 -64 -97q82 -34 82 -106zM733 97q0 25 -17.5 42.5t-58.5 34.5q-74 -23 -74 -77q0 -26 20.5 -40t55.5 -14 q34 0 54 14t20 40zM718 298q0 47 -61 47q-27 0 -42.5 -12t-15.5 -34q0 -40 60 -68q59 25 59 67z"/>
    <glyph glyph-name="partialdiff" unicode="∂" horiz-adv-x="574" d="M529 485q0 -94 -24 -193q-15 -58 -39.5 -109.5t-58.5 -96.5t-80.5 -71t-100.5 -26q-80 0 -129.5 52t-49.5 137q0 141 80 230.5t183 89.5q48 0 82.5 -20.5t50.5 -51.5h2q5 33 5 69q0 83 -36 126t-102 43q-49 0 -95 -27l-21 57q50 33 127 33q95 0 150.5 -63t55.5 -179z M434 351q-11 38 -40.5 62t-75.5 24q-76 0 -133 -77t-57 -185q0 -55 27.5 -88t72.5 -33q71 0 126 81.5t80 215.5z"/>
    <glyph glyph-name="Delta" unicode="∆" horiz-adv-x="607" d="M598 0h-572v40l236 660h102l234 -660v-40zM500 69l-173 496q-5 14 -9.5 34t-5.5 23h-4q-7 -31 -15 -56l-174 -497h381z"/>
    <glyph glyph-name="product" unicode="∏" horiz-adv-x="717" d="M632 -230h-82v859h-383v-859h-82v930h547v-930z"/>
    <glyph glyph-name="summation" unicode="∑" horiz-adv-x="629" d="M589 -230h-567v38l325 431l-302 417v44h520v-68h-414l284 -391l-303 -403h457v-68z"/>
    <glyph glyph-name="minus" unicode="−" d="M36 358h428q9 0 11.5 -2.5t2.5 -11.5v-47q0 -8 -3 -11t-11 -3h-428q-9 0 -11.5 2.5t-2.5 11.5v47q0 9 2.5 11.5t11.5 2.5z"/>
    <glyph glyph-name="uni2215" unicode="∕" horiz-adv-x="204" d="M268 652q0 -2 -3 -8l-272 -653q-4 -10 -19 -10h-37q-14 0 -14 8q0 2 3 8l272 653q4 10 15 10h41q14 0 14 -8z"/>
    <glyph glyph-name="uni2219" unicode="∙" horiz-adv-x="296" d="M205 320q0 -24 -16.5 -40.5t-39.5 -16.5q-24 0 -41 16.5t-17 40.5q0 23 16.5 39.5t40.5 16.5q23 0 40 -16.5t17 -39.5z"/>
    <glyph glyph-name="radical" unicode="√" horiz-adv-x="511" d="M517 729l-191 -741h-68l-137 338l-54 -32l-27 47l119 72l132 -325l164 641h62z"/>
    <glyph glyph-name="infinity" unicode="∞" horiz-adv-x="781" d="M387 344h2q28 45 73 77.5t103 32.5q72 0 118.5 -44.5t46.5 -115.5q0 -70 -45 -117.5t-116 -47.5q-56 0 -103 30.5t-78 79.5h-2q-75 -110 -176 -110q-73 0 -119 44.5t-46 116.5q0 73 45.5 118.5t116.5 45.5q107 0 180 -110zM661 293q0 44 -25 72.5t-74 28.5 q-77 0 -142 -102q59 -103 142 -103q48 0 73.5 30t25.5 74zM355 292q-28 46 -66 74t-77 28q-48 0 -73 -29.5t-25 -74.5q0 -44 27.5 -72.5t70.5 -28.5q79 0 143 103z"/>
    <glyph glyph-name="integral" unicode="∫" horiz-adv-x="490" d="M408 675q-22 9 -45 9q-82 0 -82 -99v-644q0 -79 -40 -123.5t-113 -44.5q-45 0 -71 11l16 62q22 -9 45 -9q82 0 82 99v644q0 78 40.5 123.5t114.5 45.5q44 0 70 -13q-2 -8 -8 -29z"/>
    <glyph glyph-name="approxequal" unicode="≈" d="M468 420q-53 -83 -124 -83q-53 0 -101 31q-49 30 -83 30q-44 0 -78 -63l-49 55q52 83 126 83q49 0 98 -30q50 -31 84 -31q43 0 79 63zM468 200q-53 -83 -124 -83q-53 0 -101 31q-47 31 -83 31q-43 0 -78 -64l-49 56q53 83 126 83q47 0 98 -31q50 -31 84 -31q42 0 79 63z "/>
    <glyph glyph-name="notequal" unicode="≠" d="M447 148h-222l-52 -118h-80l52 118h-91v75h123l64 145h-187v75h220l55 127h80l-56 -127h94v-75h-126l-64 -145h190v-75z"/>
    <glyph glyph-name="lessequal" unicode="≤" d="M446 0h-393v75h393v-75zM446 137l-393 185v60l393 186v-80l-295 -135v-2l295 -135v-79z"/>
    <glyph glyph-name="greaterequal" unicode="≥" d="M447 0h-393v75h393v-75zM447 323l-393 -186v81l294 134v2l-294 135v79l393 -185v-60z"/>
    <glyph glyph-name="lozenge" unicode="◊" horiz-adv-x="558" d="M293 700l203 -350l-203 -350h-42l-203 349l203 351h42zM428 350l-156 269l-156 -269l156 -269z"/>
    <glyph glyph-name="a.sc" unicode="" horiz-adv-x="472" d="M452 17q2 -8 2 -10q0 -7 -12 -7h-58q-12 0 -16 11l-46 147h-174l-47 -147q-4 -11 -16 -11h-53q-14 0 -14 7q0 1 2 9l175 515q4 11 15 11h52q12 0 16 -11zM302 224l-50 165q-5 14 -17 64q-11 -46 -17 -64l-50 -165h134z"/>
    <glyph glyph-name="ae.sc" unicode="" horiz-adv-x="621" d="M581 13q0 -8 -3.5 -10.5t-12.5 -2.5h-267q-9 0 -12 2.5t-3 10.5v145h-156l-75 -147q-6 -11 -16 -11h-56q-14 0 -14 7q0 2 4 10l275 515q5 10 16 10h307q14 0 14 -8q0 -3 -2 -9l-14 -40q-4 -11 -18 -11h-188v-160h168q15 0 15 -15v-36q0 -14 -15 -14h-168v-181h205 q16 0 16 -14v-41zM283 224v218v37q-11 -32 -27 -62l-100 -193h127z"/>
    <glyph glyph-name="aacute.sc" unicode="" horiz-adv-x="472" d="M381 691q0 -3 -9 -8l-164 -85q-7 -4 -10 -4t-9 8l-10 15q-4 7 -4 10q0 4 8 9l145 111q6 5 10 5t10 -8l29 -42q4 -7 4 -11zM452 17q2 -8 2 -10q0 -7 -12 -7h-58q-12 0 -16 11l-46 147h-174l-47 -147q-4 -11 -16 -11h-53q-14 0 -14 7q0 1 2 9l175 515q4 11 15 11h52 q12 0 16 -11zM302 224l-50 165q-5 14 -17 64q-11 -46 -17 -64l-50 -165h134z"/>
    <glyph glyph-name="acircumflex.sc" unicode="" horiz-adv-x="472" d="M366 631q0 -3 -5 -10l-13 -18q-4 -5 -8 -5q-2 0 -9 4l-92 59l-92 -59q-7 -4 -9 -4q-3 0 -10 7l-11 16q-5 7 -5 10q0 4 7 10l111 87q5 5 9 5t9 -5l111 -87q7 -7 7 -10zM452 17q2 -8 2 -10q0 -7 -12 -7h-58q-12 0 -16 11l-46 147h-174l-47 -147q-4 -11 -16 -11h-53 q-14 0 -14 7q0 1 2 9l175 515q4 11 15 11h52q12 0 16 -11zM302 224l-50 165q-5 14 -17 64q-11 -46 -17 -64l-50 -165h134z"/>
    <glyph glyph-name="adieresis.sc" unicode="" horiz-adv-x="472" d="M390 666q0 -22 -16 -37.5t-38 -15.5t-37.5 16t-15.5 38t16 37.5t38 15.5t37.5 -16t15.5 -38zM193 666q0 -22 -15.5 -37.5t-37.5 -15.5t-38 15.5t-16 38.5q0 22 16 37.5t38 15.5t37.5 -16t15.5 -38zM452 17q2 -8 2 -10q0 -7 -12 -7h-58q-12 0 -16 11l-46 147h-174 l-47 -147q-4 -11 -16 -11h-53q-14 0 -14 7q0 1 2 9l175 515q4 11 15 11h52q12 0 16 -11zM302 224l-50 165q-5 14 -17 64q-11 -46 -17 -64l-50 -165h134z"/>
    <glyph glyph-name="agrave.sc" unicode="" horiz-adv-x="472" d="M292 625q0 -1 -5 -9l-12 -17q-3 -5 -7 -5t-10 3l-163 85q-9 5 -9 10q0 3 4 9l29 42q5 8 10 8q3 0 10 -5l145 -111q8 -6 8 -10zM452 17q2 -8 2 -10q0 -7 -12 -7h-58q-12 0 -16 11l-46 147h-174l-47 -147q-4 -11 -16 -11h-53q-14 0 -14 7q0 1 2 9l175 515q4 11 15 11h52 q12 0 16 -11zM302 224l-50 165q-5 14 -17 64q-11 -46 -17 -64l-50 -165h134z"/>
    <glyph glyph-name="aring.sc" unicode="" horiz-adv-x="472" d="M325 687q0 -37 -26 -63t-63 -26t-63 26.5t-26 63.5t26.5 62.5t64.5 25.5q35 0 61 -26t26 -63zM279 687q0 18 -13 30.5t-31 12.5q-17 0 -29.5 -13t-12.5 -30q0 -18 12.5 -30.5t30.5 -12.5t30.5 12.5t12.5 30.5zM452 17q2 -8 2 -10q0 -7 -12 -7h-58q-12 0 -16 11l-46 147 h-174l-47 -147q-4 -11 -16 -11h-53q-14 0 -14 7q0 1 2 9l175 515q4 11 15 11h52q12 0 16 -11zM302 224l-50 165q-5 14 -17 64q-11 -46 -17 -64l-50 -165h134z"/>
    <glyph glyph-name="atilde.sc" unicode="" horiz-adv-x="472" d="M385 694q0 -13 -27 -48q-25 -31 -66 -31q-23 0 -60 21q-33 19 -51 19q-26 0 -43 -30q-4 -8 -9 -8l-6 1l-27 12q-8 3 -8 9q0 14 28 48q25 30 63 30q26 0 83 -32q16 -8 28 -8q31 0 45 30q4 8 9 8l7 -1l27 -12q7 -3 7 -8zM452 17q2 -8 2 -10q0 -7 -12 -7h-58q-12 0 -16 11 l-46 147h-174l-47 -147q-4 -11 -16 -11h-53q-14 0 -14 7q0 1 2 9l175 515q4 11 15 11h52q12 0 16 -11zM302 224l-50 165q-5 14 -17 64q-11 -46 -17 -64l-50 -165h134z"/>
    <glyph glyph-name="b.sc" unicode="" horiz-adv-x="482" d="M436 151q0 -57 -34 -97t-91 -49q-29 -5 -90 -5h-126q-15 0 -15 13v515q0 14 15 14h142q97 0 135 -33q41 -35 41 -98q0 -89 -78 -127q34 -9 54 -26q47 -39 47 -107zM329 403q0 44 -21 59.5t-74 15.5h-77v-170h61q59 0 85 22t26 73zM353 153q0 91 -118 91h-78v-180h83 q113 0 113 89z"/>
    <glyph glyph-name="c.sc" unicode="" horiz-adv-x="408" d="M361 91l24 -30q3 -5 3 -8q0 -9 -13 -18q-54 -46 -130 -46q-98 0 -148.5 74t-50.5 213q0 135 49 206t144 71q78 0 137 -49q8 -6 8 -14q0 -4 -3 -8l-27 -32q-4 -4 -8 -4q-5 0 -11 4q-57 38 -96 38q-56 0 -83 -47.5t-27 -157.5q0 -116 31.5 -173t88.5 -57q44 0 91 38 q8 6 11 6q4 0 10 -6z"/>
    <glyph glyph-name="ccedilla.sc" unicode="" horiz-adv-x="408" d="M259 -11l-4 -44q42 -4 59 -18.5t17 -45.5q0 -35 -28.5 -57t-73.5 -22q-60 0 -60 18q0 3 1 8l4 30q0 6 5 6q4 0 6 -1q19 -7 46 -7q40 0 40 23t-44 23h-5q-29 0 -29 12l1 13l7 66q-155 32 -155 283q0 135 49 206t144 71q78 0 137 -49q8 -6 8 -14q0 -4 -3 -8l-27 -32 q-4 -4 -8 -4q-5 0 -11 4q-57 38 -96 38q-56 0 -83 -47.5t-27 -157.5q0 -116 31.5 -173t88.5 -57q44 0 91 38q8 6 11 6q4 0 10 -6l24 -30q3 -5 3 -8q0 -9 -13 -18q-49 -41 -116 -46z"/>
    <glyph glyph-name="d.sc" unicode="" horiz-adv-x="485" d="M439 281q0 -281 -245 -281h-99q-15 0 -15 13v515q0 14 15 14h91q125 0 177 -48q76 -70 76 -213zM357 279q0 163 -93 190q-19 5 -74 5h-33v-406h42q53 0 82.5 14.5t47.5 50.5q28 54 28 146z"/>
    <glyph glyph-name="eth.sc" unicode="" horiz-adv-x="485" d="M439 281q0 -281 -245 -281h-99q-15 0 -15 13v243h-65q-9 0 -11.5 2t-2.5 9v29q0 7 2.5 9t11.5 2h65v221q0 14 15 14h91q125 0 177 -48q76 -70 76 -213zM357 279q0 163 -93 190q-19 5 -74 5h-33v-167h121q10 0 12 -1.5t2 -9.5v-29q0 -8 -2 -9.5t-12 -1.5h-121v-188h42 q53 0 82.5 14.5t47.5 50.5q28 54 28 146z"/>
    <glyph glyph-name="e.sc" unicode="" horiz-adv-x="415" d="M157 314h166q15 0 15 -15v-36q0 -14 -15 -14h-166v-181h203q9 0 12 -2.5t3 -11.5v-41q0 -8 -3 -10.5t-12 -2.5h-265q-9 0 -12 2t-3 11v515q0 14 15 14h266q15 0 15 -7q0 -2 -2 -8l-13 -42q-3 -11 -16 -11h-188v-160z"/>
    <glyph glyph-name="eacute.sc" unicode="" horiz-adv-x="415" d="M351 691q0 -3 -9 -8l-164 -85q-7 -4 -10 -4t-9 8l-10 15q-4 7 -4 10q0 4 8 9l145 111q6 5 10 5t10 -8l29 -42q4 -7 4 -11zM157 314h166q15 0 15 -15v-36q0 -14 -15 -14h-166v-181h203q9 0 12 -2.5t3 -11.5v-41q0 -8 -3 -10.5t-12 -2.5h-265q-9 0 -12 2t-3 11v515 q0 14 15 14h266q15 0 15 -7q0 -2 -2 -8l-13 -42q-3 -11 -16 -11h-188v-160z"/>
    <glyph glyph-name="ecircumflex.sc" unicode="" horiz-adv-x="415" d="M346 631q0 -3 -5 -10l-13 -18q-4 -5 -8 -5q-2 0 -9 4l-92 59l-92 -59q-7 -4 -9 -4q-3 0 -10 7l-11 16q-5 7 -5 10q0 4 7 10l111 87q5 5 9 5t9 -5l111 -87q7 -7 7 -10zM157 314h166q15 0 15 -15v-36q0 -14 -15 -14h-166v-181h203q9 0 12 -2.5t3 -11.5v-41q0 -8 -3 -10.5 t-12 -2.5h-265q-9 0 -12 2t-3 11v515q0 14 15 14h266q15 0 15 -7q0 -2 -2 -8l-13 -42q-3 -11 -16 -11h-188v-160z"/>
    <glyph glyph-name="edieresis.sc" unicode="" horiz-adv-x="415" d="M373 666q0 -22 -16 -37.5t-38 -15.5t-37.5 16t-15.5 38t16 37.5t38 15.5t37.5 -16t15.5 -38zM176 666q0 -22 -15.5 -37.5t-37.5 -15.5q-23 0 -38.5 15.5t-15.5 38.5q0 22 16 37.5t38 15.5t37.5 -16t15.5 -38zM157 314h166q15 0 15 -15v-36q0 -14 -15 -14h-166v-181h203 q9 0 12 -2.5t3 -11.5v-41q0 -8 -3 -10.5t-12 -2.5h-265q-9 0 -12 2t-3 11v515q0 14 15 14h266q15 0 15 -7q0 -2 -2 -8l-13 -42q-3 -11 -16 -11h-188v-160z"/>
    <glyph glyph-name="egrave.sc" unicode="" horiz-adv-x="415" d="M302 625q0 -1 -5 -9l-12 -17q-3 -5 -7 -5t-10 3l-163 85q-9 5 -9 10q0 3 4 9l29 42q5 8 10 8q3 0 10 -5l145 -111q8 -6 8 -10zM157 314h166q15 0 15 -15v-36q0 -14 -15 -14h-166v-181h203q9 0 12 -2.5t3 -11.5v-41q0 -8 -3 -10.5t-12 -2.5h-265q-9 0 -12 2t-3 11v515 q0 14 15 14h266q15 0 15 -7q0 -2 -2 -8l-13 -42q-3 -11 -16 -11h-188v-160z"/>
    <glyph glyph-name="f.sc" unicode="" horiz-adv-x="383" d="M373 525l-12 -40q-3 -11 -16 -11h-188v-166h166q15 0 15 -13v-37q0 -14 -15 -14h-166v-231q0 -8 -3 -10.5t-11 -2.5h-48q-15 0 -15 13v515q0 14 15 14h267q12 0 12 -9q0 -5 -1 -8z"/>
    <glyph glyph-name="g.sc" unicode="" horiz-adv-x="472" d="M335 215h-65q-9 0 -12 2.5t-3 10.5v38q0 15 15 15h127q15 0 15 -15v-230q0 -9 -10 -15q-57 -32 -145 -32q-103 0 -157 71t-54 206q0 140 54 213.5t159 73.5q74 0 136 -39q13 -8 7 -20l-20 -36q-5 -8 -16 -3q-58 33 -107 33q-130 0 -130 -208q0 -123 34 -175t107 -52 q33 0 65 14v148z"/>
    <glyph glyph-name="h.sc" unicode="" horiz-adv-x="529" d="M157 314h215v214q0 14 15 14h48q8 0 11 -3t3 -11v-515q0 -8 -3 -10.5t-11 -2.5h-48q-15 0 -15 13v236h-215v-236q0 -8 -3 -10.5t-11 -2.5h-48q-15 0 -15 13v515q0 14 15 14h48q8 0 11 -3t3 -11v-214z"/>
    <glyph glyph-name="i.sc" unicode="" horiz-adv-x="312" d="M118 63v415h-73q-9 0 -12 3t-3 12v35q0 9 3 11.5t12 2.5h223q9 0 11.5 -3t2.5 -11v-35q0 -9 -2.5 -12t-11.5 -3h-73v-415h73q9 0 11.5 -2.5t2.5 -11.5v-36q0 -8 -2.5 -10.5t-11.5 -2.5h-223q-9 0 -12 2.5t-3 10.5v36q0 9 3 11.5t12 2.5h73z"/>
    <glyph glyph-name="iacute.sc" unicode="" horiz-adv-x="312" d="M291 691q0 -3 -9 -8l-164 -85q-7 -4 -10 -4t-9 8l-10 15q-4 7 -4 10q0 4 8 9l145 111q6 5 10 5t10 -8l29 -42q4 -7 4 -11zM282 13q0 -8 -2.5 -10.5t-11.5 -2.5h-223q-9 0 -12 2.5t-3 10.5v36q0 9 3 11.5t12 2.5h73v415h-73q-9 0 -12 3t-3 12v35q0 9 3 11.5t12 2.5h223 q9 0 11.5 -3t2.5 -11v-35q0 -9 -2.5 -12t-11.5 -3h-73v-415h73q9 0 11.5 -2.5t2.5 -11.5v-36z"/>
    <glyph glyph-name="icircumflex.sc" unicode="" horiz-adv-x="312" d="M284 631q0 -3 -5 -10l-13 -18q-4 -5 -8 -5q-2 0 -9 4l-92 59l-92 -59q-7 -4 -9 -4q-3 0 -10 7l-11 16q-5 7 -5 10q0 4 7 10l111 87q5 5 9 5t9 -5l111 -87q7 -7 7 -10zM282 13q0 -8 -2.5 -10.5t-11.5 -2.5h-223q-9 0 -12 2.5t-3 10.5v36q0 9 3 11.5t12 2.5h73v415h-73 q-9 0 -12 3t-3 12v35q0 9 3 11.5t12 2.5h223q9 0 11.5 -3t2.5 -11v-35q0 -9 -2.5 -12t-11.5 -3h-73v-415h73q9 0 11.5 -2.5t2.5 -11.5v-36z"/>
    <glyph glyph-name="idieresis.sc" unicode="" horiz-adv-x="312" d="M308 666q0 -22 -16 -37.5t-38 -15.5t-37.5 16t-15.5 38t16 37.5t38 15.5t37.5 -16t15.5 -38zM111 666q0 -22 -15.5 -37.5t-37.5 -15.5t-38 15.5t-16 38.5q0 22 16 37.5t38 15.5t37.5 -16t15.5 -38zM282 13q0 -8 -2.5 -10.5t-11.5 -2.5h-223q-9 0 -12 2.5t-3 10.5v36 q0 9 3 11.5t12 2.5h73v415h-73q-9 0 -12 3t-3 12v35q0 9 3 11.5t12 2.5h223q9 0 11.5 -3t2.5 -11v-35q0 -9 -2.5 -12t-11.5 -3h-73v-415h73q9 0 11.5 -2.5t2.5 -11.5v-36z"/>
    <glyph glyph-name="igrave.sc" unicode="" horiz-adv-x="312" d="M212 625q0 -1 -5 -9l-12 -17q-3 -5 -7 -5t-10 3l-163 85q-9 5 -9 10q0 3 4 9l29 42q5 8 10 8q3 0 10 -5l145 -111q8 -6 8 -10zM282 13q0 -8 -2.5 -10.5t-11.5 -2.5h-223q-9 0 -12 2.5t-3 10.5v36q0 9 3 11.5t12 2.5h73v415h-73q-9 0 -12 3t-3 12v35q0 9 3 11.5t12 2.5 h223q9 0 11.5 -3t2.5 -11v-35q0 -9 -2.5 -12t-11.5 -3h-73v-415h73q9 0 11.5 -2.5t2.5 -11.5v-36z"/>
    <glyph glyph-name="j.sc" unicode="" horiz-adv-x="397" d="M240 476h-146q-15 0 -15 13v39q0 14 15 14h208q9 0 12 -3t3 -11v-392q0 -70 -40 -108.5t-117 -38.5q-73 0 -111.5 39t-38.5 113q0 18 11 18h52q9 0 9 -11v-9q0 -43 21 -64t58 -21q79 0 79 82v340z"/>
    <glyph glyph-name="k.sc" unicode="" horiz-adv-x="448" d="M229 269l209 -225q5 -5 5 -9q0 -5 -9 -11l-41 -27q-5 -4 -11 -4q-4 0 -10 6l-215 249v-235q0 -8 -3 -10.5t-11 -2.5h-48q-15 0 -15 13v515q0 14 15 14h48q8 0 11 -3t3 -11v-246l218 260q7 7 11 7q5 0 10 -4l32 -23q8 -6 8 -10q0 -3 -5 -10z"/>
    <glyph glyph-name="l.sc" unicode="" horiz-adv-x="390" d="M385 52l-13 -42q-2 -10 -16 -10h-261q-15 0 -15 13v515q0 14 15 14h48q8 0 11 -3t3 -11v-460h217q13 0 13 -7q0 -1 -2 -9z"/>
    <glyph glyph-name="lslash.sc" unicode="" horiz-adv-x="390" d="M385 52l-13 -42q-2 -10 -16 -10h-261q-15 0 -15 13v204l-84 -56q-5 -3 -10 -3t-5 11v37q0 9 7 13l92 60v249q0 14 15 14h48q8 0 11 -3t3 -11v-198l106 69q5 3 9 3q6 0 6 -11v-37q0 -8 -9 -14l-112 -73v-199h217q13 0 13 -7q0 -1 -2 -9z"/>
    <glyph glyph-name="m.sc" unicode="" horiz-adv-x="596" d="M306 125h-25q-10 0 -14 10l-100 265q-4 10 -8 27v-18l-12 -396q0 -8 -3.5 -10.5t-12.5 -2.5h-46q-15 0 -15 11v3l32 515q1 13 16 13h52q11 0 15 -11l104 -269q5 -16 8 -31q4 20 8 31l104 269q5 11 16 11h54q14 0 15 -13l32 -515v-4q0 -10 -14 -10h-50q-15 0 -15 13 l-13 396v14q-6 -20 -7 -23l-104 -265q-3 -10 -17 -10z"/>
    <glyph glyph-name="n.sc" unicode="" horiz-adv-x="517" d="M134 0h-39q-15 0 -15 13v515q0 14 15 14h55q10 0 15 -10l190 -364q8 -14 14 -34q-2 24 -2 35v359q0 9 3.5 11.5t12.5 2.5h39q15 0 15 -14v-515q0 -13 -15 -13h-47q-11 0 -16 9l-199 386q-1 3 -12 32q1 -10 1 -33v-381q0 -8 -3 -10.5t-12 -2.5z"/>
    <glyph glyph-name="ntilde.sc" unicode="" horiz-adv-x="517" d="M408 694q0 -13 -27 -48q-25 -31 -66 -31q-23 0 -60 21q-33 19 -51 19q-26 0 -43 -30q-4 -8 -9 -8l-6 1l-27 12q-8 3 -8 9q0 14 28 48q25 30 63 30q26 0 83 -32q16 -8 28 -8q31 0 45 30q4 8 9 8l7 -1l27 -12q7 -3 7 -8zM437 13q0 -13 -15 -13h-47q-11 0 -16 9l-199 386 q-1 3 -12 32q1 -10 1 -33v-381q0 -8 -3 -10.5t-12 -2.5h-39q-15 0 -15 13v515q0 14 15 14h55q10 0 15 -10l190 -364q8 -14 14 -34q-2 24 -2 35v359q0 9 3.5 11.5t12.5 2.5h39q15 0 15 -14v-515z"/>
    <glyph glyph-name="o.sc" unicode="" horiz-adv-x="489" d="M443 271q0 -137 -52 -209.5t-151 -72.5q-96 0 -145 71t-49 209q0 139 51.5 211.5t151.5 72.5q194 0 194 -282zM359 269q0 113 -36 178q-23 41 -77 41q-58 0 -87.5 -50.5t-29.5 -164.5q0 -113 36 -178q23 -41 79 -41q58 0 86.5 50t28.5 165z"/>
    <glyph glyph-name="oe.sc" unicode="" horiz-adv-x="680" d="M640 13q0 -13 -16 -13h-267q-15 0 -15 13v17q-47 -41 -107 -41q-90 0 -139.5 73.5t-49.5 204.5q0 140 49.5 213t145.5 73q58 0 101 -35v10q0 14 15 14h268q18 0 13 -17l-13 -40q-3 -11 -16 -11h-189v-160h168q14 0 14 -15v-36q0 -8 -3 -11t-11 -3h-168v-181h204 q16 0 16 -14v-41zM342 98v344q-44 47 -98 47q-115 0 -115 -219q0 -108 29.5 -162.5t82.5 -54.5q52 0 101 45z"/>
    <glyph glyph-name="oacute.sc" unicode="" horiz-adv-x="489" d="M401 691q0 -3 -9 -8l-164 -85q-7 -4 -10 -4t-9 8l-10 15q-4 7 -4 10q0 4 8 9l145 111q6 5 10 5t10 -8l29 -42q4 -7 4 -11zM443 271q0 -137 -52 -209.5t-151 -72.5q-96 0 -145 71t-49 209q0 139 51.5 211.5t151.5 72.5q194 0 194 -282zM359 269q0 113 -36 178 q-23 41 -77 41q-58 0 -87.5 -50.5t-29.5 -164.5q0 -113 36 -178q23 -41 79 -41q58 0 86.5 50t28.5 165z"/>
    <glyph glyph-name="ocircumflex.sc" unicode="" horiz-adv-x="489" d="M369 631q0 -3 -5 -10l-13 -18q-4 -5 -8 -5q-2 0 -9 4l-92 59l-92 -59q-7 -4 -9 -4q-3 0 -10 7l-11 16q-5 7 -5 10q0 4 7 10l111 87q5 5 9 5t9 -5l111 -87q7 -7 7 -10zM443 271q0 -137 -52 -209.5t-151 -72.5q-96 0 -145 71t-49 209q0 139 51.5 211.5t151.5 72.5 q194 0 194 -282zM359 269q0 113 -36 178q-23 41 -77 41q-58 0 -87.5 -50.5t-29.5 -164.5q0 -113 36 -178q23 -41 79 -41q58 0 86.5 50t28.5 165z"/>
    <glyph glyph-name="odieresis.sc" unicode="" horiz-adv-x="489" d="M392 666q0 -22 -16 -37.5t-38 -15.5t-37.5 16t-15.5 38t16 37.5t38 15.5t37.5 -16t15.5 -38zM195 666q0 -22 -15.5 -37.5t-37.5 -15.5t-38 15.5t-16 38.5q0 22 16 37.5t38 15.5t37.5 -16t15.5 -38zM443 271q0 -137 -52 -209.5t-151 -72.5q-96 0 -145 71t-49 209 q0 139 51.5 211.5t151.5 72.5q194 0 194 -282zM359 269q0 113 -36 178q-23 41 -77 41q-58 0 -87.5 -50.5t-29.5 -164.5q0 -113 36 -178q23 -41 79 -41q58 0 86.5 50t28.5 165z"/>
    <glyph glyph-name="ograve.sc" unicode="" horiz-adv-x="489" d="M292 625q0 -1 -5 -9l-12 -17q-3 -5 -7 -5t-10 3l-163 85q-9 5 -9 10q0 3 4 9l29 42q5 8 10 8q3 0 10 -5l145 -111q8 -6 8 -10zM443 271q0 -137 -52 -209.5t-151 -72.5q-96 0 -145 71t-49 209q0 139 51.5 211.5t151.5 72.5q194 0 194 -282zM359 269q0 113 -36 178 q-23 41 -77 41q-58 0 -87.5 -50.5t-29.5 -164.5q0 -113 36 -178q23 -41 79 -41q58 0 86.5 50t28.5 165z"/>
    <glyph glyph-name="oslash.sc" unicode="" horiz-adv-x="489" d="M443 271q0 -137 -52 -209.5t-151 -72.5q-65 0 -110 34l-28 -47q-7 -10 -10 -10q-1 0 -9 4l-25 14q-10 6 -10 11q0 2 3 8l39 66q-44 71 -44 200q0 139 51.5 211.5t151.5 72.5q57 0 101 -28l28 49q6 9 11 9q3 0 9 -3l25 -12q10 -4 10 -10q0 -3 -3 -9l-37 -66 q50 -71 50 -212zM311 464q-21 24 -65 24q-58 0 -87.5 -50.5t-29.5 -164.5q0 -65 13 -117zM359 269q0 78 -17 132l-172 -313q23 -34 74 -34q58 0 86.5 50t28.5 165z"/>
    <glyph glyph-name="otilde.sc" unicode="" horiz-adv-x="489" d="M388 694q0 -13 -27 -48q-25 -31 -66 -31q-23 0 -60 21q-33 19 -51 19q-26 0 -43 -30q-4 -8 -9 -8l-6 1l-27 12q-8 3 -8 9q0 14 28 48q25 30 63 30q26 0 83 -32q16 -8 28 -8q31 0 45 30q4 8 9 8l7 -1l27 -12q7 -3 7 -8zM443 271q0 -137 -52 -209.5t-151 -72.5 q-96 0 -145 71t-49 209q0 139 51.5 211.5t151.5 72.5q194 0 194 -282zM359 269q0 113 -36 178q-23 41 -77 41q-58 0 -87.5 -50.5t-29.5 -164.5q0 -113 36 -178q23 -41 79 -41q58 0 86.5 50t28.5 165z"/>
    <glyph glyph-name="p.sc" unicode="" horiz-adv-x="422" d="M407 396q0 -61 -30 -105t-83 -59q-27 -8 -78 -8h-59v-211q0 -8 -3 -10.5t-11 -2.5h-48q-15 0 -15 13v515q0 14 15 14h133q91 0 127 -28q52 -40 52 -118zM328 394q0 47 -23.5 64.5t-82.5 17.5h-65v-184h54q38 0 56.5 5t32.5 19q28 30 28 78z"/>
    <glyph glyph-name="thorn.sc" unicode="" horiz-adv-x="422" d="M407 306q0 -61 -30 -105t-83 -59q-27 -8 -78 -8h-59v-121q0 -8 -3 -10.5t-11 -2.5h-48q-15 0 -15 13v515q0 14 15 14h51q7 0 9 -2.5t2 -10.5v-77h71q91 0 127 -28q52 -40 52 -118zM328 304q0 47 -23.5 64.5t-82.5 17.5h-65v-184h54q38 0 56.5 5t32.5 19q28 30 28 78z"/>
    <glyph glyph-name="q.sc" unicode="" horiz-adv-x="489" d="M471 -4q6 -3 6 -8t-7 -11l-40 -31q-4 -3 -9 -3q-11 0 -37.5 19.5t-52.5 45.5q-42 -19 -91 -19q-96 0 -145 71t-49 209q0 139 51.5 211.5t151.5 72.5q194 0 194 -283q0 -140 -58 -217q27 -24 86 -57zM359 269q0 114 -35 178q-23 41 -78 41q-58 0 -87.5 -50.5t-29.5 -164.5 q0 -111 37 -178q23 -42 78 -42q58 0 86.5 50t28.5 166z"/>
    <glyph glyph-name="r.sc" unicode="" horiz-adv-x="446" d="M444 20q4 -8 4 -10q0 -6 -11 -8l-56 -10h-5q-10 0 -13 8l-139 240h-59v-227q0 -8 -3 -10.5t-11 -2.5h-48q-15 0 -15 13v515q0 14 15 14h133q91 0 127 -26q51 -37 51 -111q-1 -57 -30 -98t-82 -58zM335 400q0 42 -24.5 60t-78.5 18h-67v-176h64q51 0 78.5 25t27.5 73z"/>
    <glyph glyph-name="s.sc" unicode="" horiz-adv-x="420" d="M385 145q0 -70 -51.5 -113t-134.5 -43q-80 0 -152 35q-14 6 -14 15q0 1 2 7l18 43q3 7 9 7q3 0 17 -7q64 -31 123 -31q44 0 73 21.5t29 57.5q0 34 -22 57t-85 56q-56 29 -75 41t-35 29q-36 39 -36 88q0 64 48.5 104.5t125.5 40.5q75 0 138 -34q9 -6 9 -11q0 -2 -2 -8 l-16 -38q-3 -7 -11 -7q-4 0 -8 2q-57 28 -112 28q-40 0 -65.5 -18.5t-25.5 -49.5q0 -29 16.5 -47t65.5 -45l55 -30q40 -23 56 -34.5t30 -29.5q30 -39 30 -86z"/>
    <glyph glyph-name="scaron.sc" unicode="" horiz-adv-x="420" d="M337 700q0 -3 -7 -9l-111 -88q-5 -5 -9 -5q-2 0 -9 5l-111 88q-7 6 -7 9q0 4 5 10l13 18q4 5 8 5q2 0 9 -4l92 -59l92 59q6 4 9 4q4 0 10 -7l11 -16q5 -6 5 -10zM385 145q0 -70 -51.5 -113t-134.5 -43q-80 0 -152 35q-14 6 -14 15q0 1 2 7l18 43q3 7 9 7q3 0 17 -7 q64 -31 123 -31q44 0 73 21.5t29 57.5q0 34 -22 57t-85 56q-56 29 -75 41t-35 29q-36 39 -36 88q0 64 48.5 104.5t125.5 40.5q75 0 138 -34q9 -6 9 -11q0 -2 -2 -8l-16 -38q-3 -7 -11 -7q-4 0 -8 2q-57 28 -112 28q-40 0 -65.5 -18.5t-25.5 -49.5q0 -29 16.5 -47t65.5 -45 l55 -30q40 -23 56 -34.5t30 -29.5q30 -39 30 -86z"/>
    <glyph glyph-name="t.sc" unicode="" horiz-adv-x="366" d="M376 525l-13 -40q-3 -10 -15 -10h-123v-462q0 -8 -2.5 -10.5t-11.5 -2.5h-47q-9 0 -12.5 2.5t-3.5 10.5v462h-123q-15 0 -15 14v39q0 14 15 14h341q12 0 12 -8q0 -3 -2 -9z"/>
    <glyph glyph-name="u.sc" unicode="" horiz-adv-x="533" d="M453 528v-381q0 -83 -57 -123q-49 -35 -134 -35q-182 0 -182 158v381q0 14 15 14h48q15 0 15 -14v-380q0 -51 25 -72.5t81 -21.5q115 0 115 94v380q0 8 3 11t12 3h45q8 0 11 -3t3 -11z"/>
    <glyph glyph-name="uacute.sc" unicode="" horiz-adv-x="533" d="M431 691q0 -3 -9 -8l-164 -85q-7 -4 -10 -4t-9 8l-10 15q-4 7 -4 10q0 4 8 9l145 111q6 5 10 5t10 -8l29 -42q4 -7 4 -11zM453 147q0 -83 -57 -123q-49 -35 -134 -35q-182 0 -182 158v381q0 14 15 14h48q15 0 15 -14v-380q0 -51 25 -72.5t81 -21.5q115 0 115 94v380 q0 8 3 11t12 3h45q8 0 11 -3t3 -11v-381z"/>
    <glyph glyph-name="ucircumflex.sc" unicode="" horiz-adv-x="533" d="M392 631q0 -3 -5 -10l-13 -18q-4 -5 -8 -5q-2 0 -9 4l-92 59l-92 -59q-7 -4 -9 -4q-3 0 -10 7l-11 16q-5 7 -5 10q0 4 7 10l111 87q5 5 9 5t9 -5l111 -87q7 -7 7 -10zM453 147q0 -83 -57 -123q-49 -35 -134 -35q-182 0 -182 158v381q0 14 15 14h48q15 0 15 -14v-380 q0 -51 25 -72.5t81 -21.5q115 0 115 94v380q0 8 3 11t12 3h45q8 0 11 -3t3 -11v-381z"/>
    <glyph glyph-name="udieresis.sc" unicode="" horiz-adv-x="533" d="M423 666q0 -22 -16 -37.5t-38 -15.5t-37.5 16t-15.5 38t16 37.5t38 15.5t37.5 -16t15.5 -38zM226 666q0 -22 -15.5 -37.5t-37.5 -15.5q-23 0 -38.5 15.5t-15.5 38.5q0 22 16 37.5t38 15.5t37.5 -16t15.5 -38zM453 147q0 -83 -57 -123q-49 -35 -134 -35q-182 0 -182 158 v381q0 14 15 14h48q15 0 15 -14v-380q0 -51 25 -72.5t81 -21.5q115 0 115 94v380q0 8 3 11t12 3h45q8 0 11 -3t3 -11v-381z"/>
    <glyph glyph-name="ugrave.sc" unicode="" horiz-adv-x="533" d="M322 625q0 -1 -5 -9l-12 -17q-3 -5 -7 -5t-10 3l-163 85q-9 5 -9 10q0 3 4 9l29 42q5 8 10 8q3 0 10 -5l145 -111q8 -6 8 -10zM453 147q0 -83 -57 -123q-49 -35 -134 -35q-182 0 -182 158v381q0 14 15 14h48q15 0 15 -14v-380q0 -51 25 -72.5t81 -21.5q115 0 115 94v380 q0 8 3 11t12 3h45q8 0 11 -3t3 -11v-381z"/>
    <glyph glyph-name="v.sc" unicode="" horiz-adv-x="426" d="M411 520l-153 -509q-3 -11 -17 -11h-60q-13 0 -16 11l-150 509q-2 6 -2 8q0 5 12 8l49 12q3 1 8 1q6 0 10 -12l112 -413q2 -8 8 -48q7 44 8 47l116 414q4 12 9 12t8 -1l51 -12q9 -3 9 -8q0 -2 -2 -8z"/>
    <glyph glyph-name="w.sc" unicode="" horiz-adv-x="601" d="M581 521l-120 -509q-3 -12 -16 -12h-57q-13 0 -15 12l-72 416l-87 -416q-2 -12 -17 -12h-54q-13 0 -15 12l-108 510q-1 3 -1 7q0 7 12 10l48 7h7q7 0 9 -10l75 -387q4 -18 5 -52q4 41 6 50l85 383q3 12 16 12h46q13 0 16 -12l72 -387l6 -46q1 8 2 24.5t2 22.5l81 392 q1 11 11 11q1 0 4 -1h3l45 -9q12 -3 12 -10q0 -1 -0.5 -3t-0.5 -3z"/>
    <glyph glyph-name="x.sc" unicode="" horiz-adv-x="427" d="M255 284l157 -257q3 -6 3 -9q0 -6 -11 -9l-46 -14l-8 -2q-5 0 -11 9l-113 188q-6 10 -13 31q-7 -19 -14 -31l-113 -188q-5 -8 -11 -8q-5 0 -7 1l-45 13q-12 3 -12 9q0 5 4 10l153 256l-140 231q-3 6 -3 9q0 5 10 9l43 14q8 2 9 2q6 0 11 -9l99 -158q7 -12 17 -38 q12 33 17 41l97 155q5 8 10 8q1 0 9 -2l42 -15q10 -4 10 -9t-4 -10z"/>
    <glyph glyph-name="y.sc" unicode="" horiz-adv-x="421" d="M416 516l-163 -286v-217q0 -8 -3.5 -10.5t-12.5 -2.5h-47q-9 0 -12 2.5t-3 10.5v215l-170 287q-4 8 -4 10q0 5 10 8l56 13q2 0 4 0.5t3 0.5q6 0 11 -8l112 -201q5 -8 19 -44l6.5 19.5t10.5 24.5l109 200q5 9 10 9q4 0 8 -1l50 -12q10 -3 10 -8q0 -2 -4 -10z"/>
    <glyph glyph-name="yacute.sc" unicode="" horiz-adv-x="421" d="M371 675q0 -3 -9 -8l-164 -85q-7 -4 -10 -4t-9 8l-10 15q-4 7 -4 10q0 4 8 9l145 111q6 5 10 5t10 -8l29 -42q4 -7 4 -11zM416 516l-163 -286v-217q0 -8 -3.5 -10.5t-12.5 -2.5h-47q-9 0 -12 2.5t-3 10.5v215l-170 287q-4 8 -4 10q0 5 10 8l56 13q2 0 4 0.5t3 0.5 q6 0 11 -8l112 -201q5 -8 19 -44l6.5 19.5t10.5 24.5l109 200q5 9 10 9q4 0 8 -1l50 -12q10 -3 10 -8q0 -2 -4 -10z"/>
    <glyph glyph-name="ydieresis.sc" unicode="" horiz-adv-x="421" d="M365 666q0 -22 -16 -37.5t-38 -15.5t-37.5 16t-15.5 38t16 37.5t38 15.5t37.5 -16t15.5 -38zM168 666q0 -22 -15.5 -37.5t-37.5 -15.5q-23 0 -38.5 15.5t-15.5 38.5q0 22 16 37.5t38 15.5t37.5 -16t15.5 -38zM416 516l-163 -286v-217q0 -8 -3.5 -10.5t-12.5 -2.5h-47 q-9 0 -12 2.5t-3 10.5v215l-170 287q-4 8 -4 10q0 5 10 8l56 13q2 0 4 0.5t3 0.5q6 0 11 -8l112 -201q5 -8 19 -44l6.5 19.5t10.5 24.5l109 200q5 9 10 9q4 0 8 -1l50 -12q10 -3 10 -8q0 -2 -4 -10z"/>
    <glyph glyph-name="z.sc" unicode="" horiz-adv-x="393" d="M270 475h-223q-16 0 -12 16l9 39q3 12 16 12h288q9 0 12 -3t3 -11v-44l-253 -416h248q15 0 15 -14v-41q0 -13 -15 -13h-324q-8 0 -11 2.5t-3 10.5v47z"/>
    <glyph glyph-name="zcaron.sc" unicode="" horiz-adv-x="393" d="M327 700q0 -3 -7 -9l-111 -88q-5 -5 -9 -5q-2 0 -9 5l-111 88q-7 6 -7 9q0 4 5 10l13 18q4 5 8 5q2 0 9 -4l92 -59l92 59q6 4 9 4q4 0 10 -7l11 -16q5 -6 5 -10zM373 13q0 -13 -15 -13h-324q-8 0 -11 2.5t-3 10.5v47l250 415h-223q-16 0 -12 16l9 39q3 12 16 12h288 q9 0 12 -3t3 -11v-44l-253 -416h248q15 0 15 -14v-41z"/>
    <glyph glyph-name="germandbls.sc" unicode="" horiz-adv-x="831" d="M796 145q0 -70 -51 -113t-134 -43q-81 0 -153 35q-13 6 -13 14q0 2 2 8l18 43q3 7 8 7q3 0 17 -7q64 -31 123 -31q44 0 73 21.5t29 57.5q0 34 -22 57t-85 56q-56 29 -75 41t-35 29q-35 38 -35 88q0 64 48.5 104.5t124.5 40.5q75 0 138 -34q10 -7 10 -12q0 -1 -2 -7 l-17 -38q-3 -7 -10 -7q-4 0 -8 2q-57 28 -112 28q-40 0 -66 -18.5t-26 -49.5q0 -29 16.5 -47t65.5 -45l56 -30q39 -21 55.5 -33t30.5 -31q29 -38 29 -86zM385 145q0 -70 -51.5 -113t-134.5 -43q-80 0 -152 35q-14 6 -14 15q0 1 2 7l18 43q3 7 9 7q3 0 17 -7q64 -31 123 -31 q44 0 73 21.5t29 57.5q0 34 -22 57t-85 56q-56 29 -75 41t-35 29q-36 39 -36 88q0 64 48.5 104.5t125.5 40.5q75 0 138 -34q9 -6 9 -11q0 -2 -2 -8l-16 -38q-3 -7 -11 -7q-4 0 -8 2q-57 28 -112 28q-40 0 -65.5 -18.5t-25.5 -49.5q0 -29 16.5 -47t65.5 -45l55 -30 q40 -23 56 -34.5t30 -29.5q30 -39 30 -86z"/>
    <glyph glyph-name="f_i.sc" unicode="" horiz-adv-x="698" d="M668 13q0 -8 -2.5 -10.5t-11.5 -2.5h-223q-9 0 -12 2.5t-3 10.5v36q0 9 3 11.5t12 2.5h73v415h-73q-9 0 -12 3t-3 12v35q0 9 3 11.5t12 2.5h223q9 0 11.5 -3t2.5 -11v-35q0 -9 -2.5 -12t-11.5 -3h-73v-415h73q9 0 11.5 -2.5t2.5 -11.5v-36zM373 525l-12 -40 q-3 -11 -16 -11h-188v-166h166q15 0 15 -13v-37q0 -14 -15 -14h-166v-231q0 -8 -3 -10.5t-11 -2.5h-48q-15 0 -15 13v515q0 14 15 14h267q16 0 11 -17z"/>
    <glyph glyph-name="f_l.sc" unicode="" horiz-adv-x="764" d="M759 52l-13 -42q-2 -10 -16 -10h-261q-15 0 -15 13v515q0 14 15 14h48q8 0 11 -3t3 -11v-460h217q13 0 13 -7q0 -1 -2 -9zM377 525l-12 -40q-3 -11 -16 -11h-188v-166h166q15 0 15 -13v-37q0 -14 -15 -14h-166v-231q0 -8 -3 -10.5t-11 -2.5h-48q-15 0 -15 13v515 q0 14 15 14h267q12 0 12 -9q0 -5 -1 -8z"/>
    <glyph glyph-name="abreve.sc" unicode="" horiz-adv-x="472" d="M452 17q2 -8 2 -10q0 -7 -12 -7h-58q-12 0 -16 11l-46 147h-174l-47 -147q-4 -11 -16 -11h-53q-14 0 -14 7q0 1 2 9l175 515q4 11 15 11h52q12 0 16 -11zM302 224l-50 165q-5 14 -17 64q-11 -46 -17 -64l-50 -165h134zM365 710q0 -28 -29 -67q-34 -46 -100 -46 q-77 0 -111 59q-18 32 -18 54q0 11 11 12l39 7h4q7 0 10 -10q13 -69 64 -69q27 0 42.5 16t22.5 53q2 10 11 10h4l39 -7q11 -1 11 -12z"/>
    <glyph glyph-name="amacron.sc" unicode="" horiz-adv-x="472" d="M452 17q2 -8 2 -10q0 -7 -12 -7h-58q-12 0 -16 11l-46 147h-174l-47 -147q-4 -11 -16 -11h-53q-14 0 -14 7q0 1 2 9l175 515q4 11 15 11h52q12 0 16 -11zM302 224l-50 165q-5 14 -17 64q-11 -46 -17 -64l-50 -165h134zM127 683h217q9 0 11.5 -2.5t2.5 -11.5v-35 q0 -9 -2.5 -11.5t-11.5 -2.5h-217q-9 0 -11.5 2.5t-2.5 11.5v35q0 9 2.5 11.5t11.5 2.5z"/>
    <glyph glyph-name="aogonek.sc" unicode="" horiz-adv-x="472" d="M472 -147q0 -7 -29 -19.5t-53 -12.5q-41 0 -65 21.5t-24 59.5q0 26 16.5 60.5t46.5 61.5l-42 134h-174l-47 -147q-4 -11 -16 -11h-53q-14 0 -14 7q0 1 2 9l175 515q4 11 15 11h52q12 0 16 -11l174 -514q2 -8 2 -10q0 -7 -12 -7h-46q-36 -43 -36 -93q0 -34 34 -34 q24 0 56 20q4 2 6 2q3 0 4 -6l10 -28q2 -6 2 -8zM302 224l-50 165q-5 14 -17 64q-11 -46 -17 -64l-50 -165h134z"/>
    <glyph glyph-name="aeacute.sc" unicode="" horiz-adv-x="621" d="M581 13q0 -8 -3.5 -10.5t-12.5 -2.5h-267q-9 0 -12 2.5t-3 10.5v145h-156l-75 -147q-6 -11 -16 -11h-56q-14 0 -14 7q0 2 4 10l275 515q5 10 16 10h307q14 0 14 -8q0 -3 -2 -9l-14 -40q-4 -11 -18 -11h-188v-160h168q15 0 15 -15v-36q0 -14 -15 -14h-168v-181h205 q16 0 16 -14v-41zM283 224v218v37q-11 -32 -27 -62l-100 -193h127zM486 690q0 -3 -9 -8l-164 -85q-7 -4 -10 -4t-9 8l-10 15q-4 7 -4 10q0 4 8 9l145 111q6 5 10 5t10 -8l29 -42q4 -7 4 -11z"/>
    <glyph glyph-name="cacute.sc" unicode="" horiz-adv-x="408" d="M361 91l24 -30q3 -5 3 -8q0 -9 -13 -18q-54 -46 -130 -46q-98 0 -148.5 74t-50.5 213q0 135 49 206t144 71q78 0 137 -49q8 -6 8 -14q0 -4 -3 -8l-27 -32q-4 -4 -8 -4q-5 0 -11 4q-57 38 -96 38q-56 0 -83 -47.5t-27 -157.5q0 -116 31.5 -173t88.5 -57q44 0 91 38 q8 6 11 6q4 0 10 -6zM361 690q0 -3 -9 -8l-164 -85q-7 -4 -10 -4t-9 8l-10 15q-4 7 -4 10q0 4 8 9l145 111q6 5 10 5t10 -8l29 -42q4 -7 4 -11z"/>
    <glyph glyph-name="ccaron.sc" unicode="" horiz-adv-x="408" d="M361 91l24 -30q3 -5 3 -8q0 -9 -13 -18q-54 -46 -130 -46q-98 0 -148.5 74t-50.5 213q0 135 49 206t144 71q78 0 137 -49q8 -6 8 -14q0 -4 -3 -8l-27 -32q-4 -4 -8 -4q-5 0 -11 4q-57 38 -96 38q-56 0 -83 -47.5t-27 -157.5q0 -116 31.5 -173t88.5 -57q44 0 91 38 q8 6 11 6q4 0 10 -6zM367 694q0 -3 -7 -9l-111 -88q-5 -5 -9 -5q-2 0 -9 5l-111 88q-7 6 -7 9q0 4 5 10l13 18q4 5 8 5q2 0 9 -4l92 -59l92 59q6 4 9 4q4 0 10 -7l11 -16q5 -6 5 -10z"/>
    <glyph glyph-name="ccircumflex.sc" unicode="" horiz-adv-x="408" d="M361 91l24 -30q3 -5 3 -8q0 -9 -13 -18q-54 -46 -130 -46q-98 0 -148.5 74t-50.5 213q0 135 49 206t144 71q78 0 137 -49q8 -6 8 -14q0 -4 -3 -8l-27 -32q-4 -4 -8 -4q-5 0 -11 4q-57 38 -96 38q-56 0 -83 -47.5t-27 -157.5q0 -116 31.5 -173t88.5 -57q44 0 91 38 q8 6 11 6q4 0 10 -6zM367 630q0 -3 -5 -10l-13 -18q-4 -5 -8 -5q-2 0 -9 4l-92 59l-92 -59q-7 -4 -9 -4q-3 0 -10 7l-11 16q-5 8 -5 10q0 4 7 10l111 87q5 5 9 5t9 -5l111 -87q7 -7 7 -10z"/>
    <glyph glyph-name="cdotaccent.sc" unicode="" horiz-adv-x="408" d="M361 91l24 -30q3 -5 3 -8q0 -9 -13 -18q-54 -46 -130 -46q-98 0 -148.5 74t-50.5 213q0 135 49 206t144 71q78 0 137 -49q8 -6 8 -14q0 -4 -3 -8l-27 -32q-4 -4 -8 -4q-5 0 -11 4q-57 38 -96 38q-56 0 -83 -47.5t-27 -157.5q0 -116 31.5 -173t88.5 -57q44 0 91 38 q8 6 11 6q4 0 10 -6zM302 662q0 -26 -18 -44t-44 -18t-44.5 18.5t-18.5 44.5t18.5 44t45.5 18q25 0 43 -18.5t18 -44.5z"/>
    <glyph glyph-name="dcaron.sc" unicode="" horiz-adv-x="485" d="M439 281q0 -281 -245 -281h-99q-15 0 -15 13v515q0 14 15 14h91q125 0 177 -48q76 -70 76 -213zM357 279q0 163 -93 190q-19 5 -74 5h-33v-406h42q53 0 82.5 14.5t47.5 50.5q28 54 28 146zM343 694q0 -3 -7 -9l-111 -88q-5 -5 -9 -5q-2 0 -9 5l-111 88q-7 6 -7 9 q0 4 5 10l13 18q4 5 8 5q2 0 9 -4l92 -59l92 59q6 4 9 4q4 0 10 -7l11 -16q5 -6 5 -10z"/>
    <glyph glyph-name="dcroat.sc" unicode="" horiz-adv-x="485" d="M439 281q0 -281 -245 -281h-99q-15 0 -15 13v243h-65q-9 0 -11.5 2t-2.5 9v29q0 7 2.5 9t11.5 2h65v221q0 14 15 14h91q125 0 177 -48q76 -70 76 -213zM357 279q0 163 -93 190q-19 5 -74 5h-33v-167h121q10 0 12 -1.5t2 -9.5v-29q0 -8 -2 -9.5t-12 -1.5h-121v-188h42 q53 0 82.5 14.5t47.5 50.5q28 54 28 146z"/>
    <glyph glyph-name="ebreve.sc" unicode="" horiz-adv-x="415" d="M157 314h166q15 0 15 -15v-36q0 -14 -15 -14h-166v-181h203q9 0 12 -2.5t3 -11.5v-41q0 -8 -3 -10.5t-12 -2.5h-265q-9 0 -12 2t-3 11v515q0 14 15 14h266q15 0 15 -7q0 -2 -2 -8l-13 -42q-3 -11 -16 -11h-188v-160zM358 710q0 -28 -29 -67q-34 -46 -100 -46 q-77 0 -111 59q-18 32 -18 54q0 11 11 12l39 7h4q8 0 10 -10q13 -69 64 -69q27 0 42.5 16t22.5 53q3 10 11 10h4l39 -7q11 -1 11 -12z"/>
    <glyph glyph-name="ecaron.sc" unicode="" horiz-adv-x="415" d="M157 314h166q15 0 15 -15v-36q0 -14 -15 -14h-166v-181h203q9 0 12 -2.5t3 -11.5v-41q0 -8 -3 -10.5t-12 -2.5h-265q-9 0 -12 2t-3 11v515q0 14 15 14h266q15 0 15 -7q0 -2 -2 -8l-13 -42q-3 -11 -16 -11h-188v-160zM356 694q0 -3 -7 -9l-111 -88q-5 -5 -9 -5q-2 0 -9 5 l-111 88q-7 6 -7 9q0 4 5 10l13 18q4 5 8 5q2 0 9 -4l92 -59l92 59q6 4 9 4q4 0 10 -7l11 -16q5 -6 5 -10z"/>
    <glyph glyph-name="edotaccent.sc" unicode="" horiz-adv-x="415" d="M157 314h166q15 0 15 -15v-36q0 -14 -15 -14h-166v-181h203q9 0 12 -2.5t3 -11.5v-41q0 -8 -3 -10.5t-12 -2.5h-265q-9 0 -12 2t-3 11v515q0 14 15 14h266q15 0 15 -7q0 -2 -2 -8l-13 -42q-3 -11 -16 -11h-188v-160zM291 662q0 -26 -18.5 -44t-43.5 -18q-26 0 -44.5 18.5 t-18.5 44.5t18.5 44t45.5 18q25 0 43 -18.5t18 -44.5z"/>
    <glyph glyph-name="emacron.sc" unicode="" horiz-adv-x="415" d="M157 314h166q15 0 15 -15v-36q0 -14 -15 -14h-166v-181h203q9 0 12 -2.5t3 -11.5v-41q0 -8 -3 -10.5t-12 -2.5h-265q-9 0 -12 2t-3 11v515q0 14 15 14h266q15 0 15 -7q0 -2 -2 -8l-13 -42q-3 -11 -16 -11h-188v-160zM120 683h217q9 0 11.5 -2.5t2.5 -11.5v-35 q0 -9 -2.5 -11.5t-11.5 -2.5h-217q-9 0 -11.5 2.5t-2.5 11.5v35q0 9 2.5 11.5t11.5 2.5z"/>
    <glyph glyph-name="eng.sc" unicode="" horiz-adv-x="517" d="M367 -26v41l-207 380q-1 3 -12 32q1 -10 1 -33v-381q0 -8 -3 -10.5t-12 -2.5h-39q-15 0 -15 13v515q0 14 15 14h55q10 0 15 -10l190 -354q8 -14 14 -34q-2 24 -2 35v349q0 9 3.5 11.5t12.5 2.5h39q15 0 15 -14v-571q0 -169 -144 -169q-41 0 -75 12q-14 5 -14 13q0 3 3 10 l18 39q2 6 8 6q1 0 4.5 -1.5t5.5 -1.5q30 -10 53 -10q40 0 55.5 25t15.5 94z"/>
    <glyph glyph-name="eogonek.sc" unicode="" horiz-adv-x="415" d="M357 -147q0 -7 -29 -19.5t-53 -12.5q-41 0 -65 21.5t-24 59.5q0 46 40 98h-131q-9 0 -12 2t-3 11v515q0 14 15 14h266q15 0 15 -7q0 -2 -2 -8l-13 -42q-3 -11 -16 -11h-188v-160h166q15 0 15 -15v-36q0 -14 -15 -14h-166v-181h203q9 0 12 -2.5t3 -11.5v-41q0 -8 -3 -10.5 t-12 -2.5h-79q-36 -43 -36 -93q0 -34 34 -34q24 0 56 20q4 2 6 2q3 0 4 -6l10 -28q2 -6 2 -8z"/>
    <glyph glyph-name="gbreve.sc" unicode="" horiz-adv-x="472" d="M335 215h-65q-9 0 -12 2.5t-3 10.5v38q0 15 15 15h127q15 0 15 -15v-230q0 -9 -10 -15q-57 -32 -145 -32q-103 0 -157 71t-54 206q0 140 54 213.5t159 73.5q74 0 136 -39q13 -8 7 -20l-20 -36q-5 -8 -16 -3q-58 33 -107 33q-130 0 -130 -208q0 -123 34 -175t107 -52 q33 0 65 14v148zM390 710q0 -28 -29 -67q-34 -46 -100 -46q-77 0 -111 59q-18 32 -18 54q0 11 11 12l39 7h4q8 0 10 -10q13 -69 64 -69q27 0 42.5 16t22.5 53q3 10 11 10h4l39 -7q11 -1 11 -12z"/>
    <glyph glyph-name="gcircumflex.sc" unicode="" horiz-adv-x="472" d="M335 215h-65q-9 0 -12 2.5t-3 10.5v38q0 15 15 15h127q15 0 15 -15v-230q0 -9 -10 -15q-57 -32 -145 -32q-103 0 -157 71t-54 206q0 140 54 213.5t159 73.5q74 0 136 -39q13 -8 7 -20l-20 -36q-5 -8 -16 -3q-58 33 -107 33q-130 0 -130 -208q0 -123 34 -175t107 -52 q33 0 65 14v148zM388 630q0 -3 -5 -10l-13 -18q-4 -5 -8 -5q-2 0 -9 4l-92 59l-92 -59q-7 -4 -9 -4q-3 0 -10 7l-11 16q-5 8 -5 10q0 4 7 10l111 87q5 5 9 5t9 -5l111 -87q7 -7 7 -10z"/>
    <glyph glyph-name="gcommaaccent.sc" unicode="" horiz-adv-x="472" d="M335 215h-65q-9 0 -12 2.5t-3 10.5v38q0 15 15 15h127q15 0 15 -15v-230q0 -9 -10 -15q-57 -32 -145 -32q-103 0 -157 71t-54 206q0 140 54 213.5t159 73.5q74 0 136 -39q13 -8 7 -20l-20 -36q-5 -8 -16 -3q-58 33 -107 33q-130 0 -130 -208q0 -123 34 -175t107 -52 q33 0 65 14v148zM294 -75l-78 -152q-9 -15 -18 -15q-4 0 -12 3q-16 5 -16 15q0 2 2 12l40 145q5 17 22 17h45q21 0 21 -10q0 -6 -6 -15z"/>
    <glyph glyph-name="gdotaccent.sc" unicode="" horiz-adv-x="472" d="M335 215h-65q-9 0 -12 2.5t-3 10.5v38q0 15 15 15h127q15 0 15 -15v-230q0 -9 -10 -15q-57 -32 -145 -32q-103 0 -157 71t-54 206q0 140 54 213.5t159 73.5q74 0 136 -39q13 -8 7 -20l-20 -36q-5 -8 -16 -3q-58 33 -107 33q-130 0 -130 -208q0 -123 34 -175t107 -52 q33 0 65 14v148zM323 662q0 -26 -18.5 -44t-43.5 -18q-26 0 -44.5 18.5t-18.5 44.5t18.5 44t45.5 18q25 0 43 -18.5t18 -44.5z"/>
    <glyph glyph-name="hbar.sc" unicode="" horiz-adv-x="529" d="M449 13q0 -8 -3 -10.5t-11 -2.5h-48q-15 0 -15 13v236h-215v-236q0 -8 -3 -10.5t-11 -2.5h-48q-15 0 -15 13v388h-61q-9 0 -11.5 2.5t-2.5 11.5v32q0 9 2.5 11.5t11.5 2.5h61v67q0 14 15 14h48q8 0 11 -3t3 -11v-67h215v67q0 14 15 14h48q8 0 11 -3t3 -11v-67h61 q9 0 11.5 -2.5t2.5 -11.5v-32q0 -8 -3 -11t-11 -3h-61v-388zM157 314h215v87h-215v-87z"/>
    <glyph glyph-name="hcircumflex.sc" unicode="" horiz-adv-x="529" d="M157 314h215v214q0 14 15 14h48q8 0 11 -3t3 -11v-515q0 -8 -3 -10.5t-11 -2.5h-48q-15 0 -15 13v236h-215v-236q0 -8 -3 -10.5t-11 -2.5h-48q-15 0 -15 13v515q0 14 15 14h48q8 0 11 -3t3 -11v-214zM391 630q0 -3 -5 -10l-13 -18q-4 -5 -8 -5q-2 0 -9 4l-92 59l-92 -59 q-7 -4 -9 -4q-3 0 -10 7l-11 16q-5 8 -5 10q0 4 7 10l111 87q5 5 9 5t9 -5l111 -87q7 -7 7 -10z"/>
    </font>
</defs>
</svg>
