<?xml version="1.0" encoding="UTF-8" standalone="no"?>
<!DOCTYPE svg PUBLIC "-//W3C//DTD SVG 1.1//EN" "http://www.w3.org/Graphics/SVG/1.1/DTD/svg11.dtd">
<svg>
<metadata>
Created by FontForge 20090622 at Wed Aug  5 13:07:59 2015
 By deploy user
Copyright 1997 International Typeface Corporation. All rights reserved.
</metadata>
<defs>
<font id="OfficinaSansITCPro-BookItalic" horiz-adv-x="500">
  <font-face font-family="OfficinaSansITCPro Book" font-weight="400" font-style="italic" font-stretch="normal" units-per-em="1000" panose-1="2 0 5 6 4 0 0 9 0 4" ascent="724" descent="-276" x-height="480" cap-height="686" bbox="-164 -243 1031 910" underline-thickness="50" underline-position="-50" slope="-12" unicode-range="U+0020-U+FB04"/>
<missing-glyph d="M12 0v665h475v-665h-475zM250 375l161 243h-323zM221 333l-161 242v-484zM278 333l162 -243v485zM250 290l-162 -242h323z"/>
    <glyph glyph-name="IJ" unicode="IJ" horiz-adv-x="759" d="M397 678q0 -3 -1 -7l-8 -35q-3 -12 -14 -12h-90l-120 -562h90q10 0 10 -8q0 -4 -1 -7l-7 -35q-2 -12 -15 -12h-259q-10 0 -10 9q0 2 1 6l7 35q3 12 15 12h90l120 562h-90q-10 0 -10 9q0 5 1 6l7 35q2 12 15 12h259q10 0 10 -8zM765 678q0 -6 -1 -7l-97 -459 q-26 -122 -67 -168q-53 -58 -142 -58q-62 0 -101.5 37t-39.5 95q0 55 10 75q1 4 9 4h55q7 0 7 -5v-5q-5 -25 -5 -55q0 -36 20 -56.5t55 -20.5q45 0 72.5 30t40.5 94l94 442h-175q-9 0 -9 8q0 6 1 7l8 38q1 12 14 12h241q10 0 10 -8z"/>
    <glyph glyph-name="ij" unicode="ij" horiz-adv-x="507" d="M277 656q0 -23 -16.5 -39.5t-39.5 -16.5t-39.5 16.5t-16.5 38.5q0 24 16.5 40.5t40.5 16.5q22 0 38.5 -16.5t16.5 -39.5zM222 472q0 -1 -1 -5l-97 -457q-2 -10 -12 -10h-53q-7 0 -7 7q0 5 1 6l86 409h-81q-8 0 -8 6q0 2 1 7l7 35q2 10 13 10h143q8 0 8 -8zM515 656 q0 -23 -16.5 -39.5t-39.5 -16.5t-39.5 16t-16.5 39q0 24 16.5 40.5t40.5 16.5q22 0 38.5 -16.5t16.5 -39.5zM470 467l-102 -479q-22 -103 -51 -141q-20 -27 -54 -43t-72 -16q-33 0 -69.5 13t-36.5 25l2 8l18 39q3 6 10 6q5 0 15 -6q38 -20 72 -20q37 0 57.5 32t39.5 121 l89 416h-82q-8 0 -8 6q0 1 1 7l8 35q3 10 12 10h144q7 0 7 -6v-7z"/>
    <glyph glyph-name="napostrophe" unicode="'n" horiz-adv-x="580" d="M266 699q0 -3 -5 -10l-147 -214q-4 -6 -8 -6t-8 2l-21 10q-7 3 -7 7q0 3 3 9l82 199q4 10 15 10h85q11 0 11 -7zM531 415q0 -25 -10 -71l-71 -334q-2 -10 -12 -10h-52q-8 0 -8 6q0 3 1 4v3l70 331q6 28 6 40q0 45 -45 45q-59 0 -111 -57.5t-70 -142.5l-47 -219 q-2 -10 -12 -10h-52q-8 0 -8 6l1 7l72 336q7 33 7 51q0 28 -8 53q-1 3 -1 6q0 6 4 8l44 22q8 3 11 3q19 0 19 -68q0 -3 -0.5 -7.5t-1 -12.5t-0.5 -16q79 106 183 106q42 0 66.5 -21t24.5 -58z"/>
    <glyph glyph-name="f_f" unicode="ff" horiz-adv-x="561" d="M218 480h193l20 96q15 73 45 102q41 41 116 41q34 0 70.5 -10t36.5 -20l-1 -6l-17 -40q-3 -5 -7 -5q-3 0 -12 4q-41 19 -77 19q-38 0 -55.5 -19.5t-28.5 -74.5l-18 -87h142q8 0 8 -6q0 -3 -2 -8l-14 -35q-3 -7 -4.5 -8t-7.5 -1h-134l-86 -450q-17 -91 -61.5 -133.5 t-123.5 -42.5q-31 0 -54 5.5t-23 13.5q0 4 1 5l15 43q1 6 6 6q4 0 10 -2q26 -7 52 -7q44 0 69 27.5t37 88.5l86 446h-193l-86 -450q-17 -91 -61.5 -133.5t-123.5 -42.5q-31 0 -54 5.5t-23 13.5q0 4 1 5l15 43q1 6 6 6q4 0 10 -2q26 -7 52 -7q44 0 69 27.5t37 88.5l86 446 h-71q-8 0 -8 7q0 1 1 6l8 35q3 10 12 10h70l20 96q15 73 45 102q41 41 117 41q31 0 59 -8t28 -17l-1 -6l-17 -38q-3 -5 -7 -5q-2 0 -12 3q-26 13 -58 13q-38 0 -55.5 -19.5t-28.5 -74.5z"/>
    <glyph glyph-name="fi" unicode="fi" horiz-adv-x="519" d="M532 656q0 -21 -15 -36t-36 -15q-22 0 -37 15t-15 36q0 22 15.5 37t37.5 15q20 0 35 -15.5t15 -36.5zM481 472q0 -3 -1 -5l-97 -457q-3 -10 -12 -10h-52q-8 0 -8 6q1 4 1 7l87 409h-193l-86 -450q-17 -92 -61 -134t-124 -42q-31 0 -54 5.5t-23 13.5q0 3 1 5l15 43 q1 6 6 6q4 0 10 -2q28 -7 52 -7q44 0 69 27.5t37 88.5l86 446h-71q-8 0 -8 7q0 1 1 6l8 35q1 10 12 10h70l20 96q15 73 45 102q41 41 110 41q26 0 53.5 -8.5t27.5 -16.5q0 -1 -1 -4l-18 -40q-2 -5 -7 -5q-2 0 -11 3q-30 13 -51 13q-33 0 -50 -20.5t-28 -73.5l-18 -87h256 q7 0 7 -8z"/>
    <glyph glyph-name="fl" unicode="fl" horiz-adv-x="537" d="M542 718q0 -2 -1 -6l-113 -530q-16 -78 -16 -104q0 -30 29 -30q24 0 43 12q7 4 10 4q7 0 7 -6l5 -34v-4v-3q0 -10 -29.5 -20.5t-58.5 -10.5q-38 0 -59.5 20t-21.5 55q0 33 19 121l110 518q2 9 11 11l52 12q1 1 7 1t6 -6zM415 694l-1 -6l-17 -38q-3 -5 -7 -5q-2 0 -12 3 q-26 13 -58 13q-38 0 -55.5 -19.5t-28.5 -74.5l-18 -87h139q11 0 11 -6q0 -2 -2 -8l-14 -35q-3 -9 -12 -9h-134l-86 -450q-17 -92 -61 -134t-124 -42q-31 0 -54 5.5t-23 13.5q0 3 1 5l15 43q1 6 6 6q4 0 10 -2q28 -7 52 -7q44 0 69 27.5t37 88.5l86 446h-71q-8 0 -8 7 q0 1 1 6l8 35q1 10 12 10h70l20 96q15 73 45 102q41 41 116 41q32 0 60 -8t28 -17z"/>
    <glyph glyph-name="f_f_i" unicode="ffi" horiz-adv-x="784" d="M797 656q0 -21 -15 -36t-36 -15q-22 0 -37 15t-15 36q0 22 15.5 37t37.5 15q20 0 35 -15.5t15 -36.5zM411 480l20 96q15 73 45 102q41 41 110 41q26 0 53.5 -8.5t27.5 -16.5q0 -1 -1 -4l-18 -40q-2 -5 -7 -5q-2 0 -11 3q-30 13 -51 13q-33 0 -50 -20.5t-28 -73.5l-18 -87 h256q7 0 7 -8q0 -3 -1 -5l-97 -457q-2 -10 -12 -10h-52q-8 0 -8 6q1 4 1 7l87 409h-193l-86 -450q-17 -92 -61 -134t-124 -42q-31 0 -54 5.5t-23 13.5q0 3 1 5l15 43q1 6 6 6q4 0 10 -2q28 -7 52 -7q44 0 69 27.5t37 88.5l86 446h-193l-86 -450q-17 -91 -61.5 -133.5 t-123.5 -42.5q-31 0 -54 5.5t-23 13.5q0 4 1 5l15 43q1 6 6 6q4 0 10 -2q26 -7 52 -7q44 0 69 27.5t37 88.5l86 446h-71q-8 0 -8 7q0 1 1 6l8 35q3 10 12 10h70l20 96q15 73 45 102q41 41 117 41q31 0 59 -8t28 -17l-1 -6l-17 -38q-3 -5 -7 -5q-2 0 -12 3q-26 13 -58 13 q-38 0 -55.5 -19.5t-28.5 -74.5l-18 -87h193z"/>
    <glyph glyph-name="f_f_l" unicode="ffl" horiz-adv-x="802" d="M807 718q0 -2 -1 -6l-113 -530q-16 -78 -16 -104q0 -30 29 -30q24 0 43 12q7 4 10 4q7 0 7 -6l5 -34v-4v-3q0 -10 -29.5 -20.5t-58.5 -10.5q-38 0 -59.5 20t-21.5 55q0 33 19 121l110 518q2 9 11 11l52 12q1 1 7 1t6 -6zM399 422h-193l-86 -450q-17 -91 -61.5 -133.5 t-123.5 -42.5q-31 0 -54 5.5t-23 13.5q0 4 1 5l15 43q1 6 6 6q4 0 10 -2q26 -7 52 -7q44 0 69 27.5t37 88.5l86 446h-71q-8 0 -8 7q0 1 1 6l8 35q3 10 12 10h70l20 96q15 73 45 102q41 41 117 41q31 0 59 -8t28 -17l-1 -6l-17 -38q-3 -5 -7 -5q-2 0 -12 3q-26 13 -58 13 q-38 0 -55.5 -19.5t-28.5 -74.5l-18 -87h193l20 96q15 73 45 102q41 41 116 41q32 0 60 -8t28 -17l-1 -6l-17 -38q-2 -5 -7 -5q-1 0 -12 3q-26 13 -58 13q-38 0 -55.5 -19.5t-28.5 -74.5l-18 -87h139q11 0 11 -6q0 -2 -2 -8l-14 -35q-3 -9 -12 -9h-134l-86 -450 q-17 -92 -61 -134t-124 -42q-31 0 -54 5.5t-23 13.5q0 3 1 5l15 43q1 6 6 6q4 0 10 -2q28 -7 52 -7q44 0 69 27.5t37 88.5z"/>
    <glyph glyph-name=".notdef" d="M12 0v665h475v-665h-475zM250 375l161 243h-323zM221 333l-161 242v-484zM278 333l162 -243v485zM250 290l-162 -242h323z"/>
    <glyph glyph-name=".null" horiz-adv-x="0"/>
    <glyph glyph-name="nonmarkingreturn" horiz-adv-x="333"/>
    <glyph glyph-name="space" unicode=" " horiz-adv-x="206"/>
    <glyph glyph-name="exclam" unicode="!" horiz-adv-x="333" d="M303 679l-1 -9l-106 -394q-2 -8 -4.5 -9.5t-10.5 -1.5h-31q-10 0 -10 8q0 2 1 4v3l62 394q2 12 14 12h76q10 0 10 -7zM190 55q0 -28 -19.5 -47.5t-47.5 -19.5t-47.5 19.5t-19.5 46.5q0 29 20 48.5t49 19.5q26 0 45.5 -20t19.5 -47z"/>
    <glyph glyph-name="quotedbl" unicode="&quot;" d="M456 678q0 -2 -2 -8l-69 -238q-2 -8 -4.5 -9.5t-10.5 -1.5h-23q-10 0 -10 8v3l1 4l33 237q1 6 2 8.5t3.5 3.5t8.5 1h61q10 0 10 -8zM308 678q0 -2 -2 -8l-69 -238q-2 -8 -4.5 -9.5t-10.5 -1.5h-23q-10 0 -10 8q0 1 1 7l33 237q1 7 2 9t3.5 3t8.5 1h61q10 0 10 -8z"/>
    <glyph glyph-name="numbersign" unicode="#" d="M502 434q0 -1 -1 -6l-8 -39q-3 -12 -15 -12h-64l-63 -196h58q10 0 10 -9q0 -5 -1 -6l-8 -39q-2 -12 -15 -12h-64l-59 -186q-4 -11 -15 -11h-38q-10 0 -10 7q0 5 2 9l57 181h-126l-59 -186q-4 -11 -15 -11h-38q-10 0 -10 7q0 3 2 9l58 181h-63q-10 0 -10 8q0 2 1 7l8 39 q3 12 15 12h69l63 196h-63q-10 0 -10 8q0 2 1 7l9 39q2 12 14 12h70l65 204q2 8 4.5 9.5t10.5 1.5h37q10 0 10 -7q0 -5 -2 -9l-63 -199h126l65 204q3 11 15 11h38q10 0 10 -7q0 -2 -2 -9l-63 -199h57q10 0 10 -9zM352 377h-127l-62 -196h126z"/>
    <glyph glyph-name="dollar" unicode="$" d="M480 612q0 -4 -2 -8l-27 -41q-3 -5 -8 -5t-13 5q-43 30 -81 33l-49 -230q1 -1 14 -11q47 -39 61 -59q32 -44 32 -104q0 -58 -28 -105.5t-76 -70.5q-33 -16 -81 -20l-12 -54q-2 -12 -15 -12h-25q-10 0 -10 8q0 5 1 7l11 51q-67 6 -119 32q-19 11 -19 17q0 3 2 7l25 44 q5 5 8 5t13 -6q49 -31 103 -37l55 261q-63 52 -73 64q-38 44 -38 104q0 49 28.5 91.5t75.5 62.5q31 13 79 17l9 38q1 12 14 12h26q10 0 10 -8q0 -4 -1 -7l-7 -35q37 -2 77 -18t40 -28zM300 595q-46 -9 -72 -38t-26 -73q0 -27 11 -45t44 -46zM331 187q0 54 -48 102l-49 -228 q97 25 97 126z"/>
    <glyph glyph-name="percent" unicode="%" horiz-adv-x="759" d="M716 213q0 -47 -17 -94t-46 -79q-46 -52 -112 -52q-48 0 -76 30t-28 82q0 48 18 99t44 80q48 52 115 52q49 0 75.5 -31t26.5 -87zM636 652q0 -3 -4 -9l-412 -653q-5 -9 -17 -9h-41q-11 0 -11 8q0 3 4 9l412 654q5 8 15 8h43q11 0 11 -8zM348 536q0 -103 -62 -172 q-46 -52 -112 -52q-49 0 -77 30t-28 82q0 47 18 98t44 80q48 51 115 51q49 0 75.5 -30.5t26.5 -86.5zM652 219q0 57 -47 57q-46 0 -74 -52q-29 -55 -29 -124q0 -57 46 -57q48 0 75 53q29 55 29 123zM284 540q0 58 -47 58q-46 0 -74 -52q-29 -53 -29 -123q0 -56 46 -56 q47 0 75 52q29 53 29 121z"/>
    <glyph glyph-name="ampersand" unicode="&amp;" horiz-adv-x="593" d="M564 307q0 -9 -16 -55q-29 -76 -81 -137l49 -73q4 -8 4 -9q0 -5 -8 -11l-41 -27q-4 -2 -8 -2q-6 0 -11 7l-41 64q-54 -42 -101 -59t-107 -17q-82 0 -127 41t-45 116q0 108 90 178q27 21 84 50q-34 51 -45.5 81.5t-11.5 66.5q0 78 55 127t142 49q64 0 103 -36.5t39 -95.5 q0 -64 -41.5 -113t-138.5 -98l124 -184q44 58 57 123q3 14 5.5 17.5t9.5 3.5h51q10 0 10 -7zM413 560q0 36 -21.5 57t-58.5 21q-47 0 -79 -32t-32 -79q0 -26 9.5 -48t42.5 -74q73 43 97 66q42 40 42 89zM375 118l-135 202q-72 -38 -103 -76.5t-31 -89.5q0 -48 29 -75.5 t80 -27.5q85 0 160 67z"/>
    <glyph glyph-name="quotesingle" unicode="'" horiz-adv-x="333" d="M298 678q0 -2 -2 -8l-69 -238q-2 -8 -4.5 -9.5t-10.5 -1.5h-23q-10 0 -10 8q0 1 1 7l33 237q1 7 2 9t3.5 3t8.5 1h61q10 0 10 -8z"/>
    <glyph glyph-name="parenleft" unicode="(" horiz-adv-x="426" d="M454 699q0 -5 -13 -19q-256 -274 -256 -580q0 -73 18.5 -149.5t50.5 -134.5q5 -10 5 -15q0 -6 -10 -13l-29 -15q-6 -3 -9 -3q-8 0 -18 18q-89 158 -89 319q0 152 68 302.5t193 276.5q32 33 38.5 38.5t10.5 5.5t9 -3l26 -19q5 -3 5 -9z"/>
    <glyph glyph-name="parenright" unicode=")" horiz-adv-x="426" d="M319 394q0 -152 -68 -303t-193 -277q-32 -33 -38.5 -38.5t-10.5 -5.5q-5 0 -8 3l-27 19q-5 3 -5 9q0 5 13 19q256 278 256 580q0 154 -68 284q-6 11 -6 14q0 7 10 14l30 15q4 3 9 3t17 -18q23 -40 50 -108q39 -99 39 -210z"/>
    <glyph glyph-name="asterisk" unicode="*" d="M476 546q0 -6 -11 -9l-114 -28l76 -89q5 -7 5 -10t-7 -9l-33 -24q-5 -4 -9 -4q-5 0 -10 8l-61 101l-61 -101q-5 -8 -10 -8q-4 0 -9 4l-32 24q-8 5 -8 9t5 10l76 89l-114 28q-11 3 -11 9q0 2 2 8l12 37q4 11 9 11q1 0 9 -3l108 -45l-9 119q-1 8 1 10.5t9 2.5h46q7 0 9 -2 t1 -11l-9 -119l108 45q8 3 9 3q5 0 9 -11l12 -37q2 -4 2 -8z"/>
    <glyph glyph-name="plus" unicode="+" d="M301 358h177q9 0 11.5 -2.5t2.5 -11.5v-47q0 -9 -2.5 -11.5t-11.5 -2.5h-177v-176q0 -9 -2.5 -11.5t-11.5 -2.5h-47q-9 0 -11.5 2.5t-2.5 11.5v176h-176q-9 0 -11.5 2.5t-2.5 11.5v47q0 9 2.5 11.5t11.5 2.5h176v177q0 9 2 11t12 2h47q10 0 12 -2t2 -11v-177z"/>
    <glyph glyph-name="comma" unicode="," horiz-adv-x="296" d="M190 108q0 -4 -5 -10l-147 -215q-4 -6 -8 -6q-2 0 -8 2l-21 10q-7 3 -7 7t3 10l82 199q4 10 15 10h85q11 0 11 -7z"/>
    <glyph glyph-name="hyphen" unicode="-" horiz-adv-x="297" d="M268 283q0 -3 -1 -7l-10 -48q-2 -12 -15 -12h-206q-10 0 -10 9q0 1 1 6l10 48q2 12 15 12h206q10 0 10 -8z"/>
    <glyph glyph-name="period" unicode="." horiz-adv-x="296" d="M172 55q0 -28 -19.5 -47.5t-47.5 -19.5t-47.5 19.5t-19.5 46.5q0 29 20 48.5t49 19.5q26 0 45.5 -20t19.5 -47z"/>
    <glyph glyph-name="slash" unicode="/" horiz-adv-x="445" d="M484 705q0 -4 -4 -10l-517 -886q-5 -9 -17 -9h-46q-10 0 -10 8q0 3 4 9l516 886q4 9 17 9h46q11 0 11 -7z"/>
    <glyph glyph-name="zero" unicode="0" d="M485 469q0 -89 -25.5 -186.5t-68.5 -169.5q-74 -125 -198 -125q-150 0 -150 189q0 89 25.5 185.5t68.5 170.5q73 125 201 125q147 0 147 -189zM409 475q0 114 -90 114q-83 0 -134 -111q-26 -57 -46 -149t-20 -156q0 -116 90 -116q83 0 134 111q27 57 46.5 149t19.5 158z "/>
    <glyph glyph-name="one" unicode="1" d="M387 638q0 -6 -1 -7l-120 -565h89q8 0 8 -10q0 -4 -1 -5l-8 -39q-3 -12 -15 -12h-263q-11 0 -11 9q0 1 1 6l8 39q3 12 15 12h102l105 494l-148 -82q-3 -3 -8 -3t-10 8l-13 21q-3 5 -3 7q0 5 7 9l198 121q8 5 18 5h41q9 0 9 -8z"/>
    <glyph glyph-name="two" unicode="2" d="M479 530q0 -78 -51 -142q-21 -25 -45.5 -44.5t-99.5 -71.5q-84 -57 -121.5 -98.5t-59.5 -101.5h274q10 0 10 -8q0 -5 -1 -7l-9 -45q-3 -12 -15 -12h-339q-8 0 -8 7q0 13 11.5 50.5t22.5 61.5q27 58 66.5 101t125.5 105q99 73 128 107q30 38 30 86q0 34 -20 52.5t-57 18.5 q-42 0 -70 -20.5t-62 -76.5q-8 -13 -13 -13q-2 0 -6 2l-43 14q-7 2 -7 7q0 4 9 22q32 64 84.5 99t116.5 35q69 0 109 -34.5t40 -93.5z"/>
    <glyph glyph-name="three" unicode="3" d="M452 534q0 -62 -35.5 -110.5t-100.5 -74.5q49 -21 69.5 -50t20.5 -77q0 -99 -72 -166.5t-178 -67.5q-46 0 -97 15t-51 29l1 7l24 48q2 5 8 5q3 0 14 -6q56 -30 112 -30q70 0 115.5 45t45.5 114q0 94 -123 94h-35q-10 0 -10 8q0 5 1 7l8 39q2 12 15 12h36q65 0 111 42.5 t46 103.5q0 35 -21 54t-60 19q-30 0 -54.5 -12t-61.5 -44q-12 -10 -16 -10t-6 2l-30 32q-2 2 -2 6t11 17q33 34 79 54t92 20q65 0 104.5 -34.5t39.5 -90.5z"/>
    <glyph glyph-name="four" unicode="4" d="M453 217q0 -4 -1 -7l-9 -42q-3 -12 -14 -12h-82l-30 -144q-2 -12 -15 -12h-47q-11 0 -11 8q0 2 1 7l30 141h-257q-10 0 -10 9q0 2 1 6l9 44q3 9 3 10q4 5 6 8l345 424q6 7 9 7q6 0 8 -1l49 -11q7 -2 7 -6q0 -5 -2 -7l-341 -414h188l46 159q3 11 15 11h35q10 0 10 -8 q0 -5 -1 -7l-33 -155h81q10 0 10 -8z"/>
    <glyph glyph-name="five" unicode="5" d="M475 638q0 -3 -1 -7l-9 -42q-3 -12 -15 -12h-210l-67 -207q60 41 116 41q66 0 105 -40t39 -108q0 -60 -25.5 -117.5t-69.5 -98.5q-63 -59 -171 -59q-46 0 -91.5 10.5t-45.5 21.5q0 1 2 9l12 40q3 10 12 10q5 0 22 -5q55 -17 100 -17q78 0 130.5 56.5t52.5 140.5 q0 44 -23 68t-64 24q-71 0 -124 -53q-12 -12 -17 -12q-4 0 -6 1l-32 11q-11 4 -11 9q0 2 2 8l101 325q4 11 15 11h263q10 0 10 -8z"/>
    <glyph glyph-name="six" unicode="6" d="M518 640q0 -4 -1 -4l-23 -50q-2 -4 -7 -4q-3 0 -12 3q-27 9 -54 9q-81 0 -146 -71q-56 -60 -87 -148q62 65 135 65q61 0 96 -41t35 -114q0 -124 -69 -210.5t-169 -86.5q-72 0 -111 45t-39 129q0 91 32.5 189t88.5 176q96 132 240 132q34 0 63 -6t28 -13zM377 282 q0 93 -85 93q-37 0 -70 -22.5t-50 -60.5q-28 -63 -28 -139q0 -100 83 -100q73 0 118 92q32 66 32 137z"/>
    <glyph glyph-name="seven" unicode="7" d="M512 637q0 -1 -1 -6l-4 -16q-1 -9 -7 -19l-351 -598q-5 -8 -12 -8h-8l-55 9q-7 2 -7 8q0 2 4 9l337 558h-263q-10 0 -10 8q0 6 1 7l9 45q3 12 15 12h342q10 0 10 -9z"/>
    <glyph glyph-name="eight" unicode="8" d="M483 529q0 -119 -148 -186q109 -51 109 -153q0 -82 -63 -142q-64 -60 -169 -60q-89 0 -139 40t-50 112q0 95 87 157q32 23 99 46q-89 54 -89 139q0 79 55 127.5t146 48.5q79 0 120.5 -33t41.5 -96zM411 515q0 78 -94 78q-55 0 -87.5 -28.5t-32.5 -75.5q0 -34 15.5 -56.5 t65.5 -58.5q70 31 101.5 64.5t31.5 76.5zM366 183q0 59 -44 90q-16 12 -59 32q-85 -27 -123.5 -64.5t-38.5 -91.5q0 -45 31 -70.5t85 -25.5q66 0 107.5 36t41.5 94z"/>
    <glyph glyph-name="nine" unicode="9" d="M461 499q0 -119 -43.5 -239.5t-113.5 -193.5q-75 -78 -186 -78q-84 0 -84 19q0 5 1 9l9 39q2 9 9 9q6 0 14 -2q24 -5 48 -5q82 0 144 63q32 33 50.5 68t44.5 107q-60 -85 -147 -85q-58 0 -94 45t-36 118q0 123 69 206q66 79 169 79q71 0 108.5 -40.5t37.5 -118.5z M383 506q0 42 -20.5 64.5t-58.5 22.5q-71 0 -114 -78q-35 -62 -35 -139q0 -101 79 -101q64 0 105 57q19 27 31.5 76.5t12.5 97.5z"/>
    <glyph glyph-name="colon" unicode=":" horiz-adv-x="296" d="M248 406q0 -28 -19.5 -47.5t-47.5 -19.5t-48 19.5t-20 47.5q0 29 20 48.5t49 19.5q27 0 46.5 -20t19.5 -48zM172 55q0 -28 -19.5 -47.5t-47.5 -19.5t-47.5 19.5t-19.5 46.5q0 29 20 48.5t49 19.5q26 0 45.5 -20t19.5 -47z"/>
    <glyph glyph-name="semicolon" unicode=";" horiz-adv-x="296" d="M252 404q0 -28 -19.5 -47.5t-47.5 -19.5t-48 19.5t-20 47.5q0 29 20 48.5t49 19.5q27 0 46.5 -20t19.5 -48zM186 108q0 -4 -5 -10l-147 -214q-4 -7 -8 -7q-2 0 -8 2l-21 10q-7 3 -7 7q0 2 3 10l82 199q4 10 15 10h85q11 0 11 -7z"/>
    <glyph glyph-name="less" unicode="&lt;" d="M487 74l-446 211v70l446 211v-81l-359 -165l359 -165v-81z"/>
    <glyph glyph-name="equal" unicode="=" d="M492 366q0 -9 -2.5 -11.5t-11.5 -2.5h-428q-8 0 -11 3t-3 11v47q0 9 2.5 11.5t11.5 2.5h428q9 0 11.5 -2.5t2.5 -11.5v-47zM492 228q0 -9 -2.5 -11.5t-11.5 -2.5h-428q-9 0 -11.5 2.5t-2.5 11.5v47q0 9 2.5 11.5t11.5 2.5h428q9 0 11.5 -2.5t2.5 -11.5v-47z"/>
    <glyph glyph-name="greater" unicode="&gt;" d="M487 285l-446 -211v81l359 165l-359 165v81l446 -211v-70z"/>
    <glyph glyph-name="question" unicode="?" horiz-adv-x="463" d="M455 569q0 -48 -25 -91.5t-68 -71.5q-29 -19 -99 -37l-20 -92q-3 -12 -15 -12h-43q-10 0 -10 9q0 5 1 6l26 122q2 10 7.5 14t28.5 10q73 20 101 46q35 33 35 83q0 71 -87 71q-46 0 -100 -19q-16 -5 -18 -5q-7 0 -9 7l-10 34q-2 5 -2 7q0 14 53.5 29.5t101.5 15.5 q70 0 111 -34t41 -92zM231 55q0 -28 -19.5 -47.5t-47.5 -19.5t-47.5 19.5t-19.5 46.5q0 29 20 48.5t49 19.5q26 0 45.5 -20t19.5 -47z"/>
    <glyph glyph-name="at" unicode="@" horiz-adv-x="945" d="M885 365q0 -91 -38 -166t-106 -118q-51 -32 -103 -32q-39 0 -61 23.5t-24 66.5q-61 -89 -138 -89q-40 0 -63 30.5t-23 82.5q0 108 57 194q49 73 122 73q27 0 44 -8.5t37 -31.5l10 24q3 6 10 6h45q6 0 6 -4v-3l-1 -3l-49 -230q-2 -12 -2 -28q0 -48 40 -48q69 0 120.5 77.5 t51.5 181.5q0 100 -57 160q-76 78 -212 78q-171 0 -288 -120.5t-117 -296.5q0 -141 79 -222q77 -80 232 -80q165 0 297 72q12 6 16 6q6 0 10 -8l12 -29q2 -6 2 -8q0 -9 -17 -18q-67 -34 -156 -53.5t-173 -19.5q-177 0 -274 97q-97 99 -97 259q0 94 38 187t103 158 q64 64 151 99t181 35q165 0 260 -92q75 -72 75 -202zM575 338q-36 33 -71 33q-44 0 -74 -70q-29 -68 -29 -134q0 -55 35 -55q39 0 73 41t48 103z"/>
    <glyph glyph-name="A" unicode="A" d="M446 7q0 -7 -11 -7h-54q-9 0 -11 2t-3 11l-16 193h-211l-100 -197q-4 -9 -15 -9h-52q-12 0 -12 8q0 4 3 9l341 660q5 9 16 9h50q8 0 10.5 -2.5t3.5 -10.5l61 -659v-7zM343 275l-15 221q-2 27 -3 59.5t-1 35.5q-15 -40 -42 -95l-106 -221h167z"/>
    <glyph glyph-name="B" unicode="B" horiz-adv-x="537" d="M515 560q0 -68 -38.5 -123.5t-100.5 -77.5q93 -32 93 -129q0 -74 -44.5 -137t-108.5 -82q-37 -11 -128 -11h-138q-10 0 -10 9q0 1 1 6l140 659q3 12 15 12h120q106 0 144 -22q55 -31 55 -104zM431 549q0 70 -87 70h-96l-50 -236h64q44 0 67 7t45 26q26 22 41.5 58.5 t15.5 74.5zM387 227q0 89 -115 89h-88l-53 -249h88q67 0 102 26q29 21 47.5 58.5t18.5 75.5z"/>
    <glyph glyph-name="C" unicode="C" horiz-adv-x="426" d="M488 634q0 -1 -3 -10l-25 -38q-5 -6 -8 -6q-6 0 -17 11q-45 40 -99 40q-74 0 -125 -103q-32 -67 -54 -165.5t-22 -179.5q0 -61 23 -94.5t65 -33.5q52 0 123 52q7 4 9 4q7 0 9 -7l16 -36q2 -2 2 -8t-15 -16q-82 -58 -159 -58q-76 0 -117 52t-41 149q0 91 25 194t66 179 q75 140 206 140q73 0 132 -52q9 -7 9 -14z"/>
    <glyph glyph-name="D" unicode="D" horiz-adv-x="537" d="M526 501q0 -113 -37.5 -231.5t-94.5 -185.5q-71 -84 -216 -84h-128q-10 0 -10 8q0 2 1 7l140 659q3 12 15 12h102q71 0 105.5 -6.5t59.5 -25.5q63 -46 63 -153zM444 498q0 80 -49 105q-25 12 -80 12h-68l-115 -544h70q88 0 136 67q44 61 75 166t31 194z"/>
    <glyph glyph-name="E" unicode="E" horiz-adv-x="463" d="M511 679q0 -3 -3 -10l-23 -44q-6 -10 -15 -10h-223l-47 -225h197q10 0 10 -8q0 -4 -1 -7l-8 -40q-3 -12 -15 -12h-198l-53 -252h241q10 0 10 -8q0 -6 -1 -7l-9 -44q-2 -12 -15 -12h-308q-10 0 -10 9q0 2 1 6l140 659q3 12 15 12h305q10 0 10 -7z"/>
    <glyph glyph-name="F" unicode="F" horiz-adv-x="426" d="M514 679q0 -3 -4 -10l-24 -45q-5 -9 -15 -9h-224l-49 -232h198q10 0 10 -9q0 -1 -1 -6l-9 -40q-3 -12 -14 -12h-198l-65 -304q-2 -12 -15 -12h-54q-10 0 -10 9q0 1 1 6l140 659q3 12 15 12h307q11 0 11 -7z"/>
    <glyph glyph-name="G" unicode="G" d="M526 641q0 -3 -3 -9l-29 -42q-4 -5 -8 -5q-5 0 -10 5q-51 41 -108 41q-103 0 -155 -103q-37 -72 -59 -166.5t-22 -177.5q0 -130 123 -130q42 0 80 16l45 210h-83q-10 0 -10 8q0 2 1 7l9 40q2 12 14 12h147q10 0 10 -9q0 -1 -2 -6l-61 -292q-2 -12 -17 -19 q-75 -35 -157 -35q-85 0 -133 55t-48 151t28.5 203.5t71.5 176.5q38 61 96.5 94.5t128.5 33.5q79 0 139 -45q12 -9 12 -14z"/>
    <glyph glyph-name="H" unicode="H" horiz-adv-x="574" d="M571 677q0 -2 -1 -6l-140 -659q-3 -12 -15 -12h-54q-10 0 -10 9q0 3 1 6l65 308h-232l-66 -311q-2 -12 -15 -12h-54q-10 0 -10 9q0 1 1 6l140 659q3 12 15 12h54q10 0 10 -9q0 -4 -1 -6l-59 -281h231l61 284q3 12 15 12h54q10 0 10 -9z"/>
    <glyph glyph-name="I" unicode="I" horiz-adv-x="333" d="M397 678q0 -3 -1 -7l-8 -35q-3 -12 -14 -12h-90l-120 -562h90q10 0 10 -8q0 -4 -1 -7l-7 -35q-2 -12 -15 -12h-259q-10 0 -10 9q0 2 1 6l7 35q3 12 15 12h90l120 562h-90q-10 0 -10 9q0 5 1 6l7 35q2 12 15 12h259q10 0 10 -8z"/>
    <glyph glyph-name="J" unicode="J" horiz-adv-x="426" d="M432 678q0 -6 -1 -7l-97 -459q-26 -122 -67 -168q-53 -58 -142 -58q-62 0 -101.5 37t-39.5 95q0 55 10 75q1 4 9 4h55q7 0 7 -5v-5q-5 -25 -5 -55q0 -36 20 -56.5t55 -20.5q45 0 72.5 30t40.5 94l94 442h-175q-9 0 -9 8q0 6 1 7l8 38q1 12 14 12h241q10 0 10 -8z"/>
    <glyph glyph-name="K" unicode="K" d="M565 659q0 -4 -5 -9l-284 -293l168 -317q3 -6 3 -10q0 -5 -7 -8l-51 -27q-5 -3 -9 -3t-9 7l-179 354l-73 -341q-2 -12 -15 -12h-54q-10 0 -10 9q0 1 1 6l140 659q3 12 15 12h54q10 0 10 -9q0 -4 -1 -6l-65 -307l314 327q6 7 9 7t10 -5l31 -24q7 -7 7 -10z"/>
    <glyph glyph-name="L" unicode="L" horiz-adv-x="408" d="M395 64q0 -2 -3 -10l-26 -45q-4 -9 -15 -9h-301q-10 0 -10 9q0 2 1 6l140 659q3 12 15 12h54q10 0 10 -9q0 -4 -1 -6l-127 -600h253q10 0 10 -7z"/>
    <glyph glyph-name="M" unicode="M" horiz-adv-x="648" d="M626 677q0 -2 -1 -6l-102 -659q-1 -12 -15 -12h-53q-10 0 -10 9q0 4 1 6l94 514q2 10 6 27.5t6 25.5q-19 -40 -26 -53l-193 -360q-5 -9 -16 -9h-29q-8 0 -10.5 2.5t-3.5 10.5l-37 356q-2 18 -4 56q-5 -27 -12 -56l-123 -517q-3 -12 -15 -12h-53q-10 0 -10 8q0 2 2 8 l177 659q4 11 15 11h53q13 0 14 -13l41 -345q2 -22 2 -41v-13q16 38 25 54l188 349q5 9 16 9h63q10 0 10 -9z"/>
    <glyph glyph-name="N" unicode="N" horiz-adv-x="556" d="M561 676q0 -1 -1 -5l-140 -659q-3 -12 -15 -12h-49q-8 0 -11 2t-4 10l-115 508q-8 35 -12 74q-1 -44 -8 -78l-107 -504q-3 -12 -15 -12h-43q-10 0 -10 9q0 1 1 6l140 659q3 12 15 12h59q8 0 10.5 -2t3.5 -10l109 -479q11 -44 14 -77v15q0 26 8 62l102 479q2 12 15 12h43 q10 0 10 -10z"/>
    <glyph glyph-name="O" unicode="O" horiz-adv-x="537" d="M522 503q0 -106 -28 -218.5t-72 -181.5q-75 -117 -205 -117q-86 0 -126 49.5t-40 155.5q0 102 28 211t72 181q73 117 207 117q90 0 127 -53q37 -51 37 -144zM442 497q0 75 -21 106t-72 31q-55 0 -94.5 -40.5t-70.5 -127.5q-53 -147 -53 -279q0 -72 21 -103.5t70 -31.5 q56 0 96 40t72 127q52 148 52 278z"/>
    <glyph glyph-name="P" unicode="P" horiz-adv-x="482" d="M512 542q0 -63 -23 -116.5t-65 -85.5q-35 -27 -72.5 -37.5t-101.5 -10.5h-71l-60 -280q-2 -12 -15 -12h-54q-10 0 -10 9q0 1 1 6l140 659q3 12 15 12h143q82 0 117 -21q56 -35 56 -123zM432 536q0 44 -21 61.5t-74 17.5h-90l-54 -256h66q82 0 120 35q53 48 53 142z"/>
    <glyph glyph-name="Q" unicode="Q" horiz-adv-x="537" d="M524 500q0 -89 -24 -195t-58 -170q-19 -36 -56 -78q31 -38 84 -78q18 -13 18 -20q0 -6 -5 -9l-46 -25q-7 -3 -10 -3q-15 0 -42.5 25t-56.5 65q-49 -26 -109 -26q-86 0 -126.5 49.5t-40.5 155.5q0 103 28 212t73 180q73 117 205 117q166 0 166 -200zM444 496q0 76 -21 107 t-72 31q-55 0 -94.5 -40.5t-71.5 -127.5q-53 -146 -53 -279q0 -72 21.5 -103.5t70.5 -31.5q56 0 96.5 40t71.5 127q52 144 52 277z"/>
    <glyph glyph-name="R" unicode="R" d="M503 548q0 -90 -46.5 -152t-126.5 -78l103 -299q2 -6 2 -9q0 -6 -9 -7l-56 -10q-3 -1 -7 -1q-5 0 -9 9l-102 311h-69l-64 -300q-2 -12 -15 -12h-54q-10 0 -10 9q0 1 1 6l140 659q3 12 15 12h143q86 0 125 -33t39 -105zM423 544q0 40 -23 57.5t-75 17.5h-77l-51 -243h76 q74 0 113 45q16 18 26.5 53.5t10.5 69.5z"/>
    <glyph glyph-name="S" unicode="S" horiz-adv-x="445" d="M466 649q0 -5 -3 -9l-28 -44q-3 -5 -9 -5q-5 0 -20 11q-47 33 -97 33q-58 0 -94.5 -34.5t-36.5 -88.5q0 -31 17.5 -53.5t79.5 -72.5q64 -50 89 -91.5t25 -94.5q0 -96 -67 -160q-58 -54 -162 -54q-88 0 -155 42q-11 7 -11 13q0 3 3 8l26 46q3 5 8 5q4 0 10 -5 q57 -40 126 -40q62 0 99.5 37.5t37.5 99.5q0 43 -20.5 72.5t-84.5 80.5q-61 48 -82.5 82.5t-21.5 82.5q0 42 20 83t53 66q54 41 148 41q80 0 133 -35q17 -10 17 -16z"/>
    <glyph glyph-name="T" unicode="T" horiz-adv-x="389" d="M497 679q0 -3 -4 -10l-22 -45q-5 -9 -16 -9h-145l-128 -603q-3 -12 -15 -12h-54q-10 0 -10 8q0 5 1 7l127 600h-148q-10 0 -10 9q0 1 1 6l9 44q3 12 15 12h388q11 0 11 -7z"/>
    <glyph glyph-name="U" unicode="U" horiz-adv-x="574" d="M585 678q0 -3 -1 -7l-102 -483q-12 -57 -29.5 -90.5t-50.5 -59.5q-64 -52 -170 -52q-170 0 -170 138q0 33 7 64l103 486q3 12 15 12h55q10 0 10 -8q0 -2 -1 -7l-103 -483q-7 -29 -7 -54q0 -79 104 -79q132 0 160 133l103 486q3 12 15 12h52q10 0 10 -8z"/>
    <glyph glyph-name="V" unicode="V" horiz-adv-x="445" d="M533 670q0 -2 -3 -9l-316 -651q-4 -10 -18 -10h-59q-9 0 -11.5 2.5t-3.5 10.5l-37 649v4v3q0 5 10 7l58 11q3 1 7 1q8 0 8 -11l15 -525v-9v-15v-7l-1 -45q21 52 32 76l245 533q3 8 8 8q2 0 8 -2l50 -13q8 -3 8 -8z"/>
    <glyph glyph-name="W" unicode="W" horiz-adv-x="667" d="M736 672q0 -2 -2 -8l-276 -654q-4 -10 -18 -10h-57q-8 0 -11.5 2.5t-2.5 6.5l1 5l27 529l-216 -533q-4 -10 -16 -10h-59q-9 0 -11.5 2.5t-2.5 11.5l14 652q0 13 12 15l52 10q5 1 7 1q8 0 8 -8l-1 -6l-24 -500q-1 -39 -11 -110q23 80 36 110l205 498q4 10 16 10h45 q11 0 12 -6q1 -1 1 -3v-5l-21 -499q-1 -30 -9 -98q17 62 31 98l199 509q4 10 10 10l7 -1l47 -10q8 -1 8 -9z"/>
    <glyph glyph-name="X" unicode="X" horiz-adv-x="445" d="M517 665q0 -3 -6 -10l-227 -296l113 -330q2 -6 2 -8q0 -5 -9 -8l-55 -17q-3 -2 -8 -2t-8 9l-79 242q-3 8 -6 19t-3 12l-3 11q-16 -27 -27 -42l-182 -245q-6 -7 -9 -7q-2 0 -8 2l-49 17q-7 4 -7 8t5 10l249 324l-102 301q-2 4 -2 9t9 8l51 18l8 2q5 0 8 -9l68 -206 q6 -17 13 -60q28 49 40 65l152 203q6 8 10 8q2 0 4 -1l4 -2l46 -17q8 -3 8 -8z"/>
    <glyph glyph-name="Y" unicode="Y" horiz-adv-x="408" d="M512 669q0 -2 -4 -10l-258 -369l-59 -278q-3 -12 -15 -12h-54q-10 0 -10 8q0 5 1 7l58 275l-104 369q-2 6 -2 9q0 6 10 8l57 16q7 2 9 2q4 0 7 -10l63 -267q9 -37 11 -67l41 67l168 268q6 9 9 9t8 -2l56 -15q8 -2 8 -8z"/>
    <glyph glyph-name="Z" unicode="Z" horiz-adv-x="408" d="M489 678q0 -2 -1 -7l-10 -47l-417 -553h305q10 0 10 -8q0 -2 -1 -7l-10 -44q-2 -12 -14 -12h-384q-10 0 -10 7q0 5 1 8l12 56l414 546h-261q-10 0 -10 7q0 5 2 9l17 43q4 10 15 10h332q10 0 10 -8z"/>
    <glyph glyph-name="bracketleft" unicode="[" horiz-adv-x="426" d="M449 707q0 -6 -1 -7l-7 -35q-2 -12 -15 -12h-109l-170 -796h110q10 0 10 -9q0 -2 -1 -6l-8 -35q-1 -12 -14 -12h-173q-10 0 -10 9q0 2 1 6l190 893q3 12 15 12h172q10 0 10 -8z"/>
    <glyph glyph-name="backslash" unicode="\" horiz-adv-x="445" d="M384 -190q0 -10 -13 -10h-39q-12 0 -15 9l-264 886q-1 1 -1 8q0 9 12 9h40q12 0 15 -9l263 -886q2 -5 2 -7z"/>
    <glyph glyph-name="bracketright" unicode="]" horiz-adv-x="426" d="M363 707q0 -5 -1 -7l-190 -893q-3 -12 -15 -12h-172q-10 0 -10 8q0 2 1 7l8 35q2 12 14 12h109l170 796h-109q-10 0 -10 9q0 4 1 6l7 35q2 12 15 12h172q10 0 10 -8z"/>
    <glyph glyph-name="asciicircum" unicode="^" d="M489 385h-77l-149 247l-147 -247h-77l179 303h93z"/>
    <glyph glyph-name="underscore" unicode="_" horiz-adv-x="514" d="M438 -126h-514v52h514v-52z"/>
    <glyph glyph-name="grave" unicode="`" d="M380 585q0 -4 -3 -7l-16 -22q-5 -5 -9 -5q-2 0 -7 3l-131 79q-4 2 -4 6q0 6 3 9l43 50q7 7 11 7q3 0 8 -5l103 -109q2 -4 2 -6z"/>
    <glyph glyph-name="a" unicode="a" horiz-adv-x="482" d="M447 474l-1 -7l-70 -329q-5 -25 -5 -58q0 -31 6 -53q2 -8 2 -11q0 -5 -5 -7l-47 -19q-4 -2 -5 -2q-8 0 -14 19.5t-6 47.5q0 19 2 38q-69 -107 -163 -107q-49 0 -77.5 39.5t-28.5 107.5q0 67 20.5 138.5t54.5 124.5q62 98 155 98q35 0 58 -11.5t50 -42.5l14 32q3 8 12 8 h41q7 0 7 -6zM357 384q-48 45 -95 45q-66 0 -110 -100q-41 -96 -41 -191q0 -83 55 -83q26 0 55.5 18t52.5 48q37 48 54 127z"/>
    <glyph glyph-name="b" unicode="b" horiz-adv-x="481" d="M443 362q0 -79 -30.5 -171t-74.5 -144q-28 -34 -57.5 -47.5t-74.5 -13.5q-70 0 -148 46q-19 11 -19 19l1 7l136 642q2 9 11 11l52 12q1 1 7 1t6 -6q0 -2 -1 -6l-52 -245q-5 -27 -15 -51q58 78 149 78q110 0 110 -132zM367 359q0 33 -16 51.5t-45 18.5q-49 0 -91 -43 t-56 -106l-43 -203q59 -26 98 -26q31 0 53 19.5t44 64.5q25 52 40.5 114.5t15.5 109.5z"/>
    <glyph glyph-name="c" unicode="c" horiz-adv-x="389" d="M413 453q0 -2 -2 -6l-25 -43q-3 -4 -8 -4q-4 0 -12 5q-39 24 -81 24q-83 0 -127 -78q-21 -38 -35.5 -95t-14.5 -104t23 -72t67 -25q52 0 101 36q8 6 13 6q4 0 8 -4l17 -40q1 -2 1 -4q0 -6 -21 -20q-65 -43 -143 -43q-142 0 -142 167q0 151 81 255q65 86 181 86 q62 0 107 -27q12 -8 12 -14z"/>
    <glyph glyph-name="d" unicode="d" horiz-adv-x="481" d="M499 718q0 -3 -1 -6l-119 -559q-5 -23 -5 -55t9 -65q1 -3 1 -8t-6 -8l-47 -26q-6 -3 -9 -3q-7 0 -13 24.5t-6 56.5v19q-69 -102 -158 -102q-53 0 -81 37t-28 107q0 76 22 154.5t57 127.5q58 82 152 82q55 0 106 -33l51 239q1 8 10 11l52 12q1 1 7 1t6 -6zM359 397 q-48 32 -87 32q-42 0 -68.5 -20.5t-47.5 -68.5q-19 -44 -31.5 -102.5t-12.5 -104.5q0 -79 50 -79q58 0 110 58q35 40 53 125z"/>
    <glyph glyph-name="e" unicode="e" horiz-adv-x="444" d="M418 366q0 -49 -27 -87.5t-74 -57.5q-72 -29 -209 -30v-7v-17q0 -112 94 -112q66 0 130 43q10 6 14 6t8 -6l24 -36q2 -4 2 -5q0 -5 -10 -12q-84 -59 -175 -59q-79 0 -120.5 47t-41.5 135q0 73 26 142.5t71 116.5q64 67 156 67q62 0 97 -34t35 -94zM347 363q0 33 -19 51 t-53 18q-58 0 -99 -47t-58 -133q229 0 229 111z"/>
    <glyph glyph-name="f" unicode="f" horiz-adv-x="296" d="M434 689l-1 -6l-17 -40q-3 -5 -7 -5q-3 0 -12 4q-41 19 -77 19q-38 0 -55.5 -19.5t-28.5 -74.5l-18 -87h142q8 0 8 -6q0 -3 -2 -8l-14 -35q-3 -7 -4.5 -8t-7.5 -1h-134l-86 -450q-17 -91 -61.5 -133.5t-123.5 -42.5q-31 0 -54 5.5t-23 13.5q0 4 1 5l15 43q1 6 6 6 q4 0 10 -2q26 -7 52 -7q44 0 69 27.5t37 88.5l86 446h-71q-8 0 -8 7q0 1 1 6l8 35q3 10 12 10h70l20 96q15 73 45 102q41 41 116 41q34 0 70.5 -10t36.5 -20z"/>
    <glyph glyph-name="g" unicode="g" horiz-adv-x="481" d="M472 456q0 -5 -8 -14q-33 -38 -49 -112l-31 -144q-18 -87 -28 -151q-14 -87 -26 -125.5t-34 -64.5q-49 -57 -148 -57q-36 0 -80 11.5t-74 28.5q-10 6 -10 10l2 8l19 46q1 6 7 6q5 0 25 -10q73 -35 119 -35q65 0 95 52q14 26 30 110q2 11 18 89q-36 -55 -70 -78.5 t-78 -23.5q-55 0 -84 37t-29 106q0 71 22.5 146t58.5 123q60 80 147 80q61 0 121 -47q9 17 22.5 31t20.5 14q5 0 9 -4l29 -25q4 -4 4 -7zM356 391q-56 38 -99 38q-35 0 -60.5 -25t-47.5 -81q-35 -93 -35 -181q0 -71 52 -71q51 0 97 50.5t62 123.5z"/>
    <glyph glyph-name="h" unicode="h" d="M451 410q0 -20 -10 -66l-71 -334q-2 -10 -12 -10h-52q-8 0 -8 6q0 4 1 7l70 331q6 25 6 43q0 20 -12 31t-33 11q-60 0 -112 -57t-70 -143l-46 -219q-2 -10 -13 -10h-52q-8 0 -8 6q0 2 1 7l146 687q2 9 11 11l52 12q1 1 7 1t6 -6q0 -1 -1 -6l-56 -260q-11 -47 -19 -64 q83 106 183 106q44 0 68 -22t24 -62z"/>
    <glyph glyph-name="i" unicode="i" horiz-adv-x="259" d="M277 656q0 -23 -16.5 -39.5t-39.5 -16.5t-39.5 16.5t-16.5 38.5q0 24 16.5 40.5t40.5 16.5q22 0 38.5 -16.5t16.5 -39.5zM222 472q0 -1 -1 -5l-97 -457q-2 -10 -12 -10h-53q-7 0 -7 7q0 5 1 6l86 409h-81q-8 0 -8 6q0 2 1 7l7 35q2 10 13 10h143q8 0 8 -8z"/>
    <glyph glyph-name="j" unicode="j" horiz-adv-x="259" d="M267 656q0 -23 -16.5 -39.5t-39.5 -16.5t-39.5 16t-16.5 39q0 24 16.5 40.5t40.5 16.5q22 0 38.5 -16.5t16.5 -39.5zM222 467l-102 -479q-22 -103 -51 -141q-20 -27 -54 -43t-72 -16q-33 0 -69.5 13t-36.5 25l2 8l18 39q3 6 10 6q5 0 15 -6q38 -20 72 -20q37 0 57.5 32 t39.5 121l89 416h-82q-8 0 -8 6q0 1 1 7l8 35q3 10 12 10h144q7 0 7 -6v-7z"/>
    <glyph glyph-name="k" unicode="k" horiz-adv-x="426" d="M457 454q0 -3 -4 -7l-222 -178l153 -236q3 -4 3 -6t-7 -8l-45 -27q-5 -3 -8 -3t-6 5l-165 272l-54 -256q-2 -10 -13 -10h-52q-8 0 -8 6q0 2 1 7l146 687q2 9 11 11l52 12q1 1 7 1t6 -6q0 -1 -1 -6l-92 -432l244 207q5 5 8 5q2 0 8 -5l34 -28q4 -3 4 -5z"/>
    <glyph glyph-name="l" unicode="l" horiz-adv-x="241" d="M245 718q0 -1 -1 -6l-112 -530q-16 -72 -16 -101q0 -33 30 -33q18 0 42 12q7 4 10 4q7 0 7 -6l4 -34q1 -2 1 -6q0 -11 -29 -21.5t-59 -10.5q-38 0 -59.5 20t-21.5 54q0 32 19 122l110 518q2 9 11 11l52 12q1 1 6 1q6 0 6 -6z"/>
    <glyph glyph-name="m" unicode="m" horiz-adv-x="722" d="M673 413q0 -25 -9 -66l-71 -337q-3 -10 -12 -10h-53q-7 0 -7 6v7l71 334q5 23 5 39q0 43 -43 43q-68 0 -114 -67q-25 -39 -45 -132l-47 -220q-2 -10 -12 -10h-53q-8 0 -8 6q0 3 1 4v3l71 334q6 32 6 39q0 43 -46 43q-62 0 -105 -57q-30 -38 -51 -135l-49 -227 q-2 -10 -12 -10h-52q-8 0 -8 6l1 7l71 335q7 35 7 53q0 24 -7 54q-1 2 -1 6q0 8 8 11l40 17q6 3 8 3q8 0 13.5 -20.5t5.5 -47.5q0 -8 -1 -25q61 95 165 95q40 0 59.5 -22.5t20.5 -72.5q33 43 58 61q49 34 108 34q40 0 63.5 -21.5t23.5 -59.5z"/>
    <glyph glyph-name="n" unicode="n" d="M451 415q0 -25 -10 -71l-71 -334q-2 -10 -12 -10h-52q-8 0 -8 6q0 3 1 4v3l70 331q6 28 6 40q0 45 -45 45q-59 0 -111 -57.5t-70 -142.5l-47 -219q-2 -10 -12 -10h-52q-8 0 -8 6l1 7l72 336q7 33 7 51q0 28 -8 53q-1 3 -1 6q0 6 4 8l44 22q8 3 11 3q19 0 19 -68 q0 -3 -0.5 -7.5t-1 -12.5t-0.5 -16q79 106 183 106q42 0 66.5 -21t24.5 -58z"/>
    <glyph glyph-name="o" unicode="o" horiz-adv-x="482" d="M442 326q0 -65 -20.5 -131.5t-56.5 -115.5q-66 -93 -181 -93q-151 0 -151 168q0 140 76 249q63 91 181 91q73 0 112.5 -43.5t39.5 -124.5zM366 325q0 104 -91 104q-80 0 -126 -93q-40 -80 -40 -182q0 -103 86 -103q83 0 128 91q43 91 43 183z"/>
    <glyph glyph-name="p" unicode="p" horiz-adv-x="481" d="M435 331q0 -69 -20.5 -141.5t-54.5 -122.5q-55 -81 -140 -81q-60 0 -114 42l-45 -214q-1 -9 -10 -10l-53 -16q-5 -1 -7 -1q-6 0 -6 6q0 4 1 7l112 527q7 31 7 59q0 32 -11 62q-4 11 -4 12q0 6 5 8l48 21q6 3 8 3q15 0 28 -70q37 40 69 56t75 16q112 0 112 -163zM359 339 q0 90 -63 90q-53 0 -95 -52q-17 -20 -26.5 -44.5t-19.5 -75.5l-35 -166q50 -40 99 -40q35 0 58 22.5t44 77.5q38 95 38 188z"/>
    <glyph glyph-name="q" unicode="q" horiz-adv-x="481" d="M473 462q0 -3 -11 -20q-29 -40 -43 -105l-112 -523q-3 -9 -10 -10l-53 -16q-4 -1 -7 -1q-6 0 -6 7q0 1 1 6l58 273q-67 -80 -148 -80q-50 0 -78.5 38t-28.5 103q0 80 27 166t67 129q58 65 142 65q36 0 61 -10t58 -38q30 46 41 46q2 0 6 -2l32 -21q4 -4 4 -7zM359 395 q-44 34 -94 34q-74 0 -114 -92q-40 -93 -40 -192q0 -40 15 -61.5t41 -21.5q29 0 59.5 16t51.5 42q30 37 45 108z"/>
    <glyph glyph-name="r" unicode="r" horiz-adv-x="296" d="M355 480q0 -1 -1 -3l-24 -55q-2 -6 -7 -6q-1 0 -11 2q-8 3 -23 3q-33 0 -72 -43q-29 -32 -42 -61.5t-26 -87.5l-47 -219q-2 -10 -12 -10h-52q-8 0 -8 6q0 2 1 7l65 304q11 53 11 76q0 22 -9 58q-1 3 -1 8q0 8 8 11l42 19q7 3 10 3q8 0 14.5 -22t6.5 -50q0 -11 -2 -23 q25 36 43 53q49 44 98 44q38 0 38 -14z"/>
    <glyph glyph-name="s" unicode="s" horiz-adv-x="370" d="M354 455q0 -5 -2 -9l-18 -34q-3 -7 -11 -7q-4 0 -13 4q-39 20 -77 20q-40 0 -63 -19.5t-23 -52.5q0 -26 20 -45q12 -12 64 -46q41 -28 58 -54.5t17 -63.5q0 -38 -17 -73t-45 -56q-44 -33 -114 -33q-39 0 -80.5 12t-60.5 29q-3 3 -3 7l1 6l19 42q3 6 10 6q5 0 15 -6 q52 -31 111 -31q41 0 66 22.5t25 59.5q0 35 -25 58q-11 10 -70 50q-65 44 -65 106q0 65 46 106t120 41q40 0 77.5 -13t37.5 -26z"/>
    <glyph glyph-name="t" unicode="t" horiz-adv-x="315" d="M353 474q0 -2 -3 -8l-18 -36q-3 -8 -13 -8h-123l-59 -277q-5 -25 -5 -48q0 -46 44 -46q34 0 90 26q4 2 7 2q5 0 5 -6l6 -34q1 -3 1 -6q0 -14 -46 -30.5t-86 -16.5q-96 0 -96 98q0 24 8 61l59 277h-73q-8 0 -8 6q0 4 1 7l8 35q1 10 12 10h73l29 139q1 7 10 10l53 15 q1 1 7 1t6 -7q0 -1 -1 -5l-32 -153h135q9 0 9 -6z"/>
    <glyph glyph-name="u" unicode="u" d="M465 485q0 -5 -1 -6l-74 -350q-5 -25 -5 -49q0 -25 10 -52q1 -2 1 -6q0 -5 -4 -7l-47 -24q-6 -3 -9 -3q-8 0 -13 18.5t-5 46.5q0 16 1 28q-45 -51 -84 -73t-84 -22q-47 0 -76 26t-29 68q0 29 8 71l68 317q1 8 10 11l52 11q2 1 7 1q6 0 6 -7q0 -3 -1 -5l-66 -309 q-8 -38 -8 -66q0 -23 12.5 -36t35.5 -13q29 0 61.5 16t56.5 41q34 36 49 109l53 247q2 9 11 11l51 11q2 1 7 1q6 0 6 -6z"/>
    <glyph glyph-name="v" unicode="v" horiz-adv-x="389" d="M431 470q0 -1 -3 -7l-263 -462q-3 -8 -12 -8h-37q-11 0 -12 11l-57 460v5q0 5 8 8l56 12q5 1 7 1q5 0 6 -7l30 -315q5 -56 4 -66l5 8l10 20q13 24 16 28l12 23l159 305q3 4 6 4l7 -1l51 -12q7 -1 7 -7z"/>
    <glyph glyph-name="w" unicode="w" horiz-adv-x="593" d="M622 470l-1 -2q-1 -3 -1 -5l-222 -462q-3 -8 -13 -8h-42q-8 0 -8 9l-12 302v18v12v19v10q-19 -46 -26 -59l-152 -303q-3 -8 -13 -8h-40q-9 0 -9 9l-16 462v5q0 5 10 8l52 11q5 1 7 1q6 0 6 -12l-4 -317q0 -25 -3 -67l10 23l13 26l9 18l153 312q3 8 13 8h40q8 0 8 -8 l6 -319v-12v-16v-36q4 15 25 64l142 331q3 5 7 5q5 0 6 -1l49 -11q6 -1 6 -7z"/>
    <glyph glyph-name="x" unicode="x" horiz-adv-x="389" d="M424 462q0 -4 -4 -8l-185 -205l101 -225q3 -6 3 -8q0 -4 -5 -6l-58 -21q-5 -2 -7 -2q-4 0 -6 5l-68 168q-7 16 -10 28q-7 -10 -18 -24l-146 -174q-1 -3 -5 -3q-3 0 -7 2l-52 20q-5 2 -5 6t5 8l204 226l-94 204l-2 8q0 3 6 6l53 20q5 3 8 3t6 -6l59 -149l3 -5l4 -10 l3.5 -8.5t2.5 -7.5q5 9 22 31l122 151q4 4 7 4q1 0 7 -2l52 -21q4 -2 4 -5z"/>
    <glyph glyph-name="y" unicode="y" horiz-adv-x="408" d="M438 462q0 -3 -3 -8l-177 -395q-55 -123 -96 -185q-57 -86 -150 -86q-33 0 -70.5 14.5t-37.5 27.5q0 3 4 10l24 38q3 5 8 5q4 0 18 -9q33 -21 61 -21q59 0 104 84l34 63h-36q-11 0 -12 10l-65 445q-1 4 -1 7t6 6l57 19q5 2 8 2q5 0 6 -8l57 -442l194 444q3 6 6 6 q4 0 8 -2l47 -19q6 -3 6 -6z"/>
    <glyph glyph-name="z" unicode="z" horiz-adv-x="389" d="M408 473q0 -2 -1 -6l-9 -39l-312 -363h243q8 0 8 -6q0 -2 -3 -8l-29 -44q-3 -7 -13 -7h-306q-8 0 -8 7q0 3 1 6l8 39l321 366h-209q-8 0 -8 7q0 6 1 6l8 39q2 10 12 10h288q8 0 8 -7z"/>
    <glyph glyph-name="braceleft" unicode="{" horiz-adv-x="463" d="M498 707q0 -2 -2 -7l-7 -35q-2 -12 -14 -12h-29q-45 0 -69.5 -21t-34.5 -68l-37 -179q-18 -90 -98 -121q28 -16 39.5 -33.5t11.5 -44.5q0 -18 -5 -41l-42 -199q-3 -11 -3 -35q0 -29 16 -41.5t53 -12.5h28q10 0 10 -8q0 -2 -1 -7l-7 -35q-3 -12 -15 -12h-19 q-141 0 -141 104q0 24 5 47l42 199q4 16 4 32q0 57 -71 57h-22q-10 0 -10 9q0 1 1 6l7 35q3 12 15 12h22q47 0 71.5 21t34.5 68l37 179q16 80 64 116q26 20 55 27.5t82 7.5h19q10 0 10 -8z"/>
    <glyph glyph-name="bar" unicode="|" horiz-adv-x="307" d="M205 -171h-75v857h75v-857z"/>
    <glyph glyph-name="braceright" unicode="}" horiz-adv-x="463" d="M382 268q0 -2 -2 -7l-7 -35q-2 -12 -15 -12h-21q-46 0 -70.5 -21t-35.5 -69l-38 -178q-17 -80 -63 -115q-27 -21 -56 -28.5t-81 -7.5h-19q-10 0 -10 8q0 2 1 7l7 35q3 12 15 12h28q45 0 69.5 21t34.5 68l38 178q10 49 33 77t64 45q-28 17 -39 34.5t-11 45.5q0 23 4 39 l43 199q3 14 3 34q0 30 -15.5 42.5t-53.5 12.5h-28q-10 0 -10 8q0 6 1 7l7 35q3 12 15 12h18q73 0 107.5 -25.5t34.5 -79.5q0 -23 -5 -46l-43 -199q-3 -13 -3 -32q0 -57 71 -57h21q11 0 11 -8z"/>
    <glyph glyph-name="asciitilde" unicode="~" d="M466 396l45 -34q-56 -117 -139 -117q-37 0 -118 41q-69 34 -100 34q-27 0 -47.5 -17t-44.5 -59l-45 34q56 116 139 116q41 0 118 -40q70 -35 98 -35q27 0 49 17.5t45 59.5z"/>
    <glyph glyph-name="uni00A0" unicode=" " horiz-adv-x="206"/>
    <glyph glyph-name="exclamdown" unicode="¡" horiz-adv-x="333" d="M267 415q0 -28 -19.5 -47.5t-47.5 -19.5t-47.5 19.5t-19.5 46.5q0 29 20 48.5t49 19.5q26 0 45.5 -19.5t19.5 -47.5zM183 197q0 -2 -1 -7l-62 -394q-1 -6 -2 -8t-3.5 -3t-8.5 -1h-76q-10 0 -10 7q0 1 2 9l105 394q2 8 4.5 9.5t10.5 1.5h31q10 0 10 -8z"/>
    <glyph glyph-name="cent" unicode="¢" d="M494 552l-1 -6l-26 -42q-3 -5 -8 -5q-2 0 -8 3q-37 21 -66 25l-79 -372q37 8 77 37q7 5 11 5q5 0 7 -5l15 -35q3 -4 3 -7q0 -14 -42 -34.5t-85 -27.5l-16 -73q-3 -12 -14 -12h-24q-10 0 -10 9q0 4 1 6l15 70q-127 10 -127 165q0 148 81 254q57 74 153 85l14 65 q1 12 14 12h24q10 0 10 -8q0 -4 -1 -7l-13 -62q36 -4 65.5 -16.5t29.5 -23.5zM337 525q-34 -10 -54.5 -26.5t-38.5 -47.5q-22 -37 -36.5 -94.5t-14.5 -105.5q0 -82 65 -97z"/>
    <glyph glyph-name="sterling" unicode="£" d="M559 615q0 -2 -3 -9l-17 -36q-4 -6 -10 -6q-4 0 -17 7q-44 25 -99 25q-87 0 -130 -63q-18 -27 -24.5 -60t-5.5 -98h136q10 0 10 -9q0 -2 -1 -6l-8 -39q-2 -12 -15 -12h-119v-18q0 -106 -52 -225h267q10 0 10 -7q0 -3 -4 -10l-24 -40q-5 -9 -16 -9h-406q-10 0 -10 9 q0 1 1 6l8 39q3 12 15 12h86q52 117 52 228v15h-93q-10 0 -10 9q0 1 1 6l8 39q2 12 15 12h78q-1 15 -1 37q0 115 63 180.5t174 65.5q74 0 132 -32q9 -5 9 -11z"/>
    <glyph glyph-name="currency" unicode="¤" horiz-adv-x="612" d="M525 174l-41 -42l-67 67q-51 -40 -117 -40t-117 40l-67 -67l-40 42l67 65q-38 55 -38 115q0 68 38 115l-36.5 36l-30.5 30l40 42l67 -67q55 39 117 39q68 0 117 -39l67 67l41 -42l-68 -66q39 -50 39 -115q0 -62 -39 -115zM438 355q0 59 -41.5 97.5t-95.5 38.5 q-58 0 -98 -40t-40 -96t40.5 -97t96.5 -41q57 0 97.5 41t40.5 97z"/>
    <glyph glyph-name="yen" unicode="¥" d="M565 669q0 -2 -4 -10l-179 -256h120q10 0 10 -8q0 -6 -1 -7l-2 -9q-2 -12 -14 -12h-138l-40 -56h166q10 0 10 -8q0 -1 -1 -7l-2 -9q-2 -12 -15 -12h-175l-56 -263q-2 -12 -15 -12h-54q-10 0 -10 9q0 5 1 6l55 260h-177q-10 0 -10 7q-1 1 1 8l2 9q2 12 15 12h166l-16 56 h-139q-9 0 -9 8q0 5 1 7l2 9q2 12 14 12h121l-72 256q-2 8 -2 9q0 6 9 7l54 16q7 2 9 2q4 0 7 -9l64 -267q7 -26 13 -78q5 11 10 19l10 19q1 2 5 9t6 10q2 4 4 7.5l4.5 7.5t3.5 6l171 270q4 6 8 6q2 0 8 -2l54 -14q7 -1 7 -8z"/>
    <glyph glyph-name="brokenbar" unicode="¦" horiz-adv-x="307" d="M205 342h-75v344h75v-344zM205 -171h-75v329h75v-329z"/>
    <glyph glyph-name="section" unicode="§" d="M461 537q0 -3 -6 -12l-21 -31q-5 -7 -10 -7q-3 0 -8 4q-41 30 -94 30q-38 0 -65.5 -22.5t-27.5 -54.5q0 -19 13.5 -33.5t49.5 -35.5q72 -42 92 -60q40 -35 40 -86q0 -106 -149 -172q41 -26 57 -50.5t16 -59.5q0 -67 -53 -113.5t-129 -46.5q-74 0 -139 43q-16 11 -16 17 q0 5 5 13l20 31q5 8 10 8q4 0 9 -4q61 -43 120 -43q37 0 64.5 25t27.5 60q0 25 -13.5 42.5t-48.5 37.5q-84 50 -109 76.5t-25 69.5q0 111 153 173q-38 23 -54 45.5t-16 53.5q0 64 51 107.5t126 43.5q40 0 85 -17t45 -32zM344 223q0 26 -12.5 41t-52.5 37q-129 -53 -129 -124 q0 -27 14.5 -43.5t59.5 -42.5q67 36 93.5 65t26.5 67z"/>
    <glyph glyph-name="dieresis" unicode="¨" d="M470 625q0 -21 -15 -36t-36 -15t-36 15t-15 36q0 22 15 36.5t37 14.5q20 0 35 -15t15 -36zM288 625q0 -21 -15 -36t-36 -15t-36 15t-15 36t15 36t37 15q20 0 35 -15.5t15 -35.5z"/>
    <glyph glyph-name="copyright" unicode="©" horiz-adv-x="710" d="M690 343q0 -147 -93.5 -251.5t-225.5 -104.5t-226 104.5t-94 250.5q0 150 94 253.5t230 103.5q129 0 222 -105t93 -251zM637 342q0 129 -78 218t-191 89q-109 0 -186.5 -90t-77.5 -216q0 -127 78.5 -216.5t188.5 -89.5t188 89.5t78 215.5zM479 181q0 -17 -37.5 -34.5 t-72.5 -17.5q-73 0 -111 56t-38 162q0 209 145 209q35 0 73 -17t38 -33q0 -6 -3 -9l-18 -22q-3 -5 -10 -5q-5 0 -26 14q-28 19 -53 19q-40 0 -58 -36t-18 -115q0 -170 81 -170q27 0 67 29q8 5 12 5q6 0 10 -7l16 -19q3 -3 3 -9z"/>
    <glyph glyph-name="ordfeminine" unicode="ª" horiz-adv-x="315" d="M363 712q0 -3 -1 -4l-1 -4l-41 -189q-3 -15 -3 -29q0 -18 5 -33q1 -4 1 -7q0 -6 -6 -8l-36 -11q-7 -2 -9 -2q-16 0 -16 49q-40 -50 -87 -50q-34 0 -54.5 24.5t-20.5 65.5q0 88 45 156q38 58 97 58q34 0 66 -26l6 11q4 7 11 7h34q10 0 10 -8zM288 655q-28 20 -54 20 q-32 0 -54 -52q-21 -53 -21 -105q0 -39 24 -39q29 0 54.5 29t34.5 72z"/>
    <glyph glyph-name="guillemotleft" unicode="«" horiz-adv-x="518" d="M511 437q0 -3 -5 -8l-177 -195l85 -188q3 -6 3 -9q0 -5 -9 -9l-28 -13q-9 -4 -10 -4q-4 0 -6 6l-124 212q-4 6 -4 9t6 9l216 215q5 5 9 5t8 -3l30 -19q6 -4 6 -8zM325 437q0 -4 -4 -8l-177 -195l85 -188q3 -8 3 -9q0 -4 -10 -9l-27 -13q-9 -4 -10 -4q-3 0 -7 6l-123 212 q-4 7 -4 9q0 3 6 9l216 215q5 5 9 5t8 -3l30 -19q5 -3 5 -8z"/>
    <glyph glyph-name="logicalnot" unicode="¬" d="M416 352h-368q-8 0 -10 2.5t-2 11.5v47q0 9 2.5 11.5t11.5 2.5h428q9 0 11.5 -2.5t2.5 -10.5v-200q0 -9 -2.5 -11.5t-11.5 -2.5h-47q-9 0 -12 2.5t-3 11.5v138z"/>
    <glyph glyph-name="uni00AD" unicode="­" horiz-adv-x="297" d="M268 283q0 -3 -1 -7l-10 -48q-2 -12 -15 -12h-206q-10 0 -10 9q0 1 1 6l10 48q2 12 15 12h206q10 0 10 -8z"/>
    <glyph glyph-name="registered" unicode="®" horiz-adv-x="426" d="M465 565q0 -89 -56.5 -151.5t-135.5 -62.5t-135.5 62.5t-56.5 150.5q0 90 56.5 152t138.5 62q77 0 133 -63t56 -150zM433 564q0 77 -46.5 130.5t-114.5 53.5q-65 0 -112 -53.5t-47 -129.5t47 -130t113 -54q67 0 113.5 53.5t46.5 129.5zM362 454q0 -5 -8 -7l-21 -3l-3 -1 q-6 0 -7 5l-59 104h-24v-97q0 -8 -9 -8h-19q-9 0 -9 8v223q0 9 9 9h57q33 0 48 -8q30 -14 30 -54q0 -50 -46 -69l58 -97q3 -3 3 -5zM309 622q0 20 -9.5 27.5t-33.5 7.5h-26v-76h24q45 0 45 41z"/>
    <glyph glyph-name="macron" unicode="¯" d="M454 639q0 -1 -2 -6l-7 -35q-2 -12 -15 -12h-221q-10 0 -10 9q0 1 1 6l8 35q2 12 14 12h221q11 0 11 -9z"/>
    <glyph glyph-name="degree" unicode="°" d="M466 545q0 -64 -45.5 -109t-109.5 -45t-109 45t-45 109q0 65 45.5 110t110.5 45q63 0 108 -45.5t45 -109.5zM403 545q0 39 -27 66t-66 27q-37 0 -64 -27.5t-27 -65.5q0 -39 27 -66t65 -27t65 27t27 66z"/>
    <glyph glyph-name="plusminus" unicode="±" d="M492 297q0 -9 -2.5 -11.5t-11.5 -2.5h-177v-155q0 -9 -2.5 -11.5t-11.5 -2.5h-47q-9 0 -11.5 2.5t-2.5 11.5v155h-176q-9 0 -11.5 2.5t-2.5 11.5v47q0 9 2.5 11.5t11.5 2.5h176v177q0 9 2 11t12 2h47q10 0 12 -2t2 -11v-177h177q9 0 11.5 -2.5t2.5 -11.5v-47zM492 26 q0 -9 -2.5 -11.5t-11.5 -2.5h-428q-9 0 -11.5 2.5t-2.5 11.5v44q0 9 2.5 11.5t11.5 2.5h428q9 0 11.5 -2.5t2.5 -11.5v-44z"/>
    <glyph glyph-name="two.superior" unicode="²" horiz-adv-x="334" d="M134 485h174q11 0 11 -9q0 -2 -2 -12l-5 -21q-2 -7 -4.5 -9.5t-11.5 -2.5h-224q-13 0 -13 10q0 16 23 70q31 57 129 123q64 41 84 62q17 22 17 48q0 35 -43 35q-25 0 -42.5 -11.5t-38.5 -42.5q-9 -11 -15 -11q-4 0 -7 1l-28 9q-8 2 -8 10q0 6 6 16q23 39 59.5 60.5 t79.5 21.5q49 0 77 -21.5t28 -59.5q0 -47 -35 -89q-19 -20 -97 -69q-51 -31 -75.5 -54t-38.5 -54z"/>
    <glyph glyph-name="three.superior" unicode="³" horiz-adv-x="334" d="M362 752q0 -73 -79 -109q49 -24 49 -74q0 -61 -49.5 -103t-122.5 -42q-33 0 -69 11t-36 21l1 4l16 31q4 6 12 6q4 0 12 -4q34 -17 71 -17q43 0 71 25t28 63q0 50 -74 50h-23q-13 0 -13 11v6l6 22v-1q3 13 17 13h23q40 0 68 23t28 57q0 37 -46 37q-30 0 -73 -31h1 q-7 -7 -15 -7q-6 0 -9 3l-20 18q-3 3 -3 8t9 14q52 45 118 45q46 0 74 -21.5t28 -58.5z"/>
    <glyph glyph-name="acute" unicode="´" d="M464 641q0 -5 -8 -8l-173 -79q-3 -2 -7 -2q-3 0 -8 7l-11 17q-3 6 -3 8q0 3 5 7l156 108q7 4 8 4q5 0 9 -7l28 -45q4 -7 4 -10z"/>
    <glyph glyph-name="mu" unicode="µ" d="M469 487q0 -4 -1 -6l-74 -348q-7 -32 -7 -58q0 -22 12 -45q1 -2 1 -6q0 -3 -5 -6l-51 -29q-6 -3 -8 -3q-6 0 -13 18t-9 42q-87 -60 -153 -60q-37 0 -67 20l-40 -190q-1 -9 -12 -12l-56 -15q-5 -1 -7 -1q-5 0 -5 5q0 4 1 6l141 666q3 10 13 13l55 14q5 1 7 1q5 0 5 -5 t-1 -7l-66 -311q-8 -40 -8 -65q0 -51 55 -51q65 0 137 51l76 360q3 10 13 13l55 14q5 1 7 1q5 0 5 -6z"/>
    <glyph glyph-name="paragraph" unicode="¶" horiz-adv-x="611" d="M606 635q0 -9 -2.5 -11.5t-11.5 -2.5h-66v-793q0 -9 -2.5 -11.5t-11.5 -2.5h-41q-9 0 -11.5 2.5t-2.5 11.5v793h-65v-793q0 -9 -2.5 -11.5t-11.5 -2.5h-41q-9 0 -11.5 2.5t-2.5 11.5v347q-46 -7 -76 -7q-90 0 -137 67t-47 196q0 178 109 233q43 22 151 22h269 q9 0 11.5 -2.5t2.5 -11.5v-37zM323 238v383q-59 0 -79.5 -2.5t-36.5 -12.5q-57 -34 -57 -176q0 -104 30 -150.5t97 -46.5q21 0 46 5z"/>
    <glyph glyph-name="periodcentered" unicode="·" horiz-adv-x="296" d="M219 320q0 -24 -16.5 -40.5t-39.5 -16.5q-24 0 -41 16.5t-17 40.5q0 23 16.5 39.5t40.5 16.5q23 0 40 -16.5t17 -39.5z"/>
    <glyph glyph-name="cedilla" unicode="¸" d="M301 -110q0 -38 -29 -61t-78 -23q-63 0 -63 14q0 3 1 6l11 33q2 5 7 5q3 0 13 -3q17 -5 36 -5q44 0 44 27q0 15 -20 19q-4 0 -32 4q-15 1 -15 8l1 7l24 79h55l-16 -58q35 -6 48 -17t13 -35z"/>
    <glyph glyph-name="one.superior" unicode="¹" horiz-adv-x="334" d="M319 814q0 -4 -1 -6l-77 -326h51q11 0 11 -9q0 -2 -2 -12l-4 -18q-2 -7 -4.5 -9.5t-11.5 -2.5h-174q-14 0 -14 11q0 3 2 11l4 16q3 13 17 13h61l66 275l-84 -41q-7 -4 -12 -4t-9 5l-9 14q-4 8 -4 10q0 4 4 7l135 73q7 4 15 4h27q13 0 13 -11z"/>
    <glyph glyph-name="ordmasculine" unicode="º" horiz-adv-x="315" d="M354 624q0 -82 -47 -144q-42 -56 -116 -56q-98 0 -98 104q0 82 47 144q40 55 115 55q47 0 73 -27t26 -76zM289 624q0 50 -43 50q-42 0 -67 -49q-21 -45 -21 -98q0 -50 41 -50q43 0 67 48q23 48 23 99z"/>
    <glyph glyph-name="guillemotright" unicode="»" horiz-adv-x="518" d="M460 241q0 -3 -7 -10l-216 -215q-5 -5 -8 -5q-2 0 -8 4l-30 18q-6 4 -6 8q0 3 5 8l176 195l-84 188q-4 7 -4 9q0 4 10 9l28 14q7 3 9 3q4 0 7 -5l124 -212q4 -7 4 -9zM274 241q0 -4 -6 -10l-216 -215q-5 -5 -9 -5q-2 0 -7 4l-30 18q-6 5 -6 8q0 4 4 8l177 195l-85 188 q-3 6 -3 9q0 4 10 9l28 14q7 3 9 3q4 0 7 -5l123 -212q4 -5 4 -9z"/>
    <glyph glyph-name="onequarter" unicode="¼" horiz-adv-x="815" d="M721 132q0 -3 -1 -5l-1 -2l-4 -21q-3 -14 -18 -14h-44l-16 -76q-3 -14 -18 -14h-30q-15 0 -15 10q0 4 1 6v2l16 72h-153q-13 0 -13 10v8l6 25q1 7 7 14l214 245q7 8 11 8q3 0 5 -1h3l31 -7q12 -3 12 -9q0 -5 -6 -11l-202 -229h97l27 88q4 13 18 13h22q14 0 14 -9 q0 -4 -1 -9l-18 -83h42q14 0 14 -11zM648 652q0 -4 -4 -9l-411 -653q-5 -9 -17 -9h-42q-10 0 -10 8q0 3 4 9l412 654q4 8 15 8h43q10 0 10 -8zM308 638q0 -7 -1 -9l-68 -317h46q13 0 13 -10v-8l-5 -22q-2 -10 -5 -12t-13 -2h-166q-15 0 -15 10q0 4 1 8l5 22q3 14 18 14h56 l56 260l-77 -38q-9 -4 -11 -4q-5 0 -12 11l-8 13q-2 4 -2 8q0 6 10 11l123 70q9 4 16 4h26q13 0 13 -9z"/>
    <glyph glyph-name="onehalf" unicode="½" horiz-adv-x="815" d="M747 313q0 -48 -36 -84q-21 -22 -92 -69q-48 -32 -68.5 -52.5t-33.5 -50.5h162q14 0 14 -11q0 -3 -1 -4v-2l-6 -26q-4 -14 -18 -14h-213q-13 0 -13 10q0 24 21 70q26 53 81 95q17 14 84 62q52 37 52 68q0 35 -41 35q-24 0 -40 -11.5t-36 -41.5q-7 -11 -16 -11q-4 0 -6 1 l-27 8q-10 2 -10 11q0 6 6 17q19 38 55 60t79 22q48 0 75.5 -22t27.5 -60zM631 652q0 -4 -4 -9l-411 -653q-5 -9 -17 -9h-42q-10 0 -10 8q0 3 4 9l411 654q6 8 16 8h43q10 0 10 -8zM284 638q0 -7 -1 -9l-68 -317h46q13 0 13 -10v-8l-5 -22q-2 -10 -5 -12t-13 -2h-166 q-15 0 -15 10q0 4 1 8l5 22q3 14 18 14h56l56 260l-77 -38q-9 -4 -11 -4q-5 0 -12 11l-8 13q-2 4 -2 8q0 6 10 11l123 70q9 4 16 4h26q13 0 13 -9z"/>
    <glyph glyph-name="threequarters" unicode="¾" horiz-adv-x="815" d="M752 133q0 -7 -1 -8l-4 -21q-3 -14 -19 -14h-43l-17 -76q-3 -14 -18 -14h-30q-14 0 -14 10q0 4 1 6v2l16 72h-153q-14 0 -14 10q0 4 1 8l5 25q1 5 8 14l213 245q6 8 12 8q2 0 4 -1h3l31 -7q13 -3 13 -9q0 -5 -6 -11l-202 -229h97l26 88q4 13 19 13h22q14 0 14 -9 q0 -3 -1 -9l-19 -83h42q14 0 14 -10zM663 653q0 -3 -4 -10l-412 -653q-5 -9 -16 -9h-42q-10 0 -10 8q0 3 4 9l411 654q6 8 16 8h43q10 0 10 -7zM334 574q0 -63 -71 -106q45 -26 45 -74q0 -61 -47 -101.5t-118 -40.5q-35 0 -68.5 10t-33.5 21q0 4 3 10l14 27q5 8 11 8 q4 0 15 -5q32 -16 67 -16q40 0 65.5 23t25.5 58q0 49 -71 49h-22q-14 0 -14 11q0 5 1 7l5 22q3 14 18 14h22q38 0 63.5 21.5t25.5 53.5q0 35 -44 35q-32 0 -67 -29q-12 -10 -16 -10q-3 0 -9 4l-19 19q-4 4 -4 8q0 6 10 16q20 21 51.5 33.5t62.5 12.5q44 0 71.5 -22.5 t27.5 -58.5z"/>
    <glyph glyph-name="questiondown" unicode="¿" horiz-adv-x="463" d="M356 415q0 -28 -19.5 -47.5t-47.5 -19.5t-47.5 19.5t-19.5 46.5q0 29 20 48.5t49 19.5q26 0 45.5 -19.5t19.5 -47.5zM305 -180q0 -10 -18 -16q-71 -29 -136 -29q-70 0 -111.5 34t-41.5 92q0 47 25 91t68 72q30 19 99 37l20 92q3 12 15 12h43q10 0 10 -8q0 -6 -1 -7 l-26 -122q-2 -10 -7.5 -14t-28.5 -10q-73 -19 -101 -46q-35 -33 -35 -83q0 -71 87 -71q43 0 100 19q13 5 18 5q7 0 9 -7l10 -34q2 -5 2 -7z"/>
    <glyph glyph-name="Agrave" unicode="À" d="M430 771q0 -2 -3 -7l-16 -22q-5 -6 -10 -6q-2 0 -7 3l-142 72q-4 2 -4 6q0 5 3 8l43 52q7 8 11 8q3 0 8 -4l113 -104q4 -3 4 -6zM446 7q0 -7 -11 -7h-54q-9 0 -11 2t-3 11l-16 193h-211l-100 -197q-4 -9 -15 -9h-52q-12 0 -12 8q0 4 3 9l341 660q5 9 16 9h50 q8 0 10.5 -2.5t3.5 -10.5l61 -659v-7zM343 275l-15 221q-2 27 -3 59.5t-1 35.5q-15 -40 -42 -95l-106 -221h167z"/>
    <glyph glyph-name="Aacute" unicode="Á" d="M516 817q0 -5 -8 -8l-186 -69l-7 -1q-4 0 -8 7l-11 17q-3 6 -3 8q0 5 6 7l168 100q6 3 9 3q5 0 9 -8l28 -48q3 -6 3 -8zM446 7q0 -7 -11 -7h-54q-9 0 -11 2t-3 11l-16 193h-211l-100 -197q-4 -9 -15 -9h-52q-12 0 -12 8q0 4 3 9l341 660q5 9 16 9h50q8 0 10.5 -2.5 t3.5 -10.5l61 -659v-7zM343 275l-15 221q-2 27 -3 59.5t-1 35.5q-15 -40 -42 -95l-106 -221h167z"/>
    <glyph glyph-name="Acircumflex" unicode="Â" d="M496 774q0 -4 -4 -8l-15 -16q-6 -6 -9 -6t-10 4l-85 52l-100 -51q-6 -3 -10 -3q-5 0 -8 5l-13 23q-4 6 -4 8q0 5 7 9l127 77q7 4 10 4t10 -6l99 -84q5 -4 5 -8zM446 7q0 -7 -11 -7h-54q-9 0 -11 2t-3 11l-16 193h-211l-100 -197q-4 -9 -15 -9h-52q-12 0 -12 8q0 4 3 9 l341 660q5 9 16 9h50q8 0 10.5 -2.5t3.5 -10.5l61 -659v-7zM343 275l-15 221q-2 27 -3 59.5t-1 35.5q-15 -40 -42 -95l-106 -221h167z"/>
    <glyph glyph-name="Atilde" unicode="Ã" d="M535 835q0 -6 -18 -27q-44 -47 -94 -47q-27 0 -61 21q-31 19 -49 19q-28 0 -54 -34q-6 -7 -10 -7t-6 2l-25 19q-6 4 -6 8q0 8 19 28q40 46 93 46q26 0 61 -21q32 -19 49 -19q28 0 54 34q5 5 9 5q3 0 7 -2l25 -17q6 -5 6 -8zM446 7q0 -7 -11 -7h-54q-9 0 -11 2t-3 11 l-16 193h-211l-100 -197q-4 -9 -15 -9h-52q-12 0 -12 8q0 4 3 9l341 660q5 9 16 9h50q8 0 10.5 -2.5t3.5 -10.5l61 -659v-7zM343 275l-15 221q-2 27 -3 59.5t-1 35.5q-15 -40 -42 -95l-106 -221h167z"/>
    <glyph glyph-name="Adieresis" unicode="Ä" d="M513 805q0 -22 -15.5 -37.5t-37.5 -15.5t-37.5 15.5t-15.5 37.5q0 23 15.5 38t38.5 15q21 0 36.5 -15.5t15.5 -37.5zM325 805q0 -22 -15.5 -37.5t-37.5 -15.5t-37.5 15.5t-15.5 37.5t15.5 37.5t38.5 15.5q21 0 36.5 -16t15.5 -37zM446 7q0 -7 -11 -7h-54q-9 0 -11 2 t-3 11l-16 193h-211l-100 -197q-4 -9 -15 -9h-52q-12 0 -12 8q0 4 3 9l341 660q5 9 16 9h50q8 0 10.5 -2.5t3.5 -10.5l61 -659v-7zM343 275l-15 221q-2 27 -3 59.5t-1 35.5q-15 -40 -42 -95l-106 -221h167z"/>
    <glyph glyph-name="Aring" unicode="Å" d="M452 804q0 -37 -27.5 -64t-65.5 -27q-39 0 -66.5 26.5t-27.5 63.5q0 39 27.5 65.5t68.5 26.5q37 0 64 -27t27 -64zM446 7q0 -7 -11 -7h-54q-9 0 -11 2t-3 11l-16 193h-211l-100 -197q-4 -9 -15 -9h-52q-12 0 -12 8q0 4 3 9l341 660q5 9 16 9h50q8 0 10.5 -2.5t3.5 -10.5 l61 -659v-7zM403 803q0 21 -13 35t-32 14q-18 0 -31 -14t-13 -34t13 -34t31 -14q19 0 32 13.5t13 33.5zM343 275l-15 221q-2 27 -3 59.5t-1 35.5q-15 -40 -42 -95l-106 -221h167z"/>
    <glyph glyph-name="AE" unicode="Æ" horiz-adv-x="722" d="M774 679q0 -2 -4 -10l-24 -45q-5 -9 -16 -9h-222l-48 -225h197q10 0 10 -8q0 -3 -1 -7l-8 -40q-3 -12 -15 -12h-197l-54 -252h240q11 0 11 -9q0 -2 -2 -6l-9 -44q-3 -12 -15 -12h-306q-11 0 -11 9q0 2 2 6l40 191h-184l-132 -198q-5 -8 -15 -8h-62q-11 0 -11 8q0 4 5 10 l456 660q5 8 15 8h350q10 0 10 -7zM432 631l-59 -95q-7 -13 -17 -26l-156 -235h157z"/>
    <glyph glyph-name="Ccedilla" unicode="Ç" horiz-adv-x="426" d="M488 634q0 -1 -3 -10l-25 -38q-5 -6 -8 -6q-6 0 -17 11q-45 40 -99 40q-74 0 -125 -103q-32 -67 -54 -165.5t-22 -179.5q0 -61 23 -94.5t64 -33.5q49 0 115 46q15 10 18 10q7 0 9 -7l16 -36q2 -2 2 -8q0 -10 -41 -34q-55 -33 -113 -39l-13 -45q36 -6 49 -17t13 -35 q0 -38 -30 -61t-80 -23q-64 0 -64 14q0 2 2 6l11 33q2 5 7 5q3 0 13 -3q17 -5 37 -5q45 0 45 28q0 10 -7.5 13.5t-38.5 7.5q-16 1 -20 2.5t-4 6.5v7l23 69q-121 25 -121 198q0 90 25 193t66 179q75 140 206 140q73 0 132 -52q9 -7 9 -14z"/>
    <glyph glyph-name="Egrave" unicode="È" horiz-adv-x="463" d="M412 771q0 -2 -3 -7l-16 -22q-5 -6 -10 -6q-2 0 -7 3l-142 72q-4 2 -4 6q0 5 3 8l43 52q7 8 11 8q3 0 8 -4l113 -104q4 -3 4 -6zM511 679q0 -3 -3 -10l-23 -44q-6 -10 -15 -10h-223l-47 -225h197q10 0 10 -8q0 -4 -1 -7l-8 -40q-3 -12 -15 -12h-198l-53 -252h241 q10 0 10 -8q0 -6 -1 -7l-9 -44q-2 -12 -15 -12h-308q-10 0 -10 9q0 2 1 6l140 659q3 12 15 12h305q10 0 10 -7z"/>
    <glyph glyph-name="Eacute" unicode="É" horiz-adv-x="463" d="M525 817q0 -5 -8 -8l-186 -69l-7 -1q-4 0 -8 7l-11 17q-3 6 -3 8q0 5 6 7l168 100q6 3 9 3q5 0 9 -8l28 -48q3 -6 3 -8zM511 679q0 -3 -3 -10l-23 -44q-6 -10 -15 -10h-223l-47 -225h197q10 0 10 -8q0 -4 -1 -7l-8 -40q-3 -12 -15 -12h-198l-53 -252h241q10 0 10 -8 q0 -6 -1 -7l-9 -44q-2 -12 -15 -12h-308q-10 0 -10 9q0 2 1 6l140 659q3 12 15 12h305q10 0 10 -7z"/>
    <glyph glyph-name="Ecircumflex" unicode="Ê" horiz-adv-x="463" d="M478 774q0 -4 -4 -8l-15 -16q-6 -6 -9 -6t-10 4l-85 52l-100 -51q-6 -3 -10 -3q-5 0 -8 5l-13 23q-4 6 -4 8q0 5 7 9l127 77q7 4 10 4t10 -6l99 -84q5 -4 5 -8zM511 679q0 -3 -3 -10l-23 -44q-6 -10 -15 -10h-223l-47 -225h197q10 0 10 -8q0 -4 -1 -7l-8 -40 q-3 -12 -15 -12h-198l-53 -252h241q10 0 10 -8q0 -6 -1 -7l-9 -44q-2 -12 -15 -12h-308q-10 0 -10 9q0 2 1 6l140 659q3 12 15 12h305q10 0 10 -7z"/>
    <glyph glyph-name="Edieresis" unicode="Ë" horiz-adv-x="463" d="M495 805q0 -22 -15.5 -37.5t-37.5 -15.5t-37.5 15.5t-15.5 37.5q0 23 15.5 38t38.5 15q21 0 36.5 -15.5t15.5 -37.5zM307 805q0 -22 -15.5 -37.5t-37.5 -15.5t-37.5 15.5t-15.5 37.5t15.5 37.5t38.5 15.5q21 0 36.5 -16t15.5 -37zM511 679q0 -3 -3 -10l-23 -44 q-6 -10 -15 -10h-223l-47 -225h197q10 0 10 -8q0 -4 -1 -7l-8 -40q-3 -12 -15 -12h-198l-53 -252h241q10 0 10 -8q0 -6 -1 -7l-9 -44q-2 -12 -15 -12h-308q-10 0 -10 9q0 2 1 6l140 659q3 12 15 12h305q10 0 10 -7z"/>
    <glyph glyph-name="Igrave" unicode="Ì" horiz-adv-x="333" d="M347 771q0 -2 -3 -7l-16 -22q-4 -6 -10 -6q-2 0 -7 3l-142 72q-4 2 -4 6q0 5 3 8l43 52q7 8 11 8q3 0 8 -4l113 -104q4 -3 4 -6zM397 678q0 -3 -1 -7l-8 -35q-3 -12 -14 -12h-90l-120 -562h90q10 0 10 -8q0 -4 -1 -7l-7 -35q-2 -12 -15 -12h-259q-10 0 -10 9q0 2 1 6 l7 35q3 12 15 12h90l120 562h-90q-10 0 -10 9q0 5 1 6l7 35q2 12 15 12h259q10 0 10 -8z"/>
    <glyph glyph-name="Iacute" unicode="Í" horiz-adv-x="333" d="M433 817q0 -5 -8 -8l-186 -69l-7 -1q-4 0 -8 7l-11 17q-3 6 -3 8q0 5 6 7l168 100q6 3 9 3q5 0 9 -8l28 -48q3 -6 3 -8zM397 678q0 -3 -1 -7l-8 -35q-3 -12 -14 -12h-90l-120 -562h90q10 0 10 -8q0 -4 -1 -7l-7 -35q-2 -12 -15 -12h-259q-10 0 -10 9q0 2 1 6l7 35 q3 12 15 12h90l120 562h-90q-10 0 -10 9q0 5 1 6l7 35q2 12 15 12h259q10 0 10 -8z"/>
    <glyph glyph-name="Icircumflex" unicode="Î" horiz-adv-x="333" d="M413 774q0 -4 -4 -8l-15 -16q-6 -6 -9 -6t-10 4l-85 52l-100 -51q-6 -3 -10 -3q-5 0 -8 5l-13 23q-4 6 -4 8q0 5 7 9l127 77q7 4 10 4t10 -6l99 -84q5 -4 5 -8zM397 678q0 -3 -1 -7l-8 -35q-3 -12 -14 -12h-90l-120 -562h90q10 0 10 -8q0 -4 -1 -7l-7 -35q-2 -12 -15 -12 h-259q-10 0 -10 9q0 2 1 6l7 35q3 12 15 12h90l120 562h-90q-10 0 -10 9q0 5 1 6l7 35q2 12 15 12h259q10 0 10 -8z"/>
    <glyph glyph-name="Idieresis" unicode="Ï" horiz-adv-x="333" d="M419 805q0 -22 -15.5 -37.5t-37.5 -15.5t-37.5 15.5t-15.5 37.5q0 23 15.5 38t38.5 15q21 0 36.5 -15.5t15.5 -37.5zM252 805q0 -22 -15.5 -37.5t-37.5 -15.5t-37.5 15.5t-15.5 37.5t15.5 37.5t38.5 15.5q21 0 36.5 -16t15.5 -37zM397 678q0 -3 -1 -7l-8 -35 q-3 -12 -14 -12h-90l-120 -562h90q10 0 10 -8q0 -4 -1 -7l-7 -35q-2 -12 -15 -12h-259q-10 0 -10 9q0 2 1 6l7 35q3 12 15 12h90l120 562h-90q-10 0 -10 9q0 5 1 6l7 35q2 12 15 12h259q10 0 10 -8z"/>
    <glyph glyph-name="Eth" unicode="Ð" horiz-adv-x="537" d="M526 501q0 -113 -37.5 -231t-94.5 -186q-71 -84 -216 -84h-127q-10 0 -10 8q0 6 1 7l66 310h-69q-10 0 -10 9q0 1 1 6l7 34q3 12 15 12h68l62 288q3 12 14 12h103q71 0 105 -6.5t59 -25.5q63 -46 63 -153zM444 498q0 80 -49 105q-24 12 -79 12h-68l-49 -229h123q8 0 8 -6 v-5l-8 -37q-2 -13 -17 -13h-119l-54 -254h70q88 0 136 67q44 61 75 166t31 194z"/>
    <glyph glyph-name="Ntilde" unicode="Ñ" horiz-adv-x="556" d="M563 835q0 -6 -18 -27q-44 -47 -94 -47q-27 0 -61 21q-31 19 -49 19q-28 0 -54 -34q-6 -7 -10 -7t-6 2l-25 19q-6 4 -6 8q0 8 19 28q40 46 93 46q26 0 61 -21q32 -19 49 -19q28 0 54 34q5 5 9 5q3 0 7 -2l25 -17q6 -5 6 -8zM561 676q0 -1 -1 -5l-140 -659q-3 -12 -15 -12 h-49q-8 0 -11 2t-4 10l-115 508q-8 35 -12 74q-1 -44 -8 -78l-107 -504q-3 -12 -15 -12h-43q-10 0 -10 9q0 1 1 6l140 659q3 12 15 12h59q8 0 10.5 -2t3.5 -10l109 -479q11 -44 14 -77v15q0 26 8 62l102 479q2 12 15 12h43q10 0 10 -10z"/>
    <glyph glyph-name="Ograve" unicode="Ò" horiz-adv-x="537" d="M449 771q0 -2 -3 -7l-16 -22q-4 -6 -10 -6q-2 0 -7 3l-142 72q-4 2 -4 6q0 5 3 8l43 52q7 8 11 8q3 0 8 -4l113 -104q4 -3 4 -6zM522 503q0 -106 -28 -218.5t-72 -181.5q-75 -117 -205 -117q-86 0 -126 49.5t-40 155.5q0 102 28 211t72 181q73 117 207 117q90 0 127 -53 q37 -51 37 -144zM442 497q0 75 -21 106t-72 31q-55 0 -94.5 -40.5t-70.5 -127.5q-53 -147 -53 -279q0 -72 21 -103.5t70 -31.5q56 0 96 40t72 127q52 148 52 278z"/>
    <glyph glyph-name="Oacute" unicode="Ó" horiz-adv-x="537" d="M534 817q0 -5 -8 -8l-186 -69l-7 -1q-4 0 -8 7l-11 17q-3 6 -3 8q0 5 6 7l168 100q6 3 9 3q5 0 9 -8l28 -48q3 -6 3 -8zM522 503q0 -106 -28 -218.5t-72 -181.5q-75 -117 -205 -117q-86 0 -126 49.5t-40 155.5q0 102 28 211t72 181q73 117 207 117q90 0 127 -53 q37 -51 37 -144zM442 497q0 75 -21 106t-72 31q-55 0 -94.5 -40.5t-70.5 -127.5q-53 -147 -53 -279q0 -72 21 -103.5t70 -31.5q56 0 96 40t72 127q52 148 52 278z"/>
    <glyph glyph-name="Ocircumflex" unicode="Ô" horiz-adv-x="537" d="M514 774q0 -4 -4 -8l-15 -16q-6 -6 -9 -6t-10 4l-85 52l-100 -51q-6 -3 -10 -3q-5 0 -8 5l-13 23q-4 6 -4 8q0 5 7 9l127 77q7 4 10 4t10 -6l99 -84q5 -4 5 -8zM522 503q0 -106 -28 -218.5t-72 -181.5q-75 -117 -205 -117q-86 0 -126 49.5t-40 155.5q0 102 28 211t72 181 q73 117 207 117q90 0 127 -53q37 -51 37 -144zM442 497q0 75 -21 106t-72 31q-55 0 -94.5 -40.5t-70.5 -127.5q-53 -147 -53 -279q0 -72 21 -103.5t70 -31.5q56 0 96 40t72 127q52 148 52 278z"/>
    <glyph glyph-name="Otilde" unicode="Õ" horiz-adv-x="537" d="M554 835q0 -6 -18 -27q-44 -47 -94 -47q-27 0 -61 21q-31 19 -49 19q-28 0 -54 -34q-6 -7 -10 -7t-6 2l-25 19q-6 4 -6 8q0 8 19 28q40 46 93 46q26 0 61 -21q32 -19 49 -19q28 0 54 34q5 5 9 5q3 0 7 -2l25 -17q6 -5 6 -8zM522 503q0 -106 -28 -218.5t-72 -181.5 q-75 -117 -205 -117q-86 0 -126 49.5t-40 155.5q0 102 28 211t72 181q73 117 207 117q90 0 127 -53q37 -51 37 -144zM442 497q0 75 -21 106t-72 31q-55 0 -94.5 -40.5t-70.5 -127.5q-53 -147 -53 -279q0 -72 21 -103.5t70 -31.5q56 0 96 40t72 127q52 148 52 278z"/>
    <glyph glyph-name="Odieresis" unicode="Ö" horiz-adv-x="537" d="M532 805q0 -22 -15.5 -37.5t-37.5 -15.5t-37.5 15.5t-15.5 37.5q0 23 15.5 38t38.5 15q21 0 36.5 -15.5t15.5 -37.5zM344 805q0 -22 -15.5 -37.5t-37.5 -15.5t-37.5 15.5t-15.5 37.5t15.5 37.5t38.5 15.5q21 0 36.5 -16t15.5 -37zM522 503q0 -106 -28 -218.5t-72 -181.5 q-75 -117 -205 -117q-86 0 -126 49.5t-40 155.5q0 102 28 211t72 181q73 117 207 117q90 0 127 -53q37 -51 37 -144zM442 497q0 75 -21 106t-72 31q-55 0 -94.5 -40.5t-70.5 -127.5q-53 -147 -53 -279q0 -72 21 -103.5t70 -31.5q56 0 96 40t72 127q52 148 52 278z"/>
    <glyph glyph-name="multiply" unicode="×" d="M448 186q0 -3 -6 -9l-34 -34q-6 -6 -9 -6q-5 0 -10 6l-125 126l-125 -126q-5 -6 -9 -6q-5 0 -10 6l-34 34q-6 5 -6 9t6 10l126 125l-126 124q-6 6 -6 11q0 3 6 9l34 34q6 6 10 6q3 0 9 -6l125 -126l125 126q5 6 9 6t10 -6l34 -34q6 -6 6 -10q0 -3 -6 -10l-126 -124 l126 -125q6 -6 6 -10z"/>
    <glyph glyph-name="Oslash" unicode="Ø" horiz-adv-x="537" d="M563 687q0 -3 -3 -7l-54 -75q16 -49 16 -101q0 -107 -28.5 -220t-72.5 -182q-75 -116 -203 -116q-84 0 -127 50l-41 -57q-3 -5 -8 -5q-4 0 -6 2l-25 18q-5 4 -5 8q0 3 3 6l55 77q-13 48 -13 112q0 98 28.5 208.5t71.5 177.5q74 117 203 117q79 0 125 -45l41 56q2 5 7 5 q3 0 7 -3l24 -18q5 -5 5 -8zM426 591q-18 44 -76 44q-61 0 -105.5 -49t-75.5 -152q-44 -140 -44 -244q0 -15 1 -28zM447 494q0 19 -2 36l-304 -431q11 -26 29 -37t48 -11q64 0 109 48.5t78 152.5q42 131 42 242z"/>
    <glyph glyph-name="Ugrave" unicode="Ù" horiz-adv-x="574" d="M467 771q0 -2 -3 -7l-16 -22q-4 -6 -10 -6q-2 0 -7 3l-142 72q-4 2 -4 6q0 5 3 8l43 52q7 8 11 8q3 0 8 -4l113 -104q4 -3 4 -6zM585 678q0 -3 -1 -7l-102 -483q-12 -57 -29.5 -90.5t-50.5 -59.5q-64 -52 -170 -52q-170 0 -170 138q0 33 7 64l103 486q3 12 15 12h55 q10 0 10 -8q0 -2 -1 -7l-103 -483q-7 -29 -7 -54q0 -79 104 -79q132 0 160 133l103 486q3 12 15 12h52q10 0 10 -8z"/>
    <glyph glyph-name="Uacute" unicode="Ú" horiz-adv-x="574" d="M553 817q0 -5 -8 -8l-186 -69l-7 -1q-4 0 -8 7l-11 17q-3 6 -3 8q0 5 6 7l168 100q6 3 9 3q5 0 9 -8l28 -48q3 -6 3 -8zM585 678q0 -3 -1 -7l-102 -483q-12 -57 -29.5 -90.5t-50.5 -59.5q-64 -52 -170 -52q-170 0 -170 138q0 33 7 64l103 486q3 12 15 12h55q10 0 10 -8 q0 -2 -1 -7l-103 -483q-7 -29 -7 -54q0 -79 104 -79q132 0 160 133l103 486q3 12 15 12h52q10 0 10 -8z"/>
    <glyph glyph-name="Ucircumflex" unicode="Û" horiz-adv-x="574" d="M533 774q0 -4 -4 -8l-15 -16q-6 -6 -9 -6t-10 4l-85 52l-100 -51q-6 -3 -10 -3q-5 0 -8 5l-13 23q-4 6 -4 8q0 5 7 9l127 77q7 4 10 4t10 -6l99 -84q5 -4 5 -8zM585 678q0 -3 -1 -7l-102 -483q-12 -57 -29.5 -90.5t-50.5 -59.5q-64 -52 -170 -52q-170 0 -170 138 q0 33 7 64l103 486q3 12 15 12h55q10 0 10 -8q0 -2 -1 -7l-103 -483q-7 -29 -7 -54q0 -79 104 -79q132 0 160 133l103 486q3 12 15 12h52q10 0 10 -8z"/>
    <glyph glyph-name="Udieresis" unicode="Ü" horiz-adv-x="574" d="M550 805q0 -22 -15.5 -37.5t-37.5 -15.5t-37.5 15.5t-15.5 37.5q0 23 15.5 38t38.5 15q21 0 36.5 -15.5t15.5 -37.5zM362 805q0 -22 -15.5 -37.5t-37.5 -15.5t-37.5 15.5t-15.5 37.5t15.5 37.5t38.5 15.5q21 0 36.5 -16t15.5 -37zM585 678q0 -3 -1 -7l-102 -483 q-12 -57 -29.5 -90.5t-50.5 -59.5q-64 -52 -170 -52q-170 0 -170 138q0 33 7 64l103 486q3 12 15 12h55q10 0 10 -8q0 -2 -1 -7l-103 -483q-7 -29 -7 -54q0 -79 104 -79q132 0 160 133l103 486q3 12 15 12h52q10 0 10 -8z"/>
    <glyph glyph-name="Yacute" unicode="Ý" horiz-adv-x="408" d="M470 817q0 -5 -8 -8l-186 -69l-7 -1q-4 0 -8 7l-11 17q-3 6 -3 8q0 5 6 7l168 100q6 3 9 3q5 0 9 -8l28 -48q3 -6 3 -8zM512 669q0 -2 -4 -10l-258 -369l-59 -278q-3 -12 -15 -12h-54q-10 0 -10 8q0 5 1 7l58 275l-104 369q-2 6 -2 9q0 6 10 8l57 16q7 2 9 2q4 0 7 -10 l63 -267q9 -37 11 -67l41 67l168 268q6 9 9 9t8 -2l56 -15q8 -2 8 -8z"/>
    <glyph glyph-name="Thorn" unicode="Þ" horiz-adv-x="482" d="M489 432q0 -63 -23 -116.5t-65 -85.5q-35 -27 -73 -37.5t-102 -10.5h-70l-37 -170q-2 -12 -15 -12h-54q-10 0 -10 9q0 1 1 6l140 659q3 12 15 12h54q10 0 10 -8q0 -6 -1 -7l-20 -95h77q83 0 117 -21q56 -35 56 -123zM408 426q0 44 -20.5 61.5t-73.5 17.5h-90l-54 -256h66 q82 0 120 35q52 49 52 142z"/>
    <glyph glyph-name="germandbls" unicode="ß" horiz-adv-x="519" d="M25 -24l113 570q18 91 65 132.5t132 41.5q69 0 107 -31.5t38 -89.5q0 -50 -31 -87q-19 -21 -76 -63q-39 -30 -39 -54q0 -19 9.5 -34t65.5 -81q38 -45 50.5 -72t12.5 -62q0 -72 -46.5 -116t-122.5 -44q-33 0 -75 12.5t-44 22.5q0 2 2 8l19 43q3 6 9 6q4 0 14 -5 q41 -22 79 -22q43 0 70.5 24.5t27.5 62.5q0 26 -10 47.5t-36 51.5q-63 73 -77.5 96t-14.5 52q0 41 27 69q15 15 68 55q49 37 49 83q0 32 -23 51t-62 19q-96 0 -118 -116l-111 -574q-18 -94 -61 -135t-123 -41q-11 0 -22.5 1t-21 2.5t-17.5 3.5t-12 4.5t-4 4.5l1 7l14 41 q3 9 7 9q2 0 4 -1q34 -8 60 -8q42 0 66.5 27.5t36.5 88.5z"/>
    <glyph glyph-name="agrave" unicode="à" horiz-adv-x="482" d="M362 585q0 -4 -3 -7l-16 -22q-5 -5 -9 -5q-2 0 -7 3l-131 79q-4 2 -4 6q0 6 3 9l43 50q7 7 11 7q3 0 8 -5l103 -109q2 -4 2 -6zM447 474l-1 -7l-70 -329q-5 -25 -5 -58q0 -31 6 -53q2 -8 2 -11q0 -5 -5 -7l-47 -19q-4 -2 -5 -2q-8 0 -14 19.5t-6 47.5q0 19 2 38 q-69 -107 -163 -107q-49 0 -77.5 39.5t-28.5 107.5q0 67 20.5 138.5t54.5 124.5q62 98 155 98q35 0 58 -11.5t50 -42.5l14 32q3 8 12 8h41q7 0 7 -6zM357 384q-48 45 -95 45q-66 0 -110 -100q-41 -96 -41 -191q0 -83 55 -83q26 0 55.5 18t52.5 48q37 48 54 127z"/>
    <glyph glyph-name="aacute" unicode="á" horiz-adv-x="482" d="M455 641q0 -5 -8 -8l-173 -79q-3 -2 -7 -2q-3 0 -8 7l-11 17q-3 6 -3 8q0 3 5 7l156 108q7 4 8 4q5 0 9 -7l28 -47q4 -5 4 -8zM447 474l-1 -7l-70 -329q-5 -25 -5 -58q0 -31 6 -53q2 -8 2 -11q0 -5 -5 -7l-47 -19q-4 -2 -5 -2q-8 0 -14 19.5t-6 47.5q0 19 2 38 q-69 -107 -163 -107q-49 0 -77.5 39.5t-28.5 107.5q0 67 20.5 138.5t54.5 124.5q62 98 155 98q35 0 58 -11.5t50 -42.5l14 32q3 8 12 8h41q7 0 7 -6zM357 384q-48 45 -95 45q-66 0 -110 -100q-41 -96 -41 -191q0 -83 55 -83q26 0 55.5 18t52.5 48q37 48 54 127z"/>
    <glyph glyph-name="acircumflex" unicode="â" horiz-adv-x="482" d="M436 593q0 -3 -4 -9l-15 -16q-5 -6 -8 -6q-4 0 -10 5l-80 58l-96 -57q-7 -4 -9 -4q-4 0 -7 5l-13 23q-4 7 -4 9q0 5 6 8l122 84q5 4 9 4q3 0 10 -6l94 -91q5 -5 5 -7zM447 474l-1 -7l-70 -329q-5 -25 -5 -58q0 -31 6 -53q2 -8 2 -11q0 -5 -5 -7l-47 -19q-4 -2 -5 -2 q-8 0 -14 19.5t-6 47.5q0 19 2 38q-69 -107 -163 -107q-49 0 -77.5 39.5t-28.5 107.5q0 67 20.5 138.5t54.5 124.5q62 98 155 98q35 0 58 -11.5t50 -42.5l14 32q3 8 12 8h41q7 0 7 -6zM357 384q-48 45 -95 45q-66 0 -110 -100q-41 -96 -41 -191q0 -83 55 -83q26 0 55.5 18 t52.5 48q37 48 54 127z"/>
    <glyph glyph-name="atilde" unicode="ã" horiz-adv-x="482" d="M474 653q0 -7 -18 -27q-41 -47 -88 -47q-26 0 -59 21q-30 19 -47 19q-15 0 -25 -7t-26 -27q-5 -7 -10 -7q-2 0 -6 2l-24 19q-5 5 -5 8q0 6 18 28q38 46 89 46q22 0 57 -21q31 -19 47 -19q27 0 52 34q4 6 9 6q2 0 6 -2l24 -18q6 -5 6 -8zM447 474l-1 -7l-70 -329 q-5 -25 -5 -58q0 -31 6 -53q2 -8 2 -11q0 -5 -5 -7l-47 -19q-4 -2 -5 -2q-8 0 -14 19.5t-6 47.5q0 19 2 38q-69 -107 -163 -107q-49 0 -77.5 39.5t-28.5 107.5q0 67 20.5 138.5t54.5 124.5q62 98 155 98q35 0 58 -11.5t50 -42.5l14 32q3 8 12 8h41q7 0 7 -6zM357 384 q-48 45 -95 45q-66 0 -110 -100q-41 -96 -41 -191q0 -83 55 -83q26 0 55.5 18t52.5 48q37 48 54 127z"/>
    <glyph glyph-name="adieresis" unicode="ä" horiz-adv-x="482" d="M466 625q0 -21 -15 -36t-36 -15t-36 15t-15 36q0 22 15 36.5t37 14.5q20 0 35 -15t15 -36zM284 625q0 -21 -15 -36t-36 -15t-36 15t-15 36t15 36t37 15q20 0 35 -15.5t15 -35.5zM447 474l-1 -7l-70 -329q-5 -25 -5 -58q0 -31 6 -53q2 -8 2 -11q0 -5 -5 -7l-47 -19 q-4 -2 -5 -2q-8 0 -14 19.5t-6 47.5q0 19 2 38q-69 -107 -163 -107q-49 0 -77.5 39.5t-28.5 107.5q0 67 20.5 138.5t54.5 124.5q62 98 155 98q35 0 58 -11.5t50 -42.5l14 32q3 8 12 8h41q7 0 7 -6zM357 384q-48 45 -95 45q-66 0 -110 -100q-41 -96 -41 -191q0 -83 55 -83 q26 0 55.5 18t52.5 48q37 48 54 127z"/>
    <glyph glyph-name="aring" unicode="å" horiz-adv-x="482" d="M403 624q0 -37 -26 -62.5t-63 -25.5t-63.5 25.5t-26.5 61.5q0 38 26.5 63.5t65.5 25.5q35 0 61 -26t26 -62zM447 474l-1 -7l-70 -329q-5 -25 -5 -58q0 -31 6 -53q2 -8 2 -11q0 -5 -5 -7l-47 -19q-4 -2 -5 -2q-8 0 -14 19.5t-6 47.5q0 19 2 38q-69 -107 -163 -107 q-49 0 -77.5 39.5t-28.5 106.5t20 138.5t55 125.5q62 98 155 98q35 0 58 -11.5t50 -42.5l14 32q3 8 12 8h41q7 0 7 -6zM355 623q0 20 -12 33.5t-30 13.5q-17 0 -29 -13.5t-12 -32.5t12 -32.5t29 -13.5t29.5 13t12.5 32zM357 384q-48 45 -95 45q-66 0 -110 -100 q-41 -96 -41 -191q0 -83 55 -83q26 0 55.5 18t52.5 48q37 48 54 127z"/>
    <glyph glyph-name="ae" unicode="æ" horiz-adv-x="685" d="M659 369q0 -43 -25.5 -78t-67.5 -50q-33 -11 -73 -15.5t-132 -6.5q-4 -33 -4 -61q0 -103 93 -103q57 0 124 44q9 5 13 5q3 0 7 -6l25 -37q1 0 2 -5q0 -5 -9 -11q-77 -59 -170 -59q-112 0 -147 95q-73 -95 -164 -95q-52 0 -82 32.5t-30 88.5q0 91 75 133q68 37 210 40 l8 39q6 30 6 44q0 66 -70 66q-46 0 -109 -25q-9 -4 -13 -4t-7 5l-10 32q-2 6 -2 10q0 14 54 30.5t102 16.5q84 0 112 -73q72 73 156 73q59 0 93.5 -33.5t34.5 -91.5zM588 365q0 31 -19 49t-52 18q-54 0 -93 -40.5t-53 -111.5q119 0 168 19t49 66zM291 218q-106 -1 -151 -25 t-45 -80q0 -29 13.5 -45.5t38.5 -16.5q50 0 86.5 32.5t47.5 86.5z"/>
    <glyph glyph-name="ccedilla" unicode="ç" horiz-adv-x="389" d="M413 454l-1 -7l-26 -43q-3 -4 -8 -4q-4 0 -12 5q-40 24 -80 24q-84 0 -128 -78q-21 -37 -35.5 -94.5t-14.5 -103.5q0 -47 23.5 -72.5t66.5 -25.5q52 0 101 36q8 6 13 6q6 0 8 -4l17 -40q1 -1 1 -4q0 -6 -21 -20q-48 -31 -112 -41l-13 -46q36 -6 49 -17t13 -36 q0 -38 -30 -60.5t-79 -22.5q-65 0 -65 14q0 2 2 6l11 32q1 6 7 6q2 0 13 -3q17 -5 37 -5q45 0 45 27q0 17 -27 20q-20 2 -33 4q-10 1 -10 8q0 4 1 6l20 67q-114 18 -114 164q0 149 82 256q66 86 180 86q66 0 107 -27q12 -8 12 -13z"/>
    <glyph glyph-name="egrave" unicode="è" horiz-adv-x="444" d="M352 585q0 -4 -3 -7l-16 -22q-5 -5 -9 -5q-2 0 -7 3l-131 79q-4 2 -4 6q0 6 3 9l43 50q7 7 11 7q3 0 8 -5l103 -109q2 -4 2 -6zM418 366q0 -49 -27 -87.5t-74 -57.5q-72 -29 -209 -30v-7v-17q0 -112 94 -112q66 0 130 43q10 6 14 6t8 -6l24 -36q2 -4 2 -5q0 -5 -10 -12 q-84 -59 -175 -59q-79 0 -120.5 47t-41.5 135q0 73 26 142.5t71 116.5q64 67 156 67q62 0 97 -34t35 -94zM347 363q0 33 -19 51t-53 18q-58 0 -99 -47t-58 -133q229 0 229 111z"/>
    <glyph glyph-name="eacute" unicode="é" horiz-adv-x="444" d="M439 641q0 -5 -8 -8l-179 -79q-5 -2 -8 -2q-4 0 -8 7l-11 17q-3 4 -3 8q0 3 5 7l163 108q5 4 8 4q5 0 9 -7l28 -47q4 -5 4 -8zM418 366q0 -49 -27 -87.5t-74 -57.5q-72 -29 -209 -30v-7v-17q0 -112 94 -112q66 0 130 43q10 6 14 6t8 -6l24 -36q2 -4 2 -5q0 -5 -10 -12 q-84 -59 -175 -59q-79 0 -120.5 47t-41.5 135q0 73 26 142.5t71 116.5q64 67 156 67q62 0 97 -34t35 -94zM347 363q0 33 -19 51t-53 18q-58 0 -99 -47t-58 -133q229 0 229 111z"/>
    <glyph glyph-name="ecircumflex" unicode="ê" horiz-adv-x="444" d="M417 593q0 -3 -4 -9l-15 -16q-5 -6 -8 -6q-4 0 -10 5l-80 58l-96 -57q-7 -4 -9 -4q-5 0 -7 5l-13 23q-4 7 -4 9q0 5 6 8l122 84q5 4 9 4q2 0 10 -6l94 -91q5 -5 5 -7zM418 366q0 -49 -27 -87.5t-74 -57.5q-72 -29 -209 -30v-7v-17q0 -112 94 -112q66 0 130 43q10 6 14 6 t8 -6l24 -36q2 -4 2 -5q0 -5 -10 -12q-84 -59 -175 -59q-79 0 -120.5 47t-41.5 135q0 73 26 142.5t71 116.5q64 67 156 67q62 0 97 -34t35 -94zM347 363q0 33 -19 51t-53 18q-58 0 -99 -47t-58 -133q229 0 229 111z"/>
    <glyph glyph-name="edieresis" unicode="ë" horiz-adv-x="444" d="M442 625q0 -21 -15 -36t-36 -15t-36 15t-15 36q0 22 15 36.5t37 14.5q20 0 35 -15t15 -36zM260 625q0 -21 -15 -36t-36 -15t-36 15t-15 36t15 36t37 15q20 0 35 -15.5t15 -35.5zM418 366q0 -49 -27 -87.5t-74 -57.5q-72 -29 -209 -30v-7v-17q0 -112 94 -112q66 0 130 43 q10 6 14 6t8 -6l24 -36q2 -4 2 -5q0 -5 -10 -12q-84 -59 -175 -59q-79 0 -120.5 47t-41.5 135q0 73 26 142.5t71 116.5q64 67 156 67q62 0 97 -34t35 -94zM347 363q0 33 -19 51t-53 18q-58 0 -99 -47t-58 -133q229 0 229 111z"/>
    <glyph glyph-name="igrave" unicode="ì" horiz-adv-x="259" d="M259 585q0 -4 -3 -7l-16 -22q-5 -5 -9 -5q-2 0 -7 3l-131 79q-4 2 -4 6q0 6 3 9l43 50q7 7 11 7q3 0 8 -5l103 -109q2 -4 2 -6zM222 472q0 -1 -1 -5l-97 -457q-2 -10 -12 -10h-53q-7 0 -7 7q0 5 1 6l86 409h-81q-8 0 -8 6q0 2 1 7l7 35q2 10 13 10h143q8 0 8 -8z"/>
    <glyph glyph-name="iacute" unicode="í" horiz-adv-x="259" d="M336 641q0 -5 -8 -8l-173 -79q-3 -2 -7 -2q-3 0 -8 7l-11 17q-3 6 -3 8q0 3 5 7l156 108q7 4 8 4q5 0 9 -7l28 -47q4 -5 4 -8zM222 472q0 -1 -1 -5l-97 -457q-2 -10 -12 -10h-53q-7 0 -7 7q0 5 1 6l86 409h-81q-8 0 -8 6q0 2 1 7l7 35q2 10 13 10h143q8 0 8 -8z"/>
    <glyph glyph-name="icircumflex" unicode="î" horiz-adv-x="259" d="M305 593q0 -3 -4 -9l-15 -16q-5 -6 -8 -6q-4 0 -10 5l-80 58l-96 -57q-7 -4 -9 -4q-5 0 -7 5l-13 23q-4 7 -4 9q0 5 6 8l122 84q5 4 9 4q2 0 10 -6l94 -91q5 -5 5 -7zM222 472q0 -1 -1 -5l-97 -457q-2 -10 -12 -10h-53q-7 0 -7 7q0 5 1 6l86 409h-81q-8 0 -8 6q0 2 1 7 l7 35q2 10 13 10h143q8 0 8 -8z"/>
    <glyph glyph-name="idieresis" unicode="ï" horiz-adv-x="259" d="M315 625q0 -21 -15 -36t-36 -15t-36 15t-15 36q0 22 15 36.5t37 14.5q20 0 35 -15t15 -36zM181 625q0 -21 -15 -36t-36 -15t-36 15t-15 36t15 36t37 15q20 0 35 -15.5t15 -35.5zM222 472q0 -1 -1 -5l-97 -457q-2 -10 -12 -10h-53q-7 0 -7 7q0 5 1 6l86 409h-81q-8 0 -8 6 q0 2 1 7l7 35q2 10 13 10h143q8 0 8 -8z"/>
    <glyph glyph-name="eth" unicode="ð" horiz-adv-x="482" d="M492 645q0 -4 -9 -7l-84 -25q46 -151 46 -277q0 -168 -93 -275q-64 -75 -165 -75q-154 0 -154 163q0 140 70.5 242.5t166.5 102.5q53 0 89 -39q-9 75 -27 137l-88 -26q-6 -2 -7 -2q-4 0 -7 9l-8 25q-1 2 -1 6q0 5 9 8l90 26q-7 27 -25 76q-5 14 -5 17q0 6 16 6h37 q9 0 17.5 -16t24.5 -62l84 25q3 1 7 1t7 -9l7 -24q2 -6 2 -7zM369 330q0 99 -91 99q-74 0 -117 -74q-52 -90 -52 -202q0 -102 87 -102q76 0 121 75q52 91 52 204z"/>
    <glyph glyph-name="ntilde" unicode="ñ" d="M469 653q0 -7 -18 -27q-41 -47 -88 -47q-26 0 -59 21q-30 19 -47 19q-15 0 -25 -7t-26 -27q-5 -7 -10 -7q-2 0 -6 2l-24 19q-5 5 -5 8q0 6 18 28q38 46 89 46q22 0 57 -21q31 -19 47 -19q27 0 52 34q4 6 9 6q2 0 6 -2l24 -18q6 -5 6 -8zM451 415q0 -25 -10 -71l-71 -334 q-2 -10 -12 -10h-52q-8 0 -8 6q0 3 1 4v3l70 331q6 28 6 40q0 45 -45 45q-59 0 -111 -57.5t-70 -142.5l-47 -219q-2 -10 -12 -10h-52q-8 0 -8 6l1 7l72 336q7 33 7 51q0 28 -8 53q-1 3 -1 6q0 6 4 8l44 22q8 3 11 3q19 0 19 -68q0 -3 -0.5 -7.5t-1 -12.5t-0.5 -16 q79 106 183 106q42 0 66.5 -21t24.5 -58z"/>
    <glyph glyph-name="ograve" unicode="ò" horiz-adv-x="482" d="M336 585q0 -4 -3 -7l-16 -22q-5 -5 -9 -5q-2 0 -7 3l-131 79q-4 2 -4 6q0 6 3 9l43 50q7 7 11 7q3 0 8 -5l103 -109q2 -4 2 -6zM442 326q0 -65 -20.5 -131.5t-56.5 -115.5q-66 -93 -181 -93q-151 0 -151 168q0 140 76 249q63 91 181 91q73 0 112.5 -43.5t39.5 -124.5z M366 325q0 104 -91 104q-80 0 -126 -93q-40 -80 -40 -182q0 -103 86 -103q83 0 128 91q43 91 43 183z"/>
    <glyph glyph-name="oacute" unicode="ó" horiz-adv-x="482" d="M489 641q0 -5 -8 -8l-173 -79q-3 -2 -7 -2q-3 0 -8 7l-11 17q-3 6 -3 8q0 3 5 7l156 108q7 4 8 4q5 0 9 -7l28 -47q4 -5 4 -8zM442 326q0 -65 -20.5 -131.5t-56.5 -115.5q-66 -93 -181 -93q-151 0 -151 168q0 140 76 249q63 91 181 91q73 0 112.5 -43.5t39.5 -124.5z M366 325q0 104 -91 104q-80 0 -126 -93q-40 -80 -40 -182q0 -103 86 -103q83 0 128 91q43 91 43 183z"/>
    <glyph glyph-name="ocircumflex" unicode="ô" horiz-adv-x="482" d="M436 593q0 -3 -4 -9l-15 -16q-5 -6 -8 -6q-4 0 -10 5l-80 58l-96 -57q-7 -4 -9 -4q-4 0 -7 5l-13 23q-4 7 -4 9q0 5 6 8l122 84q5 4 9 4q3 0 10 -6l94 -91q5 -5 5 -7zM442 326q0 -65 -20.5 -131.5t-56.5 -115.5q-66 -93 -181 -93q-151 0 -151 168q0 140 76 249 q63 91 181 91q73 0 112.5 -43.5t39.5 -124.5zM366 325q0 104 -91 104q-80 0 -126 -93q-40 -80 -40 -182q0 -103 86 -103q83 0 128 91q43 91 43 183z"/>
    <glyph glyph-name="otilde" unicode="õ" horiz-adv-x="482" d="M474 653q0 -7 -18 -27q-41 -47 -88 -47q-26 0 -59 21q-30 19 -47 19q-15 0 -25 -7t-26 -27q-5 -7 -10 -7q-2 0 -6 2l-24 19q-5 5 -5 8q0 6 18 28q38 46 89 46q22 0 57 -21q31 -19 47 -19q27 0 52 34q4 6 9 6q2 0 6 -2l24 -18q6 -5 6 -8zM442 326q0 -65 -20.5 -131.5 t-56.5 -115.5q-66 -93 -181 -93q-151 0 -151 168q0 140 76 249q63 91 181 91q73 0 112.5 -43.5t39.5 -124.5zM366 325q0 104 -91 104q-80 0 -126 -93q-40 -80 -40 -182q0 -103 86 -103q83 0 128 91q43 91 43 183z"/>
    <glyph glyph-name="odieresis" unicode="ö" horiz-adv-x="482" d="M461 625q0 -21 -15 -36t-36 -15t-36 15t-15 36q0 22 15 36.5t37 14.5q20 0 35 -15t15 -36zM279 625q0 -21 -15 -36t-36 -15t-36 15t-15 36t15 36t37 15q20 0 35 -15.5t15 -35.5zM442 326q0 -65 -20.5 -131.5t-56.5 -115.5q-66 -93 -181 -93q-151 0 -151 168q0 140 76 249 q63 91 181 91q73 0 112.5 -43.5t39.5 -124.5zM366 325q0 104 -91 104q-80 0 -126 -93q-40 -80 -40 -182q0 -103 86 -103q83 0 128 91q43 91 43 183z"/>
    <glyph glyph-name="divide" unicode="÷" d="M320 495q0 -24 -16.5 -40.5t-39.5 -16.5q-24 0 -40.5 16.5t-16.5 40.5q0 23 16.5 39.5t40.5 16.5q23 0 39.5 -16.5t16.5 -39.5zM492 297q0 -9 -2.5 -11.5t-11.5 -2.5h-428q-9 0 -11.5 2.5t-2.5 11.5v47q0 9 2.5 11.5t11.5 2.5h428q9 0 11.5 -2.5t2.5 -11.5v-47zM320 146 q0 -23 -16.5 -39.5t-39.5 -16.5q-24 0 -40.5 16.5t-16.5 39.5q0 24 16.5 40.5t40.5 16.5q23 0 39.5 -16.5t16.5 -40.5z"/>
    <glyph glyph-name="oslash" unicode="ø" horiz-adv-x="482" d="M451 503q0 -1 -2 -5l-40 -54q34 -45 34 -120q0 -63 -21 -129.5t-56 -115.5q-68 -93 -181 -93q-52 0 -93 24l-38 -53q-3 -5 -6 -5t-6 3l-26 19q-4 4 -4 7q0 1 2 5l43 60q-24 47 -24 112q0 136 76 245q65 91 180 91q42 0 80 -17l38 52q3 4 6 4q2 0 6 -2l28 -21q4 -4 4 -7z M325 424q-22 6 -46 6q-87 0 -134 -93q-18 -35 -30 -87t-12 -96q0 -24 6 -49zM371 327q0 28 -11 64l-224 -327q25 -14 60 -14q87 0 131 90q44 88 44 187z"/>
    <glyph glyph-name="ugrave" unicode="ù" d="M380 585q0 -4 -3 -7l-16 -22q-5 -5 -9 -5q-2 0 -7 3l-131 79q-4 2 -4 6q0 6 3 9l43 50q7 7 11 7q3 0 8 -5l103 -109q2 -4 2 -6zM465 485q0 -5 -1 -6l-74 -350q-5 -25 -5 -49q0 -25 10 -52q1 -2 1 -6q0 -5 -4 -7l-47 -24q-6 -3 -9 -3q-8 0 -13 18.5t-5 46.5q0 16 1 28 q-45 -51 -84 -73t-84 -22q-47 0 -76 26t-29 68q0 29 8 71l68 317q1 8 10 11l52 11q2 1 7 1q6 0 6 -7q0 -3 -1 -5l-66 -309q-8 -38 -8 -66q0 -23 12.5 -36t35.5 -13q29 0 61.5 16t56.5 41q34 36 49 109l53 247q2 9 11 11l51 11q2 1 7 1q6 0 6 -6z"/>
    <glyph glyph-name="uacute" unicode="ú" d="M464 641q0 -5 -8 -8l-173 -79q-3 -2 -7 -2q-3 0 -8 7l-11 17q-3 6 -3 8q0 3 5 7l156 108q7 4 8 4q5 0 9 -7l28 -47q4 -5 4 -8zM465 485q0 -5 -1 -6l-74 -350q-5 -25 -5 -49q0 -25 10 -52q1 -2 1 -6q0 -5 -4 -7l-47 -24q-6 -3 -9 -3q-8 0 -13 18.5t-5 46.5q0 16 1 28 q-45 -51 -84 -73t-84 -22q-47 0 -76 26t-29 68q0 29 8 71l68 317q1 8 10 11l52 11q2 1 7 1q6 0 6 -7q0 -3 -1 -5l-66 -309q-8 -38 -8 -66q0 -23 12.5 -36t35.5 -13q29 0 61.5 16t56.5 41q34 36 49 109l53 247q2 9 11 11l51 11q2 1 7 1q6 0 6 -6z"/>
    <glyph glyph-name="ucircumflex" unicode="û" d="M446 593q0 -3 -4 -9l-15 -16q-5 -6 -8 -6q-4 0 -10 5l-80 58l-96 -57q-7 -4 -9 -4q-4 0 -7 5l-13 23q-4 7 -4 9q0 5 6 8l122 84q5 4 9 4q3 0 10 -6l94 -91q5 -5 5 -7zM465 485q0 -5 -1 -6l-74 -350q-5 -25 -5 -49q0 -25 10 -52q1 -2 1 -6q0 -5 -4 -7l-47 -24q-6 -3 -9 -3 q-8 0 -13 18.5t-5 46.5q0 16 1 28q-45 -51 -84 -73t-84 -22q-47 0 -76 26t-29 68q0 29 8 71l68 317q1 8 10 11l52 11q2 1 7 1q6 0 6 -7q0 -3 -1 -5l-66 -309q-8 -38 -8 -66q0 -23 12.5 -36t35.5 -13q29 0 61.5 16t56.5 41q34 36 49 109l53 247q2 9 11 11l51 11q2 1 7 1 q6 0 6 -6z"/>
    <glyph glyph-name="udieresis" unicode="ü" d="M470 625q0 -21 -15 -36t-36 -15t-36 15t-15 36q0 22 15 36.5t37 14.5q20 0 35 -15t15 -36zM288 625q0 -21 -15 -36t-36 -15t-36 15t-15 36t15 36t37 15q20 0 35 -15.5t15 -35.5zM465 485q0 -5 -1 -6l-74 -350q-5 -25 -5 -49q0 -25 10 -52q1 -2 1 -6q0 -5 -4 -7l-47 -24 q-6 -3 -9 -3q-8 0 -13 18.5t-5 46.5q0 16 1 28q-45 -51 -84 -73t-84 -22q-47 0 -76 26t-29 68q0 29 8 71l68 317q1 8 10 11l52 11q2 1 7 1q6 0 6 -7q0 -3 -1 -5l-66 -309q-8 -38 -8 -66q0 -23 12.5 -36t35.5 -13q29 0 61.5 16t56.5 41q34 36 49 109l53 247q2 9 11 11l51 11 q2 1 7 1q6 0 6 -6z"/>
    <glyph glyph-name="yacute" unicode="ý" horiz-adv-x="408" d="M418 641q0 -5 -8 -8l-173 -79q-3 -2 -7 -2q-3 0 -8 7l-11 17q-3 6 -3 8q0 3 5 7l156 108q7 4 8 4q5 0 9 -7l28 -47q4 -5 4 -8zM438 462q0 -3 -3 -8l-177 -395q-55 -123 -96 -185q-57 -86 -150 -86q-33 0 -70.5 14.5t-37.5 27.5q0 3 4 10l24 38q3 5 8 5q4 0 18 -9 q33 -21 61 -21q59 0 104 84l34 63h-36q-11 0 -12 10l-65 445q-1 4 -1 7t6 6l57 19q5 2 8 2q5 0 6 -8l57 -442l194 444q3 6 6 6q4 0 8 -2l47 -19q6 -3 6 -6z"/>
    <glyph glyph-name="thorn" unicode="þ" horiz-adv-x="481" d="M435 331q0 -70 -20.5 -142t-54.5 -122q-55 -81 -140 -81q-58 0 -113 42l-46 -214q-1 -9 -10 -10l-53 -16q-4 -1 -6 -1q-7 0 -7 7q0 1 1 6l192 900q2 8 10 11l52 12q1 1 7 1t6 -5q0 -6 -1 -7l-52 -245l-3 -12l-4 -16q-2 -11 -6 -17q57 72 136 72q112 0 112 -163zM359 338 q0 91 -63 91q-53 0 -95 -52q-28 -35 -46 -120l-35 -166q50 -40 99 -40q35 0 58 22.5t45 77.5q37 95 37 187z"/>
    <glyph glyph-name="ydieresis" unicode="ÿ" horiz-adv-x="408" d="M424 625q0 -21 -15 -36t-36 -15t-36 15t-15 36q0 22 15 36.5t37 14.5q20 0 35 -15t15 -36zM242 625q0 -21 -15 -36t-36 -15t-36 15t-15 36t15 36t37 15q20 0 35 -15.5t15 -35.5zM438 462q0 -3 -3 -8l-177 -395q-55 -123 -96 -185q-57 -86 -150 -86q-33 0 -70.5 14.5 t-37.5 27.5q0 3 4 10l24 38q3 5 8 5q4 0 18 -9q33 -21 61 -21q59 0 104 84l34 63h-36q-11 0 -12 10l-65 445q-1 4 -1 7t6 6l57 19q5 2 8 2q5 0 6 -8l57 -442l194 444q3 6 6 6q4 0 8 -2l47 -19q6 -3 6 -6z"/>
    <glyph glyph-name="Amacron" unicode="Ā" d="M446 7q0 -7 -11 -7h-54q-9 0 -11 2t-3 11l-16 193h-211l-100 -197q-4 -9 -15 -9h-52q-12 0 -12 8q0 4 3 9l341 660q5 9 16 9h50q8 0 10.5 -2.5t3.5 -10.5l61 -659v-7zM343 275l-15 221q-2 27 -3 59.5t-1 35.5q-15 -40 -42 -95l-106 -221h167zM488 827q0 -1 -2 -6l-7 -35 q-2 -12 -15 -12h-221q-10 0 -10 9q0 1 1 6l8 35q2 12 14 12h221q11 0 11 -9z"/>
    <glyph glyph-name="amacron" unicode="ā" horiz-adv-x="482" d="M447 474l-1 -7l-70 -329q-5 -25 -5 -58q0 -31 6 -53q2 -8 2 -11q0 -5 -5 -7l-47 -19q-4 -2 -5 -2q-8 0 -14 19.5t-6 47.5q0 19 2 38q-69 -107 -163 -107q-49 0 -77.5 39.5t-28.5 107.5q0 67 20.5 138.5t54.5 124.5q62 98 155 98q35 0 58 -11.5t50 -42.5l14 32q3 8 12 8 h41q7 0 7 -6zM357 384q-48 45 -95 45q-66 0 -110 -100q-41 -96 -41 -191q0 -83 55 -83q26 0 55.5 18t52.5 48q37 48 54 127zM445 639q0 -1 -2 -6l-7 -35q-2 -12 -15 -12h-221q-10 0 -10 9q0 1 1 6l8 35q2 12 14 12h221q11 0 11 -9z"/>
    <glyph glyph-name="Abreve" unicode="Ă" d="M446 7q0 -7 -11 -7h-54q-9 0 -11 2t-3 11l-16 193h-211l-100 -197q-4 -9 -15 -9h-52q-12 0 -12 8q0 4 3 9l341 660q5 9 16 9h50q8 0 10.5 -2.5t3.5 -10.5l61 -659v-7zM343 275l-15 221q-2 27 -3 59.5t-1 35.5q-15 -40 -42 -95l-106 -221h167zM499 857q0 -8 -15 -36 q-45 -81 -137 -81q-105 0 -105 110q0 12 14 15l34 6l4 1q2 1 6 1q6 0 6 -13q0 -37 10.5 -51.5t38.5 -14.5q56 0 79 71q1 7 9 7q4 0 7 -1l40 -6q9 -1 9 -8z"/>
    <glyph glyph-name="abreve" unicode="ă" horiz-adv-x="482" d="M447 474l-1 -7l-70 -329q-5 -25 -5 -58q0 -31 6 -53q2 -8 2 -11q0 -5 -5 -7l-47 -19q-4 -2 -5 -2q-8 0 -14 19.5t-6 47.5q0 19 2 38q-69 -107 -163 -107q-49 0 -77.5 39.5t-28.5 107.5q0 67 20.5 138.5t54.5 124.5q62 98 155 98q35 0 58 -11.5t50 -42.5l14 32q3 8 12 8 h41q7 0 7 -6zM357 384q-48 45 -95 45q-66 0 -110 -100q-41 -96 -41 -191q0 -83 55 -83q26 0 55.5 18t52.5 48q37 48 54 127zM456 669q0 -8 -15 -36q-45 -81 -137 -81q-105 0 -105 110q0 12 14 15l34 6l4 1q2 1 6 1q6 0 6 -13q0 -37 10.5 -51.5t38.5 -14.5q56 0 79 71 q1 7 9 7q4 0 7 -1l40 -6q9 -1 9 -8z"/>
    <glyph glyph-name="Aogonek" unicode="Ą" d="M460 -146q0 -10 -32 -22t-61 -12q-34 0 -54 16t-20 44t17 55.5t59 67.5q-2 4 -2 10l-16 193h-211l-100 -197q-4 -9 -15 -9h-52q-12 0 -12 8q0 4 3 9l341 660q5 9 16 9h50q8 0 10.5 -2.5t3.5 -10.5l61 -659v-7q0 -7 -11 -7h-26q-55 -52 -55 -103q0 -22 27 -22q25 0 62 17 q1 1 4 1t5 -5l8 -28v-6zM343 275l-15 221q-2 27 -3 59.5t-1 35.5q-15 -40 -42 -95l-106 -221h167z"/>
    <glyph glyph-name="aogonek" unicode="ą" horiz-adv-x="482" d="M394 -147q0 -10 -32 -22t-61 -12q-34 0 -54 16t-20 44q0 29 17.5 57t63.5 71q-6 18 -6 48q0 19 2 38q-69 -107 -163 -107q-49 0 -77.5 39.5t-28.5 107.5q0 67 20.5 138.5t54.5 124.5q62 98 155 98q35 0 58 -11.5t50 -42.5l14 32q3 8 12 8h41q7 0 7 -6l-1 -7l-70 -329 q-5 -25 -5 -58q0 -31 6 -53q2 -8 2 -11q0 -5 -5 -7l-35 -14q-51 -50 -51 -99q0 -22 27 -22q25 0 62 17q1 1 4 1t5 -5l8 -28v-6zM357 384q-48 45 -95 45q-66 0 -110 -100q-41 -96 -41 -191q0 -83 55 -83q26 0 55.5 18t52.5 48q37 48 54 127z"/>
    <glyph glyph-name="Cacute" unicode="Ć" horiz-adv-x="426" d="M488 634q0 -1 -3 -10l-25 -38q-5 -6 -8 -6q-6 0 -17 11q-45 40 -99 40q-74 0 -125 -103q-32 -67 -54 -165.5t-22 -179.5q0 -61 23 -94.5t65 -33.5q52 0 123 52q7 4 9 4q7 0 9 -7l16 -36q2 -2 2 -8t-15 -16q-82 -58 -159 -58q-76 0 -117 52t-41 149q0 91 25 194t66 179 q75 140 206 140q73 0 132 -52q9 -7 9 -14zM501 829q0 -5 -8 -8l-173 -79q-3 -2 -7 -2q-3 0 -8 7l-11 17q-3 6 -3 8q0 3 5 7l156 108q7 4 8 4q5 0 9 -7l28 -45q4 -7 4 -10z"/>
    <glyph glyph-name="cacute" unicode="ć" horiz-adv-x="389" d="M413 453q0 -2 -2 -6l-25 -43q-3 -4 -8 -4q-4 0 -12 5q-39 24 -81 24q-83 0 -127 -78q-21 -38 -35.5 -95t-14.5 -104t23 -72t67 -25q52 0 101 36q8 6 13 6q4 0 8 -4l17 -40q1 -2 1 -4q0 -6 -21 -20q-65 -43 -143 -43q-142 0 -142 167q0 151 81 255q65 86 181 86 q62 0 107 -27q12 -8 12 -14zM442 641q0 -5 -8 -8l-173 -79q-3 -2 -7 -2q-3 0 -8 7l-11 17q-3 6 -3 8q0 3 5 7l156 108q7 4 8 4q5 0 9 -7l28 -45q4 -7 4 -10z"/>
    <glyph glyph-name="Ccircumflex" unicode="Ĉ" horiz-adv-x="426" d="M488 634q0 -1 -3 -10l-25 -38q-5 -6 -8 -6q-6 0 -17 11q-45 40 -99 40q-74 0 -125 -103q-32 -67 -54 -165.5t-22 -179.5q0 -61 23 -94.5t65 -33.5q52 0 123 52q7 4 9 4q7 0 9 -7l16 -36q2 -2 2 -8t-15 -16q-82 -58 -159 -58q-76 0 -117 52t-41 149q0 91 25 194t66 179 q75 140 206 140q73 0 132 -52q9 -7 9 -14zM482 781q0 -3 -4 -9l-15 -16q-5 -6 -8 -6q-4 0 -10 5l-80 58l-96 -57q-7 -4 -9 -4q-4 0 -7 5l-13 23q-4 7 -4 9q0 5 6 8l122 84q5 4 9 4q3 0 10 -6l94 -91q5 -5 5 -7z"/>
    <glyph glyph-name="ccircumflex" unicode="ĉ" horiz-adv-x="389" d="M413 453q0 -2 -2 -6l-25 -43q-3 -4 -8 -4q-4 0 -12 5q-39 24 -81 24q-83 0 -127 -78q-21 -38 -35.5 -95t-14.5 -104t23 -72t67 -25q52 0 101 36q8 6 13 6q4 0 8 -4l17 -40q1 -2 1 -4q0 -6 -21 -20q-65 -43 -143 -43q-142 0 -142 167q0 151 81 255q65 86 181 86 q62 0 107 -27q12 -8 12 -14zM433 593q0 -3 -4 -9l-15 -16q-5 -6 -8 -6q-4 0 -10 5l-80 58l-96 -57q-7 -4 -9 -4q-5 0 -7 5l-13 23q-4 7 -4 9q0 5 6 8l122 84q5 4 9 4q2 0 10 -6l94 -91q5 -5 5 -7z"/>
    <glyph glyph-name="Cdotaccent" unicode="Ċ" horiz-adv-x="426" d="M488 634q0 -1 -3 -10l-25 -38q-5 -6 -8 -6q-6 0 -17 11q-45 40 -99 40q-74 0 -125 -103q-32 -67 -54 -165.5t-22 -179.5q0 -61 23 -94.5t65 -33.5q52 0 123 52q7 4 9 4q7 0 9 -7l16 -36q2 -2 2 -8t-15 -16q-82 -58 -159 -58q-76 0 -117 52t-41 149q0 91 25 194t66 179 q75 140 206 140q73 0 132 -52q9 -7 9 -14zM420 813q0 -23 -16 -39t-39 -16q-22 0 -38.5 16t-16.5 38q0 24 16.5 40t39.5 16q22 0 38 -16.5t16 -38.5z"/>
    <glyph glyph-name="cdotaccent" unicode="ċ" horiz-adv-x="389" d="M413 453q0 -2 -2 -6l-25 -43q-3 -4 -8 -4q-4 0 -12 5q-39 24 -81 24q-83 0 -127 -78q-21 -38 -35.5 -95t-14.5 -104t23 -72t67 -25q52 0 101 36q8 6 13 6q4 0 8 -4l17 -40q1 -2 1 -4q0 -6 -21 -20q-65 -43 -143 -43q-142 0 -142 167q0 151 81 255q65 86 181 86 q62 0 107 -27q12 -8 12 -14zM361 625q0 -23 -16.5 -39t-38.5 -16t-38.5 16t-16.5 38q0 24 16.5 40t39.5 16q22 0 38 -16.5t16 -38.5z"/>
    <glyph glyph-name="Ccaron" unicode="Č" horiz-adv-x="426" d="M488 634q0 -1 -3 -10l-25 -38q-5 -6 -8 -6q-6 0 -17 11q-45 40 -99 40q-74 0 -125 -103q-32 -67 -54 -165.5t-22 -179.5q0 -61 23 -94.5t65 -33.5q52 0 123 52q7 4 9 4q7 0 9 -7l16 -36q2 -2 2 -8t-15 -16q-82 -58 -159 -58q-76 0 -117 52t-41 149q0 91 25 194t66 179 q75 140 206 140q73 0 132 -52q9 -7 9 -14zM496 846q0 -4 -5 -7l-123 -85q-4 -3 -9 -3q-4 0 -9 5l-95 90q-5 5 -5 9q0 3 5 9l13 14q5 7 9 7q3 0 10 -4l80 -59l96 58q6 3 9 3q5 0 8 -5l13 -24q3 -4 3 -8z"/>
    <glyph glyph-name="ccaron" unicode="č" horiz-adv-x="389" d="M413 453q0 -2 -2 -6l-25 -43q-3 -4 -8 -4q-4 0 -12 5q-39 24 -81 24q-83 0 -127 -78q-21 -38 -35.5 -95t-14.5 -104t23 -72t67 -25q52 0 101 36q8 6 13 6q4 0 8 -4l17 -40q1 -2 1 -4q0 -6 -21 -20q-65 -43 -143 -43q-142 0 -142 167q0 151 81 255q65 86 181 86 q62 0 107 -27q12 -8 12 -14zM437 658q0 -4 -5 -7l-123 -85q-5 -3 -9 -3t-9 5l-95 90q-5 5 -5 9q0 3 5 9l13 14q5 7 9 7q3 0 10 -4l80 -59l96 58q6 3 9 3q5 0 8 -5l13 -24q3 -4 3 -8z"/>
    <glyph glyph-name="Dcaron" unicode="Ď" horiz-adv-x="537" d="M526 501q0 -113 -37.5 -231.5t-94.5 -185.5q-71 -84 -216 -84h-128q-10 0 -10 8q0 2 1 7l140 659q3 12 15 12h102q71 0 105.5 -6.5t59.5 -25.5q63 -46 63 -153zM444 498q0 80 -49 105q-25 12 -80 12h-68l-115 -544h70q88 0 136 67q44 61 75 166t31 194zM489 846 q0 -4 -5 -7l-123 -85q-5 -3 -9 -3t-9 5l-95 90q-5 5 -5 9q0 3 5 9l13 14q5 7 9 7q3 0 10 -4l80 -59l96 58q6 3 9 3q5 0 8 -5l13 -24q3 -4 3 -8z"/>
    <glyph glyph-name="dcaron" unicode="ď" horiz-adv-x="481" d="M499 718q0 -3 -1 -6l-119 -559q-5 -23 -5 -55t9 -65q1 -3 1 -8t-6 -8l-47 -26q-6 -3 -9 -3q-7 0 -13 24.5t-6 56.5v19q-69 -102 -158 -102q-53 0 -81 37t-28 107q0 76 22 154.5t57 127.5q58 82 152 82q55 0 106 -33l51 239q1 8 10 11l52 12q1 1 7 1t6 -6zM359 397 q-48 32 -87 32q-42 0 -68.5 -20.5t-47.5 -68.5q-19 -44 -31.5 -102.5t-12.5 -104.5q0 -79 50 -79q58 0 110 58q35 40 53 125zM663 683l-111 -152q-12 -15 -21 -15q-5 0 -11 3q-14 4 -14 12q0 5 5 15l71 145q9 17 26 17h45q19 0 19 -8q0 -4 -9 -17z"/>
    <glyph glyph-name="Dcroat" unicode="Đ" horiz-adv-x="537" d="M526 501q0 -113 -37.5 -231t-94.5 -186q-71 -84 -216 -84h-127q-10 0 -10 8q0 6 1 7l66 310h-69q-10 0 -10 9q0 1 1 6l7 34q3 12 15 12h68l62 288q3 12 14 12h103q71 0 105 -6.5t59 -25.5q63 -46 63 -153zM444 498q0 80 -49 105q-24 12 -79 12h-68l-49 -229h123q8 0 8 -6 v-5l-8 -37q-2 -13 -17 -13h-119l-54 -254h70q88 0 136 67q44 61 75 166t31 194z"/>
    <glyph glyph-name="dcroat" unicode="đ" horiz-adv-x="481" d="M499 718q0 -3 -1 -6l-19 -86h70q12 0 12 -7q0 -4 -1 -7l-7 -32q-4 -14 -17 -14h-69l-88 -413q-5 -23 -5 -55t9 -65q1 -3 1 -8t-6 -8l-47 -26q-6 -3 -9 -3q-7 0 -13 24.5t-6 56.5v19q-69 -102 -158 -102q-53 0 -81 37t-28 107q0 76 22 154.5t57 127.5q58 82 152 82 q55 0 106 -33l22 105h-137q-12 0 -12 7q0 4 1 7l7 32q1 9 4.5 11.5t12.5 2.5h137l16 74q1 8 10 11l52 12q1 1 7 1t6 -6zM359 397q-48 32 -87 32q-42 0 -68.5 -20.5t-47.5 -68.5q-19 -44 -31.5 -102.5t-12.5 -104.5q0 -79 50 -79q58 0 110 58q35 40 53 125z"/>
    <glyph glyph-name="Emacron" unicode="Ē" horiz-adv-x="463" d="M511 679q0 -3 -3 -10l-23 -44q-6 -10 -15 -10h-223l-47 -225h197q10 0 10 -8q0 -4 -1 -7l-8 -40q-3 -12 -15 -12h-198l-53 -252h241q10 0 10 -8q0 -6 -1 -7l-9 -44q-2 -12 -15 -12h-308q-10 0 -10 9q0 2 1 6l140 659q3 12 15 12h305q10 0 10 -7zM491 827q0 -1 -2 -6 l-7 -35q-2 -12 -15 -12h-221q-10 0 -10 9q0 1 1 6l8 35q2 12 14 12h221q11 0 11 -9z"/>
    <glyph glyph-name="emacron" unicode="ē" horiz-adv-x="444" d="M418 366q0 -49 -27 -87.5t-74 -57.5q-72 -29 -209 -30v-7v-17q0 -112 94 -112q66 0 130 43q10 6 14 6t8 -6l24 -36q2 -4 2 -5q0 -5 -10 -12q-84 -59 -175 -59q-79 0 -120.5 47t-41.5 135q0 73 26 142.5t71 116.5q64 67 156 67q62 0 97 -34t35 -94zM347 363q0 33 -19 51 t-53 18q-58 0 -99 -47t-58 -133q229 0 229 111zM426 639q0 -1 -2 -6l-7 -35q-2 -12 -15 -12h-221q-10 0 -10 9q0 1 1 6l8 35q2 12 14 12h221q11 0 11 -9z"/>
    <glyph glyph-name="Ebreve" unicode="Ĕ" horiz-adv-x="463" d="M511 679q0 -3 -3 -10l-23 -44q-6 -10 -15 -10h-223l-47 -225h197q10 0 10 -8q0 -4 -1 -7l-8 -40q-3 -12 -15 -12h-198l-53 -252h241q10 0 10 -8q0 -6 -1 -7l-9 -44q-2 -12 -15 -12h-308q-10 0 -10 9q0 2 1 6l140 659q3 12 15 12h305q10 0 10 -7zM502 857q0 -8 -15 -36 q-45 -81 -137 -81q-105 0 -105 110q0 12 14 15l34 6l4 1q2 1 6 1q6 0 6 -13q0 -37 10.5 -51.5t38.5 -14.5q56 0 79 71q1 7 9 7q4 0 7 -1l40 -6q9 -1 9 -8z"/>
    <glyph glyph-name="ebreve" unicode="ĕ" horiz-adv-x="444" d="M418 366q0 -49 -27 -87.5t-74 -57.5q-72 -29 -209 -30v-7v-17q0 -112 94 -112q66 0 130 43q10 6 14 6t8 -6l24 -36q2 -4 2 -5q0 -5 -10 -12q-84 -59 -175 -59q-79 0 -120.5 47t-41.5 135q0 73 26 142.5t71 116.5q64 67 156 67q62 0 97 -34t35 -94zM347 363q0 33 -19 51 t-53 18q-58 0 -99 -47t-58 -133q229 0 229 111zM437 669q0 -8 -15 -36q-45 -81 -137 -81q-105 0 -105 110q0 12 14 15l34 6l4 1q2 1 6 1q6 0 6 -13q0 -37 10.5 -51.5t38.5 -14.5q56 0 79 71q1 7 9 7q4 0 7 -1l40 -6q9 -1 9 -8z"/>
    <glyph glyph-name="Edotaccent" unicode="Ė" horiz-adv-x="463" d="M511 679q0 -3 -3 -10l-23 -44q-6 -10 -15 -10h-223l-47 -225h197q10 0 10 -8q0 -4 -1 -7l-8 -40q-3 -12 -15 -12h-198l-53 -252h241q10 0 10 -8q0 -6 -1 -7l-9 -44q-2 -12 -15 -12h-308q-10 0 -10 9q0 2 1 6l140 659q3 12 15 12h305q10 0 10 -7zM420 813q0 -23 -16 -39 t-39 -16q-22 0 -38.5 16t-16.5 38q0 24 16.5 40t39.5 16q22 0 38 -16.5t16 -38.5z"/>
    <glyph glyph-name="edotaccent" unicode="ė" horiz-adv-x="444" d="M418 366q0 -49 -27 -87.5t-74 -57.5q-72 -29 -209 -30v-7v-17q0 -112 94 -112q66 0 130 43q10 6 14 6t8 -6l24 -36q2 -4 2 -5q0 -5 -10 -12q-84 -59 -175 -59q-79 0 -120.5 47t-41.5 135q0 73 26 142.5t71 116.5q64 67 156 67q62 0 97 -34t35 -94zM347 363q0 33 -19 51 t-53 18q-58 0 -99 -47t-58 -133q229 0 229 111zM355 625q0 -23 -16.5 -39t-38.5 -16t-38.5 16t-16.5 38q0 24 16.5 40t39.5 16q22 0 38 -16.5t16 -38.5z"/>
    <glyph glyph-name="Eogonek" unicode="Ę" horiz-adv-x="463" d="M132 71h241q10 0 10 -8q0 -6 -1 -7l-9 -44q-2 -12 -15 -12h-88q-55 -52 -55 -103q0 -22 27 -22q25 0 62 17q1 1 4 1t5 -5l8 -28v-6q0 -10 -32 -22t-61 -12q-34 0 -54 16t-20 44q0 27 16 54t56 66h-176q-10 0 -10 9q0 2 1 6l140 659q3 12 15 12h305q10 0 10 -7 q0 -3 -3 -10l-23 -44q-6 -10 -15 -10h-223l-47 -225h197q10 0 10 -8q0 -4 -1 -7l-8 -40q-3 -12 -15 -12h-198z"/>
    <glyph glyph-name="eogonek" unicode="ę" horiz-adv-x="444" d="M332 -146q0 -10 -32 -22t-61 -12q-34 0 -54 16t-20 44q0 48 60 108q-20 -2 -30 -2q-79 0 -120.5 47t-41.5 135q0 73 26 142.5t71 116.5q64 67 156 67q62 0 97 -34t35 -94q0 -49 -27 -87.5t-74 -57.5q-72 -29 -209 -30v-24q0 -112 94 -112q66 0 130 43q10 6 14 6t8 -6 l24 -36q2 -4 2 -5q0 -5 -10 -12q-47 -33 -90 -46q-54 -52 -54 -102q0 -22 27 -22q25 0 62 17q1 1 4 1t5 -5l8 -28v-6zM347 363q0 33 -19 51t-53 18q-58 0 -99 -47t-58 -133q229 0 229 111z"/>
    <glyph glyph-name="Ecaron" unicode="Ě" horiz-adv-x="463" d="M511 679q0 -3 -3 -10l-23 -44q-6 -10 -15 -10h-223l-47 -225h197q10 0 10 -8q0 -4 -1 -7l-8 -40q-3 -12 -15 -12h-198l-53 -252h241q10 0 10 -8q0 -6 -1 -7l-9 -44q-2 -12 -15 -12h-308q-10 0 -10 9q0 2 1 6l140 659q3 12 15 12h305q10 0 10 -7zM486 846q0 -4 -5 -7 l-123 -85q-4 -3 -9 -3q-4 0 -9 5l-95 90q-5 5 -5 9q0 3 5 9l13 14q5 7 9 7q3 0 10 -4l80 -59l96 58q6 3 9 3q5 0 8 -5l13 -24q3 -4 3 -8z"/>
    <glyph glyph-name="ecaron" unicode="ě" horiz-adv-x="444" d="M418 366q0 -49 -27 -87.5t-74 -57.5q-72 -29 -209 -30v-7v-17q0 -112 94 -112q66 0 130 43q10 6 14 6t8 -6l24 -36q2 -4 2 -5q0 -5 -10 -12q-84 -59 -175 -59q-79 0 -120.5 47t-41.5 135q0 73 26 142.5t71 116.5q64 67 156 67q62 0 97 -34t35 -94zM347 363q0 33 -19 51 t-53 18q-58 0 -99 -47t-58 -133q229 0 229 111zM431 658q0 -4 -5 -7l-123 -85q-5 -3 -9 -3t-9 5l-95 90q-5 5 -5 9q0 3 5 9l13 14q5 7 9 7q3 0 10 -4l80 -59l96 58q6 3 9 3q5 0 8 -5l13 -24q3 -4 3 -8z"/>
    <glyph glyph-name="Gcircumflex" unicode="Ĝ" d="M526 641q0 -3 -3 -9l-29 -42q-4 -5 -8 -5q-5 0 -10 5q-51 41 -108 41q-103 0 -155 -103q-37 -72 -59 -166.5t-22 -177.5q0 -130 123 -130q42 0 80 16l45 210h-83q-10 0 -10 8q0 2 1 7l9 40q2 12 14 12h147q10 0 10 -9q0 -1 -2 -6l-61 -292q-2 -12 -17 -19 q-75 -35 -157 -35q-85 0 -133 55t-48 151t28.5 203.5t71.5 176.5q38 61 96.5 94.5t128.5 33.5q79 0 139 -45q12 -9 12 -14zM510 781q0 -3 -4 -9l-15 -16q-5 -6 -8 -6q-4 0 -10 5l-80 58l-96 -57q-7 -4 -9 -4q-4 0 -7 5l-13 23q-4 7 -4 9q0 5 6 8l122 84q5 4 9 4q3 0 10 -6 l94 -91q5 -5 5 -7z"/>
    <glyph glyph-name="gcircumflex" unicode="ĝ" horiz-adv-x="481" d="M472 456q0 -5 -8 -14q-33 -38 -49 -112l-31 -144q-18 -87 -28 -151q-14 -87 -26 -125.5t-34 -64.5q-49 -57 -148 -57q-36 0 -80 11.5t-74 28.5q-10 6 -10 10l2 8l19 46q1 6 7 6q5 0 25 -10q73 -35 119 -35q65 0 95 52q14 26 30 110q2 11 18 89q-36 -55 -70 -78.5 t-78 -23.5q-55 0 -84 37t-29 106q0 71 22.5 146t58.5 123q60 80 147 80q61 0 121 -47q9 17 22.5 31t20.5 14q5 0 9 -4l29 -25q4 -4 4 -7zM356 391q-56 38 -99 38q-35 0 -60.5 -25t-47.5 -81q-35 -93 -35 -181q0 -71 52 -71q51 0 97 50.5t62 123.5zM415 593q0 -3 -4 -9 l-15 -16q-5 -6 -8 -6q-4 0 -10 5l-80 58l-96 -57q-7 -4 -9 -4q-5 0 -7 5l-13 23q-4 7 -4 9q0 5 6 8l122 84q5 4 9 4q2 0 10 -6l94 -91q5 -5 5 -7z"/>
    <glyph glyph-name="Gbreve" unicode="Ğ" d="M526 641q0 -3 -3 -9l-29 -42q-4 -5 -8 -5q-5 0 -10 5q-51 41 -108 41q-103 0 -155 -103q-37 -72 -59 -166.5t-22 -177.5q0 -130 123 -130q42 0 80 16l45 210h-83q-10 0 -10 8q0 2 1 7l9 40q2 12 14 12h147q10 0 10 -9q0 -1 -2 -6l-61 -292q-2 -12 -17 -19 q-75 -35 -157 -35q-85 0 -133 55t-48 151t28.5 203.5t71.5 176.5q38 61 96.5 94.5t128.5 33.5q79 0 139 -45q12 -9 12 -14zM530 857q0 -8 -15 -36q-45 -81 -137 -81q-105 0 -105 110q0 12 14 15l34 6l4 1q2 1 6 1q6 0 6 -13q0 -37 10.5 -51.5t38.5 -14.5q56 0 79 71q1 7 9 7 q4 0 7 -1l40 -6q9 -1 9 -8z"/>
    <glyph glyph-name="gbreve" unicode="ğ" horiz-adv-x="481" d="M472 456q0 -5 -8 -14q-33 -38 -49 -112l-31 -144q-18 -87 -28 -151q-14 -87 -26 -125.5t-34 -64.5q-49 -57 -148 -57q-36 0 -80 11.5t-74 28.5q-10 6 -10 10l2 8l19 46q1 6 7 6q5 0 25 -10q73 -35 119 -35q65 0 95 52q14 26 30 110q2 11 18 89q-36 -55 -70 -78.5 t-78 -23.5q-55 0 -84 37t-29 106q0 71 22.5 146t58.5 123q60 80 147 80q61 0 121 -47q9 17 22.5 31t20.5 14q5 0 9 -4l29 -25q4 -4 4 -7zM356 391q-56 38 -99 38q-35 0 -60.5 -25t-47.5 -81q-35 -93 -35 -181q0 -71 52 -71q51 0 97 50.5t62 123.5zM435 669q0 -8 -15 -36 q-45 -81 -137 -81q-105 0 -105 110q0 12 14 15l34 6l4 1q2 1 6 1q6 0 6 -13q0 -37 10.5 -51.5t38.5 -14.5q56 0 79 71q1 7 9 7q4 0 7 -1l40 -6q9 -1 9 -8z"/>
    <glyph glyph-name="Gdotaccent" unicode="Ġ" d="M526 641q0 -3 -3 -9l-29 -42q-4 -5 -8 -5q-5 0 -10 5q-51 41 -108 41q-103 0 -155 -103q-37 -72 -59 -166.5t-22 -177.5q0 -130 123 -130q42 0 80 16l45 210h-83q-10 0 -10 8q0 2 1 7l9 40q2 12 14 12h147q10 0 10 -9q0 -1 -2 -6l-61 -292q-2 -12 -17 -19 q-75 -35 -157 -35q-85 0 -133 55t-48 151t28.5 203.5t71.5 176.5q38 61 96.5 94.5t128.5 33.5q79 0 139 -45q12 -9 12 -14zM448 813q0 -23 -16 -39t-39 -16q-22 0 -38.5 16t-16.5 38q0 24 16.5 40t39.5 16q22 0 38 -16.5t16 -38.5z"/>
    <glyph glyph-name="gdotaccent" unicode="ġ" horiz-adv-x="481" d="M472 456q0 -5 -8 -14q-33 -38 -49 -112l-31 -144q-18 -87 -28 -151q-14 -87 -26 -125.5t-34 -64.5q-49 -57 -148 -57q-36 0 -80 11.5t-74 28.5q-10 6 -10 10l2 8l19 46q1 6 7 6q5 0 25 -10q73 -35 119 -35q65 0 95 52q14 26 30 110q2 11 18 89q-36 -55 -70 -78.5 t-78 -23.5q-55 0 -84 37t-29 106q0 71 22.5 146t58.5 123q60 80 147 80q61 0 121 -47q9 17 22.5 31t20.5 14q5 0 9 -4l29 -25q4 -4 4 -7zM356 391q-56 38 -99 38q-35 0 -60.5 -25t-47.5 -81q-35 -93 -35 -181q0 -71 52 -71q51 0 97 50.5t62 123.5zM358 625q0 -23 -16 -39 t-39 -16q-22 0 -38.5 16t-16.5 38q0 24 16.5 40t39.5 16q22 0 38 -16.5t16 -38.5z"/>
    <glyph glyph-name="Gcommaaccent" unicode="Ģ" d="M526 641q0 -3 -3 -9l-29 -42q-4 -5 -8 -5q-5 0 -10 5q-51 41 -108 41q-103 0 -155 -103q-37 -72 -59 -166.5t-22 -177.5q0 -130 123 -130q42 0 80 16l45 210h-83q-10 0 -10 8q0 2 1 7l9 40q2 12 14 12h147q10 0 10 -9q0 -1 -2 -6l-61 -292q-2 -12 -17 -19 q-75 -35 -157 -35q-85 0 -133 55t-48 151t28.5 203.5t71.5 176.5q38 61 96.5 94.5t128.5 33.5q79 0 139 -45q12 -9 12 -14zM280 -75l-111 -152q-12 -15 -21 -15q-5 0 -11 3q-14 4 -14 12q0 5 5 15l71 145q9 17 26 17h45q19 0 19 -8q0 -4 -9 -17z"/>
    <glyph glyph-name="gcommaaccent" unicode="ģ" horiz-adv-x="481" d="M225 567l111 152q11 14 21 14q5 0 11 -2q13 -5 13 -12t-4 -15l-71 -145q-9 -17 -26 -17h-45q-19 0 -19 8q0 6 9 17zM472 456q0 -5 -8 -14q-33 -38 -49 -112l-31 -144q-18 -87 -28 -151q-14 -87 -26 -125.5t-34 -64.5q-49 -57 -148 -57q-36 0 -80 11.5t-74 28.5 q-10 6 -10 10l2 8l19 46q1 6 7 6q5 0 25 -10q73 -35 119 -35q65 0 95 52q14 26 30 110q2 11 18 89q-36 -55 -70 -78.5t-78 -23.5q-55 0 -84 37t-29 106q0 71 22.5 146t58.5 123q60 80 147 80q61 0 121 -47q9 17 22.5 31t20.5 14q5 0 9 -4l29 -25q4 -4 4 -7zM356 391 q-56 38 -99 38q-35 0 -60.5 -25t-47.5 -81q-35 -93 -35 -181q0 -71 52 -71q51 0 97 50.5t62 123.5z"/>
    <glyph glyph-name="Hcircumflex" unicode="Ĥ" horiz-adv-x="574" d="M571 677q0 -2 -1 -6l-140 -659q-3 -12 -15 -12h-54q-10 0 -10 9q0 3 1 6l65 308h-232l-66 -311q-2 -12 -15 -12h-54q-10 0 -10 9q0 1 1 6l140 659q3 12 15 12h54q10 0 10 -9q0 -4 -1 -6l-59 -281h231l61 284q3 12 15 12h54q10 0 10 -9zM516 781q0 -3 -4 -9l-15 -16 q-5 -6 -8 -6q-4 0 -10 5l-80 58l-96 -57q-7 -4 -9 -4q-4 0 -7 5l-13 23q-4 7 -4 9q0 5 6 8l122 84q5 4 9 4q3 0 10 -6l94 -91q5 -5 5 -7z"/>
    <glyph glyph-name="hcircumflex" unicode="ĥ" d="M451 410q0 -20 -10 -66l-71 -334q-2 -10 -12 -10h-52q-8 0 -8 6q0 4 1 7l70 331q6 25 6 43q0 20 -12 31t-33 11q-60 0 -112 -57t-70 -143l-46 -219q-2 -10 -13 -10h-52q-8 0 -8 6q0 2 1 7l146 687q2 9 11 11l52 12q1 1 7 1t6 -6q0 -1 -1 -6l-56 -260q-11 -47 -19 -64 q83 106 183 106q44 0 68 -22t24 -62zM351 800q0 -3 -4 -9l-15 -16q-5 -6 -8 -6q-4 0 -10 5l-80 58l-96 -57q-7 -4 -9 -4q-5 0 -7 5l-13 23q-4 7 -4 9q0 5 6 8l122 84q5 4 9 4q2 0 10 -6l94 -91q5 -5 5 -7z"/>
    <glyph glyph-name="Hbar" unicode="Ħ" horiz-adv-x="574" d="M571 677q0 -2 -1 -6l-22 -102h73q12 0 12 -6q0 -5 -1 -8l-7 -37q-4 -14 -17 -14h-74l-104 -492q-3 -12 -15 -12h-54q-10 0 -10 9q0 3 1 6l65 308h-232l-66 -311q-2 -12 -15 -12h-54q-10 0 -10 9q0 1 1 6l104 489h-70q-12 0 -12 7q0 4 1 7l7 37q2 9 5 11.5t12 2.5h71 l22 105q3 12 15 12h54q10 0 10 -9q0 -4 -1 -6l-22 -102h232l23 105q3 12 15 12h54q10 0 10 -9zM200 390h231l24 114h-231z"/>
    <glyph glyph-name="hbar" unicode="ħ" d="M451 410q0 -20 -10 -66l-71 -334q-2 -10 -12 -10h-52q-8 0 -8 6q0 4 1 7l70 331q6 25 6 43q0 20 -12 31t-33 11q-60 0 -112 -57t-70 -143l-46 -219q-2 -10 -13 -10h-52q-8 0 -8 6q0 2 1 7l117 553h-73q-9 0 -11 2.5t0 11.5l7 32q1 9 4.5 11.5t12.5 2.5h73l16 74 q2 9 11 11l52 12q1 1 7 1t6 -6q0 -1 -1 -6l-19 -86h133q9 0 11 -2.5t0 -11.5l-7 -32q-4 -14 -17 -14h-133l-24 -114q-11 -47 -19 -64q83 106 183 106q44 0 68 -22t24 -62z"/>
    <glyph glyph-name="Itilde" unicode="Ĩ" horiz-adv-x="333" d="M397 678q0 -3 -1 -7l-8 -35q-3 -12 -14 -12h-90l-120 -562h90q10 0 10 -8q0 -4 -1 -7l-7 -35q-2 -12 -15 -12h-259q-10 0 -10 9q0 2 1 6l7 35q3 12 15 12h90l120 562h-90q-10 0 -10 9q0 5 1 6l7 35q2 12 15 12h259q10 0 10 -8zM436 841q0 -7 -18 -27q-41 -47 -88 -47 q-26 0 -59 21q-30 19 -47 19q-15 0 -25 -7t-26 -27q-5 -7 -10 -7q-2 0 -6 2l-24 19q-5 5 -5 8q0 6 18 28q38 46 89 46q22 0 57 -21q31 -19 47 -19q27 0 52 34q4 6 9 6q2 0 6 -2l24 -18q6 -5 6 -8z"/>
    <glyph glyph-name="itilde" unicode="ĩ" horiz-adv-x="259" d="M222 472q0 -1 -1 -5l-97 -457q-2 -10 -12 -10h-53q-7 0 -7 7q0 5 1 6l86 409h-81q-8 0 -8 6q0 2 1 7l7 35q2 10 13 10h143q8 0 8 -8zM335 653q0 -7 -18 -27q-41 -47 -88 -47q-26 0 -59 21q-30 19 -47 19q-15 0 -25 -7t-26 -27q-5 -7 -10 -7q-2 0 -6 2l-24 19q-5 5 -5 8 q0 6 18 28q38 46 89 46q22 0 57 -21q31 -19 47 -19q27 0 52 34q4 6 9 6q2 0 6 -2l24 -18q6 -5 6 -8z"/>
    <glyph glyph-name="Imacron" unicode="Ī" horiz-adv-x="333" d="M397 678q0 -3 -1 -7l-8 -35q-3 -12 -14 -12h-90l-120 -562h90q10 0 10 -8q0 -4 -1 -7l-7 -35q-2 -12 -15 -12h-259q-10 0 -10 9q0 2 1 6l7 35q3 12 15 12h90l120 562h-90q-10 0 -10 9q0 5 1 6l7 35q2 12 15 12h259q10 0 10 -8zM407 827q0 -1 -2 -6l-7 -35q-2 -12 -15 -12 h-221q-10 0 -10 9q0 1 1 6l8 35q2 12 14 12h221q11 0 11 -9z"/>
    <glyph glyph-name="imacron" unicode="ī" horiz-adv-x="259" d="M222 472q0 -1 -1 -5l-97 -457q-2 -10 -12 -10h-53q-7 0 -7 7q0 5 1 6l86 409h-81q-8 0 -8 6q0 2 1 7l7 35q2 10 13 10h143q8 0 8 -8zM306 639q0 -1 -2 -6l-7 -35q-2 -12 -15 -12h-221q-10 0 -10 9q0 1 1 6l8 35q2 12 14 12h221q11 0 11 -9z"/>
    <glyph glyph-name="Ibreve" unicode="Ĭ" horiz-adv-x="333" d="M397 678q0 -3 -1 -7l-8 -35q-3 -12 -14 -12h-90l-120 -562h90q10 0 10 -8q0 -4 -1 -7l-7 -35q-2 -12 -15 -12h-259q-10 0 -10 9q0 2 1 6l7 35q3 12 15 12h90l120 562h-90q-10 0 -10 9q0 5 1 6l7 35q2 12 15 12h259q10 0 10 -8zM418 857q0 -8 -15 -36q-45 -81 -137 -81 q-105 0 -105 110q0 12 14 15l34 6l4 1q2 1 6 1q6 0 6 -13q0 -37 10.5 -51.5t38.5 -14.5q56 0 79 71q1 7 9 7q4 0 7 -1l40 -6q9 -1 9 -8z"/>
    <glyph glyph-name="ibreve" unicode="ĭ" horiz-adv-x="259" d="M222 472q0 -1 -1 -5l-97 -457q-2 -10 -12 -10h-53q-7 0 -7 7q0 5 1 6l86 409h-81q-8 0 -8 6q0 2 1 7l7 35q2 10 13 10h143q8 0 8 -8zM317 669q0 -8 -15 -36q-45 -81 -137 -81q-105 0 -105 110q0 12 14 15l34 6l4 1q2 1 6 1q6 0 6 -13q0 -37 10.5 -51.5t38.5 -14.5 q56 0 79 71q1 7 9 7q4 0 7 -1l40 -6q9 -1 9 -8z"/>
    <glyph glyph-name="Iogonek" unicode="Į" horiz-adv-x="333" d="M85 62l120 562h-90q-10 0 -10 9q0 5 1 6l7 35q2 12 15 12h259q10 0 10 -8q0 -3 -1 -7l-8 -35q-3 -12 -14 -12h-90l-120 -562h90q10 0 10 -8q0 -4 -1 -7l-7 -35q-2 -12 -15 -12h-62q-55 -52 -55 -103q0 -22 27 -22q25 0 62 17q1 1 4 1t5 -5l8 -28v-6q0 -10 -32 -22 t-61 -12q-34 0 -54 16t-20 44q0 27 16 54t56 66h-153q-10 0 -10 9q0 2 1 6l7 35q3 12 15 12h90z"/>
    <glyph glyph-name="iogonek" unicode="į" horiz-adv-x="259" d="M158 -146q0 -10 -32 -22t-61 -12q-34 0 -54 16t-20 44q0 27 16 54t56 66h-4q-7 0 -7 7q0 5 1 6l86 409h-81q-8 0 -8 6q0 2 1 7l7 35q2 10 13 10h143q8 0 8 -8q0 -1 -1 -5l-97 -457q-2 -10 -12 -10h-5q-55 -52 -55 -103q0 -22 27 -22q25 0 62 17q1 1 4 1t5 -5l8 -28v-6z M277 656q0 -23 -16.5 -39.5t-39.5 -16.5t-39.5 16.5t-16.5 38.5q0 24 16.5 40.5t40.5 16.5q22 0 38.5 -16.5t16.5 -39.5z"/>
    <glyph glyph-name="Idotaccent" unicode="İ" horiz-adv-x="333" d="M397 678q0 -3 -1 -7l-8 -35q-3 -12 -14 -12h-90l-120 -562h90q10 0 10 -8q0 -4 -1 -7l-7 -35q-2 -12 -15 -12h-259q-10 0 -10 9q0 2 1 6l7 35q3 12 15 12h90l120 562h-90q-10 0 -10 9q0 5 1 6l7 35q2 12 15 12h259q10 0 10 -8zM336 813q0 -23 -16 -39t-39 -16 q-22 0 -38.5 16t-16.5 38q0 24 16.5 40t39.5 16q22 0 38 -16.5t16 -38.5z"/>
    <glyph glyph-name="dotlessi" unicode="ı" horiz-adv-x="259" d="M222 472q0 -1 -1 -5l-97 -457q-2 -10 -12 -10h-53q-7 0 -7 7q0 5 1 6l86 409h-81q-8 0 -8 6q0 2 1 7l7 35q2 10 13 10h143q8 0 8 -8z"/>
    <glyph glyph-name="Jcircumflex" unicode="Ĵ" horiz-adv-x="426" d="M432 678q0 -6 -1 -7l-97 -459q-26 -122 -67 -168q-53 -58 -142 -58q-62 0 -101.5 37t-39.5 95q0 55 10 75q1 4 9 4h55q7 0 7 -5v-5q-5 -25 -5 -55q0 -36 20 -56.5t55 -20.5q45 0 72.5 30t40.5 94l94 442h-175q-9 0 -9 8q0 6 1 7l8 38q1 12 14 12h241q10 0 10 -8zM447 781 q0 -3 -4 -9l-15 -16q-5 -6 -8 -6q-4 0 -10 5l-80 58l-96 -57q-7 -4 -9 -4q-5 0 -7 5l-13 23q-4 7 -4 9q0 5 6 8l122 84q5 4 9 4q2 0 10 -6l94 -91q5 -5 5 -7z"/>
    <glyph glyph-name="jcircumflex" unicode="ĵ" horiz-adv-x="259" d="M222 467l-102 -479q-22 -103 -51 -141q-20 -27 -54 -43t-72 -16q-33 0 -69.5 13t-36.5 25l2 8l18 39q3 6 10 6q5 0 15 -6q38 -20 72 -20q37 0 57.5 32t39.5 121l89 416h-82q-8 0 -8 6q0 1 1 7l8 35q3 10 12 10h144q7 0 7 -6v-7zM295 593q0 -3 -4 -9l-15 -16q-5 -6 -8 -6 q-4 0 -10 5l-80 58l-96 -57q-7 -4 -9 -4q-5 0 -7 5l-13 23q-4 7 -4 9q0 5 6 8l122 84q5 4 9 4q2 0 10 -6l94 -91q5 -5 5 -7z"/>
    <glyph glyph-name="Kcommaaccent" unicode="Ķ" d="M565 659q0 -4 -5 -9l-284 -293l168 -317q3 -6 3 -10q0 -5 -7 -8l-51 -27q-5 -3 -9 -3t-9 7l-179 354l-73 -341q-2 -12 -15 -12h-54q-10 0 -10 9q0 1 1 6l140 659q3 12 15 12h54q10 0 10 -9q0 -4 -1 -6l-65 -307l314 327q6 7 9 7t10 -5l31 -24q7 -7 7 -10zM280 -75 l-111 -152q-12 -15 -21 -15q-5 0 -11 3q-14 4 -14 12q0 5 5 15l71 145q9 17 26 17h45q19 0 19 -8q0 -4 -9 -17z"/>
    <glyph glyph-name="kcommaaccent" unicode="ķ" horiz-adv-x="426" d="M457 454q0 -3 -4 -7l-222 -178l153 -236q3 -4 3 -6t-7 -8l-45 -27q-5 -3 -8 -3t-6 5l-165 272l-54 -256q-2 -10 -13 -10h-52q-8 0 -8 6q0 2 1 7l146 687q2 9 11 11l52 12q1 1 7 1t6 -6q0 -1 -1 -6l-92 -432l244 207q5 5 8 5q2 0 8 -5l34 -28q4 -3 4 -5zM229 -76 l-111 -152q-12 -15 -21 -15q-5 0 -11 3q-14 4 -14 12q0 5 5 15l71 145q9 17 26 17h45q19 0 19 -8q0 -4 -9 -17z"/>
    <glyph glyph-name="kgreenlandic" unicode="ĸ" horiz-adv-x="426" d="M180 381l-21 -101l244 207q5 5 8 5q2 0 8 -5l34 -28q4 -3 4 -5q0 -3 -4 -7l-222 -178l153 -236q3 -4 3 -6t-7 -8l-45 -27q-5 -3 -8 -3t-6 5l-165 272l-54 -256q-2 -10 -13 -10h-52q-8 0 -8 6q0 2 1 7l72 336q7 30 7 51q0 27 -8 53q-1 3 -1 6q0 6 4 8l44 22q8 3 11 3 q9 0 17 -20t8 -48q0 -23 -4 -43z"/>
    <glyph glyph-name="Lacute" unicode="Ĺ" horiz-adv-x="408" d="M395 64q0 -2 -3 -10l-26 -45q-4 -9 -15 -9h-301q-10 0 -10 9q0 2 1 6l140 659q3 12 15 12h54q10 0 10 -9q0 -4 -1 -6l-127 -600h253q10 0 10 -7zM384 829q0 -5 -8 -8l-173 -79q-3 -2 -7 -2q-3 0 -8 7l-11 17q-3 6 -3 8q0 3 5 7l156 108q7 4 8 4q5 0 9 -7l28 -45 q4 -7 4 -10z"/>
    <glyph glyph-name="lacute" unicode="ĺ" horiz-adv-x="241" d="M245 718q0 -1 -1 -6l-112 -530q-16 -72 -16 -101q0 -33 30 -33q18 0 42 12q7 4 10 4q7 0 7 -6l4 -34q1 -2 1 -6q0 -11 -29 -21.5t-59 -10.5q-38 0 -59.5 20t-21.5 54q0 32 19 122l110 518q2 9 11 11l52 12q1 1 6 1q6 0 6 -6zM368 848q0 -5 -8 -8l-173 -79q-3 -2 -7 -2 q-3 0 -8 7l-11 17q-3 6 -3 8q0 3 5 7l156 108q7 4 8 4q5 0 9 -7l28 -45q4 -7 4 -10z"/>
    <glyph glyph-name="Lcommaaccent" unicode="Ļ" horiz-adv-x="408" d="M395 64q0 -2 -3 -10l-26 -45q-4 -9 -15 -9h-301q-10 0 -10 9q0 2 1 6l140 659q3 12 15 12h54q10 0 10 -9q0 -4 -1 -6l-127 -600h253q10 0 10 -7zM234 -75l-111 -152q-12 -15 -21 -15q-5 0 -11 3q-14 4 -14 12q0 5 5 15l71 145q9 17 26 17h45q19 0 19 -8q0 -4 -9 -17z"/>
    <glyph glyph-name="lcommaaccent" unicode="ļ" horiz-adv-x="241" d="M245 718q0 -1 -1 -6l-112 -530q-16 -72 -16 -101q0 -33 30 -33q18 0 42 12q7 4 10 4q7 0 7 -6l4 -34q1 -2 1 -6q0 -11 -29 -21.5t-59 -10.5q-38 0 -59.5 20t-21.5 54q0 32 19 122l110 518q2 9 11 11l52 12q1 1 6 1q6 0 6 -6zM150 -75l-111 -152q-12 -15 -21 -15 q-5 0 -11 3q-14 4 -14 12q0 5 5 15l71 145q9 17 26 17h45q19 0 19 -8q0 -4 -9 -17z"/>
    <glyph glyph-name="Lcaron" unicode="Ľ" horiz-adv-x="408" d="M395 64q0 -2 -3 -10l-26 -45q-4 -9 -15 -9h-301q-10 0 -10 9q0 2 1 6l140 659q3 12 15 12h54q10 0 10 -9q0 -4 -1 -6l-127 -600h253q10 0 10 -7zM372 846q0 -4 -5 -7l-123 -85q-4 -3 -9 -3q-4 0 -9 5l-95 90q-5 5 -5 9q0 3 5 9l13 14q5 7 9 7q3 0 10 -4l80 -59l96 58 q6 3 9 3q5 0 8 -5l13 -24q3 -4 3 -8z"/>
    <glyph glyph-name="lcaron" unicode="ľ" horiz-adv-x="241" d="M245 718q0 -1 -1 -6l-112 -530q-16 -72 -16 -101q0 -33 30 -33q18 0 42 12q7 4 10 4q7 0 7 -6l4 -34q1 -2 1 -6q0 -11 -29 -21.5t-59 -10.5q-38 0 -59.5 20t-21.5 54q0 32 19 122l110 518q2 9 11 11l52 12q1 1 6 1q6 0 6 -6zM403 683l-111 -152q-12 -15 -21 -15 q-5 0 -11 3q-14 4 -14 12q0 5 5 15l71 145q9 17 26 17h45q19 0 19 -8q0 -4 -9 -17z"/>
    <glyph glyph-name="Ldot" unicode="Ŀ" horiz-adv-x="408" d="M395 64q0 -2 -3 -10l-26 -45q-4 -9 -15 -9h-301q-10 0 -10 9q0 2 1 6l140 659q3 12 15 12h54q10 0 10 -9q0 -4 -1 -6l-127 -600h253q10 0 10 -7zM409 359q0 -23 -16.5 -39t-38.5 -16t-38.5 16t-16.5 38q0 24 16.5 40t39.5 16q22 0 38 -16.5t16 -38.5z"/>
    <glyph glyph-name="ldot" unicode="ŀ" horiz-adv-x="354" d="M245 718q0 -1 -1 -6l-112 -530q-16 -72 -16 -101q0 -33 30 -33q18 0 42 12q7 4 10 4q7 0 7 -6l4 -34q1 -2 1 -6q0 -11 -29 -21.5t-59 -10.5q-38 0 -59.5 20t-21.5 54q0 32 19 122l110 518q2 9 11 11l52 12q1 1 6 1q6 0 6 -6zM368 359q0 -23 -16 -39t-39 -16 q-22 0 -38.5 16t-16.5 38q0 24 16.5 40t39.5 16q22 0 38 -16.5t16 -38.5z"/>
    <glyph glyph-name="Lslash" unicode="Ł" horiz-adv-x="408" d="M395 64q0 -3 -4 -10l-26 -45q-5 -9 -15 -9h-301q-10 0 -10 8q0 3 1 7l63 297l-100 -51q-5 -3 -9 -3q-7 0 -7 7q0 6 1 8l8 38q1 8 10 13l112 57l62 293q2 12 15 12h54q10 0 10 -8q0 -6 -1 -7l-55 -262l144 72q6 3 10 3q7 0 7 -8q0 -4 -1 -7l-9 -38q-1 -9 -10 -14l-156 -77 l-57 -269h253q11 0 11 -7z"/>
    <glyph glyph-name="lslash" unicode="ł" horiz-adv-x="260" d="M314 478q0 -6 -1 -6l-8 -38q-1 -7 -8 -11l-105 -53l-40 -188q-16 -72 -16 -102q0 -32 30 -32q20 0 42 12q7 4 10 4q5 0 7 -6l4 -34q1 -5 1 -6q0 -11 -29 -21.5t-59 -10.5q-38 0 -59.5 20t-21.5 55q0 30 19 121l34 161l-91 -47q-6 -3 -9 -3q-5 0 -5 6q0 5 1 7l8 37 q2 9 9 12l100 52l63 293q1 8 10 11l53 12q1 1 6 1q6 0 6 -5q0 -2 -1 -7l-59 -278l96 48q6 2 8 2q5 0 5 -6z"/>
    <glyph glyph-name="Nacute" unicode="Ń" horiz-adv-x="556" d="M561 676q0 -1 -1 -5l-140 -659q-3 -12 -15 -12h-49q-8 0 -11 2t-4 10l-115 508q-8 35 -12 74q-1 -44 -8 -78l-107 -504q-3 -12 -15 -12h-43q-10 0 -10 9q0 1 1 6l140 659q3 12 15 12h59q8 0 10.5 -2t3.5 -10l109 -479q11 -44 14 -77v15q0 26 8 62l102 479q2 12 15 12h43 q10 0 10 -10zM531 829q0 -5 -8 -8l-173 -79q-3 -2 -7 -2q-3 0 -8 7l-11 17q-3 6 -3 8q0 3 5 7l156 108q7 4 8 4q5 0 9 -7l28 -45q4 -7 4 -10z"/>
    <glyph glyph-name="nacute" unicode="ń" d="M451 415q0 -25 -10 -71l-71 -334q-2 -10 -12 -10h-52q-8 0 -8 6q0 3 1 4v3l70 331q6 28 6 40q0 45 -45 45q-59 0 -111 -57.5t-70 -142.5l-47 -219q-2 -10 -12 -10h-52q-8 0 -8 6l1 7l72 336q7 33 7 51q0 28 -8 53q-1 3 -1 6q0 6 4 8l44 22q8 3 11 3q19 0 19 -68 q0 -3 -0.5 -7.5t-1 -12.5t-0.5 -16q79 106 183 106q42 0 66.5 -21t24.5 -58zM464 641q0 -5 -8 -8l-173 -79q-3 -2 -7 -2q-3 0 -8 7l-11 17q-3 6 -3 8q0 3 5 7l156 108q7 4 8 4q5 0 9 -7l28 -45q4 -7 4 -10z"/>
    <glyph glyph-name="Ncommaaccent" unicode="Ņ" horiz-adv-x="556" d="M561 676q0 -1 -1 -5l-140 -659q-3 -12 -15 -12h-49q-8 0 -11 2t-4 10l-115 508q-8 35 -12 74q-1 -44 -8 -78l-107 -504q-3 -12 -15 -12h-43q-10 0 -10 9q0 1 1 6l140 659q3 12 15 12h59q8 0 10.5 -2t3.5 -10l109 -479q11 -44 14 -77v15q0 26 8 62l102 479q2 12 15 12h43 q10 0 10 -10zM258 -75l-111 -152q-12 -15 -21 -15q-5 0 -11 3q-14 4 -14 12q0 5 5 15l71 145q9 17 26 17h45q19 0 19 -8q0 -4 -9 -17z"/>
    <glyph glyph-name="ncommaaccent" unicode="ņ" d="M451 415q0 -25 -10 -71l-71 -334q-2 -10 -12 -10h-52q-8 0 -8 6q0 3 1 4v3l70 331q6 28 6 40q0 45 -45 45q-59 0 -111 -57.5t-70 -142.5l-47 -219q-2 -10 -12 -10h-52q-8 0 -8 6l1 7l72 336q7 33 7 51q0 28 -8 53q-1 3 -1 6q0 6 4 8l44 22q8 3 11 3q19 0 19 -68 q0 -3 -0.5 -7.5t-1 -12.5t-0.5 -16q79 106 183 106q42 0 66.5 -21t24.5 -58zM237 -76l-111 -152q-12 -15 -21 -15q-5 0 -11 3q-14 4 -14 12q0 5 5 15l71 145q9 17 26 17h45q19 0 19 -8q0 -4 -9 -17z"/>
    <glyph glyph-name="Ncaron" unicode="Ň" horiz-adv-x="556" d="M561 676q0 -1 -1 -5l-140 -659q-3 -12 -15 -12h-49q-8 0 -11 2t-4 10l-115 508q-8 35 -12 74q-1 -44 -8 -78l-107 -504q-3 -12 -15 -12h-43q-10 0 -10 9q0 1 1 6l140 659q3 12 15 12h59q8 0 10.5 -2t3.5 -10l109 -479q11 -44 14 -77v15q0 26 8 62l102 479q2 12 15 12h43 q10 0 10 -10zM526 846q0 -4 -5 -7l-123 -85q-4 -3 -9 -3q-4 0 -9 5l-95 90q-5 5 -5 9q0 3 5 9l13 14q5 7 9 7q3 0 10 -4l80 -59l96 58q6 3 9 3q5 0 8 -5l13 -24q3 -4 3 -8z"/>
    <glyph glyph-name="ncaron" unicode="ň" d="M451 415q0 -25 -10 -71l-71 -334q-2 -10 -12 -10h-52q-8 0 -8 6q0 3 1 4v3l70 331q6 28 6 40q0 45 -45 45q-59 0 -111 -57.5t-70 -142.5l-47 -219q-2 -10 -12 -10h-52q-8 0 -8 6l1 7l72 336q7 33 7 51q0 28 -8 53q-1 3 -1 6q0 6 4 8l44 22q8 3 11 3q19 0 19 -68 q0 -3 -0.5 -7.5t-1 -12.5t-0.5 -16q79 106 183 106q42 0 66.5 -21t24.5 -58zM459 658q0 -4 -5 -7l-123 -85q-5 -3 -9 -3t-9 5l-95 90q-5 5 -5 9q0 3 5 9l13 14q5 7 9 7q3 0 10 -4l80 -59l96 58q6 3 9 3q5 0 8 -5l13 -24q3 -4 3 -8z"/>
    <glyph glyph-name="Eng" unicode="Ŋ" horiz-adv-x="556" d="M560 671l-152 -714q-18 -85 -60 -127t-118 -42q-37 0 -75.5 13t-38.5 26q0 3 3 8l26 37q4 6 9 6q1 0 7 -2q42 -24 85 -24q69 0 93 112l10 48l-123 508q-8 35 -12 74q-1 -44 -8 -78l-107 -504q-3 -12 -15 -12h-43q-10 0 -10 9q0 1 1 6l140 659q3 12 15 12h59q8 0 10.5 -2 t3.5 -10l112 -465q11 -44 14 -77v15q0 26 8 62l99 465q2 12 15 12h43q10 0 10 -10q0 -1 -1 -5z"/>
    <glyph glyph-name="eng" unicode="ŋ" d="M441 344l-83 -387q-19 -91 -61.5 -130t-115.5 -39q-27 0 -64 14q-10 3 -10 13q0 6 7 18l12 26q2 6 9 6q1 0 4.5 -1.5t5.5 -1.5q28 -10 51 -10q34 0 56 25.5t38 96.5l79 370q6 28 6 40q0 45 -45 45q-59 0 -111 -57.5t-70 -142.5l-47 -219q-2 -10 -12 -10h-52q-8 0 -8 6 l1 7l72 336q7 33 7 51q0 28 -8 53q-1 3 -1 6q0 6 4 8l44 22q8 3 11 3q19 0 19 -68q0 -3 -0.5 -7.5t-1 -12.5t-0.5 -16q79 106 183 106q42 0 66.5 -21t24.5 -58q0 -25 -10 -71z"/>
    <glyph glyph-name="Omacron" unicode="Ō" horiz-adv-x="537" d="M522 503q0 -106 -28 -218.5t-72 -181.5q-75 -117 -205 -117q-86 0 -126 49.5t-40 155.5q0 102 28 211t72 181q73 117 207 117q90 0 127 -53q37 -51 37 -144zM442 497q0 75 -21 106t-72 31q-55 0 -94.5 -40.5t-70.5 -127.5q-53 -147 -53 -279q0 -72 21 -103.5t70 -31.5 q56 0 96 40t72 127q52 148 52 278zM506 827q0 -1 -2 -6l-7 -35q-2 -12 -15 -12h-221q-10 0 -10 9q0 1 1 6l8 35q2 12 14 12h221q11 0 11 -9z"/>
    <glyph glyph-name="omacron" unicode="ō" horiz-adv-x="482" d="M442 326q0 -65 -20.5 -131.5t-56.5 -115.5q-66 -93 -181 -93q-151 0 -151 168q0 140 76 249q63 91 181 91q73 0 112.5 -43.5t39.5 -124.5zM366 325q0 104 -91 104q-80 0 -126 -93q-40 -80 -40 -182q0 -103 86 -103q83 0 128 91q43 91 43 183zM445 639q0 -1 -2 -6l-7 -35 q-2 -12 -15 -12h-221q-10 0 -10 9q0 1 1 6l8 35q2 12 14 12h221q11 0 11 -9z"/>
    <glyph glyph-name="Obreve" unicode="Ŏ" horiz-adv-x="537" d="M522 503q0 -106 -28 -218.5t-72 -181.5q-75 -117 -205 -117q-86 0 -126 49.5t-40 155.5q0 102 28 211t72 181q73 117 207 117q90 0 127 -53q37 -51 37 -144zM442 497q0 75 -21 106t-72 31q-55 0 -94.5 -40.5t-70.5 -127.5q-53 -147 -53 -279q0 -72 21 -103.5t70 -31.5 q56 0 96 40t72 127q52 148 52 278zM517 857q0 -8 -15 -36q-45 -81 -137 -81q-105 0 -105 110q0 12 14 15l34 6l4 1q2 1 6 1q6 0 6 -13q0 -37 10.5 -51.5t38.5 -14.5q56 0 79 71q1 7 9 7q4 0 7 -1l40 -6q9 -1 9 -8z"/>
    <glyph glyph-name="obreve" unicode="ŏ" horiz-adv-x="482" d="M442 326q0 -65 -20.5 -131.5t-56.5 -115.5q-66 -93 -181 -93q-151 0 -151 168q0 140 76 249q63 91 181 91q73 0 112.5 -43.5t39.5 -124.5zM366 325q0 104 -91 104q-80 0 -126 -93q-40 -80 -40 -182q0 -103 86 -103q83 0 128 91q43 91 43 183zM456 669q0 -8 -15 -36 q-45 -81 -137 -81q-105 0 -105 110q0 12 14 15l34 6l4 1q2 1 6 1q6 0 6 -13q0 -37 10.5 -51.5t38.5 -14.5q56 0 79 71q1 7 9 7q4 0 7 -1l40 -6q9 -1 9 -8z"/>
    <glyph glyph-name="Ohungarumlaut" unicode="Ő" horiz-adv-x="537" d="M522 503q0 -106 -28 -218.5t-72 -181.5q-75 -117 -205 -117q-86 0 -126 49.5t-40 155.5q0 102 28 211t72 181q73 117 207 117q90 0 127 -53q37 -51 37 -144zM442 497q0 75 -21 106t-72 31q-55 0 -94.5 -40.5t-70.5 -127.5q-53 -147 -53 -279q0 -72 21 -103.5t70 -31.5 q56 0 96 40t72 127q52 148 52 278zM593 854q0 -5 -7 -9l-156 -103q-7 -5 -9 -5q-3 0 -7 5l-9 11q-5 6 -5 10q0 3 7 9l138 123q6 6 11 6q2 0 6 -5l26 -32q5 -5 5 -10zM455 861q0 -5 -6 -9l-157 -103q-5 -4 -9 -4t-7 4l-9 11q-5 6 -5 10q0 3 7 9l138 123q6 6 10 6q3 0 7 -5 l26 -32q5 -5 5 -10z"/>
    <glyph glyph-name="ohungarumlaut" unicode="ő" horiz-adv-x="482" d="M442 326q0 -65 -20.5 -131.5t-56.5 -115.5q-66 -93 -181 -93q-151 0 -151 168q0 140 76 249q63 91 181 91q73 0 112.5 -43.5t39.5 -124.5zM366 325q0 104 -91 104q-80 0 -126 -93q-40 -80 -40 -182q0 -103 86 -103q83 0 128 91q43 91 43 183zM532 666q0 -5 -7 -9 l-156 -103q-7 -5 -9 -5q-3 0 -7 5l-9 11q-5 6 -5 10q0 3 7 9l138 123q6 6 11 6q2 0 6 -5l26 -32q5 -5 5 -10zM394 673q0 -5 -6 -9l-157 -103q-5 -4 -9 -4t-7 4l-9 11q-5 6 -5 10q0 3 7 9l138 123q6 6 10 6q3 0 7 -5l26 -32q5 -5 5 -10z"/>
    <glyph glyph-name="OE" unicode="Œ" horiz-adv-x="759" d="M810 679q0 -5 -4 -10l-24 -45q-5 -9 -16 -9h-224l-48 -225h200q10 0 10 -8q0 -3 -1 -7l-9 -40q-3 -12 -14 -12h-200l-53 -252h242q10 0 10 -8q0 -2 -1 -7l-10 -44q-3 -12 -14 -12h-309q-10 0 -10 8q0 3 1 7l6 30q-61 -59 -141 -59q-152 0 -152 213q0 89 27 192t71 179 q35 62 90.5 96t119.5 34q73 0 113 -53l6 27q3 12 15 12h309q10 0 10 -7zM455 574q-43 57 -106 57q-88 0 -143 -113q-75 -153 -75 -325q0 -138 91 -138q70 0 135 57z"/>
    <glyph glyph-name="oe" unicode="œ" horiz-adv-x="741" d="M715 367q0 -49 -26 -88t-71 -58q-65 -28 -201 -31q-1 -9 -1 -19q0 -116 93 -116q55 0 120 43q10 6 14 6q3 0 7 -6l25 -37q2 -2 2 -5q0 -4 -10 -11q-84 -59 -172 -59q-107 0 -138 96q-25 -42 -74.5 -69t-102.5 -27q-147 0 -147 165q0 145 76 252q66 91 176 91 q108 0 139 -96q60 96 167 96q58 0 91 -34t33 -93zM643 365q0 67 -67 67q-54 0 -92.5 -46.5t-57.5 -133.5q217 0 217 113zM361 326q0 103 -88 103q-80 0 -124 -93q-40 -82 -40 -183q0 -102 85 -102q82 0 123 90q44 93 44 185z"/>
    <glyph glyph-name="Racute" unicode="Ŕ" d="M503 548q0 -90 -46.5 -152t-126.5 -78l103 -299q2 -6 2 -9q0 -6 -9 -7l-56 -10q-3 -1 -7 -1q-5 0 -9 9l-102 311h-69l-64 -300q-2 -12 -15 -12h-54q-10 0 -10 9q0 1 1 6l140 659q3 12 15 12h143q86 0 125 -33t39 -105zM423 544q0 40 -23 57.5t-75 17.5h-77l-51 -243h76 q74 0 113 45q16 18 26.5 53.5t10.5 69.5zM481 829q0 -5 -8 -8l-173 -79q-3 -2 -7 -2q-3 0 -8 7l-11 17q-3 6 -3 8q0 3 5 7l156 108q7 4 8 4q5 0 9 -7l28 -45q4 -7 4 -10z"/>
    <glyph glyph-name="racute" unicode="ŕ" horiz-adv-x="296" d="M355 480q0 -1 -1 -3l-24 -55q-2 -6 -7 -6q-1 0 -11 2q-8 3 -23 3q-33 0 -72 -43q-29 -32 -42 -61.5t-26 -87.5l-47 -219q-2 -10 -12 -10h-52q-8 0 -8 6q0 2 1 7l65 304q11 53 11 76q0 22 -9 58q-1 3 -1 8q0 8 8 11l42 19q7 3 10 3q8 0 14.5 -22t6.5 -50q0 -11 -2 -23 q25 36 43 53q49 44 98 44q38 0 38 -14zM378 641q0 -5 -8 -8l-173 -79q-3 -2 -7 -2q-3 0 -8 7l-11 17q-3 6 -3 8q0 3 5 7l156 108q7 4 8 4q5 0 9 -7l28 -45q4 -7 4 -10z"/>
    <glyph glyph-name="Rcommaaccent" unicode="Ŗ" d="M503 548q0 -90 -46.5 -152t-126.5 -78l103 -299q2 -6 2 -9q0 -6 -9 -7l-56 -10q-3 -1 -7 -1q-5 0 -9 9l-102 311h-69l-64 -300q-2 -12 -15 -12h-54q-10 0 -10 9q0 1 1 6l140 659q3 12 15 12h143q86 0 125 -33t39 -105zM423 544q0 40 -23 57.5t-75 17.5h-77l-51 -243h76 q74 0 113 45q16 18 26.5 53.5t10.5 69.5zM280 -75l-111 -152q-12 -15 -21 -15q-5 0 -11 3q-14 4 -14 12q0 5 5 15l71 145q9 17 26 17h45q19 0 19 -8q0 -4 -9 -17z"/>
    <glyph glyph-name="rcommaaccent" unicode="ŗ" horiz-adv-x="296" d="M355 480q0 -1 -1 -3l-24 -55q-2 -6 -7 -6q-1 0 -11 2q-8 3 -23 3q-33 0 -72 -43q-29 -32 -42 -61.5t-26 -87.5l-47 -219q-2 -10 -12 -10h-52q-8 0 -8 6q0 2 1 7l65 304q11 53 11 76q0 22 -9 58q-1 3 -1 8q0 8 8 11l42 19q7 3 10 3q8 0 14.5 -22t6.5 -50q0 -11 -2 -23 q25 36 43 53q49 44 98 44q38 0 38 -14zM107 -76l-111 -152q-12 -15 -21 -15q-5 0 -11 3q-14 4 -14 12q0 5 5 15l71 145q9 17 26 17h45q19 0 19 -8q0 -4 -9 -17z"/>
    <glyph glyph-name="Rcaron" unicode="Ř" d="M503 548q0 -90 -46.5 -152t-126.5 -78l103 -299q2 -6 2 -9q0 -6 -9 -7l-56 -10q-3 -1 -7 -1q-5 0 -9 9l-102 311h-69l-64 -300q-2 -12 -15 -12h-54q-10 0 -10 9q0 1 1 6l140 659q3 12 15 12h143q86 0 125 -33t39 -105zM423 544q0 40 -23 57.5t-75 17.5h-77l-51 -243h76 q74 0 113 45q16 18 26.5 53.5t10.5 69.5zM476 846q0 -4 -5 -7l-123 -85q-4 -3 -9 -3q-4 0 -9 5l-95 90q-5 5 -5 9q0 3 5 9l13 14q5 7 9 7q3 0 10 -4l80 -59l96 58q6 3 9 3q5 0 8 -5l13 -24q3 -4 3 -8z"/>
    <glyph glyph-name="rcaron" unicode="ř" horiz-adv-x="296" d="M355 480q0 -1 -1 -3l-24 -55q-2 -6 -7 -6q-1 0 -11 2q-8 3 -23 3q-33 0 -72 -43q-29 -32 -42 -61.5t-26 -87.5l-47 -219q-2 -10 -12 -10h-52q-8 0 -8 6q0 2 1 7l65 304q11 53 11 76q0 22 -9 58q-1 3 -1 8q0 8 8 11l42 19q7 3 10 3q8 0 14.5 -22t6.5 -50q0 -11 -2 -23 q25 36 43 53q49 44 98 44q38 0 38 -14zM373 658q0 -4 -5 -7l-123 -85q-5 -3 -9 -3t-9 5l-95 90q-5 5 -5 9q0 3 5 9l13 14q5 7 9 7q3 0 10 -4l80 -59l96 58q6 3 9 3q5 0 8 -5l13 -24q3 -4 3 -8z"/>
    <glyph glyph-name="Sacute" unicode="Ś" horiz-adv-x="445" d="M466 649q0 -5 -3 -9l-28 -44q-3 -5 -9 -5q-5 0 -20 11q-47 33 -97 33q-58 0 -94.5 -34.5t-36.5 -88.5q0 -31 17.5 -53.5t79.5 -72.5q64 -50 89 -91.5t25 -94.5q0 -96 -67 -160q-58 -54 -162 -54q-88 0 -155 42q-11 7 -11 13q0 3 3 8l26 46q3 5 8 5q4 0 10 -5 q57 -40 126 -40q62 0 99.5 37.5t37.5 99.5q0 43 -20.5 72.5t-84.5 80.5q-61 48 -82.5 82.5t-21.5 82.5q0 42 20 83t53 66q54 41 148 41q80 0 133 -35q17 -10 17 -16zM479 829q0 -5 -8 -8l-173 -79q-3 -2 -7 -2q-3 0 -8 7l-11 17q-3 6 -3 8q0 3 5 7l156 108q7 4 8 4q5 0 9 -7 l28 -45q4 -7 4 -10z"/>
    <glyph glyph-name="sacute" unicode="ś" horiz-adv-x="370" d="M354 455q0 -5 -2 -9l-18 -34q-3 -7 -11 -7q-4 0 -13 4q-39 20 -77 20q-40 0 -63 -19.5t-23 -52.5q0 -26 20 -45q12 -12 64 -46q41 -28 58 -54.5t17 -63.5q0 -38 -17 -73t-45 -56q-44 -33 -114 -33q-39 0 -80.5 12t-60.5 29q-3 3 -3 7l1 6l19 42q3 6 10 6q5 0 15 -6 q52 -31 111 -31q41 0 66 22.5t25 59.5q0 35 -25 58q-11 10 -70 50q-65 44 -65 106q0 65 46 106t120 41q40 0 77.5 -13t37.5 -26zM399 641q0 -5 -8 -8l-173 -79q-3 -2 -7 -2q-3 0 -8 7l-11 17q-3 6 -3 8q0 3 5 7l156 108q7 4 8 4q5 0 9 -7l28 -45q4 -7 4 -10z"/>
    <glyph glyph-name="Scircumflex" unicode="Ŝ" horiz-adv-x="445" d="M466 649q0 -5 -3 -9l-28 -44q-3 -5 -9 -5q-5 0 -20 11q-47 33 -97 33q-58 0 -94.5 -34.5t-36.5 -88.5q0 -31 17.5 -53.5t79.5 -72.5q64 -50 89 -91.5t25 -94.5q0 -96 -67 -160q-58 -54 -162 -54q-88 0 -155 42q-11 7 -11 13q0 3 3 8l26 46q3 5 8 5q4 0 10 -5 q57 -40 126 -40q62 0 99.5 37.5t37.5 99.5q0 43 -20.5 72.5t-84.5 80.5q-61 48 -82.5 82.5t-21.5 82.5q0 42 20 83t53 66q54 41 148 41q80 0 133 -35q17 -10 17 -16zM460 781q0 -3 -4 -9l-15 -16q-5 -6 -8 -6q-4 0 -10 5l-80 58l-96 -57q-7 -4 -9 -4q-4 0 -7 5l-13 23 q-4 7 -4 9q0 5 6 8l122 84q5 4 9 4q3 0 10 -6l94 -91q5 -5 5 -7z"/>
    <glyph glyph-name="scircumflex" unicode="ŝ" horiz-adv-x="370" d="M354 455q0 -5 -2 -9l-18 -34q-3 -7 -11 -7q-4 0 -13 4q-39 20 -77 20q-40 0 -63 -19.5t-23 -52.5q0 -26 20 -45q12 -12 64 -46q41 -28 58 -54.5t17 -63.5q0 -38 -17 -73t-45 -56q-44 -33 -114 -33q-39 0 -80.5 12t-60.5 29q-3 3 -3 7l1 6l19 42q3 6 10 6q5 0 15 -6 q52 -31 111 -31q41 0 66 22.5t25 59.5q0 35 -25 58q-11 10 -70 50q-65 44 -65 106q0 65 46 106t120 41q40 0 77.5 -13t37.5 -26zM380 593q0 -3 -4 -9l-15 -16q-5 -6 -8 -6q-4 0 -10 5l-80 58l-96 -57q-7 -4 -9 -4q-4 0 -7 5l-13 23q-4 7 -4 9q0 5 6 8l122 84q5 4 9 4 q3 0 10 -6l94 -91q5 -5 5 -7z"/>
    <glyph glyph-name="Scedilla" unicode="Ş" horiz-adv-x="445" d="M210 -110q0 -38 -29 -61t-78 -23q-63 0 -63 14q0 3 1 6l11 33q2 5 7 5q3 0 13 -3q17 -5 36 -5q44 0 44 27q0 15 -20 19q-4 0 -32 4q-15 1 -15 8l1 7l21 69q-57 9 -102 38q-11 7 -11 13q0 3 3 8l26 46q3 5 8 5q4 0 10 -5q57 -40 126 -40q62 0 99.5 37.5t37.5 99.5 q0 43 -20.5 72.5t-84.5 80.5q-61 48 -82.5 82.5t-21.5 82.5q0 42 20 83t53 66q54 41 148 41q80 0 133 -35q17 -10 17 -16q0 -5 -3 -9l-28 -44q-3 -5 -9 -5q-5 0 -20 11q-47 33 -97 33q-58 0 -94.5 -34.5t-36.5 -88.5q0 -31 17.5 -53.5t79.5 -72.5q64 -50 89 -91.5t25 -94.5 q0 -96 -67 -160q-58 -54 -161 -54l-12 -44q35 -6 48 -17t13 -35z"/>
    <glyph glyph-name="scedilla" unicode="ş" horiz-adv-x="370" d="M189 -111q0 -38 -29 -61t-78 -23q-63 0 -63 14q0 3 1 6l11 33q2 5 7 5q3 0 13 -3q17 -5 36 -5q44 0 44 27q0 15 -20 19q-4 0 -32 4q-15 1 -15 8l1 7l21 70q-67 10 -97 37q-3 3 -3 7l1 6l19 42q3 6 10 6q5 0 15 -6q52 -31 111 -31q41 0 66 22.5t25 59.5q0 35 -25 58 q-11 10 -70 50q-65 44 -65 106q0 65 46 106t120 41q40 0 77.5 -13t37.5 -26q0 -5 -2 -9l-18 -34q-3 -7 -11 -7q-4 0 -13 4q-39 20 -77 20q-40 0 -63 -19.5t-23 -52.5q0 -26 20 -45q12 -12 64 -46q41 -28 58 -54.5t17 -63.5q0 -38 -17 -73t-45 -56q-41 -30 -104 -33l-12 -45 q35 -6 48 -17t13 -35z"/>
    <glyph glyph-name="Scaron" unicode="Š" horiz-adv-x="445" d="M469 840q0 -5 -5 -7l-129 -78q-4 -3 -10 -3q-5 0 -9 4l-99 84q-6 4 -6 9q0 3 5 8l13 15q7 7 10 7t11 -5l84 -51l100 50q7 4 10 4q5 0 8 -6l14 -23q3 -4 3 -8zM466 649q0 -5 -3 -9l-28 -44q-3 -5 -9 -5q-5 0 -20 11q-47 33 -97 33q-58 0 -94.5 -34.5t-36.5 -88.5 q0 -31 17.5 -53.5t79.5 -72.5q64 -50 89 -91.5t25 -94.5q0 -96 -67 -160q-58 -54 -162 -54q-88 0 -155 42q-11 7 -11 13q0 3 3 8l26 46q3 5 8 5q4 0 10 -5q57 -40 126 -40q62 0 99.5 37.5t37.5 99.5q0 43 -20.5 72.5t-84.5 80.5q-61 48 -82.5 82.5t-21.5 82.5q0 42 20 83 t53 66q54 41 148 41q80 0 133 -35q17 -10 17 -16z"/>
    <glyph glyph-name="scaron" unicode="š" horiz-adv-x="370" d="M395 658q0 -4 -5 -7l-123 -85q-5 -3 -9 -3t-9 5l-95 90q-5 5 -5 9q0 3 5 9l13 14q5 7 9 7q3 0 10 -4l80 -59l96 58q6 3 9 3q5 0 8 -5l13 -24q3 -4 3 -8zM354 455q0 -5 -2 -9l-18 -34q-3 -7 -11 -7q-4 0 -13 4q-39 20 -77 20q-40 0 -63 -19.5t-23 -52.5q0 -26 20 -45 q12 -12 64 -46q41 -28 58 -54.5t17 -63.5q0 -38 -17 -73t-45 -56q-44 -33 -114 -33q-39 0 -80.5 12t-60.5 29q-3 3 -3 7l1 6l19 42q3 6 10 6q5 0 15 -6q52 -31 111 -31q41 0 66 22.5t25 59.5q0 35 -25 58q-11 10 -70 50q-65 44 -65 106q0 65 46 106t120 41q40 0 77.5 -13 t37.5 -26z"/>
    <glyph glyph-name="Tcedilla" unicode="Ţ" horiz-adv-x="389" d="M497 679q0 -3 -4 -10l-22 -45q-5 -9 -16 -9h-145l-128 -603q-3 -12 -15 -12h-54q-10 0 -10 8q0 5 1 7l127 600h-148q-10 0 -10 9q0 1 1 6l9 44q3 12 15 12h388q11 0 11 -7zM167 -75l-111 -152q-12 -15 -21 -15q-5 0 -11 3q-14 4 -14 12q0 5 5 15l71 145q9 17 26 17h45 q19 0 19 -8q0 -4 -9 -17z"/>
    <glyph glyph-name="tcedilla" unicode="ţ" horiz-adv-x="315" d="M353 474q0 -2 -3 -8l-18 -36q-3 -8 -13 -8h-123l-59 -277q-5 -25 -5 -48q0 -46 44 -46q34 0 90 26q4 2 7 2q5 0 5 -6l6 -34q1 -3 1 -6q0 -14 -46 -30.5t-86 -16.5q-96 0 -96 98q0 24 8 61l59 277h-73q-8 0 -8 6q0 4 1 7l8 35q1 10 12 10h73l29 139q1 7 10 10l53 15 q1 1 7 1t6 -7q0 -1 -1 -5l-32 -153h135q9 0 9 -6zM187 -75l-111 -152q-12 -15 -21 -15q-5 0 -11 3q-14 4 -14 12q0 5 5 15l71 145q9 17 26 17h45q19 0 19 -8q0 -4 -9 -17z"/>
    <glyph glyph-name="Tcaron" unicode="Ť" horiz-adv-x="389" d="M497 679q0 -3 -4 -10l-22 -45q-5 -9 -16 -9h-145l-128 -603q-3 -12 -15 -12h-54q-10 0 -10 8q0 5 1 7l127 600h-148q-10 0 -10 9q0 1 1 6l9 44q3 12 15 12h388q11 0 11 -7zM432 846q0 -4 -5 -7l-123 -85q-4 -3 -9 -3q-4 0 -9 5l-95 90q-5 5 -5 9q0 3 5 9l13 14q5 7 9 7 q3 0 10 -4l80 -59l96 58q6 3 9 3q5 0 8 -5l13 -24q3 -4 3 -8z"/>
    <glyph glyph-name="tcaron" unicode="ť" horiz-adv-x="315" d="M353 474q0 -2 -3 -8l-18 -36q-3 -8 -13 -8h-123l-59 -277q-5 -25 -5 -48q0 -46 44 -46q34 0 90 26q4 2 7 2q5 0 5 -6l6 -34q1 -3 1 -6q0 -14 -46 -30.5t-86 -16.5q-96 0 -96 98q0 24 8 61l59 277h-73q-8 0 -8 6q0 4 1 7l8 35q1 10 12 10h73l29 139q1 7 10 10l53 15 q1 1 7 1t6 -7q0 -1 -1 -5l-32 -153h135q9 0 9 -6zM436 703l-111 -152q-12 -15 -21 -15q-5 0 -11 3q-14 4 -14 12q0 5 5 15l71 145q9 17 26 17h45q19 0 19 -8q0 -4 -9 -17z"/>
    <glyph glyph-name="Tbar" unicode="Ŧ" horiz-adv-x="389" d="M497 679q0 -3 -4 -10l-22 -45q-5 -9 -16 -9h-145l-48 -226h110q12 0 12 -6q0 -5 -1 -8l-8 -37q-3 -14 -17 -14h-110l-66 -312q-3 -12 -15 -12h-54q-10 0 -10 8q0 5 1 7l65 309h-111q-12 0 -12 7q0 1 0.5 3t0.5 4l8 37q2 9 5 11.5t12 2.5h111l48 226h-148q-10 0 -10 9 q0 1 1 6l9 44q3 12 15 12h388q11 0 11 -7z"/>
    <glyph glyph-name="tbar" unicode="ŧ" horiz-adv-x="315" d="M353 474q0 -2 -3 -8l-18 -36q-3 -8 -13 -8h-123l-26 -121h106q13 0 13 -7q0 -4 -1 -7l-7 -32q-4 -14 -17 -14h-107l-20 -96q-5 -25 -5 -48q0 -46 44 -46q34 0 90 26q4 2 7 2q5 0 5 -6l6 -34q1 -3 1 -6q0 -14 -46 -30.5t-86 -16.5q-96 0 -96 98q0 24 8 61l20 96h-59 q-12 0 -12 7q0 4 1 7l7 32q2 9 4.5 11.5t11.5 2.5h60l26 121h-73q-8 0 -8 6q0 4 1 7l8 35q1 10 12 10h73l29 139q1 7 10 10l53 15q1 1 7 1t6 -7q0 -1 -1 -5l-32 -153h135q9 0 9 -6z"/>
    <glyph glyph-name="Utilde" unicode="Ũ" horiz-adv-x="574" d="M585 678q0 -3 -1 -7l-102 -483q-12 -57 -29.5 -90.5t-50.5 -59.5q-64 -52 -170 -52q-170 0 -170 138q0 33 7 64l103 486q3 12 15 12h55q10 0 10 -8q0 -2 -1 -7l-103 -483q-7 -29 -7 -54q0 -79 104 -79q132 0 160 133l103 486q3 12 15 12h52q10 0 10 -8zM557 841 q0 -7 -18 -27q-41 -47 -88 -47q-26 0 -59 21q-30 19 -47 19q-15 0 -25 -7t-26 -27q-5 -7 -10 -7q-2 0 -6 2l-24 19q-5 5 -5 8q0 6 18 28q38 46 89 46q22 0 57 -21q31 -19 47 -19q27 0 52 34q4 6 9 6q2 0 6 -2l24 -18q6 -5 6 -8z"/>
    <glyph glyph-name="utilde" unicode="ũ" d="M465 485q0 -5 -1 -6l-74 -350q-5 -25 -5 -49q0 -25 10 -52q1 -2 1 -6q0 -5 -4 -7l-47 -24q-6 -3 -9 -3q-8 0 -13 18.5t-5 46.5q0 16 1 28q-45 -51 -84 -73t-84 -22q-47 0 -76 26t-29 68q0 29 8 71l68 317q1 8 10 11l52 11q2 1 7 1q6 0 6 -7q0 -3 -1 -5l-66 -309 q-8 -38 -8 -66q0 -23 12.5 -36t35.5 -13q29 0 61.5 16t56.5 41q34 36 49 109l53 247q2 9 11 11l51 11q2 1 7 1q6 0 6 -6zM468 653q0 -7 -18 -27q-41 -47 -88 -47q-26 0 -59 21q-30 19 -47 19q-15 0 -25 -7t-26 -27q-5 -7 -10 -7q-2 0 -6 2l-24 19q-5 5 -5 8q0 6 18 28 q38 46 89 46q22 0 57 -21q31 -19 47 -19q27 0 52 34q4 6 9 6q2 0 6 -2l24 -18q6 -5 6 -8z"/>
    <glyph glyph-name="Umacron" unicode="Ū" horiz-adv-x="574" d="M585 678q0 -3 -1 -7l-102 -483q-12 -57 -29.5 -90.5t-50.5 -59.5q-64 -52 -170 -52q-170 0 -170 138q0 33 7 64l103 486q3 12 15 12h55q10 0 10 -8q0 -2 -1 -7l-103 -483q-7 -29 -7 -54q0 -79 104 -79q132 0 160 133l103 486q3 12 15 12h52q10 0 10 -8zM528 827 q0 -1 -2 -6l-7 -35q-2 -12 -15 -12h-221q-10 0 -10 9q0 1 1 6l8 35q2 12 14 12h221q11 0 11 -9z"/>
    <glyph glyph-name="umacron" unicode="ū" d="M465 485q0 -5 -1 -6l-74 -350q-5 -25 -5 -49q0 -25 10 -52q1 -2 1 -6q0 -5 -4 -7l-47 -24q-6 -3 -9 -3q-8 0 -13 18.5t-5 46.5q0 16 1 28q-45 -51 -84 -73t-84 -22q-47 0 -76 26t-29 68q0 29 8 71l68 317q1 8 10 11l52 11q2 1 7 1q6 0 6 -7q0 -3 -1 -5l-66 -309 q-8 -38 -8 -66q0 -23 12.5 -36t35.5 -13q29 0 61.5 16t56.5 41q34 36 49 109l53 247q2 9 11 11l51 11q2 1 7 1q6 0 6 -6zM444 639q0 -1 -2 -6l-7 -35q-2 -12 -15 -12h-221q-10 0 -10 9q0 1 1 6l8 35q2 12 14 12h221q11 0 11 -9z"/>
    <glyph glyph-name="Ubreve" unicode="Ŭ" horiz-adv-x="574" d="M585 678q0 -3 -1 -7l-102 -483q-12 -57 -29.5 -90.5t-50.5 -59.5q-64 -52 -170 -52q-170 0 -170 138q0 33 7 64l103 486q3 12 15 12h55q10 0 10 -8q0 -2 -1 -7l-103 -483q-7 -29 -7 -54q0 -79 104 -79q132 0 160 133l103 486q3 12 15 12h52q10 0 10 -8zM539 857 q0 -8 -15 -36q-45 -81 -137 -81q-105 0 -105 110q0 12 14 15l34 6l4 1q2 1 6 1q6 0 6 -13q0 -37 10.5 -51.5t38.5 -14.5q56 0 79 71q1 7 9 7q4 0 7 -1l40 -6q9 -1 9 -8z"/>
    <glyph glyph-name="ubreve" unicode="ŭ" d="M465 485q0 -5 -1 -6l-74 -350q-5 -25 -5 -49q0 -25 10 -52q1 -2 1 -6q0 -5 -4 -7l-47 -24q-6 -3 -9 -3q-8 0 -13 18.5t-5 46.5q0 16 1 28q-45 -51 -84 -73t-84 -22q-47 0 -76 26t-29 68q0 29 8 71l68 317q1 8 10 11l52 11q2 1 7 1q6 0 6 -7q0 -3 -1 -5l-66 -309 q-8 -38 -8 -66q0 -23 12.5 -36t35.5 -13q29 0 61.5 16t56.5 41q34 36 49 109l53 247q2 9 11 11l51 11q2 1 7 1q6 0 6 -6zM451 669q0 -8 -15 -36q-45 -81 -137 -81q-105 0 -105 110q0 12 14 15l34 6l4 1q2 1 6 1q6 0 6 -13q0 -37 10.5 -51.5t38.5 -14.5q56 0 79 71q1 7 9 7 q4 0 7 -1l40 -6q9 -1 9 -8z"/>
    <glyph glyph-name="Uring" unicode="Ů" horiz-adv-x="574" d="M585 678q0 -3 -1 -7l-102 -483q-12 -57 -29.5 -90.5t-50.5 -59.5q-64 -52 -170 -52q-170 0 -170 138q0 33 7 64l103 486q3 12 15 12h55q10 0 10 -8q0 -2 -1 -7l-103 -483q-7 -29 -7 -54q0 -79 104 -79q132 0 160 133l103 486q3 12 15 12h52q10 0 10 -8zM479 812 q0 -37 -26.5 -62.5t-64.5 -25.5t-64.5 25.5t-26.5 61.5q0 37 27 63t66 26q37 0 63 -26t26 -62zM431 811q0 20 -12.5 33.5t-31.5 13.5q-17 0 -29.5 -13.5t-12.5 -32.5t12.5 -32.5t30.5 -13.5q17 0 30 13t13 32z"/>
    <glyph glyph-name="uring" unicode="ů" d="M465 485q0 -5 -1 -6l-74 -350q-5 -25 -5 -49q0 -25 10 -52q1 -2 1 -6q0 -5 -4 -7l-47 -24q-6 -3 -9 -3q-8 0 -13 18.5t-5 46.5q0 16 1 28q-45 -51 -84 -73t-84 -22q-47 0 -76 26t-29 68q0 29 8 71l68 317q1 8 10 11l52 11q2 1 7 1q6 0 6 -7q0 -3 -1 -5l-66 -309 q-8 -38 -8 -66q0 -23 12.5 -36t35.5 -13q29 0 61.5 16t56.5 41q34 36 49 109l53 247q2 9 11 11l51 11q2 1 7 1q6 0 6 -6zM405 624q0 -37 -26.5 -62.5t-64.5 -25.5t-64.5 25.5t-26.5 61.5q0 37 27 63t66 26q37 0 63 -26t26 -62zM357 623q0 20 -12.5 33.5t-31.5 13.5 q-17 0 -29.5 -13.5t-12.5 -32.5t12.5 -32.5t30.5 -13.5q17 0 30 13t13 32z"/>
    <glyph glyph-name="Uhungarumlaut" unicode="Ű" horiz-adv-x="574" d="M585 678q0 -3 -1 -7l-102 -483q-12 -57 -29.5 -90.5t-50.5 -59.5q-64 -52 -170 -52q-170 0 -170 138q0 33 7 64l103 486q3 12 15 12h55q10 0 10 -8q0 -2 -1 -7l-103 -483q-7 -29 -7 -54q0 -79 104 -79q132 0 160 133l103 486q3 12 15 12h52q10 0 10 -8zM615 854 q0 -5 -7 -9l-156 -103q-7 -5 -9 -5q-3 0 -7 5l-9 11q-5 6 -5 10q0 3 7 9l138 123q6 6 11 6q2 0 6 -5l26 -32q5 -5 5 -10zM477 861q0 -5 -6 -9l-157 -103q-5 -4 -9 -4t-7 4l-9 11q-5 6 -5 10q0 3 7 9l138 123q6 6 10 6q3 0 7 -5l26 -32q5 -5 5 -10z"/>
    <glyph glyph-name="uhungarumlaut" unicode="ű" d="M465 485q0 -5 -1 -6l-74 -350q-5 -25 -5 -49q0 -25 10 -52q1 -2 1 -6q0 -5 -4 -7l-47 -24q-6 -3 -9 -3q-8 0 -13 18.5t-5 46.5q0 16 1 28q-45 -51 -84 -73t-84 -22q-47 0 -76 26t-29 68q0 29 8 71l68 317q1 8 10 11l52 11q2 1 7 1q6 0 6 -7q0 -3 -1 -5l-66 -309 q-8 -38 -8 -66q0 -23 12.5 -36t35.5 -13q29 0 61.5 16t56.5 41q34 36 49 109l53 247q2 9 11 11l51 11q2 1 7 1q6 0 6 -6zM541 666q0 -5 -7 -9l-156 -103q-7 -5 -9 -5q-3 0 -7 5l-9 11q-5 6 -5 10q0 3 7 9l138 123q6 6 11 6q2 0 6 -5l26 -32q5 -5 5 -10zM403 673q0 -5 -6 -9 l-157 -103q-5 -4 -9 -4t-7 4l-9 11q-5 6 -5 10q0 3 7 9l138 123q6 6 10 6q3 0 7 -5l26 -32q5 -5 5 -10z"/>
    <glyph glyph-name="Uogonek" unicode="Ų" horiz-adv-x="574" d="M584 671l-102 -483q-12 -57 -29.5 -90.5t-50.5 -59.5q-41 -33 -89 -43q-49 -49 -49 -98q0 -22 27 -22q25 0 62 17q1 1 4 1t5 -5l8 -28v-6q0 -10 -32 -22t-61 -12q-34 0 -54 16t-20 44q0 47 59 107q-4 0 -14.5 -0.5t-15.5 -0.5q-170 0 -170 138q0 33 7 64l103 486 q3 12 15 12h55q10 0 10 -8q0 -2 -1 -7l-103 -483q-7 -29 -7 -54q0 -79 104 -79q132 0 160 133l103 486q3 12 15 12h52q10 0 10 -8q0 -3 -1 -7z"/>
    <glyph glyph-name="uogonek" unicode="ų" d="M337 221l53 247q2 9 11 11l51 11q2 1 7 1q6 0 6 -6q0 -5 -1 -6l-74 -350q-5 -25 -5 -49q0 -25 10 -52q1 -2 1 -6q0 -5 -4 -7l-28 -15q-56 -51 -56 -103q0 -22 27 -22q25 0 62 17q1 1 4 1t5 -5l8 -28v-6q0 -10 -32 -22t-61 -12q-34 0 -54 16t-20 44t17 55.5t59 68.5 q-5 18 -5 49q0 16 1 28q-45 -51 -84 -73t-84 -22q-47 0 -76 26t-29 68q0 29 8 71l68 317q1 8 10 11l52 11q2 1 7 1q6 0 6 -7q0 -3 -1 -5l-66 -309q-8 -38 -8 -66q0 -23 12.5 -36t35.5 -13q29 0 61.5 16t56.5 41q34 36 49 109z"/>
    <glyph glyph-name="Wcircumflex" unicode="Ŵ" horiz-adv-x="667" d="M736 672q0 -2 -2 -8l-276 -654q-4 -10 -18 -10h-57q-8 0 -11.5 2.5t-2.5 6.5l1 5l27 529l-216 -533q-4 -10 -16 -10h-59q-9 0 -11.5 2.5t-2.5 11.5l14 652q0 13 12 15l52 10q5 1 7 1q8 0 8 -8l-1 -6l-24 -500q-1 -39 -11 -110q23 80 36 110l205 498q4 10 16 10h45 q11 0 12 -6q1 -1 1 -3v-5l-21 -499q-1 -30 -9 -98q17 62 31 98l199 509q4 10 10 10l7 -1l47 -10q8 -1 8 -9zM569 781q0 -3 -4 -9l-15 -16q-5 -6 -8 -6q-4 0 -10 5l-80 58l-96 -57q-7 -4 -9 -4q-5 0 -7 5l-13 23q-4 7 -4 9q0 5 6 8l122 84q5 4 9 4q2 0 10 -6l94 -91 q5 -5 5 -7z"/>
    <glyph glyph-name="wcircumflex" unicode="ŵ" horiz-adv-x="593" d="M622 470l-1 -2q-1 -3 -1 -5l-222 -462q-3 -8 -13 -8h-42q-8 0 -8 9l-12 302v18v12v19v10q-19 -46 -26 -59l-152 -303q-3 -8 -13 -8h-40q-9 0 -9 9l-16 462v5q0 5 10 8l52 11q5 1 7 1q6 0 6 -12l-4 -317q0 -25 -3 -67l10 23l13 26l9 18l153 312q3 8 13 8h40q8 0 8 -8 l6 -319v-12v-16v-36q4 15 25 64l142 331q3 5 7 5q5 0 6 -1l49 -11q6 -1 6 -7zM489 593q0 -3 -4 -9l-15 -16q-5 -6 -8 -6q-4 0 -10 5l-80 58l-96 -57q-7 -4 -9 -4q-5 0 -7 5l-13 23q-4 7 -4 9q0 5 6 8l122 84q5 4 9 4q2 0 10 -6l94 -91q5 -5 5 -7z"/>
    <glyph glyph-name="Ycircumflex" unicode="Ŷ" horiz-adv-x="408" d="M512 669q0 -2 -4 -10l-258 -369l-59 -278q-3 -12 -15 -12h-54q-10 0 -10 8q0 5 1 7l58 275l-104 369q-2 6 -2 9q0 6 10 8l57 16q7 2 9 2q4 0 7 -10l63 -267q9 -37 11 -67l41 67l168 268q6 9 9 9t8 -2l56 -15q8 -2 8 -8zM428 781q0 -3 -4 -9l-15 -16q-5 -6 -8 -6 q-4 0 -10 5l-80 58l-96 -57q-7 -4 -9 -4q-4 0 -7 5l-13 23q-4 7 -4 9q0 5 6 8l122 84q5 4 9 4q3 0 10 -6l94 -91q5 -5 5 -7z"/>
    <glyph glyph-name="ycircumflex" unicode="ŷ" horiz-adv-x="408" d="M438 462q0 -3 -3 -8l-177 -395q-55 -123 -96 -185q-57 -86 -150 -86q-33 0 -70.5 14.5t-37.5 27.5q0 3 4 10l24 38q3 5 8 5q4 0 18 -9q33 -21 61 -21q59 0 104 84l34 63h-36q-11 0 -12 10l-65 445q-1 4 -1 7t6 6l57 19q5 2 8 2q5 0 6 -8l57 -442l194 444q3 6 6 6 q4 0 8 -2l47 -19q6 -3 6 -6zM378 593q0 -3 -4 -9l-15 -16q-5 -6 -8 -6q-4 0 -10 5l-80 58l-96 -57q-7 -4 -9 -4q-4 0 -7 5l-13 23q-4 7 -4 9q0 5 6 8l122 84q5 4 9 4q3 0 10 -6l94 -91q5 -5 5 -7z"/>
    <glyph glyph-name="Ydieresis" unicode="Ÿ" horiz-adv-x="408" d="M467 805q0 -22 -15.5 -37.5t-37.5 -15.5t-37.5 15.5t-15.5 37.5q0 23 15.5 38t38.5 15q21 0 36.5 -15.5t15.5 -37.5zM279 805q0 -22 -15.5 -37.5t-37.5 -15.5t-37.5 15.5t-15.5 37.5t15.5 37.5t38.5 15.5q21 0 36.5 -16t15.5 -37zM512 669q0 -2 -4 -10l-258 -369 l-59 -278q-3 -12 -15 -12h-54q-10 0 -10 8q0 5 1 7l58 275l-104 369q-2 6 -2 9q0 6 10 8l57 16q7 2 9 2q4 0 7 -10l63 -267q9 -37 11 -67l41 67l168 268q6 9 9 9t8 -2l56 -15q8 -2 8 -8z"/>
    <glyph glyph-name="Zacute" unicode="Ź" horiz-adv-x="408" d="M489 678q0 -2 -1 -7l-10 -47l-417 -553h305q10 0 10 -8q0 -2 -1 -7l-10 -44q-2 -12 -14 -12h-384q-10 0 -10 7q0 5 1 8l12 56l414 546h-261q-10 0 -10 7q0 5 2 9l17 43q4 10 15 10h332q10 0 10 -8zM460 829q0 -5 -8 -8l-173 -79q-3 -2 -7 -2q-3 0 -8 7l-11 17q-3 6 -3 8 q0 3 5 7l156 108q7 4 8 4q5 0 9 -7l28 -45q4 -7 4 -10z"/>
    <glyph glyph-name="zacute" unicode="ź" horiz-adv-x="389" d="M408 473q0 -2 -1 -6l-9 -39l-312 -363h243q8 0 8 -6q0 -2 -3 -8l-29 -44q-3 -7 -13 -7h-306q-8 0 -8 7q0 3 1 6l8 39l321 366h-209q-8 0 -8 7q0 6 1 6l8 39q2 10 12 10h288q8 0 8 -7zM408 641q0 -5 -8 -8l-173 -79q-3 -2 -7 -2q-3 0 -8 7l-11 17q-3 6 -3 8q0 3 5 7 l156 108q7 4 8 4q5 0 9 -7l28 -45q4 -7 4 -10z"/>
    <glyph glyph-name="Zdotaccent" unicode="Ż" horiz-adv-x="408" d="M489 678q0 -2 -1 -7l-10 -47l-417 -553h305q10 0 10 -8q0 -2 -1 -7l-10 -44q-2 -12 -14 -12h-384q-10 0 -10 7q0 5 1 8l12 56l414 546h-261q-10 0 -10 7q0 5 2 9l17 43q4 10 15 10h332q10 0 10 -8zM379 813q0 -23 -16.5 -39t-38.5 -16t-38.5 16t-16.5 38q0 24 16.5 40 t39.5 16q22 0 38 -16.5t16 -38.5z"/>
    <glyph glyph-name="zdotaccent" unicode="ż" horiz-adv-x="389" d="M408 473q0 -2 -1 -6l-9 -39l-312 -363h243q8 0 8 -6q0 -2 -3 -8l-29 -44q-3 -7 -13 -7h-306q-8 0 -8 7q0 3 1 6l8 39l321 366h-209q-8 0 -8 7q0 6 1 6l8 39q2 10 12 10h288q8 0 8 -7zM327 625q0 -23 -16.5 -39t-38.5 -16t-38.5 16t-16.5 38q0 24 16.5 40t39.5 16 q22 0 38 -16.5t16 -38.5z"/>
    <glyph glyph-name="Zcaron" unicode="Ž" horiz-adv-x="408" d="M451 840q0 -5 -5 -7l-129 -78q-4 -3 -10 -3q-5 0 -9 4l-99 84q-6 4 -6 9q0 3 5 8l13 15q7 7 10 7t11 -5l84 -51l100 50q7 4 10 4q5 0 8 -6l14 -23q3 -4 3 -8zM489 678q0 -2 -1 -7l-10 -47l-417 -553h305q10 0 10 -8q0 -2 -1 -7l-10 -44q-2 -12 -14 -12h-384q-10 0 -10 7 q0 5 1 8l12 56l414 546h-261q-10 0 -10 7q0 5 2 9l17 43q4 10 15 10h332q10 0 10 -8z"/>
    <glyph glyph-name="zcaron" unicode="ž" horiz-adv-x="389" d="M404 658q0 -4 -5 -7l-123 -85q-4 -3 -9 -3q-4 0 -9 5l-95 90q-5 5 -5 9q0 3 5 9l13 14q5 7 9 7q3 0 10 -4l80 -59l96 58q6 3 9 3q5 0 8 -5l13 -24q3 -4 3 -8zM408 473q0 -2 -1 -6l-9 -39l-312 -363h243q8 0 8 -6q0 -2 -3 -8l-29 -44q-3 -7 -13 -7h-306q-8 0 -8 7q0 3 1 6 l8 39l321 366h-209q-8 0 -8 7q0 6 1 6l8 39q2 10 12 10h288q8 0 8 -7z"/>
    <glyph glyph-name="florin" unicode="ƒ" d="M575 690q0 -4 -2 -8l-19 -39q-3 -5 -8 -5l-12 3q-45 16 -77 16q-67 0 -91 -90l-23 -87h139q9 0 9 -7q0 -4 -3 -10l-14 -31q-4 -8 -6 -9t-10 -1h-133l-117 -438q-25 -90 -57 -128q-51 -60 -143 -60q-77 0 -77 19q0 4 1 5l18 44q2 5 7 5q2 0 13 -3q22 -5 49 -5 q46 0 72 28.5t45 98.5l118 434h-67q-10 0 -10 7q0 3 2 9l9 31q3 8 5 9.5t10 1.5h68l27 99q18 68 54 100q46 40 118 40q35 0 70 -9.5t35 -19.5z"/>
    <glyph glyph-name="AEacute" unicode="Ǽ" horiz-adv-x="722" d="M774 679q0 -2 -4 -10l-24 -45q-5 -9 -16 -9h-222l-48 -225h197q10 0 10 -8q0 -3 -1 -7l-8 -40q-3 -12 -15 -12h-197l-54 -252h240q11 0 11 -9q0 -2 -2 -6l-9 -44q-3 -12 -15 -12h-306q-11 0 -11 9q0 2 2 6l40 191h-184l-132 -198q-5 -8 -15 -8h-62q-11 0 -11 8q0 4 5 10 l456 660q5 8 15 8h350q10 0 10 -7zM432 631l-59 -95q-7 -13 -17 -26l-156 -235h157zM646 829q0 -5 -8 -8l-173 -79q-3 -2 -7 -2q-3 0 -8 7l-11 17q-3 6 -3 8q0 3 5 7l156 108q7 4 8 4q5 0 9 -7l28 -45q4 -7 4 -10z"/>
    <glyph glyph-name="aeacute" unicode="ǽ" horiz-adv-x="685" d="M659 369q0 -43 -25.5 -78t-67.5 -50q-33 -11 -73 -15.5t-132 -6.5q-4 -33 -4 -61q0 -103 93 -103q57 0 124 44q9 5 13 5q3 0 7 -6l25 -37q1 0 2 -5q0 -5 -9 -11q-77 -59 -170 -59q-112 0 -147 95q-73 -95 -164 -95q-52 0 -82 32.5t-30 88.5q0 91 75 133q68 37 210 40 l8 39q6 30 6 44q0 66 -70 66q-46 0 -109 -25q-9 -4 -13 -4t-7 5l-10 32q-2 6 -2 10q0 14 54 30.5t102 16.5q84 0 112 -73q72 73 156 73q59 0 93.5 -33.5t34.5 -91.5zM588 365q0 31 -19 49t-52 18q-54 0 -93 -40.5t-53 -111.5q119 0 168 19t49 66zM291 218q-106 -1 -151 -25 t-45 -80q0 -29 13.5 -45.5t38.5 -16.5q50 0 86.5 32.5t47.5 86.5zM548 641q0 -5 -8 -8l-173 -79q-3 -2 -7 -2q-3 0 -8 7l-11 17q-3 6 -3 8q0 3 5 7l156 108q7 4 8 4q5 0 9 -7l28 -45q4 -7 4 -10z"/>
    <glyph glyph-name="Oslashacute" unicode="Ǿ" horiz-adv-x="537" d="M563 687q0 -3 -3 -7l-54 -75q16 -49 16 -101q0 -107 -28.5 -220t-72.5 -182q-75 -116 -203 -116q-84 0 -127 50l-41 -57q-3 -5 -8 -5q-4 0 -6 2l-25 18q-5 4 -5 8q0 3 3 6l55 77q-13 48 -13 112q0 98 28.5 208.5t71.5 177.5q74 117 203 117q79 0 125 -45l41 56q2 5 7 5 q3 0 7 -3l24 -18q5 -5 5 -8zM426 591q-18 44 -76 44q-61 0 -105.5 -49t-75.5 -152q-44 -140 -44 -244q0 -15 1 -28zM447 494q0 19 -2 36l-304 -431q11 -26 29 -37t48 -11q64 0 109 48.5t78 152.5q42 131 42 242zM513 829q0 -5 -8 -8l-173 -79q-3 -2 -7 -2q-3 0 -8 7l-11 17 q-3 6 -3 8q0 3 5 7l156 108q7 4 8 4q5 0 9 -7l28 -45q4 -7 4 -10z"/>
    <glyph glyph-name="oslashacute" unicode="ǿ" horiz-adv-x="482" d="M451 503q0 -1 -2 -5l-40 -54q34 -45 34 -120q0 -63 -21 -129.5t-56 -115.5q-68 -93 -181 -93q-52 0 -93 24l-38 -53q-3 -5 -6 -5t-6 3l-26 19q-4 4 -4 7q0 1 2 5l43 60q-24 47 -24 112q0 136 76 245q65 91 180 91q42 0 80 -17l38 52q3 4 6 4q2 0 6 -2l28 -21q4 -4 4 -7z M325 424q-22 6 -46 6q-87 0 -134 -93q-18 -35 -30 -87t-12 -96q0 -24 6 -49zM371 327q0 28 -11 64l-224 -327q25 -14 60 -14q87 0 131 90q44 88 44 187zM443 641q0 -5 -8 -8l-173 -79q-3 -2 -7 -2q-3 0 -8 7l-11 17q-3 6 -3 8q0 3 5 7l156 108q7 4 8 4q5 0 9 -7l28 -45 q4 -7 4 -10z"/>
    <glyph glyph-name="Scommaaccent" unicode="Ș" horiz-adv-x="445" d="M466 649q0 -5 -3 -9l-28 -44q-3 -5 -9 -5q-5 0 -20 11q-47 33 -97 33q-58 0 -94.5 -34.5t-36.5 -88.5q0 -31 17.5 -53.5t79.5 -72.5q64 -50 89 -91.5t25 -94.5q0 -96 -67 -160q-58 -54 -162 -54q-88 0 -155 42q-11 7 -11 13q0 3 3 8l26 46q3 5 8 5q4 0 10 -5 q57 -40 126 -40q62 0 99.5 37.5t37.5 99.5q0 43 -20.5 72.5t-84.5 80.5q-61 48 -82.5 82.5t-21.5 82.5q0 42 20 83t53 66q54 41 148 41q80 0 133 -35q17 -10 17 -16zM189 -75l-111 -152q-12 -15 -21 -15q-5 0 -11 3q-14 4 -14 12q0 5 5 15l71 145q9 17 26 17h45q19 0 19 -8 q0 -4 -9 -17z"/>
    <glyph glyph-name="scommaaccent" unicode="ș" horiz-adv-x="370" d="M354 455q0 -5 -2 -9l-18 -34q-3 -7 -11 -7q-4 0 -13 4q-39 20 -77 20q-40 0 -63 -19.5t-23 -52.5q0 -26 20 -45q12 -12 64 -46q41 -28 58 -54.5t17 -63.5q0 -38 -17 -73t-45 -56q-44 -33 -114 -33q-39 0 -80.5 12t-60.5 29q-3 3 -3 7l1 6l19 42q3 6 10 6q5 0 15 -6 q52 -31 111 -31q41 0 66 22.5t25 59.5q0 35 -25 58q-11 10 -70 50q-65 44 -65 106q0 65 46 106t120 41q40 0 77.5 -13t37.5 -26zM168 -76l-111 -152q-12 -15 -21 -15q-5 0 -11 3q-14 4 -14 12q0 5 5 15l71 145q9 17 26 17h45q19 0 19 -8q0 -4 -9 -17z"/>
    <glyph glyph-name="Tcommaaccent" unicode="Ț" horiz-adv-x="389" d="M497 679q0 -3 -4 -10l-22 -45q-5 -9 -16 -9h-145l-128 -603q-3 -12 -15 -12h-54q-10 0 -10 8q0 5 1 7l127 600h-148q-10 0 -10 9q0 1 1 6l9 44q3 12 15 12h388q11 0 11 -7zM167 -75l-111 -152q-12 -15 -21 -15q-5 0 -11 3q-14 4 -14 12q0 5 5 15l71 145q9 17 26 17h45 q19 0 19 -8q0 -4 -9 -17z"/>
    <glyph glyph-name="tcommaaccent" unicode="ț" horiz-adv-x="315" d="M353 474q0 -2 -3 -8l-18 -36q-3 -8 -13 -8h-123l-59 -277q-5 -25 -5 -48q0 -46 44 -46q34 0 90 26q4 2 7 2q5 0 5 -6l6 -34q1 -3 1 -6q0 -14 -46 -30.5t-86 -16.5q-96 0 -96 98q0 24 8 61l59 277h-73q-8 0 -8 6q0 4 1 7l8 35q1 10 12 10h73l29 139q1 7 10 10l53 15 q1 1 7 1t6 -7q0 -1 -1 -5l-32 -153h135q9 0 9 -6zM187 -75l-111 -152q-12 -15 -21 -15q-5 0 -11 3q-14 4 -14 12q0 5 5 15l71 145q9 17 26 17h45q19 0 19 -8q0 -4 -9 -17z"/>
    <glyph glyph-name="circumflex" unicode="ˆ" d="M445 593q0 -3 -4 -9l-15 -16q-5 -6 -8 -6q-4 0 -10 5l-80 58l-96 -57q-7 -4 -9 -4q-5 0 -7 5l-13 23q-4 7 -4 9q0 5 6 8l122 84q5 4 9 4q3 0 10 -6l94 -91q5 -5 5 -7z"/>
    <glyph glyph-name="caron" unicode="ˇ" d="M459 658q0 -4 -5 -7l-123 -85q-5 -3 -9 -3t-9 5l-95 90q-5 5 -5 9q0 3 5 9l13 14q5 7 9 7q3 0 10 -4l80 -59l96 58q6 3 9 3q5 0 8 -5l13 -24q3 -4 3 -8z"/>
    <glyph glyph-name="uni02C9" unicode="ˉ" d="M454 639q0 -1 -2 -6l-7 -35q-2 -12 -15 -12h-221q-10 0 -10 9q0 1 1 6l8 35q2 12 14 12h221q11 0 11 -9z"/>
    <glyph glyph-name="breve" unicode="˘" d="M465 669q0 -8 -15 -36q-45 -81 -137 -81q-105 0 -105 110q0 12 14 15l34 6l4 1q2 1 6 1q6 0 6 -13q0 -37 10.5 -51.5t38.5 -14.5q56 0 79 71q1 7 9 7q4 0 7 -1l40 -6q9 -1 9 -8z"/>
    <glyph glyph-name="dotaccent" unicode="˙" d="M383 625q0 -23 -16.5 -39t-38.5 -16t-38.5 16t-16.5 38q0 24 16.5 40t39.5 16q22 0 38 -16.5t16 -38.5z"/>
    <glyph glyph-name="ring" unicode="˚" d="M405 624q0 -37 -26.5 -62.5t-64.5 -25.5t-64.5 25.5t-26.5 61.5q0 37 27 63t66 26q37 0 63 -26t26 -62zM357 623q0 20 -12.5 33.5t-31.5 13.5q-17 0 -29.5 -13.5t-12.5 -32.5t12.5 -32.5t30.5 -13.5q17 0 30 13t13 32z"/>
    <glyph glyph-name="ogonek" unicode="˛" d="M280 14h45q-71 -60 -71 -117q0 -22 27 -22q25 0 62 17q1 1 4 1t5 -5l8 -28v-6q0 -10 -32 -22t-61 -12q-34 0 -54 16t-20 44q0 29 19 58.5t68 75.5z"/>
    <glyph glyph-name="tilde" unicode="˜" d="M483 653q0 -7 -18 -27q-41 -47 -88 -47q-26 0 -59 21q-30 19 -47 19q-15 0 -25 -7t-26 -27q-5 -7 -10 -7q-2 0 -6 2l-24 19q-5 5 -5 8q0 6 18 28q38 46 89 46q22 0 57 -21q31 -19 47 -19q27 0 52 34q4 6 9 6q2 0 6 -2l24 -18q6 -5 6 -8z"/>
    <glyph glyph-name="hungarumlaut" unicode="˝" d="M541 666q0 -5 -7 -9l-156 -103q-7 -5 -9 -5q-3 0 -7 5l-9 11q-5 6 -5 10q0 3 7 9l138 123q6 6 11 6q2 0 6 -5l26 -32q5 -5 5 -10zM403 673q0 -5 -6 -9l-157 -103q-5 -4 -9 -4t-7 4l-9 11q-5 6 -5 10q0 3 7 9l138 123q6 6 10 6q3 0 7 -5l26 -32q5 -5 5 -10z"/>
    <glyph glyph-name="uni03A9" unicode="Ω" horiz-adv-x="709" d="M654 0h-230v68q145 128 145 308q0 117 -56.5 191t-159.5 74q-99 0 -160 -74t-61 -192q0 -183 146 -307v-68h-230v68h152q-154 123 -154 320q0 140 86 232t222 92q141 0 220.5 -89t79.5 -233q0 -106 -45 -188.5t-109 -133.5h154v-68z"/>
    <glyph glyph-name="uni03BC" unicode="μ" d="M469 487q0 -4 -1 -6l-74 -348q-7 -32 -7 -58q0 -22 12 -45q1 -2 1 -6q0 -3 -5 -6l-51 -29q-6 -3 -8 -3q-6 0 -13 18t-9 42q-87 -60 -153 -60q-37 0 -67 20l-40 -190q-1 -9 -12 -12l-56 -15q-5 -1 -7 -1q-5 0 -5 5q0 4 1 6l141 666q3 10 13 13l55 14q5 1 7 1q5 0 5 -5 t-1 -7l-66 -311q-8 -40 -8 -65q0 -51 55 -51q65 0 137 51l76 360q3 10 13 13l55 14q5 1 7 1q5 0 5 -6z"/>
    <glyph glyph-name="pi" unicode="π" horiz-adv-x="650" d="M588 63l16 -55q-26 -15 -69 -15q-62 0 -91.5 37t-29.5 97v310h-175v-301q0 -85 -14 -136h-83q16 57 16 141v296q-53 0 -101 -23q-7 19 -23 57q56 29 144 29h423v-63h-106v-301q0 -80 61 -80q14 0 32 7z"/>
    <glyph glyph-name="Wgrave" unicode="Ẁ" horiz-adv-x="667" d="M736 672q0 -2 -2 -8l-276 -654q-4 -10 -18 -10h-57q-8 0 -11.5 2.5t-2.5 6.5l1 5l27 529l-216 -533q-4 -10 -16 -10h-59q-9 0 -11.5 2.5t-2.5 11.5l14 652q0 13 12 15l52 10q5 1 7 1q8 0 8 -8l-1 -6l-24 -500q-1 -39 -11 -110q23 80 36 110l205 498q4 10 16 10h45 q11 0 12 -6q1 -1 1 -3v-5l-21 -499q-1 -30 -9 -98q17 62 31 98l199 509q4 10 10 10l7 -1l47 -10q8 -1 8 -9zM504 773q0 -4 -3 -7l-16 -22q-5 -5 -9 -5q-2 0 -7 3l-131 79q-4 2 -4 6q0 6 3 9l43 50q7 7 11 7q3 0 8 -5l103 -109q2 -4 2 -6z"/>
    <glyph glyph-name="wgrave" unicode="ẁ" horiz-adv-x="593" d="M622 470l-1 -2q-1 -3 -1 -5l-222 -462q-3 -8 -13 -8h-42q-8 0 -8 9l-12 302v18v12v19v10q-19 -46 -26 -59l-152 -303q-3 -8 -13 -8h-40q-9 0 -9 9l-16 462v5q0 5 10 8l52 11q5 1 7 1q6 0 6 -12l-4 -317q0 -25 -3 -67l10 23l13 26l9 18l153 312q3 8 13 8h40q8 0 8 -8 l6 -319v-12v-16v-36q4 15 25 64l142 331q3 5 7 5q5 0 6 -1l49 -11q6 -1 6 -7zM434 585q0 -4 -3 -7l-16 -22q-5 -5 -9 -5q-2 0 -7 3l-131 79q-4 2 -4 6q0 6 3 9l43 50q7 7 11 7q3 0 8 -5l103 -109q2 -4 2 -6z"/>
    <glyph glyph-name="Wacute" unicode="Ẃ" horiz-adv-x="667" d="M736 672q0 -2 -2 -8l-276 -654q-4 -10 -18 -10h-57q-8 0 -11.5 2.5t-2.5 6.5l1 5l27 529l-216 -533q-4 -10 -16 -10h-59q-9 0 -11.5 2.5t-2.5 11.5l14 652q0 13 12 15l52 10q5 1 7 1q8 0 8 -8l-1 -6l-24 -500q-1 -39 -11 -110q23 80 36 110l205 498q4 10 16 10h45 q11 0 12 -6q1 -1 1 -3v-5l-21 -499q-1 -30 -9 -98q17 62 31 98l199 509q4 10 10 10l7 -1l47 -10q8 -1 8 -9zM588 829q0 -5 -8 -8l-173 -79q-3 -2 -7 -2q-3 0 -8 7l-11 17q-3 6 -3 8q0 3 5 7l156 108q7 4 8 4q5 0 9 -7l28 -45q4 -7 4 -10z"/>
    <glyph glyph-name="wacute" unicode="ẃ" horiz-adv-x="593" d="M622 470l-1 -2q-1 -3 -1 -5l-222 -462q-3 -8 -13 -8h-42q-8 0 -8 9l-12 302v18v12v19v10q-19 -46 -26 -59l-152 -303q-3 -8 -13 -8h-40q-9 0 -9 9l-16 462v5q0 5 10 8l52 11q5 1 7 1q6 0 6 -12l-4 -317q0 -25 -3 -67l10 23l13 26l9 18l153 312q3 8 13 8h40q8 0 8 -8 l6 -319v-12v-16v-36q4 15 25 64l142 331q3 5 7 5q5 0 6 -1l49 -11q6 -1 6 -7zM518 641q0 -5 -8 -8l-173 -79q-3 -2 -7 -2q-3 0 -8 7l-11 17q-3 6 -3 8q0 3 5 7l156 108q7 4 8 4q5 0 9 -7l28 -45q4 -7 4 -10z"/>
    <glyph glyph-name="Wdieresis" unicode="Ẅ" horiz-adv-x="667" d="M736 672q0 -2 -2 -8l-276 -654q-4 -10 -18 -10h-57q-8 0 -11.5 2.5t-2.5 6.5l1 5l27 529l-216 -533q-4 -10 -16 -10h-59q-9 0 -11.5 2.5t-2.5 11.5l14 652q0 13 12 15l52 10q5 1 7 1q8 0 8 -8l-1 -6l-24 -500q-1 -39 -11 -110q23 80 36 110l205 498q4 10 16 10h45 q11 0 12 -6q1 -1 1 -3v-5l-21 -499q-1 -30 -9 -98q17 62 31 98l199 509q4 10 10 10l7 -1l47 -10q8 -1 8 -9zM594 813q0 -21 -15 -36t-36 -15t-36 15t-15 36q0 22 15 36.5t37 14.5q20 0 35 -15t15 -36zM412 813q0 -21 -15 -36t-36 -15t-36 15t-15 36t15 36t37 15 q20 0 35 -15.5t15 -35.5z"/>
    <glyph glyph-name="wdieresis" unicode="ẅ" horiz-adv-x="593" d="M622 470l-1 -2q-1 -3 -1 -5l-222 -462q-3 -8 -13 -8h-42q-8 0 -8 9l-12 302v18v12v19v10q-19 -46 -26 -59l-152 -303q-3 -8 -13 -8h-40q-9 0 -9 9l-16 462v5q0 5 10 8l52 11q5 1 7 1q6 0 6 -12l-4 -317q0 -25 -3 -67l10 23l13 26l9 18l153 312q3 8 13 8h40q8 0 8 -8 l6 -319v-12v-16v-36q4 15 25 64l142 331q3 5 7 5q5 0 6 -1l49 -11q6 -1 6 -7zM514 625q0 -21 -15 -36t-36 -15t-36 15t-15 36q0 22 15 36.5t37 14.5q20 0 35 -15t15 -36zM332 625q0 -21 -15 -36t-36 -15t-36 15t-15 36t15 36t37 15q20 0 35 -15.5t15 -35.5z"/>
    <glyph glyph-name="Ygrave" unicode="Ỳ" horiz-adv-x="408" d="M512 669q0 -2 -4 -10l-258 -369l-59 -278q-3 -12 -15 -12h-54q-10 0 -10 8q0 5 1 7l58 275l-104 369q-2 6 -2 9q0 6 10 8l57 16q7 2 9 2q4 0 7 -10l63 -267q9 -37 11 -67l41 67l168 268q6 9 9 9t8 -2l56 -15q8 -2 8 -8zM373 773q0 -4 -3 -7l-16 -22q-5 -5 -9 -5 q-3 0 -7 3l-131 79q-4 2 -4 6q0 6 3 9l43 50q7 7 11 7q3 0 8 -5l103 -109q2 -4 2 -6z"/>
    <glyph glyph-name="ygrave" unicode="ỳ" horiz-adv-x="408" d="M438 462q0 -3 -3 -8l-177 -395q-55 -123 -96 -185q-57 -86 -150 -86q-33 0 -70.5 14.5t-37.5 27.5q0 3 4 10l24 38q3 5 8 5q4 0 18 -9q33 -21 61 -21q59 0 104 84l34 63h-36q-11 0 -12 10l-65 445q-1 4 -1 7t6 6l57 19q5 2 8 2q5 0 6 -8l57 -442l194 444q3 6 6 6 q4 0 8 -2l47 -19q6 -3 6 -6zM313 585q0 -4 -3 -7l-16 -22q-5 -5 -9 -5q-3 0 -7 3l-131 79q-4 2 -4 6q0 6 3 9l43 50q7 7 11 7q3 0 8 -5l103 -109q2 -4 2 -6z"/>
    <glyph glyph-name="endash" unicode="–" horiz-adv-x="407" d="M383 279q0 -5 -1 -7l-8 -39q-2 -12 -15 -12h-326q-10 0 -10 9q0 1 1 6l8 39q2 12 15 12h326q10 0 10 -8z"/>
    <glyph glyph-name="emdash" unicode="—" horiz-adv-x="648" d="M625 277q0 -2 -2 -7l-7 -35q-2 -12 -15 -12h-570q-10 0 -10 9q0 1 1 6l7 35q3 12 15 12h570q11 0 11 -8z"/>
    <glyph glyph-name="quoteleft" unicode="‘" horiz-adv-x="296" d="M318 692l-1 -5l-2 -4l-83 -199q-4 -10 -15 -10h-85q-10 0 -10 7q0 4 5 10l146 214q5 6 9 6q1 0 7 -2l22 -10q7 -3 7 -7z"/>
    <glyph glyph-name="quoteright" unicode="’" horiz-adv-x="296" d="M316 699q0 -3 -5 -10l-147 -214q-4 -6 -8 -6t-8 2l-21 10q-7 3 -7 7q0 3 3 9l82 199q4 10 15 10h85q11 0 11 -7z"/>
    <glyph glyph-name="quotesinglbase" unicode="‚" horiz-adv-x="296" d="M190 108q0 -4 -5 -10l-147 -215q-4 -6 -8 -6q-2 0 -8 2l-21 10q-7 3 -7 7t3 10l82 199q4 10 15 10h85q11 0 11 -7z"/>
    <glyph glyph-name="quotedblleft" unicode="“" horiz-adv-x="463" d="M484 692q0 -3 -2 -9l-83 -199q-4 -10 -15 -10h-85q-10 0 -10 7q0 3 4 10l147 214q4 6 8 6q2 0 8 -2l22 -10q6 -3 6 -7zM318 692l-1 -5l-2 -4l-83 -199q-4 -10 -15 -10h-85q-10 0 -10 7q0 4 5 10l146 214q5 6 9 6q1 0 7 -2l22 -10q7 -3 7 -7z"/>
    <glyph glyph-name="quotedblright" unicode="”" horiz-adv-x="463" d="M483 699q0 -4 -5 -10l-147 -214q-5 -6 -8 -6q-4 0 -8 2l-21 10q-7 3 -7 7t3 9l82 199q4 10 15 10h85q11 0 11 -7zM316 699q0 -4 -5 -10l-147 -214q-4 -6 -8 -6t-8 2l-21 10q-7 3 -7 7q0 3 3 9l82 199q4 10 15 10h85q11 0 11 -7z"/>
    <glyph glyph-name="quotedblbase" unicode="„" horiz-adv-x="463" d="M357 108q0 -4 -5 -10l-147 -214q-5 -7 -8 -7t-4 1l-4 2l-21 9q-7 3 -7 7t3 10l82 199q4 10 15 10h85q11 0 11 -7zM190 108q0 -4 -5 -10l-147 -214q-5 -7 -8 -7q-2 0 -8 3l-21 9q-7 3 -7 7t3 10l82 199q4 10 15 10h85q11 0 11 -7z"/>
    <glyph glyph-name="dagger" unicode="†" d="M459 449q0 -3 -1 -8l-9 -39q-2 -12 -14 -12h-121l-125 -590q-3 -12 -15 -12h-48q-10 0 -10 10q0 1 1 5l125 587h-121q-10 0 -10 9q0 2 1 6l9 40q3 12 14 12h121l46 217q2 12 15 12h48q10 0 10 -9q0 -1 -1 -6l-46 -214h121q10 0 10 -8z"/>
    <glyph glyph-name="daggerdbl" unicode="‡" d="M460 448q0 -1 -2 -7l-8 -39q-2 -12 -15 -12h-120l-63 -293h121q10 0 10 -8q0 -3 -1 -8l-9 -39q-2 -12 -14 -12h-121l-49 -230q-2 -12 -15 -12h-47q-10 0 -10 9q0 4 1 6l48 227h-121q-10 0 -10 9q0 2 1 6l9 40q2 12 14 12h121l62 293h-120q-10 0 -10 9q0 4 1 6l8 40 q3 12 15 12h121l46 217q3 12 14 12h48q10 0 10 -8q0 -4 -1 -7l-45 -214h121q10 0 10 -9z"/>
    <glyph glyph-name="bullet" unicode="•" d="M410 348q0 -58 -42 -100t-100 -42q-59 0 -101 41.5t-42 100.5q0 60 41.5 101.5t102.5 41.5q58 0 99.5 -42t41.5 -101z"/>
    <glyph glyph-name="ellipsis" unicode="…" horiz-adv-x="889" d="M764 55q0 -28 -19.5 -47.5t-47.5 -19.5t-47.5 19.5t-19.5 46.5q0 29 20 48.5t49 19.5q26 0 45.5 -20t19.5 -47zM468 55q0 -28 -19.5 -47.5t-47.5 -19.5t-47.5 19.5t-19.5 46.5q0 28 20 48t48 20q27 0 46.5 -20t19.5 -47zM172 55q0 -28 -19.5 -47.5t-47.5 -19.5 t-47.5 19.5t-19.5 46.5q0 29 20 48.5t49 19.5q26 0 45.5 -20t19.5 -47z"/>
    <glyph glyph-name="perthousand" unicode="‰" horiz-adv-x="1074" d="M1031 213q0 -47 -17.5 -94.5t-45.5 -78.5q-46 -52 -112 -52q-48 0 -76 30t-28 82q0 48 18 99t44 80q48 52 115 52q48 0 75 -31t27 -87zM716 213q0 -47 -17 -94t-46 -79q-46 -52 -112 -52q-48 0 -76 30t-28 82q0 48 18 99t44 80q48 52 115 52q49 0 75.5 -31t26.5 -87z M636 652q0 -3 -4 -9l-412 -653q-5 -9 -17 -9h-41q-11 0 -11 8q0 3 4 9l412 654q5 8 15 8h43q11 0 11 -8zM348 536q0 -103 -62 -172q-46 -52 -112 -52q-49 0 -77 30t-28 82q0 47 18 98t44 80q48 51 115 51q49 0 75.5 -30.5t26.5 -86.5zM967 219q0 57 -47 57q-46 0 -74 -52 q-29 -53 -29 -124q0 -57 46 -57q48 0 75 53q29 55 29 123zM652 219q0 57 -47 57q-46 0 -74 -52q-29 -55 -29 -124q0 -57 46 -57q48 0 75 53q29 55 29 123zM284 540q0 58 -47 58q-46 0 -74 -52q-29 -53 -29 -123q0 -56 46 -56q47 0 75 52q29 53 29 121z"/>
    <glyph glyph-name="guilsinglleft" unicode="‹" horiz-adv-x="333" d="M325 437q0 -4 -4 -8l-177 -195l85 -188q3 -8 3 -9q0 -4 -10 -9l-27 -13q-9 -4 -10 -4q-3 0 -7 6l-123 212q-4 7 -4 9q0 3 6 9l216 215q5 5 9 5t8 -3l30 -19q5 -3 5 -8z"/>
    <glyph glyph-name="guilsinglright" unicode="›" horiz-adv-x="333" d="M274 241q0 -4 -6 -10l-216 -215q-5 -5 -9 -5q-2 0 -7 4l-30 18q-6 5 -6 8q0 4 4 8l177 195l-85 188q-3 6 -3 9q0 4 10 9l28 14q7 3 9 3q4 0 7 -5l123 -212q4 -5 4 -9z"/>
    <glyph glyph-name="fraction" unicode="⁄" horiz-adv-x="147" d="M327 653q0 -4 -5 -10l-411 -653q-5 -9 -17 -9h-42q-10 0 -10 8q0 3 4 9l411 654q6 8 16 8h43q11 0 11 -7z"/>
    <glyph glyph-name="zero.superior" unicode="⁰" horiz-adv-x="334" d="M384 714q0 -54 -17 -112t-46 -101q-52 -77 -136 -77q-106 0 -106 117q0 119 63 214q48 77 138 77q104 0 104 -118zM320 718q0 61 -53 61q-48 0 -82 -62q-16 -33 -29 -87t-13 -91q0 -63 52 -63q51 0 82 63q18 32 30.5 86t12.5 93z"/>
    <glyph glyph-name="four.superior" unicode="⁴" horiz-adv-x="334" d="M362 566l-2 -13l-3 -14q-4 -16 -17 -16h-48l-19 -80q-3 -12 -17 -12h-31q-14 0 -14 11q0 4 2 10l18 71h-163q-13 0 -13 11q0 2 2 10l5 21q2 8 6 12l229 252q6 7 13 7l11 -2l25 -6q11 -3 11 -9q0 -5 -8 -15l-211 -228h104l30 90q3 11 17 11h22q14 0 14 -10q0 -3 -2 -11 l-19 -80h46q12 0 12 -10z"/>
    <glyph glyph-name="five.superior" unicode="⁵" horiz-adv-x="334" d="M377 815q0 -3 -2 -11l-5 -20q-3 -12 -16 -12h-133l-36 -101q29 15 63 15q47 0 74.5 -25.5t27.5 -68.5q0 -35 -18 -71t-48 -61q-45 -36 -117 -36q-32 0 -64.5 8.5t-32.5 16.5q0 5 3 12l6 19q4 11 12 11q4 0 19 -4q36 -11 65 -11q49 0 81.5 31.5t32.5 79.5t-51 48 q-45 0 -77 -29q-11 -9 -17 -9q-3 0 -9 2l-17 5q-13 4 -13 10q0 3 3 12l67 188q4 11 16 11h173q13 0 13 -10z"/>
    <glyph glyph-name="six.superior" unicode="⁶" horiz-adv-x="334" d="M406 814l-16 -34q-2 -5 -11 -5q-2 0 -10 2q-20 5 -33 5q-52 0 -92 -39q-29 -29 -46 -62q32 22 73 22q44 0 68.5 -26t24.5 -72q0 -75 -47.5 -128t-116.5 -53q-51 0 -78.5 28t-27.5 80q0 53 22.5 113.5t59.5 106.5q65 80 163 80q23 0 45 -6t22 -11v-1zM299 604q0 49 -49 49 q-50 0 -73 -46q-17 -34 -17 -80q0 -53 48 -53q44 0 71 51q20 38 20 79z"/>
    <glyph glyph-name="seven.superior" unicode="⁷" horiz-adv-x="334" d="M402 811q0 -12 -8 -25l-233 -353q-5 -8 -13 -8q-2 0 -6 1h-5l-33 4q-9 1 -9 9q0 6 4 11l215 320h-161q-13 0 -13 10q0 5 2 13l5 22q3 10 16 10h226q13 0 13 -14z"/>
    <glyph glyph-name="eight.superior" unicode="⁸" horiz-adv-x="334" d="M383 750q0 -69 -88 -111q62 -31 62 -90t-48 -92t-113 -33q-62 0 -96.5 25t-34.5 70q0 82 115 122q-50 31 -50 81t38 80t101 30q114 0 114 -82zM292 545q0 29 -27 48q-9 6 -35 17q-52 -15 -75.5 -35.5t-23.5 -49.5q0 -24 18 -37.5t51 -13.5q40 0 66 20t26 51zM321 742 q0 40 -55 40q-33 0 -52.5 -15.5t-19.5 -40.5q0 -18 8.5 -29.5t38.5 -31.5q43 18 61.5 35.5t18.5 41.5z"/>
    <glyph glyph-name="nine.superior" unicode="⁹" horiz-adv-x="334" d="M71 442l9 34q1 5 8 5q5 0 13 -2q20 -5 33 -5q46 0 86 39q29 29 46 62q-32 -22 -73 -22q-44 0 -68.5 26t-24.5 72q0 75 47.5 128t116.5 53q51 0 78.5 -28t27.5 -80q0 -53 -22.5 -113.5t-59.5 -106.5q-65 -80 -157 -80q-24 0 -42 5.5t-18 11.5v1zM165 652q0 -49 49 -49 q50 0 73 46q17 34 17 80q0 53 -48 53q-44 0 -71 -51q-20 -38 -20 -79z"/>
    <glyph glyph-name="zero.inferior" unicode="₀" horiz-adv-x="334" d="M277 119q0 -54 -17 -112t-46 -101q-52 -77 -136 -77q-106 0 -106 117q0 119 63 214q48 77 138 77q104 0 104 -118zM213 123q0 61 -53 61q-48 0 -82 -62q-16 -33 -29 -87t-13 -91q0 -63 52 -63q51 0 82 63q18 32 30.5 86t12.5 93z"/>
    <glyph glyph-name="one.inferior" unicode="₁" horiz-adv-x="334" d="M212 219q0 -4 -1 -6l-77 -326h51q11 0 11 -9q0 -2 -2 -12l-4 -18q-2 -7 -4.5 -9.5t-11.5 -2.5h-174q-14 0 -14 11q0 3 2 11l4 16q3 13 17 13h61l66 275l-84 -41q-7 -4 -12 -4t-9 5l-9 14q-4 8 -4 10q0 4 4 7l135 73q7 4 15 4h27q13 0 13 -11z"/>
    <glyph glyph-name="two.inferior" unicode="₂" horiz-adv-x="334" d="M27 -110h174q11 0 11 -9q0 -2 -2 -12l-5 -21q-2 -7 -4.5 -9.5t-11.5 -2.5h-224q-13 0 -13 10q0 16 23 70q31 57 129 123q64 41 84 62q17 22 17 48q0 35 -43 35q-25 0 -42.5 -11.5t-38.5 -42.5q-9 -11 -15 -11q-4 0 -7 1l-28 9q-8 2 -8 10q0 5 6 16q23 39 59.5 60.5 t79.5 21.5q49 0 77 -21.5t28 -59.5q0 -47 -35 -89q-19 -20 -97 -69q-51 -31 -75.5 -54t-38.5 -54z"/>
    <glyph glyph-name="three.inferior" unicode="₃" horiz-adv-x="334" d="M255 157q0 -73 -79 -109q49 -24 49 -74q0 -61 -49.5 -103t-122.5 -42q-33 0 -69 11t-36 21l1 4l16 31q4 6 12 6q4 0 12 -4q34 -17 71 -17q43 0 71 25t28 63q0 50 -74 50h-23q-13 0 -13 11v6l6 22v-1q3 13 17 13h23q40 0 68 23t28 57q0 37 -46 37q-30 0 -73 -31h1 q-7 -7 -15 -7q-6 0 -9 3l-20 18q-3 3 -3 8t9 14q52 45 118 45q46 0 74 -21.5t28 -58.5z"/>
    <glyph glyph-name="four.inferior" unicode="₄" horiz-adv-x="334" d="M255 -29l-2 -13l-3 -14q-4 -16 -17 -16h-48l-19 -80q-3 -12 -17 -12h-31q-14 0 -14 11q0 4 2 10l18 71h-163q-13 0 -13 11q0 2 2 10l5 21q2 8 6 12l229 252q6 7 13 7l11 -2l25 -6q11 -3 11 -9q0 -5 -8 -15l-211 -228h104l30 90q3 11 17 11h22q14 0 14 -10q0 -3 -2 -11 l-19 -80h46q12 0 12 -10z"/>
    <glyph glyph-name="five.inferior" unicode="₅" horiz-adv-x="334" d="M270 220q0 -3 -2 -11l-5 -20q-3 -12 -16 -12h-133l-36 -101q29 15 63 15q47 0 74.5 -25.5t27.5 -68.5q0 -35 -18 -71t-48 -61q-45 -36 -117 -36q-32 0 -64.5 8.5t-32.5 16.5q0 4 3 12l6 19q4 11 12 11q4 0 19 -4q36 -11 65 -11q49 0 81.5 31.5t32.5 79.5t-51 48 q-45 0 -77 -29q-11 -9 -17 -9q-3 0 -9 2l-17 5q-13 4 -13 10q0 3 3 12l67 188q4 11 16 11h173q13 0 13 -10z"/>
    <glyph glyph-name="six.inferior" unicode="₆" horiz-adv-x="334" d="M299 219l-16 -34q-3 -5 -11 -5q-2 0 -10 2q-20 5 -33 5q-52 0 -92 -39q-29 -29 -46 -62q32 22 73 22q44 0 68.5 -26t24.5 -72q0 -75 -47.5 -128t-116.5 -53q-51 0 -78.5 28t-27.5 80q0 53 22.5 113.5t59.5 106.5q65 80 163 80q23 0 45 -6t22 -11v-1zM192 9q0 49 -49 49 q-50 0 -73 -46q-17 -34 -17 -80q0 -53 48 -53q44 0 71 51q20 38 20 79z"/>
    <glyph glyph-name="seven.inferior" unicode="₇" horiz-adv-x="334" d="M295 216q0 -12 -8 -25l-233 -353q-5 -8 -13 -8h-7l-4 1l-33 4q-9 1 -9 9q0 6 4 11l215 320h-161q-13 0 -13 10q0 5 2 13l5 22q3 10 16 10h226q13 0 13 -14z"/>
    <glyph glyph-name="eight.inferior" unicode="₈" horiz-adv-x="334" d="M276 155q0 -69 -88 -111q62 -31 62 -90t-48 -92t-113 -33q-62 0 -96.5 25t-34.5 70q0 82 115 122q-50 31 -50 81t38 80t101 30q114 0 114 -82zM185 -50q0 29 -27 48q-9 6 -35 17q-52 -15 -75.5 -35.5t-23.5 -49.5q0 -24 18 -37.5t51 -13.5q40 0 66 20t26 51zM214 147 q0 40 -55 40q-33 0 -52.5 -15.5t-19.5 -40.5q0 -18 8.5 -29.5t38.5 -31.5q43 18 61.5 35.5t18.5 41.5z"/>
    <glyph glyph-name="nine.inferior" unicode="₉" horiz-adv-x="334" d="M-36 -153l9 34q1 5 8 5q5 0 13 -2q20 -5 33 -5q46 0 86 39q29 29 46 62q-32 -22 -73 -22q-44 0 -68.5 26t-24.5 72q0 75 47.5 128t116.5 53q51 0 78.5 -28t27.5 -80q0 -53 -22.5 -113.5t-59.5 -106.5q-65 -80 -157 -80q-24 0 -42 5.5t-18 11.5v1zM58 57q0 -49 49 -49 q50 0 73 46q17 34 17 80q0 53 -48 53q-44 0 -71 -51q-20 -38 -20 -79z"/>
    <glyph glyph-name="Euro" unicode="€" d="M535 596q0 -6 -3 -9l-26 -38q-3 -6 -7 -6q-3 0 -17 11q-43 35 -92 35q-36 0 -69 -23.5t-54 -67.5q-22 -48 -38 -102h184q9 0 9 -8q0 -1 -1 -4l-1 -3l-4 -9q-4 -12 -16 -12h-181l-12 -56h172q9 0 9 -8q0 -1 -1 -4l-1 -3l-4 -9q-4 -12 -16 -12h-164q-7 -56 -7 -95 q0 -62 24.5 -89t71.5 -27q52 0 114 48q5 3 9 3q5 0 9 -6l17 -37q2 -2 2 -7q0 -6 -14 -15q-79 -55 -153 -55t-115 49.5t-41 139.5q0 44 6 91h-75q-7 0 -7 8q0 3 2 7l3 9q5 12 16 12h66q6 38 11 56h-73q-7 0 -7 8q0 3 2 7l3 9q5 12 16 12h68q20 73 51 131q70 131 196 131 q70 0 129 -49q9 -7 9 -13z"/>
    <glyph glyph-name="litre" unicode="ℓ" horiz-adv-x="492" d="M405 52q-64 -66 -132 -66q-53 0 -84 33q-37 37 -37 119v109l-59 -63q-10 13 -32 39l91 100v228q0 87 33 132t91 45q50 0 74 -33t24 -74q0 -67 -29 -129t-84 -133q-28 -37 -33 -42v-178q0 -91 63 -91q40 0 85 49zM317 612q0 55 -37 55q-52 0 -52 -111v-158q11 12 20 27 q69 100 69 187z"/>
    <glyph glyph-name="trademark" unicode="™" horiz-adv-x="704" d="M698 264q0 -5 -7 -5h-45q-8 0 -8 8l-9 277l-70 -189q-3 -8 -11 -8h-21q-8 0 -11 8l-68 189l-8 -277q-1 -8 -9 -8h-42q-8 0 -8 6v7l23 370q0 8 9 8h41q8 0 11 -8l70 -193l2 -7l2 -4q1 4 3 11l71 193q3 8 11 8h43q8 0 8 -8l23 -369v-9zM344 642q0 -4 -1 -6l-1 -2l-8 -27 q-3 -10 -14 -10h-80v-325q0 -13 -13 -13h-33q-13 0 -13 13v325h-81q-13 0 -13 13v27q0 13 13 13h230q14 0 14 -8z"/>
    <glyph glyph-name="Omega" unicode="Ω" horiz-adv-x="709" d="M654 0h-230v68q145 128 145 308q0 117 -56.5 191t-159.5 74q-99 0 -160 -74t-61 -192q0 -183 146 -307v-68h-230v68h152q-154 123 -154 320q0 140 86 232t222 92q141 0 220.5 -89t79.5 -233q0 -106 -45 -188.5t-109 -133.5h154v-68z"/>
    <glyph glyph-name="estimated" unicode="℮" horiz-adv-x="660" d="M613 291h-449v-200q65 -65 159 -65q136 0 215 132q7 -4 19 -11.5l17 -10.5q-49 -73 -107 -110.5t-144 -37.5q-127 0 -205.5 87t-78.5 216q0 130 77.5 217t207.5 87q131 0 208 -86t81 -218zM485 329v162q-69 67 -162 67q-96 0 -159 -66v-163h321z"/>
    <glyph glyph-name="onethird" unicode="⅓" horiz-adv-x="815" d="M294 627q0 -4 -1 -6l-77 -326h51q11 0 11 -9q0 -2 -2 -12l-4 -18q-2 -7 -4.5 -9.5t-11.5 -2.5h-174q-14 0 -14 11q0 3 2 11l4 16q3 13 17 13h61l66 275l-84 -41q-7 -4 -12 -4t-9 5l-9 14q-4 8 -4 10q0 4 4 7l135 73q7 4 15 4h27q13 0 13 -11zM661 653q0 -4 -5 -10 l-411 -653q-5 -9 -17 -9h-42q-10 0 -10 8q0 3 4 9l411 654q6 8 16 8h43q11 0 11 -7zM758 321q0 -73 -79 -109q49 -24 49 -74q0 -61 -49.5 -103t-122.5 -42q-33 0 -69 11t-36 21l1 4l16 31q4 6 12 6q4 0 12 -4q34 -17 71 -17q43 0 71 25t28 63q0 50 -74 50h-23q-13 0 -13 11 v6l6 22v-1q3 13 17 13h23q40 0 68 23t28 57q0 37 -46 37q-30 0 -73 -31h1q-7 -7 -15 -7q-6 0 -9 3l-20 18q-3 3 -3 8t9 14q52 45 118 45q46 0 74 -21.5t28 -58.5z"/>
    <glyph glyph-name="twothirds" unicode="⅔" horiz-adv-x="815" d="M109 298h174q11 0 11 -9q0 -2 -2 -12l-5 -21q-2 -7 -4.5 -9.5t-11.5 -2.5h-224q-13 0 -13 10q0 16 23 70q31 57 129 123q64 41 84 62q17 22 17 48q0 35 -43 35q-25 0 -42.5 -11.5t-38.5 -42.5q-9 -11 -15 -11q-4 0 -7 1l-28 9q-8 2 -8 10q0 5 6 16q23 39 59.5 60.5 t79.5 21.5q49 0 77 -21.5t28 -59.5q0 -47 -35 -89q-19 -20 -97 -69q-51 -31 -75.5 -54t-38.5 -54zM661 653q0 -4 -5 -10l-411 -653q-5 -9 -17 -9h-42q-10 0 -10 8q0 3 4 9l411 654q6 8 16 8h43q11 0 11 -7zM758 321q0 -73 -79 -109q49 -24 49 -74q0 -61 -49.5 -103 t-122.5 -42q-33 0 -69 11t-36 21l1 4l16 31q4 6 12 6q4 0 12 -4q34 -17 71 -17q43 0 71 25t28 63q0 50 -74 50h-23q-13 0 -13 11v6l6 22v-1q3 13 17 13h23q40 0 68 23t28 57q0 37 -46 37q-30 0 -73 -31h1q-7 -7 -15 -7q-6 0 -9 3l-20 18q-3 3 -3 8t9 14q52 45 118 45 q46 0 74 -21.5t28 -58.5z"/>
    <glyph glyph-name="oneeighth" unicode="⅛" horiz-adv-x="815" d="M294 627q0 -4 -1 -6l-77 -326h51q11 0 11 -9q0 -2 -2 -12l-4 -18q-2 -7 -4.5 -9.5t-11.5 -2.5h-174q-14 0 -14 11q0 3 2 11l4 16q3 13 17 13h61l66 275l-84 -41q-7 -4 -12 -4t-9 5l-9 14q-4 8 -4 10q0 4 4 7l135 73q7 4 15 4h27q13 0 13 -11zM661 653q0 -4 -5 -10 l-411 -653q-5 -9 -17 -9h-42q-10 0 -10 8q0 3 4 9l411 654q6 8 16 8h43q11 0 11 -7zM779 319q0 -69 -88 -111q62 -31 62 -90t-48 -92t-113 -33q-62 0 -96.5 25t-34.5 70q0 82 115 122q-50 31 -50 81t38 80t101 30q114 0 114 -82zM688 114q0 29 -27 48q-9 6 -35 17 q-52 -15 -75.5 -35.5t-23.5 -49.5q0 -24 18 -37.5t51 -13.5q40 0 66 20t26 51zM717 311q0 40 -55 40q-33 0 -52.5 -15.5t-19.5 -40.5q0 -18 8.5 -29.5t38.5 -31.5q43 18 61.5 35.5t18.5 41.5z"/>
    <glyph glyph-name="threeeighths" unicode="⅜" horiz-adv-x="815" d="M337 565q0 -73 -79 -109q49 -24 49 -74q0 -61 -49.5 -103t-122.5 -42q-33 0 -69 11t-36 21l1 4l16 31q4 6 12 6q4 0 12 -4q34 -17 71 -17q43 0 71 25t28 63q0 50 -74 50h-23q-13 0 -13 11v6l6 22v-1q3 13 17 13h23q40 0 68 23t28 57q0 37 -46 37q-30 0 -73 -31h1 q-7 -7 -15 -7q-6 0 -9 3l-20 18q-3 3 -3 8t9 14q52 45 118 45q46 0 74 -21.5t28 -58.5zM661 653q0 -4 -5 -10l-411 -653q-5 -9 -17 -9h-42q-10 0 -10 8q0 3 4 9l411 654q6 8 16 8h43q11 0 11 -7zM779 319q0 -69 -88 -111q62 -31 62 -90t-48 -92t-113 -33q-62 0 -96.5 25 t-34.5 70q0 82 115 122q-50 31 -50 81t38 80t101 30q114 0 114 -82zM688 114q0 29 -27 48q-9 6 -35 17q-52 -15 -75.5 -35.5t-23.5 -49.5q0 -24 18 -37.5t51 -13.5q40 0 66 20t26 51zM717 311q0 40 -55 40q-33 0 -52.5 -15.5t-19.5 -40.5q0 -18 8.5 -29.5t38.5 -31.5 q43 18 61.5 35.5t18.5 41.5z"/>
    <glyph glyph-name="fiveeighths" unicode="⅝" horiz-adv-x="815" d="M352 628q0 -3 -2 -11l-5 -20q-3 -12 -16 -12h-133l-36 -101q29 15 63 15q47 0 74.5 -25.5t27.5 -68.5q0 -35 -18 -71t-48 -61q-45 -36 -117 -36q-32 0 -64.5 8.5t-32.5 16.5q0 4 3 12l6 19q4 11 12 11q4 0 19 -4q36 -11 65 -11q49 0 81.5 31.5t32.5 79.5t-51 48 q-45 0 -77 -29q-11 -9 -17 -9q-3 0 -9 2l-17 5q-13 4 -13 10q0 3 3 12l67 188q4 11 16 11h173q13 0 13 -10zM661 653q0 -4 -5 -10l-411 -653q-5 -9 -17 -9h-42q-10 0 -10 8q0 3 4 9l411 654q6 8 16 8h43q11 0 11 -7zM779 319q0 -69 -88 -111q62 -31 62 -90t-48 -92t-113 -33 q-62 0 -96.5 25t-34.5 70q0 82 115 122q-50 31 -50 81t38 80t101 30q114 0 114 -82zM688 114q0 29 -27 48q-9 6 -35 17q-52 -15 -75.5 -35.5t-23.5 -49.5q0 -24 18 -37.5t51 -13.5q40 0 66 20t26 51zM717 311q0 40 -55 40q-33 0 -52.5 -15.5t-19.5 -40.5q0 -18 8.5 -29.5 t38.5 -31.5q43 18 61.5 35.5t18.5 41.5z"/>
    <glyph glyph-name="seveneighths" unicode="⅞" horiz-adv-x="815" d="M377 624q0 -12 -8 -25l-233 -353q-5 -8 -13 -8h-7l-4 1l-33 4q-9 1 -9 9q0 6 4 11l215 320h-161q-13 0 -13 10q0 5 2 13l5 22q3 10 16 10h226q13 0 13 -14zM631 653q0 -4 -5 -10l-411 -653q-5 -9 -17 -9h-42q-10 0 -10 8q0 3 4 9l411 654q6 8 16 8h43q11 0 11 -7z M779 319q0 -69 -88 -111q62 -31 62 -90t-48 -92t-113 -33q-62 0 -96.5 25t-34.5 70q0 82 115 122q-50 31 -50 81t38 80t101 30q114 0 114 -82zM688 114q0 29 -27 48q-9 6 -35 17q-52 -15 -75.5 -35.5t-23.5 -49.5q0 -24 18 -37.5t51 -13.5q40 0 66 20t26 51zM717 311 q0 40 -55 40q-33 0 -52.5 -15.5t-19.5 -40.5q0 -18 8.5 -29.5t38.5 -31.5q43 18 61.5 35.5t18.5 41.5z"/>
    <glyph glyph-name="partialdiff" unicode="∂" horiz-adv-x="574" d="M529 485q0 -94 -24 -193q-15 -58 -39.5 -109.5t-58.5 -96.5t-80.5 -71t-100.5 -26q-80 0 -129.5 52t-49.5 137q0 141 80 230.5t183 89.5q48 0 82.5 -20.5t50.5 -51.5h2q5 33 5 69q0 83 -36 126t-102 43q-49 0 -95 -27l-21 57q50 33 127 33q95 0 150.5 -63t55.5 -179z M434 351q-11 38 -40.5 62t-75.5 24q-76 0 -133 -77t-57 -185q0 -55 27.5 -88t72.5 -33q71 0 126 81.5t80 215.5z"/>
    <glyph glyph-name="Delta" unicode="∆" horiz-adv-x="607" d="M598 0h-572v40l236 660h102l234 -660v-40zM500 69l-173 496q-5 14 -9.5 34t-5.5 23h-4q-7 -31 -15 -56l-174 -497h381z"/>
    <glyph glyph-name="product" unicode="∏" horiz-adv-x="717" d="M632 -230h-82v859h-383v-859h-82v930h547v-930z"/>
    <glyph glyph-name="summation" unicode="∑" horiz-adv-x="629" d="M589 -230h-567v38l325 431l-302 417v44h520v-68h-414l284 -391l-303 -403h457v-68z"/>
    <glyph glyph-name="minus" unicode="−" d="M50 358h428q9 0 11.5 -2.5t2.5 -11.5v-47q0 -8 -3 -11t-11 -3h-428q-9 0 -11.5 2.5t-2.5 11.5v47q0 9 2.5 11.5t11.5 2.5z"/>
    <glyph glyph-name="uni2215" unicode="∕" horiz-adv-x="203" d="M355 653q0 -4 -5 -10l-411 -653q-5 -9 -17 -9h-42q-10 0 -10 8q0 3 4 9l411 654q6 8 16 8h43q11 0 11 -7z"/>
    <glyph glyph-name="uni2219" unicode="∙" horiz-adv-x="296" d="M219 320q0 -24 -16.5 -40.5t-39.5 -16.5q-24 0 -41 16.5t-17 40.5q0 23 16.5 39.5t40.5 16.5q23 0 40 -16.5t17 -39.5z"/>
    <glyph glyph-name="radical" unicode="√" horiz-adv-x="511" d="M326 -12h-68l-137 338l-54 -32l-27 47l119 72l132 -325l164 641h62z"/>
    <glyph glyph-name="infinity" unicode="∞" horiz-adv-x="781" d="M730 294q0 -70 -45 -117.5t-116 -47.5q-56 0 -103 30.5t-78 79.5h-2q-75 -110 -176 -110q-73 0 -119 44.5t-46 116.5q0 73 45.5 118.5t116.5 45.5q107 0 180 -110h2q28 45 73 77.5t103 32.5q72 0 118.5 -44.5t46.5 -115.5zM661 293q0 44 -25 72.5t-74 28.5 q-77 0 -142 -102q59 -103 142 -103q48 0 73.5 30t25.5 74zM355 292q-28 46 -66 74t-77 28q-48 0 -73 -29.5t-25 -74.5q0 -44 27.5 -72.5t70.5 -28.5q79 0 143 103z"/>
    <glyph glyph-name="integral" unicode="∫" horiz-adv-x="490" d="M408 675q-22 9 -45 9q-82 0 -82 -99v-644q0 -79 -40 -123.5t-113 -44.5q-45 0 -71 11l16 62q22 -9 45 -9q82 0 82 99v644q0 78 40.5 123.5t114.5 45.5q44 0 70 -13q-2 -8 -8 -29z"/>
    <glyph glyph-name="approxequal" unicode="≈" d="M473 420q-53 -83 -124 -83q-53 0 -101 31q-49 30 -83 30q-44 0 -78 -63l-49 55q52 83 126 83q49 0 98 -30q50 -31 84 -31q43 0 79 63zM473 200q-53 -83 -124 -83q-53 0 -101 31q-47 31 -83 31q-43 0 -78 -64l-49 56q53 83 126 83q47 0 98 -31q50 -31 84 -31q42 0 79 63z "/>
    <glyph glyph-name="notequal" unicode="≠" d="M457 148h-222l-52 -118h-80l52 118h-91v75h123l64 145h-187v75h220l55 127h80l-56 -127h94v-75h-126l-64 -145h190v-75z"/>
    <glyph glyph-name="lessequal" unicode="≤" d="M447 0h-393v75h393v-75zM447 137l-393 185v60l393 186v-80l-295 -135v-2l295 -135v-79z"/>
    <glyph glyph-name="greaterequal" unicode="≥" d="M457 0h-393v75h393v-75zM457 323l-393 -186v81l294 134v2l-294 135v79l393 -185v-60z"/>
    <glyph glyph-name="lozenge" unicode="◊" horiz-adv-x="558" d="M496 350l-203 -350h-42l-203 349l203 351h42zM428 350l-156 269l-156 -269l156 -269z"/>
    <glyph glyph-name="zero.fitted" unicode="" d="M485 469q0 -89 -25.5 -186.5t-68.5 -169.5q-74 -125 -198 -125q-150 0 -150 189q0 89 25.5 185.5t68.5 170.5q73 125 201 125q147 0 147 -189zM409 475q0 114 -90 114q-83 0 -134 -111q-26 -57 -46 -149t-20 -156q0 -116 90 -116q83 0 134 111q27 57 46.5 149t19.5 158z "/>
    <glyph glyph-name="two.fitted" unicode="" horiz-adv-x="474" d="M464 530q0 -78 -51 -142q-21 -25 -45.5 -44.5t-99.5 -71.5q-84 -57 -121.5 -98.5t-59.5 -101.5h274q10 0 10 -8q0 -5 -1 -7l-9 -45q-3 -12 -15 -12h-339q-8 0 -8 7q0 13 11.5 50.5t22.5 61.5q27 58 66.5 101t125.5 105q99 73 128 107q30 38 30 86q0 34 -20 52.5t-57 18.5 q-42 0 -70 -20.5t-62 -76.5q-8 -13 -13 -13q-2 0 -6 2l-43 14q-7 2 -7 7q0 4 9 22q32 64 84.5 99t116.5 35q69 0 109 -34.5t40 -93.5z"/>
    <glyph glyph-name="three.fitted" unicode="" horiz-adv-x="455" d="M437 534q0 -62 -35.5 -110.5t-100.5 -74.5q49 -21 69.5 -50t20.5 -77q0 -99 -72 -166.5t-178 -67.5q-46 0 -97 15t-51 29l1 7l24 48q2 5 8 5q3 0 14 -6q56 -30 112 -30q70 0 115.5 45t45.5 114q0 94 -123 94h-35q-10 0 -10 8q0 5 1 7l8 39q2 12 15 12h36q65 0 111 42.5 t46 103.5q0 35 -21 54t-60 19q-30 0 -54.5 -12t-61.5 -44q-12 -10 -16 -10t-6 2l-30 32q-2 2 -2 6t11 17q33 34 79 54t92 20q65 0 104.5 -34.5t39.5 -90.5z"/>
    <glyph glyph-name="four.fitted" unicode="" horiz-adv-x="506" d="M453 217q0 -4 -1 -7l-9 -42q-3 -12 -14 -12h-82l-30 -144q-2 -12 -15 -12h-47q-11 0 -11 8q0 2 1 7l30 141h-257q-10 0 -10 9q0 2 1 6l9 44q3 9 3 10q4 5 6 8l345 424q6 7 9 7q6 0 8 -1l49 -11q7 -2 7 -6q0 -5 -2 -7l-341 -414h188l46 159q3 11 15 11h35q10 0 10 -8 q0 -5 -1 -7l-33 -155h81q10 0 10 -8z"/>
    <glyph glyph-name="five.fitted" unicode="" horiz-adv-x="480" d="M465 638q0 -3 -1 -7l-9 -42q-3 -12 -15 -12h-210l-67 -207q60 41 116 41q66 0 105 -40t39 -108q0 -60 -25.5 -117.5t-69.5 -98.5q-63 -59 -171 -59q-46 0 -91.5 10.5t-45.5 21.5q0 1 2 9l12 40q3 10 12 10q5 0 22 -5q55 -17 100 -17q78 0 130.5 56.5t52.5 140.5 q0 44 -23 68t-64 24q-71 0 -124 -53q-12 -12 -17 -12q-4 0 -6 1l-32 11q-11 4 -11 9q0 2 2 8l101 325q4 11 15 11h263q10 0 10 -8z"/>
    <glyph glyph-name="six.fitted" unicode="" horiz-adv-x="481" d="M501 640q0 -4 -1 -4l-23 -50q-2 -4 -7 -4q-3 0 -12 3q-27 9 -54 9q-81 0 -146 -71q-56 -60 -87 -148q62 65 135 65q61 0 96 -41t35 -114q0 -124 -69 -210.5t-169 -86.5q-72 0 -111 45t-39 129q0 91 32.5 189t88.5 176q96 132 240 132q34 0 63 -6t28 -13zM360 282 q0 93 -85 93q-37 0 -70 -22.5t-50 -60.5q-28 -63 -28 -139q0 -100 83 -100q73 0 118 92q32 66 32 137z"/>
    <glyph glyph-name="seven.fitted" unicode="" horiz-adv-x="421" d="M472 637q0 -1 -1 -6l-4 -16q-1 -9 -7 -19l-351 -598q-5 -8 -12 -8h-8l-55 9q-7 2 -7 8q0 2 4 9l337 558h-263q-10 0 -10 8q0 6 1 7l9 45q3 12 15 12h342q10 0 10 -9z"/>
    <glyph glyph-name="eight.fitted" unicode="" horiz-adv-x="508" d="M487 529q0 -119 -148 -186q109 -51 109 -153q0 -82 -63 -142q-64 -60 -169 -60q-89 0 -139 40t-50 112q0 95 87 157q32 23 99 46q-89 54 -89 139q0 79 55 127.5t146 48.5q79 0 120.5 -33t41.5 -96zM415 515q0 78 -94 78q-55 0 -87.5 -28.5t-32.5 -75.5q0 -34 15.5 -56.5 t65.5 -58.5q70 31 101.5 64.5t31.5 76.5zM370 183q0 59 -44 90q-16 12 -59 32q-85 -27 -123.5 -64.5t-38.5 -91.5q0 -45 31 -70.5t85 -25.5q66 0 107.5 36t41.5 94z"/>
    <glyph glyph-name="nine.fitted" unicode="" horiz-adv-x="478" d="M456 499q0 -119 -43.5 -239.5t-113.5 -193.5q-75 -78 -186 -78q-84 0 -84 19q0 5 1 9l9 39q1 9 9 9q6 0 14 -2q24 -5 48 -5q82 0 144 63q32 33 51 68t44 107q-60 -85 -147 -85q-58 0 -94 45t-36 118q0 123 69 206q66 79 169 79q71 0 108.5 -40.5t37.5 -118.5zM378 506 q0 42 -20.5 64.5t-58.5 22.5q-71 0 -114 -78q-35 -62 -35 -139q0 -101 79 -101q64 0 105 57q19 27 31.5 76.5t12.5 97.5z"/>
    <glyph glyph-name="zero.taboldstyle" unicode="" d="M480 410q0 -91 -27.5 -181t-73.5 -149q-73 -92 -180 -92q-155 0 -155 178q0 91 27.5 181.5t72.5 147.5q73 92 184 92q152 0 152 -177zM403 407q0 111 -89 111q-77 0 -131 -100q-62 -114 -62 -249q0 -112 88 -112q78 0 132 100q28 51 45 119.5t17 130.5z"/>
    <glyph glyph-name="one.taboldstyle" unicode="" d="M394 572q0 -5 -1 -7l-106 -499h89q8 0 8 -8q0 -6 -1 -7l-8 -39q-3 -12 -15 -12h-263q-11 0 -11 9q0 1 1 6l8 39q3 12 15 12h102l89 421l-130 -68q-8 -3 -9 -3q-3 0 -9 8l-14 21q-4 5 -4 8q0 5 8 10l183 112q8 5 19 5h40q9 0 9 -8z"/>
    <glyph glyph-name="two.taboldstyle" unicode="" d="M469 434q0 -81 -62 -132q-26 -23 -118 -72q-73 -39 -112 -74.5t-62 -83.5h267q10 0 10 -8q0 -5 -1 -7l-9 -45q-3 -12 -15 -12h-339q-8 0 -8 8q0 11 11 42t22 53q40 79 124 138q27 18 116 69q93 52 93 123q0 39 -21.5 62t-57.5 23q-71 0 -128 -98q-7 -13 -12 -13 q-2 0 -6 2l-43 14q-8 2 -8 7q0 6 9 22q31 63 84 99t114 36q68 0 110 -42.5t42 -110.5z"/>
    <glyph glyph-name="three.taboldstyle" unicode="" d="M437 461q0 -61 -35.5 -109t-100.5 -74q49 -21 69.5 -50t20.5 -77q0 -98 -72 -165t-177 -67q-47 0 -98 15.5t-51 29.5l1 6l24 48q2 5 7 5q4 0 15 -6q57 -29 114 -29q68 0 113.5 44.5t45.5 111.5q0 94 -123 94h-35q-10 0 -10 8q0 6 1 7l8 39q2 12 15 12h35q66 0 112 42 t46 102q0 73 -82 73q-29 0 -54.5 -12.5t-61.5 -43.5q-11 -10 -16 -10q-3 0 -5 2l-30 32q-3 3 -3 7t11 16q30 32 78 53t94 21q65 0 104.5 -34.5t39.5 -90.5z"/>
    <glyph glyph-name="four.taboldstyle" unicode="" d="M456 134q0 -4 -1 -7l-9 -42q-2 -12 -14 -12h-82l-30 -143q-2 -12 -15 -12h-47q-11 0 -11 8q0 2 1 7l30 140h-257q-10 0 -10 9q0 1 1 6l9 44q2 8 3 10l2 2q1 1 2 3t2 3l345 425q6 7 9 7q6 0 8 -1l49 -11q7 -2 7 -6q0 -5 -2 -7l-341 -415h188l46 160q3 11 15 11h35 q10 0 10 -8q0 -5 -1 -7l-33 -156h81q10 0 10 -8z"/>
    <glyph glyph-name="five.taboldstyle" unicode="" d="M467 572q0 -2 -1 -7l-9 -42q-3 -12 -15 -12h-210l-67 -208q63 40 116 40q65 0 104.5 -42t39.5 -112q0 -59 -26 -116t-69 -94q-69 -60 -167 -60q-43 0 -87 13t-44 26q0 5 2 11l12 35q3 11 12 11q6 0 21 -7q52 -23 92 -23q74 0 125 57.5t51 140.5q0 41 -23 66.5t-60 25.5 q-63 0 -122 -50q-12 -11 -16 -11q-6 0 -7 1l-32 11q-11 2 -11 9q0 3 2 8l101 326q4 11 15 11h263q10 0 10 -8z"/>
    <glyph glyph-name="six.taboldstyle" unicode="" d="M511 640q0 -4 -1 -4l-23 -50q-2 -4 -7 -4q-3 0 -12 3q-27 9 -54 9q-81 0 -146 -71q-56 -60 -87 -148q62 65 135 65q61 0 96 -41t35 -114q0 -124 -69 -210.5t-169 -86.5q-72 0 -111 45t-39 129q0 92 32.5 190.5t88.5 174.5q95 132 240 132q34 0 63 -6t28 -13zM370 282 q0 93 -85 93q-37 0 -70 -22.5t-50 -60.5q-28 -63 -28 -139q0 -100 83 -100q73 0 118 92q32 67 32 137z"/>
    <glyph glyph-name="seven.taboldstyle" unicode="" d="M493 574q0 -1 -1 -6l-4 -16q-1 -9 -7 -19l-351 -599q-5 -8 -12 -8q-2 0 -8 1l-55 9q-7 0 -7 7q0 3 4 10l337 558h-263q-10 0 -10 8q0 6 1 7l9 45q3 12 15 12h342q10 0 10 -9z"/>
    <glyph glyph-name="eight.taboldstyle" unicode="" d="M480 529q0 -119 -148 -186q109 -51 109 -153q0 -82 -63 -142q-64 -60 -169 -60q-89 0 -139 40t-50 112q0 95 87 157q32 23 99 46q-89 54 -89 139q0 79 55 127.5t146 48.5q79 0 120.5 -33t41.5 -96zM408 515q0 78 -94 78q-55 0 -87.5 -28.5t-32.5 -75.5q0 -34 15.5 -56.5 t65.5 -58.5q70 31 101.5 64.5t31.5 76.5zM363 183q0 59 -44 90q-16 12 -59 32q-85 -27 -123.5 -64.5t-38.5 -91.5q0 -45 31 -70.5t85 -25.5q66 0 107.5 36t41.5 94z"/>
    <glyph glyph-name="nine.taboldstyle" unicode="" d="M460 426q0 -118 -43.5 -237.5t-112.5 -191.5q-75 -78 -188 -78q-35 0 -59 5.5t-24 13.5l1 10l9 39q1 9 9 9q6 0 14 -2q24 -6 47 -6q84 0 145 64q31 32 49.5 65.5t44.5 105.5q-58 -85 -147 -85q-58 0 -93.5 45t-35.5 118q0 122 70 206q64 79 168 79q71 0 108.5 -40.5 t37.5 -119.5zM383 434q0 87 -80 87q-70 0 -114 -78q-36 -64 -36 -139q0 -49 20.5 -75t58.5 -26q66 0 107 57q19 26 31.5 76t12.5 98z"/>
    <glyph glyph-name="zero.denominator" unicode="" horiz-adv-x="334" d="M299 283q0 -54 -17 -112t-46 -101q-52 -77 -136 -77q-106 0 -106 117q0 119 63 214q48 77 138 77q104 0 104 -118zM235 287q0 61 -53 61q-48 0 -82 -62q-16 -33 -29 -87t-13 -91q0 -63 52 -63q51 0 82 63q18 32 30.5 86t12.5 93z"/>
    <glyph glyph-name="one.denominator" unicode="" horiz-adv-x="334" d="M234 383q0 -4 -1 -6l-77 -326h51q11 0 11 -9q0 -2 -2 -12l-4 -18q-2 -7 -4.5 -9.5t-11.5 -2.5h-174q-14 0 -14 11q0 3 2 11l4 16q3 13 17 13h61l66 275l-84 -41q-7 -4 -12 -4t-9 5l-9 14q-4 8 -4 10q0 4 4 7l135 73q7 4 15 4h27q13 0 13 -11z"/>
    <glyph glyph-name="two.denominator" unicode="" horiz-adv-x="334" d="M49 54h174q11 0 11 -9q0 -2 -2 -12l-5 -21q-2 -7 -4.5 -9.5t-11.5 -2.5h-224q-13 0 -13 10q0 16 23 70q31 57 129 123q64 41 84 62q17 22 17 48q0 35 -43 35q-25 0 -42.5 -11.5t-38.5 -42.5q-9 -11 -15 -11q-4 0 -7 1l-28 9q-8 2 -8 10q0 5 6 16q23 39 59.5 60.5 t79.5 21.5q49 0 77 -21.5t28 -59.5q0 -47 -35 -89q-19 -20 -97 -69q-51 -31 -75.5 -54t-38.5 -54z"/>
    <glyph glyph-name="three.denominator" unicode="" horiz-adv-x="334" d="M277 321q0 -73 -79 -109q49 -24 49 -74q0 -61 -49.5 -103t-122.5 -42q-33 0 -69 11t-36 21l1 4l16 31q4 6 12 6q4 0 12 -4q34 -17 71 -17q43 0 71 25t28 63q0 50 -74 50h-23q-13 0 -13 11v6l6 22v-1q3 13 17 13h23q40 0 68 23t28 57q0 37 -46 37q-30 0 -73 -31h1 q-7 -7 -15 -7q-6 0 -9 3l-20 18q-3 3 -3 8t9 14q52 45 118 45q46 0 74 -21.5t28 -58.5z"/>
    <glyph glyph-name="four.denominator" unicode="" horiz-adv-x="334" d="M277 135l-2 -13l-3 -14q-4 -16 -17 -16h-48l-19 -80q-3 -12 -17 -12h-31q-14 0 -14 11q0 4 2 10l18 71h-163q-13 0 -13 11q0 2 2 10l5 21q2 8 6 12l229 252q6 7 13 7l11 -2l25 -6q11 -3 11 -9q0 -5 -8 -15l-211 -228h104l30 90q3 11 17 11h22q14 0 14 -10q0 -3 -2 -11 l-19 -80h46q12 0 12 -10z"/>
    <glyph glyph-name="five.denominator" unicode="" horiz-adv-x="334" d="M292 384q0 -3 -2 -11l-5 -20q-3 -12 -16 -12h-133l-36 -101q29 15 63 15q47 0 74.5 -25.5t27.5 -68.5q0 -35 -18 -71t-48 -61q-45 -36 -117 -36q-32 0 -64.5 8.5t-32.5 16.5q0 4 3 12l6 19q4 11 12 11q4 0 19 -4q36 -11 65 -11q49 0 81.5 31.5t32.5 79.5t-51 48 q-45 0 -77 -29q-11 -9 -17 -9q-3 0 -9 2l-17 5q-13 4 -13 10q0 3 3 12l67 188q4 11 16 11h173q13 0 13 -10z"/>
    <glyph glyph-name="six.denominator" unicode="" horiz-adv-x="334" d="M321 383l-16 -34q-3 -5 -11 -5q-2 0 -10 2q-20 5 -33 5q-52 0 -92 -39q-29 -29 -46 -62q32 22 73 22q44 0 68.5 -26t24.5 -72q0 -75 -47.5 -128t-116.5 -53q-51 0 -78.5 28t-27.5 80q0 53 22.5 113.5t59.5 106.5q65 80 163 80q23 0 45 -6t22 -11v-1zM214 173q0 49 -49 49 q-50 0 -73 -46q-17 -34 -17 -80q0 -53 48 -53q44 0 71 51q20 38 20 79z"/>
    <glyph glyph-name="seven.denominator" unicode="" horiz-adv-x="334" d="M317 380q0 -12 -8 -25l-233 -353q-5 -8 -13 -8h-7l-4 1l-33 4q-9 1 -9 9q0 6 4 11l215 320h-161q-13 0 -13 10q0 5 2 13l5 22q3 10 16 10h226q13 0 13 -14z"/>
    <glyph glyph-name="eight.denominator" unicode="" horiz-adv-x="334" d="M298 319q0 -69 -88 -111q62 -31 62 -90t-48 -92t-113 -33q-62 0 -96.5 25t-34.5 70q0 82 115 122q-50 31 -50 81t38 80t101 30q114 0 114 -82zM207 114q0 29 -27 48q-9 6 -35 17q-52 -15 -75.5 -35.5t-23.5 -49.5q0 -24 18 -37.5t51 -13.5q40 0 66 20t26 51zM236 311 q0 40 -55 40q-33 0 -52.5 -15.5t-19.5 -40.5q0 -18 8.5 -29.5t38.5 -31.5q43 18 61.5 35.5t18.5 41.5z"/>
    <glyph glyph-name="nine.denominator" unicode="" horiz-adv-x="334" d="M-14 11l9 34q1 5 8 5q5 0 13 -2q20 -5 33 -5q46 0 86 39q29 29 46 62q-32 -22 -73 -22q-44 0 -68.5 26t-24.5 72q0 75 47.5 128t116.5 53q51 0 78.5 -28t27.5 -80q0 -53 -22.5 -113.5t-59.5 -106.5q-65 -80 -157 -80q-24 0 -42 5.5t-18 11.5v1zM80 221q0 -49 49 -49 q50 0 73 46q17 34 17 80q0 53 -48 53q-44 0 -71 -51q-20 -38 -20 -79z"/>
    <glyph glyph-name="zero.numerator" unicode="" horiz-adv-x="334" d="M359 527q0 -54 -17 -112t-46 -101q-52 -77 -136 -77q-106 0 -106 117q0 119 63 214q48 77 138 77q104 0 104 -118zM295 531q0 61 -53 61q-48 0 -82 -62q-16 -33 -29 -87t-13 -91q0 -63 52 -63q51 0 82 63q18 32 30.5 86t12.5 93z"/>
    <glyph glyph-name="one.numerator" unicode="" horiz-adv-x="334" d="M294 627q0 -4 -1 -6l-77 -326h51q11 0 11 -9q0 -2 -2 -12l-4 -18q-2 -7 -4.5 -9.5t-11.5 -2.5h-174q-14 0 -14 11q0 3 2 11l4 16q3 13 17 13h61l66 275l-84 -41q-7 -4 -12 -4t-9 5l-9 14q-4 8 -4 10q0 4 4 7l135 73q7 4 15 4h27q13 0 13 -11z"/>
    <glyph glyph-name="two.numerator" unicode="" horiz-adv-x="334" d="M109 298h174q11 0 11 -9q0 -2 -2 -12l-5 -21q-2 -7 -4.5 -9.5t-11.5 -2.5h-224q-13 0 -13 10q0 16 23 70q31 57 129 123q64 41 84 62q17 22 17 48q0 35 -43 35q-25 0 -42.5 -11.5t-38.5 -42.5q-9 -11 -15 -11q-4 0 -7 1l-28 9q-8 2 -8 10q0 5 6 16q23 39 59.5 60.5 t79.5 21.5q49 0 77 -21.5t28 -59.5q0 -47 -35 -89q-19 -20 -97 -69q-51 -31 -75.5 -54t-38.5 -54z"/>
    <glyph glyph-name="three.numerator" unicode="" horiz-adv-x="334" d="M337 565q0 -73 -79 -109q49 -24 49 -74q0 -61 -49.5 -103t-122.5 -42q-33 0 -69 11t-36 21l1 4l16 31q4 6 12 6q4 0 12 -4q34 -17 71 -17q43 0 71 25t28 63q0 50 -74 50h-23q-13 0 -13 11v6l6 22v-1q3 13 17 13h23q40 0 68 23t28 57q0 37 -46 37q-30 0 -73 -31h1 q-7 -7 -15 -7q-6 0 -9 3l-20 18q-3 3 -3 8t9 14q52 45 118 45q46 0 74 -21.5t28 -58.5z"/>
    <glyph glyph-name="four.numerator" unicode="" horiz-adv-x="334" d="M337 379l-2 -13l-3 -14q-4 -16 -17 -16h-48l-19 -80q-3 -12 -17 -12h-31q-14 0 -14 11q0 4 2 10l18 71h-163q-13 0 -13 11q0 2 2 10l5 21q2 8 6 12l229 252q6 7 13 7l11 -2l25 -6q11 -3 11 -9q0 -5 -8 -15l-211 -228h104l30 90q3 11 17 11h22q14 0 14 -10q0 -3 -2 -11 l-19 -80h46q12 0 12 -10z"/>
    <glyph glyph-name="five.numerator" unicode="" horiz-adv-x="334" d="M352 628q0 -3 -2 -11l-5 -20q-3 -12 -16 -12h-133l-36 -101q29 15 63 15q47 0 74.5 -25.5t27.5 -68.5q0 -35 -18 -71t-48 -61q-45 -36 -117 -36q-32 0 -64.5 8.5t-32.5 16.5q0 4 3 12l6 19q4 11 12 11q4 0 19 -4q36 -11 65 -11q49 0 81.5 31.5t32.5 79.5t-51 48 q-45 0 -77 -29q-11 -9 -17 -9q-3 0 -9 2l-17 5q-13 4 -13 10q0 3 3 12l67 188q4 11 16 11h173q13 0 13 -10z"/>
    <glyph glyph-name="six.numerator" unicode="" horiz-adv-x="334" d="M381 627l-16 -34q-3 -5 -11 -5q-2 0 -10 2q-20 5 -33 5q-52 0 -92 -39q-29 -29 -46 -62q32 22 73 22q44 0 68.5 -26t24.5 -72q0 -75 -47.5 -128t-116.5 -53q-51 0 -78.5 28t-27.5 80q0 53 22.5 113.5t59.5 106.5q65 80 163 80q23 0 45 -6t22 -11v-1zM274 417q0 49 -49 49 q-50 0 -73 -46q-17 -34 -17 -80q0 -53 48 -53q44 0 71 51q20 38 20 79z"/>
    <glyph glyph-name="seven.numerator" unicode="" horiz-adv-x="334" d="M377 624q0 -12 -8 -25l-233 -353q-5 -8 -13 -8h-7l-4 1l-33 4q-9 1 -9 9q0 6 4 11l215 320h-161q-13 0 -13 10q0 5 2 13l5 22q3 10 16 10h226q13 0 13 -14z"/>
    <glyph glyph-name="eight.numerator" unicode="" horiz-adv-x="334" d="M358 563q0 -69 -88 -111q62 -31 62 -90t-48 -92t-113 -33q-62 0 -96.5 25t-34.5 70q0 82 115 122q-50 31 -50 81t38 80t101 30q114 0 114 -82zM267 358q0 29 -27 48q-9 6 -35 17q-52 -15 -75.5 -35.5t-23.5 -49.5q0 -24 18 -37.5t51 -13.5q40 0 66 20t26 51zM296 555 q0 40 -55 40q-33 0 -52.5 -15.5t-19.5 -40.5q0 -18 8.5 -29.5t38.5 -31.5q43 18 61.5 35.5t18.5 41.5z"/>
    <glyph glyph-name="nine.numerator" unicode="" horiz-adv-x="334" d="M46 255l9 34q1 5 8 5q5 0 13 -2q20 -5 33 -5q46 0 86 39q29 29 46 62q-32 -22 -73 -22q-44 0 -68.5 26t-24.5 72q0 75 47.5 128t116.5 53q51 0 78.5 -28t27.5 -80q0 -53 -22.5 -113.5t-59.5 -106.5q-65 -80 -157 -80q-24 0 -42 5.5t-18 11.5v1zM140 465q0 -49 49 -49 q50 0 73 46q17 34 17 80q0 53 -48 53q-44 0 -71 -51q-20 -38 -20 -79z"/>
    <glyph glyph-name="guillemotleft.cap" unicode="" horiz-adv-x="518" d="M536 552q0 -3 -5 -8l-177 -195l85 -188q3 -6 3 -9q0 -5 -9 -9l-28 -13q-9 -4 -10 -4q-4 0 -6 6l-124 212q-4 6 -4 9t6 9l216 215q5 5 9 5t8 -3l30 -19q6 -4 6 -8zM350 552q0 -4 -4 -8l-177 -195l85 -188q3 -8 3 -9q0 -4 -10 -9l-27 -13q-9 -4 -10 -4q-3 0 -7 6l-123 212 q-4 7 -4 9q0 3 6 9l216 215q5 5 9 5q3 0 8 -3l30 -19q5 -3 5 -8z"/>
    <glyph glyph-name="guillemotright.cap" unicode="" horiz-adv-x="518" d="M485 356q0 -3 -7 -10l-216 -215q-5 -5 -8 -5q-2 0 -8 4l-30 18q-6 4 -6 8q0 3 5 8l176 195l-84 188q-4 7 -4 9q0 4 10 9l28 14q8 3 9 3q4 0 7 -5l124 -212q4 -7 4 -9zM299 356q0 -4 -6 -10l-216 -215q-5 -5 -9 -5q-2 0 -7 4l-30 18q-6 4 -6 8t4 8l177 195l-85 188 q-3 6 -3 9q0 4 10 9l28 14q8 3 9 3q5 0 7 -5l123 -212q4 -5 4 -9z"/>
    <glyph glyph-name="guilsinglleft.cap" unicode="" horiz-adv-x="333" d="M351 552q0 -4 -4 -8l-177 -195l85 -188q3 -8 3 -9q0 -4 -10 -9l-27 -13q-9 -4 -10 -4q-3 0 -7 6l-123 212q-4 7 -4 9q0 3 6 9l216 215q5 5 9 5t8 -3l30 -19q5 -3 5 -8z"/>
    <glyph glyph-name="guilsinglright.cap" unicode="" horiz-adv-x="333" d="M299 356q0 -4 -6 -10l-216 -215q-5 -5 -9 -5q-2 0 -7 4l-30 18q-6 4 -6 8t4 8l177 195l-85 188q-3 6 -3 9q0 4 10 9l28 14q8 3 9 3q5 0 7 -5l123 -212q4 -5 4 -9z"/>
    <glyph glyph-name="at.cap" unicode="" horiz-adv-x="945" d="M896 459q0 -91 -38 -166t-106 -118q-51 -32 -103 -32q-39 0 -61 23.5t-24 66.5q-61 -89 -138 -89q-40 0 -63 30.5t-23 82.5q0 108 57 194q49 73 122 73q27 0 44 -8.5t37 -31.5l10 24q3 6 10 6h45q6 0 6 -4v-3l-1 -3l-49 -230q-2 -12 -2 -28q0 -48 40 -48q69 0 120.5 77.5 t51.5 181.5q0 100 -57 160q-76 78 -212 78q-171 0 -288 -120.5t-117 -296.5q0 -141 79 -222q77 -80 232 -80q165 0 297 72q12 6 16 6q6 0 10 -8l12 -29q2 -6 2 -8q0 -9 -17 -18q-67 -34 -156 -53.5t-173 -19.5q-177 0 -274 97q-97 99 -97 259q0 94 38 187t103 158 q64 64 151 99t181 35q165 0 260 -92q75 -72 75 -202zM586 432q-36 33 -71 33q-44 0 -74 -70q-29 -68 -29 -134q0 -55 35 -55q39 0 73 41t48 103z"/>
    <glyph glyph-name="braceleft.cap" unicode="" horiz-adv-x="463" d="M520 797q0 -2 -2 -7l-7 -35q-2 -12 -14 -12h-29q-45 0 -69.5 -21t-34.5 -68l-37 -179q-18 -90 -98 -121q28 -16 39.5 -33.5t11.5 -44.5q0 -18 -5 -41l-42 -199q-3 -10 -3 -35q0 -29 16 -41.5t53 -12.5h28q10 0 10 -8q0 -2 -1 -7l-7 -35q-3 -12 -15 -12h-19 q-141 0 -141 104q0 24 5 47l42 199q4 16 4 32q0 57 -71 57h-22q-10 0 -10 9q0 1 1 6l7 35q3 12 15 12h22q47 0 71.5 21t34.5 68l37 179q16 80 64 116q26 20 55 27.5t82 7.5h19q10 0 10 -8z"/>
    <glyph glyph-name="braceright.cap" unicode="" horiz-adv-x="463" d="M404 358q0 -2 -2 -7l-7 -35q-2 -12 -15 -12h-21q-46 0 -70.5 -21t-35.5 -69l-38 -178q-17 -80 -63 -115q-27 -21 -56 -28.5t-81 -7.5h-19q-10 0 -10 8q0 2 1 7l7 35q3 12 15 12h28q45 0 69.5 21t34.5 68l38 178q10 49 33 77t64 45q-28 17 -39 34.5t-11 45.5q0 23 4 39 l43 199q3 14 3 34q0 30 -15.5 42.5t-53.5 12.5h-28q-10 0 -10 8q0 6 1 7l7 35q3 12 15 12h18q73 0 107.5 -25.5t34.5 -79.5q0 -24 -5 -46l-43 -199q-3 -13 -3 -32q0 -57 71 -57h21q11 0 11 -8z"/>
    <glyph glyph-name="bracketleft.cap" unicode="" horiz-adv-x="426" d="M471 797q0 -6 -1 -7l-7 -35q-2 -12 -15 -12h-109l-170 -796h110q10 0 10 -9q0 -2 -1 -6l-8 -35q-1 -12 -14 -12h-173q-10 0 -10 9q0 2 1 6l190 893q3 12 15 12h172q10 0 10 -8z"/>
    <glyph glyph-name="bracketright.cap" unicode="" horiz-adv-x="426" d="M385 797q0 -5 -1 -7l-190 -893q-3 -12 -15 -12h-172q-10 0 -10 8q0 2 1 7l8 35q2 12 14 12h109l170 796h-109q-10 0 -10 9q0 4 1 6l7 35q2 12 15 12h172q10 0 10 -8z"/>
    <glyph glyph-name="emdash.cap" unicode="" horiz-adv-x="648" d="M647 377q0 -2 -2 -7l-7 -35q-2 -12 -15 -12h-570q-10 0 -10 9q0 1 1 6l7 35q3 12 15 12h570q11 0 11 -8z"/>
    <glyph glyph-name="endash.cap" unicode="" horiz-adv-x="407" d="M405 379q0 -5 -1 -7l-8 -39q-2 -12 -15 -12h-326q-10 0 -10 9q0 1 1 6l8 39q2 12 15 12h326q10 0 10 -8z"/>
    <glyph glyph-name="hyphen.cap" unicode="" horiz-adv-x="297" d="M290 383q0 -3 -1 -7l-10 -48q-2 -12 -15 -12h-206q-10 0 -10 9q0 1 1 6l10 48q2 12 15 12h206q10 0 10 -8z"/>
    <glyph glyph-name="parenleft.cap" unicode="" horiz-adv-x="426" d="M476 789q0 -5 -13 -19q-256 -274 -256 -580q0 -73 18.5 -149.5t50.5 -134.5q5 -10 5 -15q0 -6 -10 -13l-29 -15q-6 -3 -9 -3q-8 0 -18 18q-89 158 -89 319q0 152 68 302.5t193 276.5q32 33 38.5 38.5t10.5 5.5t9 -3l26 -19q5 -3 5 -9z"/>
    <glyph glyph-name="parenright.cap" unicode="" horiz-adv-x="426" d="M341 484q0 -152 -68 -303t-193 -277q-32 -33 -38 -38.5t-11 -5.5t-8 3l-27 19q-5 3 -5 9q0 5 13 19q256 278 256 580q0 154 -68 284q-6 11 -6 14q0 7 10 14l30 15q4 3 9 3t17 -18q23 -40 50 -108q39 -99 39 -210z"/>
    <glyph glyph-name="exclamdown.cap" unicode="" horiz-adv-x="333" d="M57 7l1 9l106 394q2 8 4.5 9.5t10.5 1.5h31q10 0 10 -8q0 -2 -1 -4v-3l-62 -394q-2 -12 -14 -12h-76q-10 0 -10 7zM170 631q0 28 19.5 47.5t47.5 19.5t47.5 -19.5t19.5 -46.5q0 -29 -20 -48.5t-49 -19.5q-26 0 -45.5 20t-19.5 47z"/>
    <glyph glyph-name="questiondown.cap" unicode="" horiz-adv-x="463" d="M40 115q0 48 25 91.5t68 71.5q29 19 99 37l20 92q3 12 15 12h43q10 0 10 -9q0 -5 -1 -6l-26 -122q-2 -10 -7.5 -14t-28.5 -10q-73 -20 -101 -46q-35 -33 -35 -83q0 -71 87 -71q46 0 100 19q16 5 18 5q7 0 9 -7l10 -34q2 -5 2 -7q0 -14 -53.5 -29.5t-101.5 -15.5 q-70 0 -111 34t-41 92zM264 629q0 28 19.5 47.5t47.5 19.5t47.5 -19.5t19.5 -46.5q0 -29 -20 -48.5t-49 -19.5q-26 0 -45.5 20t-19.5 47z"/>
    <glyph glyph-name="commaaccent" unicode="" horiz-adv-x="508" d="M284 -75l-111 -152q-12 -15 -21 -15q-5 0 -11 3q-14 4 -14 12q0 5 5 15l71 145q9 17 26 17h45q19 0 19 -8q0 -4 -9 -17z"/>
    <glyph glyph-name="one.fitted" unicode="" horiz-adv-x="400" d="M352 638q0 -6 -1 -7l-120 -565h89q8 0 8 -10q0 -4 -1 -5l-8 -39q-3 -12 -15 -12h-263q-11 0 -11 9q0 1 1 6l8 39q3 12 15 12h102l105 494l-148 -82q-3 -3 -8 -3t-10 8l-13 21q-3 5 -3 7q0 5 7 9l198 121q8 5 18 5h41q9 0 9 -8z"/>
    <glyph glyph-name="zero.oldstyle" unicode="" horiz-adv-x="509" d="M480 410q0 -91 -27.5 -181t-73.5 -149q-73 -92 -180 -92q-155 0 -155 178q0 91 27.5 181.5t72.5 147.5q73 92 184 92q152 0 152 -177zM403 407q0 111 -89 111q-77 0 -131 -100q-62 -114 -62 -249q0 -112 88 -112q78 0 132 100q28 51 45 119.5t17 130.5z"/>
    <glyph glyph-name="one.oldstyle" unicode="" horiz-adv-x="398" d="M328 572q0 -5 -1 -7l-106 -499h109q8 0 8 -8q0 -6 -1 -7l-8 -39q-3 -12 -15 -12h-283q-11 0 -11 9q0 1 1 6l8 39q3 12 15 12h102l89 421l-130 -68q-7 -3 -9 -3q-3 0 -9 8l-14 21q-4 5 -4 8q0 5 8 10l183 112q8 5 19 5h40q9 0 9 -8z"/>
    <glyph glyph-name="two.oldstyle" unicode="" horiz-adv-x="485" d="M454 434q0 -81 -62 -132q-26 -23 -118 -72q-73 -39 -112 -74.5t-62 -83.5h267q10 0 10 -8q0 -5 -1 -7l-9 -45q-3 -12 -15 -12h-339q-8 0 -8 8q0 11 11 42t22 53q40 79 124 138q27 18 116 69q93 52 93 123q0 39 -21.5 62t-57.5 23q-71 0 -128 -98q-7 -13 -12 -13 q-2 0 -6 2l-43 14q-8 2 -8 7q0 6 9 22q31 63 84 99t114 36q68 0 110 -42.5t42 -110.5z"/>
    <glyph glyph-name="three.oldstyle" unicode="" horiz-adv-x="467" d="M424 461q0 -61 -35.5 -109t-100.5 -74q49 -21 69.5 -50t20.5 -77q0 -98 -72 -165t-177 -67q-47 0 -98 15.5t-51 29.5l1 6l24 48q2 5 7 5q4 0 15 -6q57 -29 114 -29q68 0 113.5 44.5t45.5 111.5q0 94 -123 94h-35q-10 0 -10 8q0 6 1 7l8 39q2 12 15 12h35q66 0 112 42 t46 102q0 73 -82 73q-29 0 -54.5 -12.5t-61.5 -43.5q-11 -10 -16 -10q-3 0 -5 2l-30 32q-3 3 -3 7t11 16q30 32 78 53t94 21q65 0 104.5 -34.5t39.5 -90.5z"/>
    <glyph glyph-name="four.oldstyle" unicode="" horiz-adv-x="489" d="M440 134q0 -4 -1 -7l-9 -42q-2 -12 -14 -12h-82l-30 -143q-2 -12 -15 -12h-47q-11 0 -11 8q0 2 1 7l30 140h-257q-10 0 -10 9q0 1 1 6l9 44q2 8 3 10l2 2q1 1 2 3t2 3l345 425q6 7 9 7q6 0 8 -1l49 -11q7 -2 7 -6q0 -5 -2 -7l-341 -415h188l46 160q3 11 15 11h35 q10 0 10 -8q0 -5 -1 -7l-33 -156h81q10 0 10 -8z"/>
    <glyph glyph-name="five.oldstyle" unicode="" horiz-adv-x="475" d="M457 572q0 -2 -1 -7l-9 -42q-3 -12 -15 -12h-210l-67 -208q63 40 116 40q65 0 104.5 -42t39.5 -112q0 -59 -26 -116t-69 -94q-69 -60 -167 -60q-43 0 -87 13t-44 26q0 5 2 11l12 35q3 11 12 11q6 0 21 -7q52 -23 92 -23q74 0 125 57.5t51 140.5q0 41 -23 66.5t-60 25.5 q-63 0 -122 -50q-12 -11 -16 -11q-6 0 -7 1l-32 11q-11 2 -11 9q0 3 2 8l101 326q4 11 15 11h263q10 0 10 -8z"/>
    <glyph glyph-name="six.oldstyle" unicode="" horiz-adv-x="490" d="M501 640q0 -4 -1 -4l-23 -50q-2 -4 -7 -4q-3 0 -12 3q-27 9 -54 9q-81 0 -146 -71q-56 -60 -87 -148q62 65 135 65q61 0 96 -41t35 -114q0 -124 -69 -210.5t-169 -86.5q-72 0 -111 45t-39 129q0 92 32.5 190.5t88.5 174.5q95 132 240 132q34 0 63 -6t28 -13zM360 282 q0 93 -85 93q-37 0 -70 -22.5t-50 -60.5q-28 -63 -28 -139q0 -100 83 -100q73 0 118 92q32 67 32 137z"/>
    <glyph glyph-name="seven.oldstyle" unicode="" horiz-adv-x="425" d="M455 574q0 -1 -1 -6l-4 -16q-1 -9 -7 -19l-351 -599q-5 -8 -12 -8q-2 0 -8 1l-55 9q-7 0 -7 7q0 3 4 10l337 558h-263q-10 0 -10 8q0 6 1 7l9 45q3 12 15 12h342q10 0 10 -9z"/>
    <glyph glyph-name="eight.oldstyle" unicode="" horiz-adv-x="490" d="M476 529q0 -119 -148 -186q109 -51 109 -153q0 -82 -63 -142q-64 -60 -169 -60q-89 0 -139 40t-50 112q0 95 87 157q32 23 99 46q-89 54 -89 139q0 79 55 127.5t146 48.5q79 0 120.5 -33t41.5 -96zM404 515q0 78 -94 78q-55 0 -87.5 -28.5t-32.5 -75.5q0 -34 15.5 -56.5 t65.5 -58.5q70 31 101.5 64.5t31.5 76.5zM359 183q0 59 -44 90q-16 12 -59 32q-85 -27 -123.5 -64.5t-38.5 -91.5q0 -45 31 -70.5t85 -25.5q66 0 107.5 36t41.5 94z"/>
    <glyph glyph-name="nine.oldstyle" unicode="" horiz-adv-x="490" d="M450 426q0 -118 -43.5 -237.5t-112.5 -191.5q-75 -78 -188 -78q-35 0 -59 5.5t-24 13.5l1 10l9 39q1 9 9 9q6 0 14 -2q24 -6 47 -6q84 0 145 64q31 32 49.5 65.5t44.5 105.5q-58 -85 -147 -85q-58 0 -93.5 45t-35.5 118q0 122 70 206q64 79 168 79q71 0 108.5 -40.5 t37.5 -119.5zM373 434q0 87 -80 87q-70 0 -114 -78q-36 -64 -36 -139q0 -49 20.5 -75t58.5 -26q66 0 107 57q19 26 31.5 76t12.5 98z"/>
    </font>
</defs>
</svg>
