<?xml version="1.0" encoding="UTF-8" standalone="no"?>
<!DOCTYPE svg PUBLIC "-//W3C//DTD SVG 1.1//EN" "http://www.w3.org/Graphics/SVG/1.1/DTD/svg11.dtd">
<svg>
<metadata>
Created by FontForge 20090622 at Wed Aug  5 13:01:40 2015
 By deploy user
Copyright 1997 International Typeface Corporation. All rights reserved.
</metadata>
<defs>
<font id="OfficinaSansITCPro-Medium" horiz-adv-x="359">
  <font-face font-family="OfficinaSansITCPro Medium" font-weight="500" font-stretch="normal" units-per-em="1000" panose-1="2 0 6 6 4 0 0 2 0 4" ascent="725" descent="-275" x-height="488" cap-height="686" bbox="-113 -247 1108 943" underline-thickness="50" underline-position="-50" unicode-range="U+0020-U+FB04"/>
<missing-glyph horiz-adv-x="500" d="M12 0v665h475v-665h-475zM88 618l162 -243l161 243h-323zM60 575v-484l161 242zM440 575l-162 -242l162 -242v484zM411 48l-161 242l-162 -242h323z"/>
    <glyph glyph-name="IJ" unicode="IJ" horiz-adv-x="774" d="M115 82v522h-71q-11 0 -14 3t-3 14v48q0 11 3 14t14 3h252q11 0 14.5 -3t3.5 -14v-48q0 -11 -3.5 -14t-14.5 -3h-71v-522h71q11 0 14.5 -3t3.5 -14v-48q0 -11 -3.5 -14t-14.5 -3h-252q-11 0 -14 3t-3 14v48q0 11 3 14t14 3h71zM590 603h-155q-12 0 -15 2.5t-3 13.5v50 q0 11 3.5 14t14.5 3h248q11 0 14 -3t3 -14v-439v-28q0 -57 -9 -96.5t-39 -71.5q-47 -49 -135 -49q-172 0 -177 192v11q0 7 2 9.5t9 2.5h77q10 0 10 -16v-10q0 -100 80 -100q24 0 39.5 9t22 27t8.5 34.5t2 40.5v31v387z"/>
    <glyph glyph-name="ij" unicode="ij" horiz-adv-x="556" d="M212 649q0 -30 -20.5 -50.5t-50.5 -20.5q-29 0 -50 20.5t-21 50.5q0 29 21 50t50 21t50 -21t21 -50zM196 14q0 -9 -2 -11.5t-11 -2.5h-73q-10 0 -12 2.5t-2 12.5v395h-77q-10 0 -12.5 2.5t-2.5 12.5v48q0 10 2.5 12.5t12.5 2.5h163q9 0 11.5 -2.5t2.5 -12.5v-459z M492 649q0 -30 -21 -50.5t-50 -20.5q-30 0 -50.5 20.5t-20.5 50.5q0 29 20.5 50t50.5 21q29 0 50 -21t21 -50zM476 -21q0 -69 -9 -103t-33 -58q-41 -41 -116 -41q-56 0 -106 22q-11 4 -11 10q0 3 3 10l20 58q3 6 8 6q4 0 11 -3q41 -18 70 -18q38 0 50.5 25t12.5 101v422h-80 q-9 0 -10.5 2t-1.5 13v48q0 11 2.5 13t12.5 2h165q8 0 10 -2.5t2 -12.5v-494z"/>
    <glyph glyph-name="napostrophe" unicode="'n" horiz-adv-x="549" d="M160 690l-117 -218q-5 -11 -12 -11q-3 0 -11 3l-32 10q-11 3 -11 9q0 5 3 12l60 202q4 14 18 14h90q16 0 16 -9q0 -5 -4 -12zM204 367v-353q0 -9 -2.5 -11.5t-11.5 -2.5h-73q-9 0 -11.5 2.5t-2.5 11.5v341q0 58 -19 99q-3 6 -3 10t7 8l67 30q2 1 6 1q7 0 15 -17 q12 -26 20 -51q32 25 48 36t43.5 21t57.5 10q70 0 101 -35t31 -118v-335q0 -9 -3 -11.5t-12 -2.5h-73q-9 0 -11 2t-2 12v321q0 44 -15 64t-48 20q-52 0 -109 -52z"/>
    <glyph glyph-name="f_f" unicode="ff" horiz-adv-x="568" d="M632 680l-18 -55q-3 -7 -9 -7q-4 0 -12 4q-36 17 -64 17q-35 0 -47 -18.5t-12 -73.5v-59h131q10 0 10 -7v-4l-16 -56q-3 -11 -10 -11h-115v-397q0 -9 -2 -11t-12 -2h-72q-10 0 -12 2.5t-2 11.5v396h-174v-397q0 -9 -2 -11t-12 -2h-72q-10 0 -12 2.5t-2 11.5v396h-71 q-15 0 -15 11v54q0 8 3.5 10.5t13.5 2.5h69v59q0 58 9 87.5t34 52.5q40 37 106 37q71 0 108 -25q7 -6 7 -10q0 -3 -2 -9l-18 -55q-3 -7 -9 -7q-4 0 -12 4q-36 17 -64 17q-35 0 -47 -18.5t-12 -73.5v-59h174v59q0 58 9 87.5t34 52.5q40 37 106 37q71 0 108 -25q7 -6 7 -10 q0 -3 -2 -9z"/>
    <glyph glyph-name="fi" unicode="fi" horiz-adv-x="544" d="M487 650q0 -28 -19.5 -47.5t-47.5 -19.5t-47.5 19.5t-19.5 47.5t19.5 47t47.5 19t47.5 -19t19.5 -47zM465 14q0 -9 -2 -11.5t-11 -2.5h-72q-10 0 -12 2t-2 12v396h-174v-396q0 -9 -2.5 -11.5t-11.5 -2.5h-70q-10 0 -12 2t-2 12v396h-70q-9 0 -11.5 2.5t-2.5 12.5v48 q0 10 3 12.5t13 2.5h68v58q0 58 8.5 88t31.5 53q37 37 96 37q50 0 84 -18q10 -6 10 -15q0 -4 -1 -6l-16 -51q-3 -10 -12 -10q-3 0 -7 2q-30 13 -44 13q-31 0 -41.5 -18.5t-10.5 -72.5v-60h261q8 0 10 -2.5t2 -12.5v-459z"/>
    <glyph glyph-name="fl" unicode="fl" horiz-adv-x="572" d="M583 21q2 -8 2 -10q0 -4 -8 -8q-39 -17 -85 -17q-65 0 -90.5 33.5t-25.5 97.5v574q0 13 14 16l75 16q2 0 4 0.5t3 0.5q7 0 7 -15v-591q0 -43 34 -43q19 0 36 8q5 3 10 3q7 0 8 -7zM337 477l-16 -56q-3 -11 -10 -11h-115v-397q0 -9 -2 -11t-12 -2h-72q-10 0 -12 2.5 t-2 11.5v396h-71q-15 0 -15 11v54q0 8 3.5 10.5t13.5 2.5h69v59q0 58 9 87.5t34 52.5q40 37 100 37q53 0 93 -25q6 -4 6 -9q0 -2 -2 -10l-16 -54q-3 -7 -9 -7q-5 0 -13 4q-33 16 -49 16q-32 0 -42.5 -18.5t-10.5 -73.5v-59h131q10 0 10 -7v-4z"/>
    <glyph glyph-name="f_f_i" unicode="ffi" horiz-adv-x="820" d="M763 650q0 -28 -19.5 -47.5t-47.5 -19.5t-47.5 19.5t-19.5 47.5t19.5 47t47.5 19t47.5 -19t19.5 -47zM370 488v58q0 58 8.5 88t31.5 53q37 37 96 37q50 0 84 -18q10 -6 10 -15q0 -4 -1 -6l-16 -51q-3 -10 -12 -10q-3 0 -7 2q-30 13 -44 13q-31 0 -41.5 -18.5t-10.5 -72.5 v-60h261q8 0 10 -2.5t2 -12.5v-459q0 -9 -2 -11.5t-11 -2.5h-72q-10 0 -12 2t-2 12v396h-174v-396q0 -9 -2.5 -11.5t-11.5 -2.5h-70q-10 0 -12 2t-2 12v396h-174v-397q0 -9 -2 -11t-12 -2h-72q-10 0 -12 2.5t-2 11.5v396h-71q-15 0 -15 11v54q0 8 3.5 10.5t13.5 2.5h69v59 q0 58 9 87.5t34 52.5q40 37 106 37q71 0 108 -25q7 -6 7 -10q0 -3 -2 -9l-18 -55q-3 -7 -9 -7q-4 0 -12 4q-36 17 -64 17q-35 0 -47 -18.5t-12 -73.5v-59h174z"/>
    <glyph glyph-name="f_f_l" unicode="ffl" horiz-adv-x="846" d="M857 21q2 -8 2 -10q0 -4 -8 -8q-39 -17 -85 -17q-65 0 -89.5 33t-24.5 98q0 14 -1 43t-1 42v489q0 13 14 16l75 16q2 0 4 0.5t3 0.5q7 0 7 -15v-591q0 -43 34 -43q19 0 36 8q5 3 10 3q7 0 8 -7zM370 488v59q0 58 9 87.5t34 52.5q40 37 100 37q53 0 93 -25q6 -4 6 -9 q0 -2 -2 -10l-16 -54q-3 -7 -9 -7q-5 0 -13 4q-33 16 -49 16q-32 0 -42.5 -18.5t-10.5 -73.5v-59h131q10 0 10 -7v-4l-16 -56q-3 -11 -10 -11h-115v-397q0 -9 -2 -11t-12 -2h-72q-10 0 -12 2.5t-2 11.5v396h-174v-397q0 -9 -2 -11t-12 -2h-72q-10 0 -12 2.5t-2 11.5v396h-71 q-15 0 -15 11v54q0 8 3.5 10.5t13.5 2.5h69v59q0 58 9 87.5t34 52.5q40 37 106 37q71 0 108 -25q7 -6 7 -10q0 -3 -2 -9l-18 -55q-3 -7 -9 -7q-4 0 -12 4q-36 17 -64 17q-35 0 -47 -18.5t-12 -73.5v-59h174z"/>
    <glyph glyph-name=".notdef" horiz-adv-x="500" d="M12 0v665h475v-665h-475zM88 618l162 -243l161 243h-323zM60 575v-484l161 242zM440 575l-162 -242l162 -242v484zM411 48l-161 242l-162 -242h323z"/>
    <glyph glyph-name=".null" horiz-adv-x="0"/>
    <glyph glyph-name="nonmarkingreturn" horiz-adv-x="333"/>
    <glyph glyph-name="space" unicode=" " horiz-adv-x="204"/>
    <glyph glyph-name="exclam" unicode="!" horiz-adv-x="341" d="M231 674l-22 -398q-1 -11 -4 -14t-14 -3h-44q-10 0 -13 3t-4 14l-23 398v6q0 7 3 9.5t13 2.5h91q10 0 13.5 -2.5t3.5 -10.5v-5zM248 58q0 -32 -22.5 -55.5t-54.5 -23.5t-54.5 23.5t-22.5 55.5t22.5 54.5t54.5 22.5t54.5 -22.5t22.5 -54.5z"/>
    <glyph glyph-name="quotedbl" unicode="&quot;" horiz-adv-x="372" d="M323 670l-16 -242q-1 -11 -4 -14.5t-14 -3.5h-41q-11 0 -13.5 3t-3.5 15l-16 242v4q0 12 17 12h75q10 0 13 -2t3 -9v-5zM157 670l-16 -242q-1 -11 -4 -14.5t-14 -3.5h-41q-11 0 -13 3t-3 15l-17 242v4q0 7 3.5 9.5t14.5 2.5h74q10 0 13 -2t3 -9v-5z"/>
    <glyph glyph-name="numbersign" unicode="#" horiz-adv-x="516" d="M477 395q0 -11 -3 -14t-14 -3h-61l-19 -184h53q11 0 14 -3.5t3 -14.5v-44q0 -11 -3 -14t-14 -3h-61l-19 -179q-1 -16 -18 -16h-42q-17 0 -17 11q0 4 1 7l19 177h-114l-19 -179q-1 -16 -18 -16h-41q-10 0 -13 2.5t-3 10.5v5l18 177h-49q-11 0 -14.5 3t-3.5 14v44 q0 11 3.5 14.5t14.5 3.5h58l19 184h-50q-11 0 -14.5 3t-3.5 14v47q0 11 3.5 14t14.5 3h59l19 183q1 10 4 13t13 3h42q16 0 16 -12v-6l-19 -181h114l20 183q1 10 4 13t13 3h41q17 0 17 -15v-3l-19 -181h52q11 0 14 -3t3 -14v-47zM323 378h-114l-18 -184h114z"/>
    <glyph glyph-name="dollar" unicode="$" horiz-adv-x="508" d="M453 177q0 -74 -45.5 -125.5t-120.5 -62.5v-55q0 -11 -3 -14t-14 -3h-23q-11 0 -14 3t-3 14v52q-85 5 -159 40q-14 7 -14 13q0 5 3 12l21 59q4 10 10 10t14 -5q67 -35 125 -40v223q-83 44 -106 63q-60 49 -60 128q0 72 45 118.5t121 56.5v55q0 11 3 14t14 3h23 q11 0 14 -3t3 -14v-52q77 -5 134 -36q14 -8 14 -15q0 -3 -4 -13l-21 -51q-4 -10 -11 -10q-5 0 -17 8q-44 25 -95 31v-207q40 -19 64.5 -34t50.5 -38.5t38.5 -54.5t12.5 -70zM233 394v186q-71 -14 -71 -84q0 -33 16 -56t55 -46zM355 170q0 35 -16 60t-55 49v-204 q34 8 52.5 33t18.5 62z"/>
    <glyph glyph-name="percent" unicode="%" horiz-adv-x="794" d="M757 167q0 -83 -38.5 -131t-106.5 -48q-67 0 -104 44t-37 124q0 83 39.5 131t106.5 48q65 0 102.5 -44.5t37.5 -123.5zM574 650l-278 -665q-6 -15 -20 -15h-45q-17 0 -17 9q0 6 3 13l277 664q5 13 19 13h47q17 0 17 -7q0 -4 -3 -12zM323 490q0 -84 -38 -132t-107 -48 q-67 0 -103.5 44t-36.5 125q0 83 39 131t106 48q65 0 102.5 -45t37.5 -123zM677 163q0 109 -61 109q-31 0 -47.5 -29t-16.5 -82q0 -109 60 -109q65 0 65 111zM243 484q0 110 -61 110q-30 0 -47 -29.5t-17 -81.5q0 -109 60 -109q65 0 65 110z"/>
    <glyph glyph-name="ampersand" unicode="&amp;" horiz-adv-x="609" d="M583 25l-46 -37q-7 -6 -12 -6t-12 8l-58 65q-45 -40 -88.5 -56t-101.5 -16q-99 0 -158 50t-59 135q0 66 36 109.5t103 85.5q-51 60 -70 97.5t-19 75.5q0 71 53.5 118.5t133.5 47.5q74 0 119.5 -42.5t45.5 -111.5q0 -61 -34.5 -104t-97.5 -88l136 -157q7 12 12 27.5 t7.5 26.5t6.5 33.5t6 31.5q0 2 0.5 8t2 7.5t6.5 1.5h6l62 -10q11 -1 11 -16q0 -39 -17 -90t-42 -89l67 -81q8 -10 8 -14t-7 -10zM353 541q0 37 -20.5 58.5t-55.5 21.5t-58.5 -22.5t-23.5 -56.5q0 -9 1 -17t4.5 -17l6 -15t8.5 -15.5t8.5 -14t10.5 -14l10.5 -12.5l11.5 -13.5 t11 -12.5q47 37 66.5 66t19.5 64zM396 122l-157 185q-46 -34 -64.5 -63t-18.5 -66q0 -49 33 -80t84 -31q68 0 123 55z"/>
    <glyph glyph-name="quotesingle" unicode="'" horiz-adv-x="206" d="M157 670l-16 -242q-1 -11 -4 -14.5t-14 -3.5h-41q-11 0 -13 3t-3 15l-17 242v4q0 7 3.5 9.5t14.5 2.5h74q10 0 13 -2t3 -9v-5z"/>
    <glyph glyph-name="parenleft" unicode="(" horiz-adv-x="405" d="M357 -215l-46 -30q-4 -2 -6 -2q-9 0 -18 11q-188 227 -188 483q0 249 189 483q9 11 15 11q2 0 8 -2l43 -24q7 -4 7 -12q0 -6 -4 -12q-83 -124 -117 -214.5t-34 -229.5q0 -233 146 -436q9 -13 9 -19q0 -4 -4 -7z"/>
    <glyph glyph-name="parenright" unicode=")" horiz-adv-x="405" d="M308 247q0 -253 -190 -483q-9 -11 -17 -11q-2 0 -6 2l-46 30q-4 3 -4 7q0 6 9 19q147 205 147 436q0 138 -34.5 228t-118.5 216q-4 4 -4 12t7 12l45 24q6 2 7 2q5 0 14 -11q191 -236 191 -483z"/>
    <glyph glyph-name="asterisk" unicode="*" horiz-adv-x="516" d="M422 517l-120 -21l84 -88q8 -8 8 -12q0 -5 -10 -12l-39 -29q-10 -8 -16 -8q-7 0 -13 11l-58 106l-57 -106q-5 -11 -12 -11q-4 0 -17 9l-39 28q-9 6 -9 11q0 6 7 13l83 88l-118 22q-14 1 -14 14q0 7 2 11l16 47q4 13 11 13q5 0 15 -5l105 -50l-15 120q-1 3 -1 9q0 9 16 9 h55q16 0 16 -10q0 -3 -2 -13l-14 -116l105 51q10 5 15 5q8 0 12 -14l14 -47q4 -14 4 -16q0 -6 -14 -9z"/>
    <glyph glyph-name="plus" unicode="+" horiz-adv-x="500" d="M295 373h166q11 0 14 -3t3 -14v-55q0 -11 -3 -14t-14 -3h-166v-166q0 -11 -3 -14t-14 -3h-57q-11 0 -14 3.5t-3 13.5v166h-165q-11 0 -14 3t-3 14v55q0 11 3 14t14 3h165v167q0 11 3 13.5t14 2.5h57q11 0 14 -2.5t3 -13.5v-167z"/>
    <glyph glyph-name="comma" unicode="," horiz-adv-x="294" d="M223 97l-116 -216q-7 -12 -12 -12q-3 0 -10 3l-32 11q-11 4 -11 8q0 3 3 12l59 203q4 13 20 13h88q16 0 16 -8q0 -4 -5 -14z"/>
    <glyph glyph-name="hyphen" unicode="-" d="M55 304h251q11 0 13.5 -2.5t2.5 -13.5v-64q0 -11 -2.5 -13.5t-13.5 -2.5h-251q-12 0 -15 2.5t-3 13.5v64q0 10 3.5 13t14.5 3z"/>
    <glyph glyph-name="period" unicode="." horiz-adv-x="294" d="M229 68q0 -34 -23.5 -58t-58.5 -24t-58.5 24t-23.5 58t24 58t58 24t58 -24t24 -58z"/>
    <glyph glyph-name="slash" unicode="/" horiz-adv-x="442" d="M417 716l-356 -948q-5 -14 -20 -14h-52q-16 0 -16 8q0 4 3 12l357 949q6 15 21 15h51q16 0 16 -8q0 -4 -4 -14z"/>
    <glyph glyph-name="zero" unicode="0" horiz-adv-x="508" d="M475 338q0 -190 -59 -271q-59 -82 -165 -82q-105 0 -162 88t-57 250q0 185 72 274q61 75 157 75q94 0 148 -71q66 -87 66 -263zM370 323q0 147 -30 206q-28 54 -82 54q-120 0 -120 -256q0 -253 116 -253q65 0 91 63q25 61 25 186z"/>
    <glyph glyph-name="one" unicode="1" horiz-adv-x="508" d="M222 81v450l-121 -66q-10 -5 -12 -5q-5 0 -11 11l-19 33q-5 10 -5 12q0 5 10 12l183 128h61q11 0 14 -3t3 -14v-558h78q11 0 14.5 -3t3.5 -14v-47q0 -11 -3.5 -14t-14.5 -3h-278q-11 0 -14.5 3t-3.5 14v47q0 11 3 14t14 3h98z"/>
    <glyph glyph-name="two" unicode="2" horiz-adv-x="508" d="M453 486q0 -64 -28.5 -110t-97.5 -96q-64 -48 -81 -68q-31 -35 -39 -48q-18 -32 -22 -71h247q11 0 14.5 -3.5t3.5 -14.5v-58q0 -11 -3.5 -14t-14.5 -3h-347q-9 0 -11.5 2.5t-2.5 12.5v27q1 80 30 139q38 76 151 158q60 44 80 73.5t20 73.5t-24 69t-66 25 q-39 0 -63.5 -20.5t-43.5 -70.5q-5 -13 -12 -13q-3 0 -9 2l-55 19q-9 3 -9 12q0 17 20 55q57 108 179 108q86 0 135 -49.5t49 -136.5z"/>
    <glyph glyph-name="three" unicode="3" horiz-adv-x="508" d="M449 184q0 -88 -61.5 -143t-159.5 -55q-95 0 -164 37q-13 7 -13 11q0 1 2 7l19 57q3 7 12 7h2h3q2 0 7 -2t6 -2q61 -29 120 -29q58 0 89.5 30.5t31.5 86.5q0 111 -134 111h-34q-11 0 -14 3.5t-3 14.5v53q0 11 3 14.5t14 3.5h35q53 0 85 28t32 80q0 40 -24.5 65t-64.5 25 q-30 0 -52 -13t-47 -42q-9 -9 -13 -9q-3 0 -6 3l-48 42q-4 3 -4 8q0 7 6 13q66 83 169 83q82 0 132.5 -47t50.5 -123q0 -105 -98 -148q33 -11 62 -33q59 -48 59 -137z"/>
    <glyph glyph-name="four" unicode="4" horiz-adv-x="508" d="M127 220h173l13 161q1 11 3.5 13.5t13.5 2.5h53q10 0 13 -3t3 -14v-161h69q12 0 14.5 -2.5t2.5 -15.5v-47q0 -11 -3 -14t-14 -3h-69v-136q0 -11 -2.5 -13.5t-13.5 -2.5h-67q-11 0 -14 2.5t-3 13.5v136h-251q-11 0 -13.5 2.5t-2.5 13.5v83l252 426q7 11 12 11q6 0 10 -2 l61 -24q14 -6 14 -12q0 -4 -4 -11z"/>
    <glyph glyph-name="five" unicode="5" horiz-adv-x="508" d="M461 220q0 -111 -66.5 -177t-178.5 -66q-65 0 -139 24q-13 5 -13 12q0 5 1 8l12 62q1 8 10 8q3 0 15 -3q60 -19 113 -19q70 0 109 39.5t39 109.5q0 57 -27.5 88t-76.5 31q-60 0 -109 -53q-5 -5 -11 -5q-5 0 -7 1l-53 16q-10 2 -10 13q0 1 0.5 3.5t0.5 4.5l31 323 q1 11 4 13.5t13 2.5h278q11 0 14 -3t3 -16v-54q0 -11 -3 -14t-14 -3h-209l-19 -178q8 6 20 12q41 23 91 23q82 0 132 -55.5t50 -147.5z"/>
    <glyph glyph-name="six" unicode="6" horiz-adv-x="508" d="M463 224q0 -107 -57 -173t-148 -66q-98 0 -149.5 73t-51.5 211q0 183 78 292.5t208 109.5q64 0 89 -19q5 -4 5 -7l-1 -1v-3l-17 -62q-3 -7 -8 -7q-2 0 -11 3q-29 11 -59 11q-68 0 -113.5 -50t-62.5 -143q15 18 24 26q39 34 98 34q85 0 130.5 -65t45.5 -164zM362 225 q0 67 -25.5 103.5t-72.5 36.5q-48 0 -73 -36t-25 -102q0 -75 24.5 -115.5t70.5 -40.5q47 0 74 40.5t27 113.5z"/>
    <glyph glyph-name="seven" unicode="7" horiz-adv-x="508" d="M454 608l-230 -609q-5 -11 -11 -11t-10 1l-64 11q-12 3 -12 8q0 3 3 12l208 542h-252q-11 0 -14 2.5t-3 13.5v61q0 11 3 14t14 3h350q11 0 14.5 -3t3.5 -14v-31z"/>
    <glyph glyph-name="eight" unicode="8" horiz-adv-x="508" d="M476 171q0 -70 -46 -121q-61 -67 -177 -67q-101 0 -161 50.5t-60 135.5q0 53 29 94q36 53 116 82q-51 21 -76 49q-41 44 -41 109q0 74 54.5 121.5t140.5 47.5t141 -46.5t55 -118.5q0 -28 -12 -61q-22 -57 -103 -99q65 -26 102.5 -71t37.5 -105zM348 497q0 41 -25.5 65 t-68.5 24q-42 0 -67.5 -24t-25.5 -63q0 -42 25.5 -66.5t71.5 -47.5q28 12 47 25q43 30 43 87zM369 172q0 32 -13 55q-14 24 -38 40.5t-68 34.5q-42 -19 -58 -30q-56 -37 -56 -100q0 -46 33 -74.5t86 -28.5q51 0 82.5 29t31.5 74z"/>
    <glyph glyph-name="nine" unicode="9" horiz-adv-x="508" d="M461 387q0 -184 -74 -292.5t-199 -108.5q-54 0 -90 13q-7 3 -7 10v3l10 61q1 8 9 8q6 0 9 -1q33 -8 65 -8q136 0 172 195q-14 -16 -18 -20q-42 -44 -105 -44q-67 0 -113 44q-63 60 -63 188q0 107 56 172t148 65q98 0 149 -72t51 -213zM353 438q0 70 -24.5 107.5 t-70.5 37.5q-47 0 -74 -39t-27 -108t26 -107.5t72 -38.5q98 0 98 148z"/>
    <glyph glyph-name="colon" unicode=":" horiz-adv-x="294" d="M229 406q0 -34 -23.5 -58t-58.5 -24t-58.5 24t-23.5 58q0 35 24 59t58 24t58 -24t24 -59zM229 68q0 -34 -23.5 -58t-58.5 -24t-58.5 24t-23.5 58t24 58t58 24t58 -24t24 -58z"/>
    <glyph glyph-name="semicolon" unicode=";" horiz-adv-x="294" d="M241 406q0 -34 -24 -58t-59 -24q-34 0 -58 24t-24 58t24 58.5t58 24.5t58.5 -24.5t24.5 -58.5zM228 99l-117 -218q-5 -12 -11 -12q-4 0 -10 3l-31 11q-13 4 -13 11q0 1 2 9l61 203q4 13 19 13h89q16 0 16 -8q0 -4 -5 -12z"/>
    <glyph glyph-name="less" unicode="&lt;" horiz-adv-x="500" d="M133 327l324 -153q11 -5 13.5 -8t2.5 -14v-66q0 -13 -5 -13q-1 0 -11 4l-413 200q-15 7 -16 14q-1 3 -1 8v57q0 10 3 13.5t14 8.5l413 200q7 3 11 3q5 0 5 -12v-67q0 -11 -2.5 -14t-13.5 -8z"/>
    <glyph glyph-name="equal" unicode="=" horiz-adv-x="500" d="M478 385q0 -11 -2.5 -13.5t-13.5 -2.5h-423q-11 0 -14 2.5t-3 13.5v54q0 11 3 14t14 3h423q11 0 13.5 -3t2.5 -14v-54zM478 220q0 -12 -2.5 -15t-13.5 -3h-423q-11 0 -14 3.5t-3 14.5v53q0 11 3 14t14 3h423q11 0 13.5 -3t2.5 -14v-53z"/>
    <glyph glyph-name="greater" unicode="&gt;" horiz-adv-x="500" d="M367 328l-324 153q-10 5 -13 8.5t-3 14.5v66q0 12 5 12q4 0 11 -3l413 -200q11 -5 14 -8.5t3 -13.5v-57q0 -7 -2 -11t-4.5 -5.5t-10.5 -5.5l-413 -200q-10 -4 -11 -4q-5 0 -5 13v67q0 11 2.5 14t13.5 8z"/>
    <glyph glyph-name="question" unicode="?" horiz-adv-x="461" d="M402 530q0 -74 -41 -114t-117 -62v-79q0 -11 -3.5 -14.5t-14.5 -3.5h-55q-11 0 -14.5 3.5t-3.5 14.5v124q0 10 4 14t16 7q69 18 98 43t29 67q0 39 -25.5 60t-72.5 21q-45 0 -115 -29q-5 -3 -9 -3q-6 0 -9 9l-19 54q-2 4 -2 11q0 8 15 15q73 34 153 34q86 0 136 -46.5 t50 -125.5zM279 58q0 -32 -22.5 -55.5t-54.5 -23.5t-55 23.5t-23 55.5t23 54.5t55 22.5t54.5 -22.5t22.5 -54.5z"/>
    <glyph glyph-name="at" unicode="@" horiz-adv-x="970" d="M900 361q0 -127 -77 -219.5t-184 -92.5q-82 0 -90 81q-59 -81 -128 -81q-41 0 -64.5 31.5t-23.5 87.5q0 55 18 112.5t61 103.5t100 46q49 0 81 -36q1 1 4.5 10.5t5.5 10.5q5 5 10 5h52q8 0 8 -9q0 -6 -1 -9l-47 -219q-2 -9 -2 -18v-10q0 -39 40 -39q64 0 111 71.5 t47 168.5q0 110 -71.5 172.5t-196.5 62.5q-169 0 -279.5 -117t-110.5 -289q0 -143 82 -217t226 -74q88 0 156 18.5t143 52.5q5 3 10 3q6 0 7 -4l17 -46q0 -1 0.5 -2.5t0.5 -2.5q0 -11 -15 -17q-58 -32 -147.5 -52t-176.5 -20q-181 0 -284 93.5t-103 267.5q0 200 139 338.5 t339 138.5q152 0 247.5 -78t95.5 -223zM574 336q-32 29 -60 29q-24 0 -44 -23.5t-30 -57t-15.5 -64t-5.5 -52.5q0 -48 32 -48q35 0 63 33.5t39 86.5z"/>
    <glyph glyph-name="A" unicode="A" horiz-adv-x="544" d="M530 25q0 -1 1.5 -6.5t1.5 -7.5q0 -11 -17 -11h-86q-16 0 -19 14l-49 179h-186l-49 -179q-3 -14 -19 -14h-80q-17 0 -17 10q0 6 3 15l199 647q3 10 5.5 12t12.5 2h82q10 0 12.5 -2t5.5 -12zM339 275l-50 201q-10 40 -23 110q-13 -75 -22 -110l-52 -201h147z"/>
    <glyph glyph-name="B" unicode="B" horiz-adv-x="563" d="M511 192q0 -69 -36.5 -119.5t-95.5 -63.5q-38 -9 -115 -9h-158q-11 0 -13.5 3t-2.5 14v652q0 11 2.5 14t13.5 3h164q72 0 106.5 -8.5t59.5 -33.5q50 -48 50 -128q0 -110 -99 -157q44 -12 70 -35q54 -48 54 -132zM374 504q0 53 -25 76t-81 23h-73v-211h65q114 0 114 112z M398 197q0 57 -32 84t-100 27h-71v-220h73q68 0 99 26t31 83z"/>
    <glyph glyph-name="C" unicode="C" horiz-adv-x="461" d="M417 118l30 -48q5 -8 5 -13q0 -8 -11 -16q-70 -56 -154 -56q-118 0 -180 93.5t-62 272.5q0 50 6 96t22.5 94t42 82.5t68 56.5t97.5 22q87 0 157 -60q10 -9 10 -16q0 -5 -5 -13l-32 -51q-3 -5 -9 -5q-7 0 -12 5q-61 48 -105 48q-63 0 -93 -59t-30 -185q0 -290 135 -290 q46 0 96 41q9 7 14 7q6 0 10 -6z"/>
    <glyph glyph-name="D" unicode="D" horiz-adv-x="572" d="M527 353q0 -76 -11.5 -135t-39.5 -110.5t-81 -79.5t-129 -28h-160q-11 0 -13.5 3t-2.5 14v652q0 11 2.5 14t13.5 3h140q149 0 215 -84t66 -249zM411 344q0 46 -3 80t-13 68.5t-27 55.5t-46.5 34.5t-70.5 13.5h-51v-505h56q42 0 71.5 15t45.5 36.5t25 58t11 67t2 76.5z "/>
    <glyph glyph-name="E" unicode="E" horiz-adv-x="470" d="M442 666l-17 -56q-4 -14 -19 -14h-206v-195h181q11 0 14 -3t3 -14v-54q0 -10 -3 -13t-14 -3h-181v-223h223q11 0 14 -3.5t3 -14.5v-56q0 -11 -3 -14t-14 -3h-317q-11 0 -13.5 3t-2.5 14v652q0 11 2.5 14t13.5 3h322q16 0 16 -9q0 -3 -2 -11z"/>
    <glyph glyph-name="F" unicode="F" horiz-adv-x="433" d="M443 671l-18 -61q-4 -14 -19 -14h-206v-198h181q11 0 14 -3t3 -14v-54q0 -11 -3 -14t-14 -3h-181v-293q0 -11 -3.5 -14t-14.5 -3h-76q-11 0 -13.5 3t-2.5 14v652q0 11 2.5 14t13.5 3h322q16 0 16 -7q0 -5 -1 -8z"/>
    <glyph glyph-name="G" unicode="G" horiz-adv-x="544" d="M385 92v173h-77q-11 0 -14 3t-3 14v54q0 11 3 14.5t14 3.5h162q11 0 14.5 -3.5t3.5 -14.5v-286q0 -12 -16 -22q-70 -43 -173 -43q-254 0 -254 353q0 179 65 271.5t191 92.5q97 0 167 -51q8 -6 8 -12q0 -4 -4 -12l-26 -51q-4 -7 -10 -7t-10 3q-42 25 -67 33.5t-56 8.5 q-74 0 -109 -64t-35 -199q0 -35 1.5 -60.5t5.5 -61t14 -60t26 -48t42 -35.5t60 -12q38 0 77 18z"/>
    <glyph glyph-name="H" unicode="H" horiz-adv-x="618" d="M200 399h220v270q0 11 3 14t14 3h75q11 0 14.5 -3t3.5 -14v-652q0 -11 -3.5 -14t-14.5 -3h-75q-11 0 -14 3t-3 14v297h-220v-297q0 -11 -3.5 -14t-14.5 -3h-76q-11 0 -13.5 3t-2.5 14v652q0 11 2.5 14t13.5 3h76q11 0 14.5 -3t3.5 -14v-270z"/>
    <glyph glyph-name="I" unicode="I" horiz-adv-x="341" d="M115 82v522h-71q-11 0 -14 3t-3 14v48q0 11 3 14t14 3h252q11 0 14.5 -3t3.5 -14v-48q0 -11 -3.5 -14t-14.5 -3h-71v-522h71q11 0 14.5 -3t3.5 -14v-48q0 -11 -3.5 -14t-14.5 -3h-252q-11 0 -14 3t-3 14v48q0 11 3 14t14 3h71z"/>
    <glyph glyph-name="J" unicode="J" horiz-adv-x="433" d="M249 603h-155q-12 0 -15 2.5t-3 13.5v50q0 11 3.5 14t14.5 3h248q11 0 14 -3t3 -14v-439v-28q0 -57 -9 -96.5t-39 -71.5q-47 -49 -135 -49q-172 0 -177 192v11q0 7 2 9.5t9 2.5h77q10 0 10 -16v-10q0 -100 80 -100q24 0 39.5 9t22 27t8.5 34.5t2 40.5v31v387z"/>
    <glyph glyph-name="K" unicode="K" horiz-adv-x="544" d="M299 346l238 -294q7 -10 7 -12q0 -4 -8 -8l-71 -41q-7 -4 -11 -4q-6 0 -12 9l-242 317v-296q0 -11 -3.5 -14t-14.5 -3h-76q-11 0 -13.5 3t-2.5 14v652q0 11 2.5 14t13.5 3h76q11 0 14.5 -3t3.5 -14v-304l236 321q8 9 11 9t8 -3l64 -40q5 -2 5 -7q0 -3 -8 -13z"/>
    <glyph glyph-name="L" unicode="L" horiz-adv-x="461" d="M459 75l-17 -61q-4 -14 -18 -14h-318q-11 0 -13.5 3t-2.5 14v652q0 11 2.5 14t13.5 3h76q11 0 14.5 -3t3.5 -14v-571h244q17 0 17 -11q0 -2 -2 -12z"/>
    <glyph glyph-name="M" unicode="M" horiz-adv-x="683" d="M597 0h-74q-11 0 -14.5 3t-3.5 14l-10 406v24q0 51 2 111q-13 -67 -31 -122l-90 -266q-3 -9 -6 -11.5t-12 -2.5h-45q-10 0 -13 2t-6 12l-84 266q-10 30 -28 122q1 -32 1 -99v-36l-11 -406q0 -11 -3.5 -14t-14.5 -3h-67q-16 0 -16 12v5l33 653q1 11 4 13.5t13 2.5h80 q10 0 12.5 -2t5.5 -11l99 -299q7 -21 20 -88q16 64 24 88l102 299q3 10 5.5 11.5t12.5 1.5h79q10 0 13 -2.5t4 -13.5l34 -651v-8q0 -7 -2.5 -9t-12.5 -2z"/>
    <glyph glyph-name="N" unicode="N" horiz-adv-x="590" d="M497 0h-60q-14 0 -21 14l-202 410q-24 47 -46 118q6 -74 6 -110v-415q0 -11 -3.5 -14t-14.5 -3h-60q-11 0 -14 3t-3 14v652q0 11 3 14t14 3h72q14 0 20 -13l190 -381q24 -47 46 -118q-4 47 -4 106v389q0 11 3 14t14 3h60q11 0 14 -3t3 -14v-652q0 -11 -3 -14t-14 -3z"/>
    <glyph glyph-name="O" unicode="O" horiz-adv-x="563" d="M518 348q0 -363 -240 -363q-233 0 -233 362q0 162 58 258.5t182 96.5q233 0 233 -354zM401 343q0 142 -34 213q-27 58 -84 58q-62 0 -91.5 -65.5t-29.5 -204.5q0 -145 33 -214q27 -58 86 -58q62 0 91 65.5t29 205.5z"/>
    <glyph glyph-name="P" unicode="P" horiz-adv-x="498" d="M483 500q0 -104 -60 -161t-158 -57h-65v-265q0 -11 -3.5 -14t-14.5 -3h-76q-11 0 -13.5 3t-2.5 14v652q0 11 2.5 14t13.5 3h158q119 0 163 -39q56 -50 56 -147zM375 495q0 60 -26 83t-92 23h-57v-227h51q62 0 93 28t31 93z"/>
    <glyph glyph-name="Q" unicode="Q" horiz-adv-x="563" d="M551 -28l-62 -44q-7 -4 -12 -4q-12 0 -42 23.5t-62 57.5q-44 -20 -94 -20q-234 0 -234 356q0 79 12.5 142.5t40 113.5t74.5 77.5t112 27.5q234 0 234 -352q0 -197 -68 -287q43 -39 97 -73q8 -6 8 -12q0 -3 -4 -6zM401 344q0 143 -34 214q-27 56 -84 56q-62 0 -91.5 -65.5 t-29.5 -204.5q0 -144 33 -214q27 -58 85 -58q63 0 92 65.5t29 206.5z"/>
    <glyph glyph-name="R" unicode="R" horiz-adv-x="535" d="M516 33q6 -12 6 -16q0 -7 -10 -10l-78 -19q-8 -2 -9 -2q-5 0 -11 11l-152 299h-64v-279q0 -11 -3.5 -14t-14.5 -3h-74q-11 0 -13.5 3.5t-2.5 15.5v650q0 11 2.5 14t13.5 3h159q63 0 98 -8t61 -30q58 -47 58 -146q0 -141 -121 -193zM372 499q0 58 -25.5 80.5t-89.5 22.5 h-59v-221h52q64 0 93 28t29 90z"/>
    <glyph glyph-name="S" unicode="S" horiz-adv-x="479" d="M443 188q0 -91 -59 -146t-156 -55q-44 0 -96.5 12.5t-88.5 32.5q-12 5 -12 13q0 5 3 12l25 65q3 6 8 6t20 -9q74 -39 142 -39q49 0 77.5 26t28.5 72t-23 70t-107 69q-43 23 -63 35.5t-48 37t-39.5 54.5t-11.5 69q0 84 57.5 135t151.5 51q97 0 169 -45q10 -7 10 -12 q0 -1 -2 -7l-26 -60q-5 -9 -10 -9t-18 8q-67 35 -122 35q-47 0 -73.5 -22.5t-26.5 -62.5q0 -35 17.5 -55t75.5 -51q96 -52 124 -74q73 -59 73 -156z"/>
    <glyph glyph-name="T" unicode="T" horiz-adv-x="405" d="M429 663l-18 -58q-4 -14 -17 -14h-135v-574q0 -11 -2.5 -14t-13.5 -3h-76q-11 0 -14.5 3t-3.5 14v574h-136q-11 0 -14 3.5t-3 14.5v60q0 11 3 14t14 3h402q17 0 17 -9q0 -5 -3 -14z"/>
    <glyph glyph-name="U" unicode="U" horiz-adv-x="600" d="M527 669v-460q0 -65 -16 -105t-53 -70q-62 -49 -166 -49q-114 0 -166 55.5t-52 166.5v462q0 11 3.5 14t14.5 3h75q11 0 14 -3t3 -14v-460q0 -76 25.5 -106.5t88.5 -30.5q65 0 94.5 32.5t29.5 103.5v461q0 11 3 14t14 3h71q11 0 14 -3t3 -14z"/>
    <glyph glyph-name="V" unicode="V" horiz-adv-x="498" d="M491 655l-179 -648q-2 -9 -5.5 -11t-13.5 -2h-92q-8 0 -11 0.5t-4.5 3t-3.5 9.5l-175 646q0 2 -1.5 6.5t-1.5 6.5q0 8 15 12l79 16q10 2 12 2q6 0 10 -15l106 -468q7 -33 22 -113q15 81 23 113l112 466q4 14 10 14q1 0 3 -0.5t4 -0.5l85 -17q8 -1 8 -10q0 -2 -2 -10z"/>
    <glyph glyph-name="W" unicode="W" horiz-adv-x="729" d="M712 655l-141 -647q-2 -9 -5.5 -11.5t-13.5 -2.5h-77q-11 0 -14 2t-4 12l-62 355q-22 125 -26 176q-2 -25 -31 -176l-73 -355q-2 -10 -5 -12t-13 -2h-76q-11 0 -14 2t-5 12l-128 647q-2 10 -2 12q0 8 14 11l71 12q12 2 13 2q5 0 8 -14l73 -414q7 -40 14 -147 q16 123 24 158l83 395q2 10 5 12.5t13 2.5h67q11 0 14 -3t5 -14l74 -404q13 -71 21 -151q7 103 19 167l72 397q3 14 11 14h4l79 -16q8 -1 8 -9q0 -3 -2 -11z"/>
    <glyph glyph-name="X" unicode="X" horiz-adv-x="498" d="M310 361l184 -326q6 -11 6 -15q0 -6 -13 -9l-76 -21q-9 -3 -12 -3q-6 0 -11 12l-110 214q-19 38 -26 56q-9 -22 -27 -56l-111 -213q-6 -11 -11 -11q-3 0 -12 3l-73 20q-14 4 -14 11q0 4 7 16l179 322l-164 289q-5 10 -5 13q0 7 11 10l75 21q10 2 11 2q6 0 13 -12l93 -178 q15 -27 29 -64q19 49 26 64l90 179q5 11 12 11q1 0 11 -2l72 -23q11 -4 11 -9q0 -3 -6 -15z"/>
    <glyph glyph-name="Y" unicode="Y" horiz-adv-x="452" d="M468 648l-184 -362v-269q0 -11 -3.5 -14t-14.5 -3h-75q-11 0 -13.5 3t-2.5 14v269l-193 366q-5 10 -5 15q0 7 8 8l89 18q4 1 9 1q7 0 12 -11l99 -210q20 -42 37 -91q5 11 15.5 40t17.5 44l104 216q6 12 11 12h3l86 -22q7 -1 7 -7q0 -3 -7 -17z"/>
    <glyph glyph-name="Z" unicode="Z" horiz-adv-x="470" d="M455 82l-8 -69q-1 -13 -14 -13h-389q-11 0 -13.5 3t-2.5 14v67l283 511h-252q-18 0 -18 9q0 3 1 6l19 71q1 5 15 5h339q11 0 13.5 -3t2.5 -14v-69l-280 -503h289q15 0 15 -13v-2z"/>
    <glyph glyph-name="bracketleft" unicode="[" horiz-adv-x="396" d="M223 633v-755h100q11 0 14 -3t3 -15v-47q0 -11 -3 -14.5t-14 -3.5h-184q-11 0 -14.5 3.5t-3.5 14.5v885q0 11 3.5 14t14.5 3h184q11 0 14 -3t3 -14v-48q0 -11 -3 -14t-14 -3h-100z"/>
    <glyph glyph-name="backslash" unicode="\" horiz-adv-x="512" d="M129 758l331 -824q4 -10 4 -12q0 -7 -15 -7h-62q-16 0 -22 14l-331 823q-3 6 -3 11q0 8 15 8h62q15 0 21 -13z"/>
    <glyph glyph-name="bracketright" unicode="]" horiz-adv-x="396" d="M174 633h-101q-11 0 -13.5 3t-2.5 14v48q0 11 2.5 14t13.5 3h185q11 0 14 -3t3 -14v-885q0 -11 -3 -14.5t-14 -3.5h-185q-11 0 -13.5 3t-2.5 15v47q0 12 2.5 15t13.5 3h101v755z"/>
    <glyph glyph-name="asciicircum" unicode="^" horiz-adv-x="500" d="M482 380h-1q5 -8 5 -11q0 -6 -13 -6h-74q-10 0 -13 2.5t-9 13.5l-127 231l-126 -231q-9 -14 -14 -15q-3 -1 -9 -1h-74q-13 0 -13 6q0 1 4 11l157 292q8 14 14 16q3 1 9 1h103q10 0 13 -2.5t9 -14.5z"/>
    <glyph glyph-name="underscore" unicode="_" horiz-adv-x="512" d="M513 -136h-514v68h514v-68z"/>
    <glyph glyph-name="grave" unicode="`" horiz-adv-x="498" d="M297 591l-14 -24q-5 -9 -9 -9q-2 0 -12 5l-170 77q-12 5 -12 11q0 5 5 13l29 51q6 10 13 10q5 0 16 -7l149 -102q10 -7 10 -12q0 -3 -5 -13z"/>
    <glyph glyph-name="a" unicode="a" horiz-adv-x="470" d="M418 37q3 -9 3 -10q0 -5 -5 -7l-61 -30q-6 -3 -10 -3q-9 0 -17 16q-10 18 -17 45q-60 -60 -135 -60q-65 0 -103.5 39t-38.5 105q0 43 16.5 75t41 50t61.5 29t70 14.5t73 3.5v32q0 46 -17.5 64.5t-61.5 18.5q-47 0 -115 -29q-6 -2 -9 -2q-6 0 -9 7l-16 49q-2 6 -2 9 q0 13 20 20q70 29 143 29q84 0 124.5 -36t40.5 -115v-196q0 -73 24 -118zM296 112v119q-25 0 -42 -1.5t-42 -6.5t-40.5 -14t-27 -27t-11.5 -43q0 -32 19.5 -53.5t48.5 -21.5q46 0 95 48z"/>
    <glyph glyph-name="b" unicode="b" horiz-adv-x="507" d="M467 267q0 -137 -50 -209q-52 -73 -140 -73q-62 0 -115 46q-6 -14 -13 -25q-11 -17 -20 -17q-6 0 -10 2l-57 21q-10 4 -10 11q0 3 4 9q22 37 22 102v558q0 13 14 16l72 15q3 1 8 1q7 0 7 -13v-254q68 46 127 46q78 0 119.5 -61t41.5 -175zM363 257q0 162 -86 162 q-41 0 -98 -40v-282q36 -29 81 -29q103 0 103 189z"/>
    <glyph glyph-name="c" unicode="c" horiz-adv-x="405" d="M400 435l-33 -54q-3 -4 -7 -4q-5 0 -9 4q-51 38 -92 38q-110 0 -110 -176q0 -174 106 -174q44 0 98 38q7 5 10 5t7 -7l20 -49q3 -8 3 -12q0 -7 -9 -13q-59 -46 -141 -46q-96 0 -149 65t-53 183q0 125 58 197.5t159 72.5q77 0 132 -44q12 -10 12 -18q0 -2 -2 -6z"/>
    <glyph glyph-name="d" unicode="d" horiz-adv-x="507" d="M449 21l-64 -30q-3 -2 -9 -2q-10 0 -20 20q-5 9 -11 35q-75 -59 -144 -59q-75 0 -117.5 67t-42.5 185q0 141 60 210q50 56 123 56q49 0 104 -31v220q0 14 11 16l72 15q4 1 10 1q8 0 8 -14v-569q0 -39 3 -58t15 -39q1 -2 2.5 -4.5t2.5 -4t2 -3.5t1 -4q0 -5 -6 -7zM328 114 v280q-46 25 -87 25q-52 0 -74 -39.5t-22 -132.5q0 -96 19.5 -137.5t65.5 -41.5q51 0 98 46z"/>
    <glyph glyph-name="e" unicode="e" horiz-adv-x="470" d="M439 255v-7q0 -11 -1 -16.5t-4.5 -9.5t-10.5 -4h-278q6 -147 121 -147q21 0 41 4.5t29 7.5t29.5 13l22.5 11t5 1q4 0 8 -7l23 -50q3 -6 3 -10q0 -7 -13 -15q-66 -41 -158 -41q-102 0 -158.5 67.5t-56.5 189.5q0 119 57 190t151 71q92 0 141 -64t49 -184zM332 295 q-3 132 -89 132q-87 0 -97 -132h186z"/>
    <glyph glyph-name="f" unicode="f" horiz-adv-x="294" d="M358 680l-18 -55q-3 -7 -9 -7q-4 0 -12 4q-36 17 -64 17q-35 0 -47 -18.5t-12 -73.5v-59h131q10 0 10 -7v-4l-16 -56q-3 -11 -10 -11h-115v-397q0 -9 -2 -11t-12 -2h-72q-10 0 -12 2.5t-2 11.5v396h-71q-15 0 -15 11v54q0 8 3.5 10.5t13.5 2.5h69v59q0 58 9 87.5t34 52.5 q40 37 106 37q71 0 108 -25q7 -6 7 -10q0 -3 -2 -9z"/>
    <glyph glyph-name="g" unicode="g" horiz-adv-x="498" d="M454 459q-29 -50 -29 -113v-152q0 -48 2 -130q2 -54 2 -82q0 -25 -1 -38q-12 -154 -180 -154q-95 0 -175 41q-11 5 -11 11t2 10l19 55q3 8 9 8q3 0 13 -4q78 -35 136 -35q50 0 70.5 22t20.5 74q0 57 -4 84q-60 -46 -127 -46q-74 0 -117 62.5t-43 168.5q0 124 49 193 t137 69q62 0 119 -44q1 2 4.5 10.5t5.5 12.5q1 2 4 6.5t4.5 7t3.5 5t5 4t6 1.5q1 0 7 -2l63 -28q7 -4 7 -9q0 -2 -2 -8zM326 136v253q-47 29 -83 29q-47 0 -72.5 -42.5t-25.5 -121.5q0 -160 82 -160q45 0 99 42z"/>
    <glyph glyph-name="h" unicode="h" horiz-adv-x="526" d="M181 367v-353q0 -9 -2.5 -11.5t-11.5 -2.5h-72q-10 0 -13 2.5t-3 11.5v678q0 13 14 16l69 14q8 2 11 2q8 0 8 -14v-270q67 63 146 63q73 0 100 -39.5t27 -114.5v-335q0 -9 -3 -11.5t-12 -2.5h-73q-10 0 -12 3t-2 13v319q0 47 -14 65.5t-48 18.5q-49 0 -109 -52z"/>
    <glyph glyph-name="i" unicode="i" horiz-adv-x="276" d="M212 649q0 -30 -20.5 -50.5t-50.5 -20.5q-29 0 -50 20.5t-21 50.5q0 29 21 50t50 21t50 -21t21 -50zM196 14q0 -9 -2 -11.5t-11 -2.5h-73q-10 0 -12 2.5t-2 12.5v395h-77q-10 0 -12.5 2.5t-2.5 12.5v48q0 10 2.5 12.5t12.5 2.5h163q9 0 11.5 -2.5t2.5 -12.5v-459z"/>
    <glyph glyph-name="j" unicode="j" horiz-adv-x="276" d="M212 649q0 -30 -21 -50.5t-50 -20.5q-30 0 -50.5 20.5t-20.5 50.5q0 29 20.5 50t50.5 21q29 0 50 -21t21 -50zM196 -21q0 -69 -9 -103t-33 -58q-41 -41 -116 -41q-56 0 -106 22q-11 4 -11 10q0 3 3 10l20 58q3 6 8 6q4 0 11 -3q41 -18 70 -18q38 0 50.5 25t12.5 101v422 h-80q-9 0 -10.5 2t-1.5 13v48q0 11 2.5 13t12.5 2h165q8 0 10 -2.5t2 -12.5v-494z"/>
    <glyph glyph-name="k" unicode="k" horiz-adv-x="470" d="M458 30l-61 -37q-5 -4 -10 -4q-4 0 -8 6l-198 245v-226q0 -9 -2.5 -11.5t-11.5 -2.5h-72q-10 0 -13 2.5t-3 11.5v678q0 13 14 16l69 14q4 1 10 1q9 0 9 -13v-426l198 210q5 5 10 5q4 0 16 -8l40 -30q7 -6 7 -11q0 -4 -7 -11l-166 -172l179 -215q8 -10 8 -13q0 -4 -8 -9z "/>
    <glyph glyph-name="l" unicode="l" horiz-adv-x="266" d="M262 80l17 -58q0 -1 1.5 -4.5t1.5 -5.5q0 -4 -9 -8q-39 -17 -86 -17q-65 0 -89.5 33t-24.5 98q0 14 -0.5 42.5t-0.5 41.5v490q0 13 13 16l75 16q2 0 4 0.5t3 0.5q8 0 8 -15v-591q0 -43 34 -43q19 0 36 8q5 3 9 3q5 0 8 -7z"/>
    <glyph glyph-name="m" unicode="m" horiz-adv-x="748" d="M179 376v-362q0 -9 -2.5 -11.5t-11.5 -2.5h-71q-10 0 -12.5 2t-2.5 12v348q0 52 -12 81q-7 16 -7 22q0 7 7 10l61 25q6 2 8 2q4 0 7 -2t5.5 -6.5t3.5 -7t3.5 -10t3.5 -9.5q7 -19 9 -29q42 35 74.5 50t69.5 15q73 0 103 -65q80 65 150 65q35 0 58.5 -12t34 -35t14.5 -47.5 t4 -58.5v-336q0 -9 -3 -11.5t-12 -2.5h-72q-9 0 -11.5 2.5t-2.5 11.5v331q0 41 -12.5 58.5t-41.5 17.5q-38 0 -94 -44v-364q0 -9 -2.5 -11t-11.5 -2h-71q-9 0 -12 2.5t-3 11.5v325q0 43 -13 61.5t-42 18.5q-40 0 -93 -43z"/>
    <glyph glyph-name="n" unicode="n" horiz-adv-x="526" d="M181 367v-353q0 -9 -2.5 -11.5t-11.5 -2.5h-73q-9 0 -11.5 2.5t-2.5 11.5v341q0 58 -19 99q-3 6 -3 10t7 8l67 30q2 1 6 1q6 0 15 -17q12 -26 20 -51q32 25 48 36t43.5 21t57.5 10q70 0 101 -35t31 -118v-335q0 -9 -3 -11.5t-12 -2.5h-73q-9 0 -11 2t-2 12v321 q0 44 -15 64t-48 20q-52 0 -109 -52z"/>
    <glyph glyph-name="o" unicode="o" horiz-adv-x="498" d="M458 245q0 -121 -56.5 -190.5t-154.5 -69.5t-152 68t-54 190t56 191t155 69q97 0 151.5 -68t54.5 -190zM350 247q0 174 -100 174q-101 0 -101 -174q0 -93 24.5 -136.5t76.5 -43.5t76 43.5t24 136.5z"/>
    <glyph glyph-name="p" unicode="p" horiz-adv-x="507" d="M467 254q0 -130 -45 -199.5t-130 -69.5q-55 0 -110 35v-198q0 -12 -12 -15l-73 -18q-3 -1 -8 -1q-8 0 -8 15v546q0 51 -17 88q-8 14 -8 22q0 5 6 9l65 33q3 2 8 2q2 0 3.5 -0.5t3 -1.5t2.5 -2t2.5 -3.5t2 -4t2 -4t2.5 -4.5q8 -13 15 -36q69 56 134 56q165 0 165 -249z M363 249q0 90 -19.5 130t-64.5 40q-41 0 -97 -43v-279q50 -30 90 -30q51 0 71 40.5t20 141.5z"/>
    <glyph glyph-name="q" unicode="q" horiz-adv-x="498" d="M445 446q-18 -41 -18 -100v-521q0 -15 -12 -17l-75 -18q-4 -1 -9 -1q-6 0 -6 14v230q-56 -48 -121 -48q-76 0 -119.5 66.5t-43.5 184.5q0 126 47.5 196.5t131.5 70.5q63 0 124 -47q10 25 20 38q8 10 15 10q3 0 9 -2l57 -25q8 -4 8 -11q0 -4 -3.5 -11.5t-4.5 -8.5z M325 114v268q-45 34 -88 34q-91 0 -91 -176q0 -173 84 -173q47 0 95 47z"/>
    <glyph glyph-name="r" unicode="r" horiz-adv-x="341" d="M347 474l-26 -64q-5 -10 -10 -10h-2q-28 8 -37 8q-35 0 -88 -61v-333q0 -10 -2 -12t-12 -2h-72q-9 0 -12 2.5t-3 11.5v303q0 81 -20 125q-9 18 -9 20q0 6 7 10l61 28q6 2 9 2q4 0 7 -1.5t5.5 -5.5t4 -7t4 -9t3.5 -9q12 -26 15 -48q2 3 7 8q22 25 34.5 37t35.5 24t48 12 q30 0 47 -11q7 -4 7 -10q0 -2 -2 -8z"/>
    <glyph glyph-name="s" unicode="s" horiz-adv-x="405" d="M370 137q0 -68 -45.5 -110t-119.5 -42q-93 0 -164 43q-10 6 -10 9q0 1 1.5 4.5t2.5 6.5l21 52q3 7 7 7q2 0 12 -5q74 -36 126 -36q31 0 50 17t19 46q0 22 -13 33.5t-57 34.5q-66 33 -96 51q-56 35 -56 104q0 66 46.5 108.5t119.5 42.5t131 -33q9 -6 9 -13q0 -4 -3 -10 l-21 -44q-4 -8 -10 -8q-4 0 -10 3q-55 25 -94 25q-34 0 -52 -15.5t-18 -43.5q0 -21 12.5 -34t48.5 -32l51 -26.5t48 -25.5q36 -21 50 -46t14 -63z"/>
    <glyph glyph-name="t" unicode="t" horiz-adv-x="350" d="M195 410v-262q0 -44 9.5 -58.5t39.5 -14.5q29 0 76 20q4 2 9 2q6 0 9 -12l14 -51q2 -8 2 -10q0 -6 -11 -11q-57 -26 -120 -26q-74 0 -101.5 38.5t-27.5 112.5v272h-69q-10 0 -13 3t-3 12v48q0 9 3 12t13 3h69v131q0 12 13 15l68 13q5 1 12 1q8 0 8 -13v-147h132 q13 0 13 -8q0 -2 -2 -10l-11 -47q-3 -13 -15 -13h-117z"/>
    <glyph glyph-name="u" unicode="u" horiz-adv-x="516" d="M463 30q4 -6 4 -9q0 -5 -7 -8l-64 -24q-6 -2 -8 -2q-10 0 -19 16q-8 14 -15 41q-37 -33 -69 -46t-74 -13q-79 0 -111 41.5t-32 122.5v319q0 12 13 15l70 17q3 1 9 1q10 0 10 -13v-316q0 -58 14.5 -80.5t51.5 -22.5q52 0 104 44v355q0 12 13 15l70 17q8 2 10 2q8 0 8 -14 v-358q0 -63 22 -100z"/>
    <glyph glyph-name="v" unicode="v" horiz-adv-x="433" d="M431 462l-172 -464q-4 -11 -16 -11h-60q-8 0 -10 1.5t-5 9.5l-166 465q-3 7 -3 12q0 7 12 8l76 12h5q9 0 13 -11l86 -277q13 -42 26 -105q16 72 27 104l94 278q4 11 12 11q1 0 4 -0.5t5 -0.5l64 -12q11 -3 11 -8q0 -3 -3 -12z"/>
    <glyph glyph-name="w" unicode="w" horiz-adv-x="637" d="M625 462l-134 -458q-3 -11 -14 -11h-59q-7 0 -10 0.5t-5.5 3t-3.5 8.5l-63 279q-2 9 -13 96q-8 -65 -16 -95l-78 -280q-2 -8 -4.5 -10t-8.5 -2h-62q-12 0 -15 12l-117 459q-2 6 -2 8q0 7 13 10l69 14q2 0 4.5 0.5t3.5 0.5q5 0 8 -13l52 -244q1 -2 22 -142q8 80 17 111 l71 267q2 9 4 11t10 2h66q7 0 9.5 -2t4.5 -11l64 -281q5 -21 14 -96q8 72 18 116l65 269q2 12 10 12q2 0 12 -2l60 -13q11 -3 11 -7t-3 -12z"/>
    <glyph glyph-name="x" unicode="x" horiz-adv-x="452" d="M285 252l155 -223q4 -5 4 -10q0 -6 -12 -9l-66 -21q-8 -2 -9 -2q-7 0 -12 8l-86 132q-24 35 -32 50q-16 -27 -31 -49l-91 -133q-6 -9 -11 -9q-4 0 -10 4l-64 24q-13 4 -13 10q0 3 5 10l159 214l-138 197q-6 6 -6 13q0 5 8 9l69 27q6 2 8 2q5 0 10 -8l72 -114l32 -54 q10 16 36 54l77 113q5 8 11 8q4 0 12 -3l63 -25q8 -3 8 -9q0 -5 -7 -14z"/>
    <glyph glyph-name="y" unicode="y" horiz-adv-x="433" d="M433 462l-116 -414q-34 -126 -56 -175q-40 -89 -135 -89q-65 0 -122 36q-8 4 -8 12q0 3 1 5l28 57q2 5 6 5q2 0 5 -2t4 -2q45 -28 80 -28q29 0 47 19t32 62l16 52h-40q-13 0 -17 11l-156 447q-3 8 -3 12q0 6 12 9l75 15q2 0 4 0.5t3 0.5q11 0 14 -12l97 -312 q11 -37 30 -123q2 13 5.5 33.5l6.5 37t7 30.5l82 334q3 13 10 13h2q2 -1 3 -1l77 -19q7 -3 7 -9v-2q-1 -2 -1 -3z"/>
    <glyph glyph-name="z" unicode="z" horiz-adv-x="415" d="M398 68l-24 -57q-4 -11 -16 -11h-316q-10 0 -12 2t-2 12v55l242 336h-207q-10 0 -12.5 2.5t-2.5 12.5v53q0 9 2.5 12t12.5 3h308q9 0 12 -3t3 -12v-57l-238 -331h239q15 0 15 -6q0 -1 -4 -11z"/>
    <glyph glyph-name="braceleft" unicode="{" horiz-adv-x="512" d="M294 527v-154q0 -51 -12.5 -76t-49.5 -47q34 -20 48 -48t14 -78v-149q0 -52 16 -68t68 -16q11 0 14 -2.5t3 -13.5v-54q0 -9 -1.5 -11t-9.5 -4q-9 -2 -28 -2h-19q-77 1 -109.5 36t-32.5 114v165q0 72 -41 88q-11 4 -13.5 6.5t-2.5 13.5v52q0 10 2.5 13.5t12.5 6.5 q42 15 42 82v171q0 77 35.5 110.5t115.5 33.5q8 0 19 -0.5t13 -0.5q11 0 14 -2.5t3 -13.5v-55q0 -11 -3 -13.5t-14 -2.5q-50 -1 -67 -16t-17 -65z"/>
    <glyph glyph-name="bar" unicode="|" horiz-adv-x="333" d="M212 670v-824q0 -11 -3.5 -14t-14.5 -3h-57q-11 0 -13.5 3t-2.5 14v824q0 11 2.5 13.5t13.5 2.5h57q11 0 14.5 -3t3.5 -13z"/>
    <glyph glyph-name="braceright" unicode="}" horiz-adv-x="512" d="M333 546v-165q0 -72 41 -88q11 -4 14 -7t3 -14v-51q0 -10 -3 -14t-13 -7q-42 -15 -42 -81v-171q0 -77 -35 -110.5t-115 -33.5q-8 0 -18.5 0.5t-13.5 0.5q-11 0 -14 2.5t-3 13.5v54q0 11 2.5 13t14.5 3q52 2 68 16.5t16 65.5v154q0 51 12.5 76t48.5 47q-34 20 -47.5 47.5 t-13.5 77.5v150q0 52 -16 67.5t-68 15.5q-11 0 -14 3t-3 14v54q0 9 1.5 10.5t9.5 3.5q9 2 28 2h18q77 -1 109.5 -35.5t32.5 -113.5z"/>
    <glyph glyph-name="asciitilde" unicode="~" horiz-adv-x="500" d="M491 361q-27 -52 -61 -80t-85 -28q-35 0 -93 24l-54 22q-34 14 -55 14q-24 0 -41 -12.5t-35 -42.5q-8 -11 -12 -11q-3 0 -11 6l-29 19q-10 5 -10 11q0 4 4 12q30 63 61 88.5t79 25.5q35 0 112 -32q49 -20 63 -24.5t31 -4.5q49 0 77 48q7 11 12 11q3 0 10 -4l32 -19 q10 -6 10 -10q0 -3 -5 -13z"/>
    <glyph glyph-name="uni00A0" unicode=" " horiz-adv-x="204"/>
    <glyph glyph-name="exclamdown" unicode="¡" horiz-adv-x="341" d="M247 400q0 -32 -22.5 -55t-54.5 -23t-54.5 23t-22.5 55t22.5 54.5t54.5 22.5t54.5 -22.5t22.5 -54.5zM234 -217v-5q0 -13 -17 -13h-90q-18 0 -18 14v4l23 398q1 11 3.5 13.5t13.5 2.5h44q11 0 14 -3t4 -13z"/>
    <glyph glyph-name="cent" unicode="¢" horiz-adv-x="508" d="M435 526l-28 -52q-3 -4 -7 -4q-3 0 -4 1q-7 3 -18 9t-16 8.5t-15.5 6t-22.5 5.5v-344q33 5 68 24q6 3 10 3t7 -5l21 -56q3 -8 3 -10q0 -4 -9 -10q-36 -24 -100 -33v-55q0 -11 -3 -14t-14 -3h-22q-11 0 -14 3t-3 14v53q-90 6 -139.5 71.5t-49.5 178.5q0 115 50 185t139 80 v54q0 11 3 14t14 3h22q11 0 14 -3t3 -14v-53q79 -8 109 -36q6 -6 6 -10q0 -3 -4 -11zM268 154v346q-87 -22 -87 -175q0 -154 87 -171z"/>
    <glyph glyph-name="sterling" unicode="£" horiz-adv-x="508" d="M504 68l-16 -54q-4 -14 -19 -14h-424q-11 0 -14 3t-3 14v54q0 11 3 14t14 3h79q12 52 12 102q0 51 -14 110h-86q-11 0 -13.5 3.5t-2.5 14.5v44q0 11 2.5 14t13.5 3h69q-14 54 -14 97q0 87 59.5 139t158.5 52q83 0 148 -35q14 -7 14 -15q0 -5 -3 -11l-27 -51q-4 -7 -9 -7 q-4 0 -12 4q-6 2 -18.5 7.5t-18 7.5t-16.5 5.5t-18.5 5t-18.5 3t-23 1.5q-55 0 -87 -30t-32 -80q0 -27 16 -92h136q11 0 13.5 -3t2.5 -14v-45q0 -11 -2.5 -14.5t-13.5 -3.5h-121q17 -71 17 -111q0 -37 -13 -101h267q16 0 16 -9q0 -3 -2 -11z"/>
    <glyph glyph-name="currency" unicode="¤" horiz-adv-x="591" d="M517 174q-8 -7 -16 -15.5l-18 -18.5l-16 -16l-68 67q-51 -37 -116 -37q-66 0 -116 37l-68 -67l-49 50l68 66q-37 54 -37 114q0 64 37 114l-31.5 31l-36.5 36l49 50l68 -67q52 36 116 36q67 0 116 -36l68 67l16 -16l18 -18.5t16 -15.5l-69 -67q37 -51 37 -114 q0 -61 -37 -114zM415 355q0 56 -40 93t-91 37q-56 0 -94 -38.5t-38 -91.5t38.5 -92t92.5 -39t93 38.5t39 92.5z"/>
    <glyph glyph-name="yen" unicode="¥" horiz-adv-x="508" d="M311 295h167q11 0 14 -3t3 -13v-16q0 -10 -3 -13t-14 -3h-171v-231q0 -10 -3 -13t-13 -3h-66q-10 0 -13 3t-3 13v231h-178q-11 0 -13.5 2.5t-2.5 13.5v16q0 11 2.5 13.5t13.5 2.5h174l-29 59h-145q-11 0 -13.5 2.5t-2.5 12.5v17q0 10 2.5 12.5t13.5 2.5h121l-123 254 q-4 8 -4 11q0 8 14 11l74 16q8 2 10 2q5 0 10 -12l90 -216q19 -44 38 -102q19 59 33 93l93 225q4 11 10 11q2 0 10 -2l64 -16q14 -4 14 -10q0 -1 -4 -11l-120 -254h117q11 0 14 -2.5t3 -12.5v-17q0 -10 -3 -12.5t-14 -2.5h-139z"/>
    <glyph glyph-name="brokenbar" unicode="¦" horiz-adv-x="333" d="M212 335h-91v351h91v-351zM212 -171h-91v329h91v-329z"/>
    <glyph glyph-name="section" unicode="§" horiz-adv-x="516" d="M445 219q0 -90 -110 -149q48 -27 68.5 -56t20.5 -70q0 -65 -51 -110.5t-125 -45.5q-87 0 -160 47q-17 11 -17 16q0 2 4 10l27 52q3 7 9 7q3 0 13 -6q70 -45 128 -45q31 0 50.5 17.5t19.5 44.5q0 23 -12 38t-47 33l-95 50q-48 25 -72 55.5t-24 80.5q0 51 26.5 86.5 t84.5 63.5q-45 23 -64.5 50.5t-19.5 66.5q0 63 48.5 104.5t122.5 41.5t133 -40q12 -9 12 -14q0 -2 -2 -6l-28 -52q-4 -7 -9 -7t-13 5q-2 1 -10 5.5t-10.5 5.5t-9.5 4.5t-10.5 5l-9.5 4t-10.5 3t-11 2t-12.5 2t-13 0.5q-32 0 -52 -14t-20 -38q0 -17 8.5 -28t34.5 -25l109 -57 q99 -51 99 -138zM346 207q0 27 -19 46t-73 48q-83 -44 -83 -101q0 -12 4 -22.5t8.5 -17t16 -14.5t18 -11.5l23.5 -12.5l23 -12q44 25 63 47t19 50z"/>
    <glyph glyph-name="dieresis" unicode="¨" horiz-adv-x="498" d="M404 648q0 -26 -18 -43.5t-43 -17.5t-43 18t-18 43q0 26 18 44.5t43 18.5t43 -18.5t18 -44.5zM217 648q0 -25 -18.5 -43t-43.5 -18t-42.5 18t-17.5 43q0 26 17.5 44.5t42.5 18.5t43.5 -18.5t18.5 -44.5z"/>
    <glyph glyph-name="copyright" unicode="©" horiz-adv-x="721" d="M688 343q0 -147 -95.5 -251.5t-231.5 -104.5q-135 0 -231.5 104.5t-96.5 250.5q0 150 96.5 253.5t235.5 103.5q132 0 227.5 -105.5t95.5 -250.5zM621 342q0 125 -76.5 212t-186.5 87q-106 0 -181.5 -87.5t-75.5 -210.5t76 -210.5t184 -87.5q107 0 183.5 87t76.5 210z M478 178q0 -17 -36.5 -33.5t-74.5 -16.5q-78 0 -118.5 56.5t-40.5 163.5q0 101 40.5 155.5t114.5 54.5q36 0 74.5 -17.5t38.5 -33.5q0 -4 -2 -6q0 -3 -10 -13l-8 -12q-8 -11 -9 -12q-3 -4 -7 -4q-6 0 -24 13q-25 18 -50 18q-71 0 -71 -135q0 -161 78 -161q24 0 60 25 q5 4 11 4q5 0 11 -8l20 -29q3 -5 3 -9z"/>
    <glyph glyph-name="ordfeminine" unicode="ª" horiz-adv-x="313" d="M277 452q0 -6 -7 -9l-39 -17q-4 -2 -9 -2q-12 0 -23 31q-42 -31 -83 -31q-43 0 -69 24t-26 65q0 104 165 107v14q0 23 -10 32.5t-34 9.5t-71 -16q-6 -2 -9 -2q-6 0 -10 7l-11 31q-1 2 -1 7q0 12 35 22.5t76 10.5q109 0 109 -94v-115q0 -37 15 -67q2 -6 2 -8zM186 505v71 q-47 -1 -68.5 -14.5t-21.5 -42.5q0 -17 10 -28t26 -11q26 0 54 25z"/>
    <glyph glyph-name="guillemotleft" unicode="«" horiz-adv-x="535" d="M477 431l-124 -189l123 -186q6 -9 6 -13q0 -5 -11 -11l-38 -23q-10 -5 -12 -5q-6 0 -12 9l-168 220q-5 5 -5 12t5 12l168 216q7 9 12 9q4 0 12 -5l38 -22q11 -6 11 -12q0 -4 -5 -12zM270 56q5 -8 5 -12q0 -6 -11 -12l-39 -23q-10 -5 -11 -5q-5 0 -11 9l-169 220 q-5 5 -5 12q0 6 5 12l169 216q7 9 11 9q3 0 11 -5l39 -22q11 -6 11 -12q0 -4 -5 -12l-125 -189z"/>
    <glyph glyph-name="logicalnot" unicode="¬" horiz-adv-x="500" d="M379 369h-340q-11 0 -14 3.5t-3 14.5v52q0 11 3 14t14 3h423q11 0 13.5 -3t2.5 -14v-220q0 -11 -2.5 -14t-13.5 -3h-66q-11 0 -14 3t-3 14v150z"/>
    <glyph glyph-name="uni00AD" unicode="­" d="M55 304h251q11 0 13.5 -2.5t2.5 -13.5v-64q0 -11 -2.5 -13.5t-13.5 -2.5h-251q-12 0 -15 2.5t-3 13.5v64q0 10 3.5 13t14.5 3z"/>
    <glyph glyph-name="registered" unicode="®" horiz-adv-x="433" d="M413 565q0 -88 -57.5 -151t-138.5 -63t-139 62.5t-58 150.5q0 90 57.5 152t141.5 62q79 0 136.5 -63t57.5 -150zM373 564q0 75 -46 127.5t-112 52.5q-64 0 -109 -52.5t-45 -126.5t45.5 -126.5t110.5 -52.5q64 0 110 52.5t46 125.5zM308 457q0 -5 -9 -7l-25 -6 q-2 -2 -5 -2q-5 0 -8 6l-54 99h-20v-90q0 -10 -10 -10h-26q-11 0 -11 10v221q0 9 11 9h58q35 0 51 -8q33 -17 33 -58q0 -47 -43 -68l55 -90q3 -4 3 -6zM245 620q0 17 -8.5 24t-31.5 7h-18v-67h16q23 0 32.5 8.5t9.5 27.5z"/>
    <glyph glyph-name="macron" unicode="¯" horiz-adv-x="498" d="M144 664h211q11 0 13.5 -2.5t2.5 -13.5v-41q0 -11 -2.5 -14t-13.5 -3h-211q-11 0 -14 3t-3 14v41q0 11 3 13.5t14 2.5z"/>
    <glyph glyph-name="degree" unicode="°" horiz-adv-x="512" d="M407 537q0 -61 -44.5 -104.5t-106.5 -43.5t-106.5 43.5t-44.5 104.5t44.5 104.5t106.5 43.5t106.5 -43.5t44.5 -104.5zM346 537q0 37 -26.5 63t-63.5 26t-63 -26.5t-26 -62.5q0 -37 26 -64t63 -27q36 0 63 27.5t27 63.5z"/>
    <glyph glyph-name="plusminus" unicode="±" horiz-adv-x="500" d="M478 301q0 -11 -3 -14t-14 -3h-166v-131q0 -11 -3 -14.5t-14 -3.5h-57q-11 0 -14 3.5t-3 14.5v131h-165q-11 0 -14 3t-3 14v55q0 11 3 14t14 3h165v167q0 11 3 13.5t14 2.5h57q11 0 14 -2.5t3 -13.5v-167h166q11 0 14 -3t3 -14v-55zM478 32q0 -11 -3.5 -14t-14.5 -3h-421 q-11 0 -14 3t-3 14v53q0 11 3 14t14 3h421q11 0 14.5 -3t3.5 -14v-53z"/>
    <glyph glyph-name="two.superior" unicode="²" d="M311 722q0 -38 -19 -64.5t-64 -57.5l-16 -12t-15 -11.5t-11.5 -9t-12 -10.5t-9 -11l-10.5 -14q-8 -14 -11 -34h148q11 0 14.5 -3t3.5 -13v-34q0 -10 -3 -12.5t-15 -2.5h-218q-9 0 -12 2.5t-3 11.5v16q2 51 21 84q21 43 96 95q35 26 47.5 41t12.5 39q0 23 -13 36.5 t-37 13.5q-22 0 -36 -12t-26 -39q-6 -10 -13 -10q-5 0 -8 1l-17.5 6t-15.5 5q-11 3 -11 12q0 12 14 35v-1q36 67 117 67q57 0 89.5 -30t32.5 -84z"/>
    <glyph glyph-name="three.superior" unicode="³" d="M113 624v32q0 10 3 12.5t14 2.5h21q68 0 68 57q0 22 -13.5 35t-36.5 13q-29 0 -58 -31q-9 -6 -12 -6q-5 0 -8 3l-30 24q-4 4 -4 8q0 7 4 11q43 51 112 51q54 0 87.5 -29t33.5 -76q0 -58 -53 -85q67 -28 67 -99v-3q0 -54 -40 -86.5t-105 -32.5t-106 23q-11 6 -11 11 q0 2 2 6q1 3 7 16.5t8 19.5q3 8 11 8q5 0 14 -6q39 -18 71 -18q71 0 71 62q0 61 -79 61h-21q-11 0 -14 3t-3 13z"/>
    <glyph glyph-name="acute" unicode="´" horiz-adv-x="498" d="M406 640l-171 -78q-7 -3 -11 -3t-7 6l-17 32q-3 6 -3 8q0 4 10 11l154 105q6 5 12 5q4 0 10 -10l33 -53q4 -7 4 -11q0 -6 -14 -12z"/>
    <glyph glyph-name="mu" unicode="µ" horiz-adv-x="516" d="M463 27q3 -5 3 -8t-7 -6l-63 -24q-7 -3 -9 -3q-7 0 -16.5 17t-16.5 41q-60 -59 -123 -59q-33 0 -63 15v-178q0 -14 -12 -16l-72 -17q-2 -1 -5 -1q-11 0 -11 14v666q0 12 13 15l71 17q3 1 7 1q9 0 9 -13v-311q0 -57 11 -79q15 -30 56 -30q53 0 105 44v356q0 12 13 15 l72 17q3 1 7 1q9 0 9 -13v-358q0 -68 22 -103z"/>
    <glyph glyph-name="paragraph" unicode="¶" horiz-adv-x="637" d="M590 625q0 -11 -3 -13.5t-14 -2.5h-62v-778q0 -11 -2.5 -14t-13.5 -3h-52q-11 0 -14 3t-3 14v778h-65v-778q0 -11 -2.5 -14t-13.5 -3h-53q-11 0 -13.5 3t-2.5 14v338q-34 -7 -67 -7q-101 0 -152 68.5t-51 193.5q0 193 121 243q49 19 146 19h300q11 0 14 -3t3 -14v-44z M276 245v364h-9q-79 0 -109 -24q-46 -38 -46 -153q0 -43 4.5 -74.5t16.5 -60t36.5 -43t60.5 -14.5q25 0 46 5z"/>
    <glyph glyph-name="periodcentered" unicode="·" horiz-adv-x="294" d="M209 329q0 -25 -18.5 -43.5t-43.5 -18.5t-43.5 18.5t-18.5 43.5t18.5 43t43.5 18t43.5 -18t18.5 -43z"/>
    <glyph glyph-name="cedilla" unicode="¸" horiz-adv-x="498" d="M335 -123q0 -38 -29 -61t-77 -23q-39 0 -57 10q-9 4 -9 12q0 5 1 8l6 32q1 5 7 5h4q19 -7 41 -7q35 0 35 24q0 22 -45 22q-24 0 -24 17q0 1 0.5 4.5t0.5 5.5l9 74h67l-4 -55q39 -5 56.5 -21t17.5 -47z"/>
    <glyph glyph-name="one.superior" unicode="¹" d="M153 491v249l-67 -35q-7 -4 -11 -4q-7 0 -11 9q-8 14 -10 16q-6 12 -6 14t9 10l117 77h39q11 0 14 -3t3 -12v-321h44q10 0 13 -3t3 -13v-27q0 -10 -2.5 -12.5t-13.5 -2.5h-176q-12 0 -15 2.5t-3 12.5v27q0 10 3.5 13t13.5 3h56z"/>
    <glyph glyph-name="ordmasculine" unicode="º" horiz-adv-x="332" d="M303 582q0 -74 -37 -116t-102 -42q-64 0 -99.5 41.5t-35.5 115.5t37 115.5t103 41.5q62 0 98 -42t36 -114zM222 582q0 97 -57 97q-56 0 -56 -96q0 -52 13.5 -75.5t43.5 -23.5q56 0 56 98z"/>
    <glyph glyph-name="guillemotright" unicode="»" horiz-adv-x="535" d="M502 233l-169 -220q-6 -9 -11 -9q-4 0 -12 5l-39 23q-12 6 -12 12q0 4 6 12l125 186l-125 189q-5 8 -5 11q0 6 12 13l38 22q8 5 11 5q5 0 12 -9l169 -216q5 -8 5 -12q0 -5 -5 -12zM294 233l-168 -220q-6 -9 -11 -9q-4 0 -12 5l-39 23q-11 7 -11 11t6 13l124 186l-124 189 q-6 7 -6 12q0 6 11 12l39 22q8 5 11 5q5 0 12 -9l168 -216q5 -7 5 -12t-5 -12z"/>
    <glyph glyph-name="onequarter" unicode="¼" horiz-adv-x="851" d="M806 96q0 -10 -3.5 -13t-13.5 -3h-38v-73q0 -10 -3.5 -13t-13.5 -3h-43q-10 0 -13.5 3t-3.5 13v73h-157q-10 0 -13.5 3t-3.5 13v49l166 247q6 9 12 9q1 0 9 -2l35 -9q14 -4 14 -12q0 -6 -4 -11l-153 -226h96l8 88q1 15 17 15h34q10 0 13.5 -3.5t3.5 -13.5v-87h38 q11 0 14 -3t3 -14v-27zM584 648l-276 -663q-6 -14 -21 -14h-44q-18 0 -18 7q0 3 4 13l277 665q5 13 19 13h46q16 0 16 -9q0 -4 -3 -12zM293 284q0 -10 -3.5 -13t-13.5 -3h-182q-10 0 -13.5 3t-3.5 13v26q0 10 3.5 13t13.5 3h59v249l-61 -31q-6 -3 -11 -3q-7 0 -12 9l-12 19 q-4 5 -4 10q0 6 9 12l110 71h41q10 0 13.5 -3.5t3.5 -13.5v-319h46q10 0 13.5 -3t3.5 -13v-26z"/>
    <glyph glyph-name="onehalf" unicode="½" horiz-adv-x="851" d="M784 292q0 -35 -15.5 -60.5t-52.5 -53.5q-26 -18 -72 -57q-27 -23 -30 -52h149q11 0 15 -3.5t4 -13.5v-34q0 -11 -4 -14.5t-15 -3.5h-219q-16 0 -16 20q0 66 27 109q14 23 31.5 38.5t60.5 44.5q34 23 46 38.5t12 38.5q0 48 -49 48q-22 0 -34 -10.5t-26 -40.5 q-5 -12 -14 -12q-4 0 -12 3l-31 10q-12 5 -12 13q0 10 10 29t22 32q37 42 102 42q57 0 90 -29.5t33 -81.5zM585 648l-277 -663q-6 -14 -21 -14h-45q-16 0 -16 8q0 5 3 12l277 665q5 13 19 13h46q17 0 17 -10q0 -5 -3 -11zM296 284q0 -10 -3.5 -13t-13.5 -3h-181 q-10 0 -13.5 3t-3.5 13v26q0 10 3.5 13t13.5 3h58v249l-61 -31q-6 -3 -11 -3q-8 0 -12 9l-11 19q-4 5 -4 10q0 6 9 12l110 71h40q10 0 13.5 -3.5t3.5 -13.5v-319h46q10 0 13.5 -3t3.5 -13v-26z"/>
    <glyph glyph-name="threequarters" unicode="¾" horiz-adv-x="851" d="M804 96q0 -16 -17 -16h-38v-73q0 -10 -3.5 -13t-13.5 -3h-43q-10 0 -13.5 3t-3.5 13v73h-157q-10 0 -13.5 3t-3.5 13v49l166 247q6 9 12 9q1 0 9 -2l35 -9q14 -4 14 -11q0 -6 -4 -12l-153 -226h97l7 88q1 15 17 15h34q10 0 13.5 -3.5t3.5 -13.5v-87h38q11 0 14 -3t3 -14 v-27zM600 648l-277 -663q-6 -14 -21 -14h-44q-17 0 -17 9q0 5 3 11l277 665q5 13 19 13h46q17 0 17 -10q0 -5 -3 -11zM307 381q0 -55 -41.5 -88.5t-108.5 -33.5q-40 0 -80 11.5t-40 22.5q0 5 2 10l13 32q3 9 11 9q5 0 19 -7q32 -14 72 -14q73 0 73 61q0 59 -82 59h-21 q-10 0 -13.5 3t-3.5 13v31q0 10 3.5 13t13.5 3h21q71 0 71 57q0 21 -14 33.5t-38 12.5q-32 0 -62 -30q-6 -6 -12 -6q-4 0 -8 3l-29 23q-5 4 -5 9q0 11 25 30q41 33 94 33q56 0 90.5 -29t34.5 -76q0 -52 -52 -86q67 -30 67 -99z"/>
    <glyph glyph-name="questiondown" unicode="¿" horiz-adv-x="461" d="M336 404q0 -32 -22.5 -54.5t-54.5 -22.5t-54.5 22.5t-22.5 54.5t22.5 55t54.5 23t54.5 -23t22.5 -55zM410 -180q2 -10 2 -11q0 -8 -14 -15q-73 -34 -153 -34q-86 0 -136 46.5t-50 125.5q0 74 41 114t117 62v79q0 11 3.5 14.5t14.5 3.5h55q11 0 14.5 -3.5t3.5 -14.5v-124 q0 -10 -4 -14t-16 -7q-69 -18 -98.5 -43t-29.5 -67q0 -39 26 -60t73 -21q44 0 114 29q6 2 8 2q7 0 11 -9z"/>
    <glyph glyph-name="Agrave" unicode="À" horiz-adv-x="544" d="M307 770l-14 -24q-5 -9 -9 -9q-2 0 -12 5l-170 77q-12 5 -12 11t5 13l29 51q6 10 13 10q5 0 16 -7l149 -102q10 -7 10 -12q0 -3 -5 -13zM530 25q0 -1 1.5 -6.5t1.5 -7.5q0 -11 -17 -11h-86q-16 0 -19 14l-49 179h-186l-49 -179q-3 -14 -19 -14h-80q-17 0 -17 10q0 6 3 15 l199 647q3 10 5.5 12t12.5 2h82q10 0 12.5 -2t5.5 -12zM339 275l-50 201q-10 40 -23 110q-13 -75 -22 -110l-52 -201h147z"/>
    <glyph glyph-name="Aacute" unicode="Á" horiz-adv-x="544" d="M456 841q4 -7 4 -11q0 -6 -14 -12l-171 -78q-7 -3 -11 -3t-7 6l-17 32q-3 6 -3 8q0 4 10 11l154 105q6 5 12 5q4 0 10 -10zM530 25q0 -1 1.5 -6.5t1.5 -7.5q0 -11 -17 -11h-86q-16 0 -19 14l-49 179h-186l-49 -179q-3 -14 -19 -14h-80q-17 0 -17 10q0 6 3 15l199 647 q3 10 5.5 12t12.5 2h82q10 0 12.5 -2t5.5 -12zM339 275l-50 201q-10 40 -23 110q-13 -75 -22 -110l-52 -201h147z"/>
    <glyph glyph-name="Acircumflex" unicode="Â" horiz-adv-x="544" d="M395 775l-19 -31q-4 -7 -9 -7q-3 0 -11 5l-90 56l-92 -57q-7 -5 -9 -5q-3 0 -9 9l-19 29q-6 8 -6 11q0 2 8 8l117 92q7 6 10 6q4 0 12 -7l115 -91q7 -6 7 -9q0 -1 -2 -3.5t-3 -5.5zM530 25q0 -1 1.5 -6.5t1.5 -7.5q0 -11 -17 -11h-86q-16 0 -19 14l-49 179h-186l-49 -179 q-3 -14 -19 -14h-80q-17 0 -17 10q0 6 3 15l199 647q3 10 5.5 12t12.5 2h82q10 0 12.5 -2t5.5 -12zM339 275l-50 201q-10 40 -23 110q-13 -75 -22 -110l-52 -201h147z"/>
    <glyph glyph-name="Atilde" unicode="Ã" horiz-adv-x="544" d="M422 830q2 -1 2 -5q0 -1 -5 -16q-36 -72 -93 -72q-24 0 -56 19.5t-47 19.5q-23 0 -41 -30q-5 -8 -9 -8t-12 5l-32 16q-7 4 -7 8q0 3 3 9q18 36 39 56.5t54 20.5q28 0 60.5 -19t46.5 -19q23 0 38 27q5 10 10 10q1 0 7 -2zM530 25q0 -1 1.5 -6.5t1.5 -7.5q0 -11 -17 -11 h-86q-16 0 -19 14l-49 179h-186l-49 -179q-3 -14 -19 -14h-80q-17 0 -17 10q0 6 3 15l199 647q3 10 5.5 12t12.5 2h82q10 0 12.5 -2t5.5 -12zM339 275l-50 201q-10 40 -23 110q-13 -75 -22 -110l-52 -201h147z"/>
    <glyph glyph-name="Adieresis" unicode="Ä" horiz-adv-x="544" d="M426 798q0 -26 -18 -43.5t-43 -17.5t-43 18t-18 43q0 26 18 44.5t43 18.5t43 -18.5t18 -44.5zM239 798q0 -25 -18.5 -43t-43.5 -18t-42.5 18t-17.5 43q0 26 17.5 44.5t42.5 18.5t43.5 -18.5t18.5 -44.5zM530 25q0 -1 1.5 -6.5t1.5 -7.5q0 -11 -17 -11h-86q-16 0 -19 14 l-49 179h-186l-49 -179q-3 -14 -19 -14h-80q-17 0 -17 10q0 6 3 15l199 647q3 10 5.5 12t12.5 2h82q10 0 12.5 -2t5.5 -12zM339 275l-50 201q-10 40 -23 110q-13 -75 -22 -110l-52 -201h147z"/>
    <glyph glyph-name="Aring" unicode="Å" horiz-adv-x="544" d="M366 832q0 -40 -27.5 -67.5t-67.5 -27.5t-67.5 27.5t-27.5 67.5t27.5 67.5t67.5 27.5t67.5 -27.5t27.5 -67.5zM530 25q0 -1 1.5 -6.5t1.5 -7.5q0 -11 -17 -11h-86q-16 0 -19 14l-49 179h-186l-49 -179q-3 -14 -19 -14h-80q-17 0 -17 10q0 6 3 15l199 647q3 10 5.5 12 t12.5 2h82q10 0 12.5 -2t5.5 -12zM311 832q0 18 -11.5 31t-28.5 13q-18 0 -29 -13t-11 -31q0 -19 11 -32t29 -13q17 0 28.5 13.5t11.5 31.5zM339 275l-50 201q-10 40 -23 110q-13 -75 -22 -110l-52 -201h147z"/>
    <glyph glyph-name="AE" unicode="Æ" horiz-adv-x="711" d="M439 314v-223h227q11 0 14 -3.5t3 -14.5v-56q0 -11 -3 -14t-14 -3h-316q-11 0 -14.5 3t-3.5 14v176h-176l-76 -180q-5 -13 -18 -13h-83q-14 0 -14 8q0 5 4 13l296 653q5 12 19 12h387q14 0 14 -7q0 -1 -2 -11l-15 -57q-4 -15 -20 -15h-209v-195h184q11 0 14.5 -3t3.5 -14 v-54q0 -10 -3.5 -13t-14.5 -3h-184zM332 275v289q0 33 1 63q-13 -40 -48 -121l-100 -231h147z"/>
    <glyph glyph-name="Ccedilla" unicode="Ç" horiz-adv-x="461" d="M294 -15l-3 -40q39 -5 56.5 -21t17.5 -47q0 -38 -29 -61t-77 -23q-39 0 -57 10q-9 4 -9 12q0 5 1 8l6 32q1 5 7 5h4q19 -7 41 -7q35 0 35 24q0 22 -45 22q-24 0 -24 17q0 1 0.5 4.5t0.5 5.5l8 66q-182 46 -182 359q0 50 6 96t22.5 94t42 82.5t68 56.5t97.5 22 q87 0 157 -60q10 -9 10 -16q0 -5 -5 -13l-32 -51q-3 -5 -9 -5q-7 0 -12 5q-61 48 -105 48q-63 0 -93 -59t-30 -185q0 -290 135 -290q46 0 96 41q9 7 14 7q6 0 10 -6l30 -48q5 -8 5 -13q0 -8 -11 -16q-69 -54 -147 -56z"/>
    <glyph glyph-name="Egrave" unicode="È" horiz-adv-x="470" d="M307 770l-14 -24q-5 -9 -9 -9q-2 0 -12 5l-170 77q-12 5 -12 11t5 13l29 51q6 10 13 10q5 0 16 -7l149 -102q10 -7 10 -12q0 -3 -5 -13zM442 666l-17 -56q-4 -14 -19 -14h-206v-195h181q11 0 14 -3t3 -14v-54q0 -10 -3 -13t-14 -3h-181v-223h223q11 0 14 -3.5t3 -14.5 v-56q0 -11 -3 -14t-14 -3h-317q-11 0 -13.5 3t-2.5 14v652q0 11 2.5 14t13.5 3h322q16 0 16 -9q0 -3 -2 -11z"/>
    <glyph glyph-name="Eacute" unicode="É" horiz-adv-x="470" d="M396 841q4 -7 4 -11q0 -6 -14 -12l-171 -78q-7 -3 -11 -3t-7 6l-17 32q-3 6 -3 8q0 4 10 11l154 105q6 5 12 5q4 0 10 -10zM442 666l-17 -56q-4 -14 -19 -14h-206v-195h181q11 0 14 -3t3 -14v-54q0 -10 -3 -13t-14 -3h-181v-223h223q11 0 14 -3.5t3 -14.5v-56 q0 -11 -3 -14t-14 -3h-317q-11 0 -13.5 3t-2.5 14v652q0 11 2.5 14t13.5 3h322q16 0 16 -9q0 -3 -2 -11z"/>
    <glyph glyph-name="Ecircumflex" unicode="Ê" horiz-adv-x="470" d="M385 775l-19 -31q-4 -7 -9 -7q-3 0 -11 5l-90 56l-92 -57q-7 -5 -9 -5q-3 0 -9 9l-19 29q-6 8 -6 11q0 2 8 8l117 92q7 6 10 6q4 0 12 -7l115 -91q7 -6 7 -9q0 -1 -2 -3.5t-3 -5.5zM442 666l-17 -56q-4 -14 -19 -14h-206v-195h181q11 0 14 -3t3 -14v-54q0 -10 -3 -13 t-14 -3h-181v-223h223q11 0 14 -3.5t3 -14.5v-56q0 -11 -3 -14t-14 -3h-317q-11 0 -13.5 3t-2.5 14v652q0 11 2.5 14t13.5 3h322q16 0 16 -9q0 -3 -2 -11z"/>
    <glyph glyph-name="Edieresis" unicode="Ë" horiz-adv-x="470" d="M426 798q0 -26 -18 -43.5t-43 -17.5t-43 18t-18 43q0 26 18 44.5t43 18.5t43 -18.5t18 -44.5zM239 798q0 -25 -18.5 -43t-43.5 -18t-42.5 18t-17.5 43q0 26 17.5 44.5t42.5 18.5t43.5 -18.5t18.5 -44.5zM442 666l-17 -56q-4 -14 -19 -14h-206v-195h181q11 0 14 -3t3 -14 v-54q0 -10 -3 -13t-14 -3h-181v-223h223q11 0 14 -3.5t3 -14.5v-56q0 -11 -3 -14t-14 -3h-317q-11 0 -13.5 3t-2.5 14v652q0 11 2.5 14t13.5 3h322q16 0 16 -9q0 -3 -2 -11z"/>
    <glyph glyph-name="Igrave" unicode="Ì" horiz-adv-x="341" d="M237 770l-14 -24q-5 -9 -9 -9q-2 0 -12 5l-170 77q-12 5 -12 11t5 13l29 51q6 10 13 10q5 0 16 -7l149 -102q10 -7 10 -12q0 -3 -5 -13zM314 17q0 -11 -3.5 -14t-14.5 -3h-252q-11 0 -14 3t-3 14v48q0 11 3 14t14 3h71v522h-71q-11 0 -14 3t-3 14v48q0 11 3 14t14 3h252 q11 0 14.5 -3t3.5 -14v-48q0 -11 -3.5 -14t-14.5 -3h-71v-522h71q11 0 14.5 -3t3.5 -14v-48z"/>
    <glyph glyph-name="Iacute" unicode="Í" horiz-adv-x="341" d="M336 841q4 -7 4 -11q0 -6 -14 -12l-171 -78q-7 -3 -11 -3t-7 6l-17 32q-3 6 -3 8q0 4 10 11l154 105q6 5 12 5q4 0 10 -10zM314 17q0 -11 -3.5 -14t-14.5 -3h-252q-11 0 -14 3t-3 14v48q0 11 3 14t14 3h71v522h-71q-11 0 -14 3t-3 14v48q0 11 3 14t14 3h252q11 0 14.5 -3 t3.5 -14v-48q0 -11 -3.5 -14t-14.5 -3h-71v-522h71q11 0 14.5 -3t3.5 -14v-48z"/>
    <glyph glyph-name="Icircumflex" unicode="Î" horiz-adv-x="341" d="M302 775l-19 -31q-4 -7 -9 -7q-3 0 -11 5l-90 56l-92 -57q-7 -5 -9 -5q-3 0 -9 9l-19 29q-6 8 -6 11q0 2 8 8l117 92q8 6 10 6q4 0 12 -7l115 -91q6 -6 6 -8t-4 -10zM314 17q0 -11 -3.5 -14t-14.5 -3h-252q-11 0 -14 3t-3 14v48q0 11 3 14t14 3h71v522h-71q-11 0 -14 3 t-3 14v48q0 11 3 14t14 3h252q11 0 14.5 -3t3.5 -14v-48q0 -11 -3.5 -14t-14.5 -3h-71v-522h71q11 0 14.5 -3t3.5 -14v-48z"/>
    <glyph glyph-name="Idieresis" unicode="Ï" horiz-adv-x="341" d="M323 798q0 -26 -17.5 -43.5t-43.5 -17.5q-25 0 -43 18t-18 43q0 26 18 44.5t43 18.5t43 -18.5t18 -44.5zM136 798q0 -25 -18.5 -43t-43.5 -18t-42.5 18t-17.5 43q0 26 17.5 44.5t42.5 18.5t43.5 -18.5t18.5 -44.5zM314 17q0 -11 -3.5 -14t-14.5 -3h-252q-11 0 -14 3 t-3 14v48q0 11 3 14t14 3h71v522h-71q-11 0 -14 3t-3 14v48q0 11 3 14t14 3h252q11 0 14.5 -3t3.5 -14v-48q0 -11 -3.5 -14t-14.5 -3h-71v-522h71q11 0 14.5 -3t3.5 -14v-48z"/>
    <glyph glyph-name="Eth" unicode="Ð" horiz-adv-x="572" d="M527 349q0 -245 -125 -317q-55 -32 -160 -32h-136q-11 0 -14 3.5t-3 14.5v301h-55q-11 0 -14 3t-3 14v42q0 11 3 14.5t14 3.5h55v273q0 11 3 14t14 3h131q83 0 142 -23q148 -59 148 -314zM415 345q0 98 -18 153t-58 78q-33 20 -102 20h-38v-200h110q12 0 14.5 -3t2.5 -15 v-42q0 -12 -2.5 -14.5t-14.5 -2.5h-110v-229h43q49 0 76.5 10t48.5 34q48 56 48 211z"/>
    <glyph glyph-name="Ntilde" unicode="Ñ" horiz-adv-x="590" d="M438 830q2 -1 2 -5q0 -1 -5 -16q-36 -72 -93 -72q-24 0 -56 19.5t-47 19.5q-23 0 -41 -30q-5 -8 -9 -8t-12 5l-32 16q-7 4 -7 8q0 3 3 9q18 36 39 56.5t54 20.5q28 0 60.5 -19t46.5 -19q23 0 38 27q5 10 10 10q1 0 7 -2zM514 17q0 -11 -3 -14t-14 -3h-60q-14 0 -21 14 l-202 410q-24 47 -46 118q6 -74 6 -110v-415q0 -11 -3.5 -14t-14.5 -3h-60q-11 0 -14 3t-3 14v652q0 11 3 14t14 3h72q14 0 20 -13l190 -381q24 -47 46 -118q-4 47 -4 106v389q0 11 3 14t14 3h60q11 0 14 -3t3 -14v-652z"/>
    <glyph glyph-name="Ograve" unicode="Ò" horiz-adv-x="563" d="M327 770l-14 -24q-5 -9 -9 -9q-2 0 -12 5l-170 77q-12 5 -12 11t5 13l29 51q6 10 13 10q5 0 16 -7l149 -102q10 -7 10 -12q0 -3 -5 -13zM518 348q0 -363 -240 -363q-233 0 -233 362q0 162 58 258.5t182 96.5q233 0 233 -354zM401 343q0 142 -34 213q-27 58 -84 58 q-62 0 -91.5 -65.5t-29.5 -204.5q0 -145 33 -214q27 -58 86 -58q62 0 91 65.5t29 205.5z"/>
    <glyph glyph-name="Oacute" unicode="Ó" horiz-adv-x="563" d="M456 841q4 -7 4 -11q0 -6 -14 -12l-171 -78q-7 -3 -11 -3t-7 6l-17 32q-3 6 -3 8q0 4 10 11l154 105q6 5 12 5q4 0 10 -10zM518 348q0 -363 -240 -363q-233 0 -233 362q0 162 58 258.5t182 96.5q233 0 233 -354zM401 343q0 142 -34 213q-27 58 -84 58q-62 0 -91.5 -65.5 t-29.5 -204.5q0 -145 33 -214q27 -58 86 -58q62 0 91 65.5t29 205.5z"/>
    <glyph glyph-name="Ocircumflex" unicode="Ô" horiz-adv-x="563" d="M412 775l-19 -31q-4 -7 -9 -7q-3 0 -11 5l-90 56l-92 -57q-7 -5 -9 -5q-3 0 -9 9l-19 29q-6 8 -6 11q0 2 8 8l117 92q8 6 10 6q4 0 12 -7l115 -91q6 -6 6 -8t-4 -10zM518 348q0 -363 -240 -363q-233 0 -233 362q0 162 58 258.5t182 96.5q233 0 233 -354zM401 343 q0 142 -34 213q-27 58 -84 58q-62 0 -91.5 -65.5t-29.5 -204.5q0 -145 33 -214q27 -58 86 -58q62 0 91 65.5t29 205.5z"/>
    <glyph glyph-name="Otilde" unicode="Õ" horiz-adv-x="563" d="M428 830q2 -1 2 -5q0 -1 -5 -16q-36 -72 -93 -72q-24 0 -56 19.5t-47 19.5q-23 0 -41 -30q-5 -8 -9 -8t-12 5l-32 16q-7 4 -7 8q0 3 3 9q18 36 39 56.5t54 20.5q28 0 60.5 -19t46.5 -19q23 0 38 27q5 10 10 10q1 0 7 -2zM518 348q0 -363 -240 -363q-233 0 -233 362 q0 162 58 258.5t182 96.5q233 0 233 -354zM401 343q0 142 -34 213q-27 58 -84 58q-62 0 -91.5 -65.5t-29.5 -204.5q0 -145 33 -214q27 -58 86 -58q62 0 91 65.5t29 205.5z"/>
    <glyph glyph-name="Odieresis" unicode="Ö" horiz-adv-x="563" d="M438 798q0 -26 -18 -43.5t-43 -17.5t-43 18t-18 43q0 26 18 44.5t43 18.5t43 -18.5t18 -44.5zM251 798q0 -25 -18.5 -43t-43.5 -18t-42.5 18t-17.5 43q0 26 17.5 44.5t42.5 18.5t43.5 -18.5t18.5 -44.5zM518 348q0 -363 -240 -363q-233 0 -233 362q0 162 58 258.5 t182 96.5q233 0 233 -354zM401 343q0 142 -34 213q-27 58 -84 58q-62 0 -91.5 -65.5t-29.5 -204.5q0 -145 33 -214q27 -58 86 -58q62 0 91 65.5t29 205.5z"/>
    <glyph glyph-name="multiply" unicode="×" horiz-adv-x="500" d="M439 201q0 -4 -7 -12l-41 -41q-7 -7 -12 -7q-6 0 -12 7l-117 119l-117 -118q-8 -8 -11 -8q-6 0 -13 8l-39 39q-8 8 -8 12q0 5 7 12l119 117l-119 117q-8 7 -8 12q0 4 7 12l41 41q7 7 12 7q6 0 12 -7l117 -119l117 118q8 8 11 8q6 0 13 -8l39 -39q8 -8 8 -12q0 -6 -7 -13 l-119 -116l119 -117q8 -7 8 -12z"/>
    <glyph glyph-name="Oslash" unicode="Ø" horiz-adv-x="563" d="M518 344q0 -359 -239 -359q-77 0 -132 42l-39 -74q-6 -10 -9 -10q-1 0 -9 4l-34 17q-13 6 -13 11q0 3 4 10l52 97q-54 95 -54 257q0 78 13 142t40 114.5t74.5 78.5t111.5 28q65 0 120 -34l34 65q6 10 10 10t11 -4l35 -18q8 -4 8 -9q0 -4 -3 -10l-43 -84q62 -91 62 -274z M358 584q-31 32 -76 32q-67 0 -99 -67.5t-32 -209.5q0 -67 12 -158zM413 345q0 85 -16 178l-198 -411q30 -42 82 -42q68 0 100 66.5t32 208.5z"/>
    <glyph glyph-name="Ugrave" unicode="Ù" horiz-adv-x="600" d="M347 770l-14 -24q-5 -9 -9 -9q-2 0 -12 5l-170 77q-12 5 -12 11t5 13l29 51q6 10 13 10q5 0 16 -7l149 -102q10 -7 10 -12q0 -3 -5 -13zM527 209q0 -65 -16 -105t-53 -70q-62 -49 -166 -49q-114 0 -166 55.5t-52 166.5v462q0 11 3.5 14t14.5 3h75q11 0 14 -3t3 -14v-460 q0 -76 25.5 -106.5t88.5 -30.5q65 0 94.5 32.5t29.5 103.5v461q0 11 3 14t14 3h71q11 0 14 -3t3 -14v-460z"/>
    <glyph glyph-name="Uacute" unicode="Ú" horiz-adv-x="600" d="M466 841q4 -7 4 -11q0 -6 -14 -12l-171 -78q-7 -3 -11 -3t-7 6l-17 32q-3 6 -3 8q0 4 10 11l154 105q6 5 12 5q4 0 10 -10zM527 209q0 -65 -16 -105t-53 -70q-62 -49 -166 -49q-114 0 -166 55.5t-52 166.5v462q0 11 3.5 14t14.5 3h75q11 0 14 -3t3 -14v-460 q0 -76 25.5 -106.5t88.5 -30.5q65 0 94.5 32.5t29.5 103.5v461q0 11 3 14t14 3h71q11 0 14 -3t3 -14v-460z"/>
    <glyph glyph-name="Ucircumflex" unicode="Û" horiz-adv-x="600" d="M435 775l-19 -31q-4 -7 -9 -7q-3 0 -11 5l-90 56l-92 -57q-7 -5 -9 -5q-3 0 -9 9l-19 29q-6 8 -6 11q0 2 8 8l117 92q7 6 10 6q4 0 12 -7l115 -91q7 -6 7 -9q0 -1 -2 -3.5t-3 -5.5zM527 209q0 -65 -16 -105t-53 -70q-62 -49 -166 -49q-114 0 -166 55.5t-52 166.5v462 q0 11 3.5 14t14.5 3h75q11 0 14 -3t3 -14v-460q0 -76 25.5 -106.5t88.5 -30.5q65 0 94.5 32.5t29.5 103.5v461q0 11 3 14t14 3h71q11 0 14 -3t3 -14v-460z"/>
    <glyph glyph-name="Udieresis" unicode="Ü" horiz-adv-x="600" d="M461 798q0 -26 -17.5 -43.5t-43.5 -17.5q-25 0 -43 18t-18 43q0 26 18 44.5t43 18.5t43 -18.5t18 -44.5zM274 798q0 -25 -18.5 -43t-43.5 -18t-42.5 18t-17.5 43q0 26 17.5 44.5t42.5 18.5t43.5 -18.5t18.5 -44.5zM527 209q0 -65 -16 -105t-53 -70q-62 -49 -166 -49 q-114 0 -166 55.5t-52 166.5v462q0 11 3.5 14t14.5 3h75q11 0 14 -3t3 -14v-460q0 -76 25.5 -106.5t88.5 -30.5q65 0 94.5 32.5t29.5 103.5v461q0 11 3 14t14 3h71q11 0 14 -3t3 -14v-460z"/>
    <glyph glyph-name="Yacute" unicode="Ý" horiz-adv-x="452" d="M386 841q4 -7 4 -11q0 -6 -14 -12l-171 -78q-7 -3 -11 -3t-7 6l-17 32q-3 6 -3 8q0 4 10 11l154 105q6 5 12 5q4 0 10 -10zM468 648l-184 -362v-269q0 -11 -3.5 -14t-14.5 -3h-75q-11 0 -13.5 3t-2.5 14v269l-193 366q-5 10 -5 15q0 7 8 8l89 18q4 1 9 1q7 0 12 -11 l99 -210q20 -42 37 -91q5 11 15.5 40t17.5 44l104 216q6 12 11 12h3l86 -22q7 -1 7 -7q0 -3 -7 -17z"/>
    <glyph glyph-name="Thorn" unicode="Þ" horiz-adv-x="498" d="M483 392q0 -66 -27.5 -117t-77.5 -77q-47 -24 -117 -24h-62v-156q0 -12 -2.5 -15t-14.5 -3h-75q-11 0 -14 3t-3 15v651q0 11 3 14t14 3h75q11 0 14 -3t3 -14v-91h66q100 0 142 -25q76 -46 76 -161zM375 388q0 78 -53 97q-21 8 -64 8h-59v-227h47q59 0 86 18q43 28 43 104 z"/>
    <glyph glyph-name="germandbls" unicode="ß" horiz-adv-x="589" d="M547 148q0 -75 -43 -118t-125 -43q-71 0 -118 22q-9 4 -9 10q0 5 1 8l15 55q2 6 8 6t14 -4q43 -20 91 -20q72 0 72 71q0 31 -16.5 51t-77.5 66q-61 45 -78.5 69.5t-17.5 62.5q0 31 12.5 54.5t45.5 54.5q26 25 35 41t9 38q0 34 -22.5 53t-63.5 19q-56 0 -79 -27t-23 -94 v-509q0 -9 -2.5 -11.5t-11.5 -2.5h-73q-9 0 -12 2.5t-3 11.5v504q0 63 15 101.5t49 64.5q52 40 144 40q84 0 132.5 -36.5t48.5 -100.5q0 -33 -14 -60t-48 -60l-10.5 -10.5l-12.5 -12.5t-10 -11.5t-8.5 -15t-2.5 -14.5q0 -15 9 -26.5t38 -33.5l47 -35q54 -41 74.5 -76 t20.5 -84z"/>
    <glyph glyph-name="agrave" unicode="à" horiz-adv-x="470" d="M297 591l-14 -24q-5 -9 -9 -9q-2 0 -12 5l-170 77q-12 5 -12 11q0 5 5 13l29 51q6 10 13 10q5 0 16 -7l149 -102q10 -7 10 -12q0 -3 -5 -13zM418 37q3 -9 3 -10q0 -5 -5 -7l-61 -30q-6 -3 -10 -3q-9 0 -17 16q-10 18 -17 45q-60 -60 -135 -60q-65 0 -103.5 39t-38.5 105 q0 43 16.5 75t41 50t61.5 29t70 14.5t73 3.5v32q0 46 -17.5 64.5t-61.5 18.5q-47 0 -115 -29q-6 -2 -9 -2q-6 0 -9 7l-16 49q-2 6 -2 9q0 13 20 20q70 29 143 29q84 0 124.5 -36t40.5 -115v-196q0 -73 24 -118zM296 112v119q-25 0 -42 -1.5t-42 -6.5t-40.5 -14t-27 -27 t-11.5 -43q0 -32 19.5 -53.5t48.5 -21.5q46 0 95 48z"/>
    <glyph glyph-name="aacute" unicode="á" horiz-adv-x="470" d="M396 663q4 -7 4 -11q0 -6 -14 -12l-171 -78q-7 -3 -11 -3t-7 6l-17 32q-3 6 -3 8q0 4 10 11l154 105q6 5 12 5q4 0 10 -10zM418 37q3 -9 3 -10q0 -5 -5 -7l-61 -30q-6 -3 -10 -3q-9 0 -17 16q-10 18 -17 45q-60 -60 -135 -60q-65 0 -103.5 39t-38.5 105q0 43 16.5 75 t41 50t61.5 29t70 14.5t73 3.5v32q0 46 -17.5 64.5t-61.5 18.5q-47 0 -115 -29q-6 -2 -9 -2q-6 0 -9 7l-16 49q-2 6 -2 9q0 13 20 20q70 29 143 29q84 0 124.5 -36t40.5 -115v-196q0 -73 24 -118zM296 112v119q-25 0 -42 -1.5t-42 -6.5t-40.5 -14t-27 -27t-11.5 -43 q0 -32 19.5 -53.5t48.5 -21.5q46 0 95 48z"/>
    <glyph glyph-name="acircumflex" unicode="â" horiz-adv-x="470" d="M348 603l-19 -31q-4 -7 -9 -7q-3 0 -11 5l-90 56l-92 -57q-7 -5 -9 -5q-3 0 -9 9l-19 29q-6 7 -6 11q0 2 8 8l117 92q8 6 10 6q4 0 12 -7l115 -91q7 -6 7 -9q0 -1 -2 -3.5t-3 -5.5zM418 37q3 -9 3 -10q0 -5 -5 -7l-61 -30q-6 -3 -10 -3q-9 0 -17 16q-10 18 -17 45 q-60 -60 -135 -60q-65 0 -103.5 39t-38.5 105q0 43 16.5 75t41 50t61.5 29t70 14.5t73 3.5v32q0 46 -17.5 64.5t-61.5 18.5q-47 0 -115 -29q-6 -2 -9 -2q-6 0 -9 7l-16 49q-2 6 -2 9q0 13 20 20q70 29 143 29q84 0 124.5 -36t40.5 -115v-196q0 -73 24 -118zM296 112v119 q-25 0 -42 -1.5t-42 -6.5t-40.5 -14t-27 -27t-11.5 -43q0 -32 19.5 -53.5t48.5 -21.5q46 0 95 48z"/>
    <glyph glyph-name="atilde" unicode="ã" horiz-adv-x="470" d="M378 672q2 -1 2 -5q0 -1 -5 -16q-36 -72 -93 -72q-24 0 -56 19.5t-47 19.5q-23 0 -41 -30q-5 -8 -9 -8t-12 5l-32 16q-7 4 -7 8q0 3 3 9q18 36 39 56.5t54 20.5q28 0 60.5 -19t46.5 -19q23 0 38 27q5 10 10 10q1 0 7 -2zM418 37q3 -9 3 -10q0 -5 -5 -7l-61 -30 q-6 -3 -10 -3q-9 0 -17 16q-10 18 -17 45q-60 -60 -135 -60q-65 0 -103.5 39t-38.5 105q0 43 16.5 75t41 50t61.5 29t70 14.5t73 3.5v32q0 46 -17.5 64.5t-61.5 18.5q-47 0 -115 -29q-6 -2 -9 -2q-6 0 -9 7l-16 49q-2 6 -2 9q0 13 20 20q70 29 143 29q84 0 124.5 -36 t40.5 -115v-196q0 -73 24 -118zM296 112v119q-25 0 -42 -1.5t-42 -6.5t-40.5 -14t-27 -27t-11.5 -43q0 -32 19.5 -53.5t48.5 -21.5q46 0 95 48z"/>
    <glyph glyph-name="adieresis" unicode="ä" horiz-adv-x="470" d="M383 648q0 -26 -17.5 -43.5t-43.5 -17.5q-25 0 -43 18t-18 43q0 26 18 44.5t43 18.5t43 -18.5t18 -44.5zM196 648q0 -25 -18.5 -43t-43.5 -18t-42.5 18t-17.5 43q0 26 17.5 44.5t42.5 18.5t43.5 -18.5t18.5 -44.5zM418 37q3 -9 3 -10q0 -5 -5 -7l-61 -30q-6 -3 -10 -3 q-9 0 -17 16q-10 18 -17 45q-60 -60 -135 -60q-65 0 -103.5 39t-38.5 105q0 43 16.5 75t41 50t61.5 29t70 14.5t73 3.5v32q0 46 -17.5 64.5t-61.5 18.5q-47 0 -115 -29q-6 -2 -9 -2q-6 0 -9 7l-16 49q-2 6 -2 9q0 13 20 20q70 29 143 29q84 0 124.5 -36t40.5 -115v-196 q0 -73 24 -118zM296 112v119q-25 0 -42 -1.5t-42 -6.5t-40.5 -14t-27 -27t-11.5 -43q0 -32 19.5 -53.5t48.5 -21.5q46 0 95 48z"/>
    <glyph glyph-name="aring" unicode="å" horiz-adv-x="470" d="M324 648q0 -40 -27.5 -67.5t-67.5 -27.5t-67.5 27.5t-27.5 67.5t27.5 67.5t67.5 27.5t67.5 -27.5t27.5 -67.5zM418 37q3 -9 3 -10q0 -5 -5 -7l-61 -30q-6 -3 -10 -3q-9 0 -17 16q-10 18 -17 45q-60 -60 -135 -60q-65 0 -103.5 39t-38.5 105q0 43 16.5 75t41 50t61.5 29 t70 14.5t73 3.5v32q0 46 -17.5 64.5t-61.5 18.5q-47 0 -115 -29q-6 -2 -9 -2q-6 0 -9 7l-16 49q-2 6 -2 9q0 13 20 20q70 29 143 29q84 0 124.5 -36t40.5 -115v-196q0 -73 24 -118zM269 648q0 18 -11.5 31t-28.5 13q-18 0 -29 -13t-11 -31q0 -19 11 -32t29 -13 q17 0 28.5 13.5t11.5 31.5zM296 112v119q-25 0 -42 -1.5t-42 -6.5t-40.5 -14t-27 -27t-11.5 -43q0 -32 19.5 -53.5t48.5 -21.5q46 0 95 48z"/>
    <glyph glyph-name="ae" unicode="æ" horiz-adv-x="711" d="M680 246q0 -24 -15 -24h-275q5 -152 116 -152q16 0 29 1.5t26 6t20 7.5t22.5 10.5t22.5 10.5q2 1 6 1q7 0 10 -6l23 -53q2 -6 2 -8q0 -4 -14 -12q-79 -43 -153 -43q-101 0 -160 73q-73 -69 -165 -69q-66 0 -103.5 38t-37.5 104q0 53 23 88.5t65.5 52t81.5 22t91 6.5v41 q0 41 -18.5 59.5t-58.5 18.5q-18 0 -35 -3t-26 -5.5t-29 -10t-29 -10.5q-2 -1 -7 -1q-6 0 -9 7l-17 52q-2 6 -2 8q0 8 17 15q71 31 140 31q92 0 134 -65q53 66 140 66q90 0 137.5 -66t47.5 -191zM574 299q-6 128 -88 128q-46 0 -66 -31t-29 -97h183zM295 111v116 q-89 -2 -125.5 -22t-36.5 -67q0 -32 18.5 -52.5t47.5 -20.5q51 0 96 46z"/>
    <glyph glyph-name="ccedilla" unicode="ç" horiz-adv-x="405" d="M400 435l-33 -54q-3 -4 -7 -4q-5 0 -9 4q-51 38 -92 38q-110 0 -110 -176q0 -174 106 -174q44 0 98 38q7 5 10 5t7 -7l20 -49q3 -8 3 -12q0 -7 -9 -13q-54 -43 -130 -46l-3 -40q39 -5 56.5 -21t17.5 -47q0 -38 -29 -61t-77 -23q-39 0 -57 10q-9 4 -9 12q0 5 1 8l6 32 q1 5 7 5h4q19 -7 41 -7q35 0 35 24q0 22 -45 22q-24 0 -24 17q0 1 0.5 4.5t0.5 5.5l8 66q-70 17 -108 79.5t-38 161.5q0 125 58 197.5t159 72.5q77 0 132 -44q12 -10 12 -18q0 -2 -2 -6z"/>
    <glyph glyph-name="egrave" unicode="è" horiz-adv-x="470" d="M297 591l-14 -24q-5 -9 -9 -9q-2 0 -12 5l-170 77q-12 5 -12 11q0 5 5 13l29 51q6 10 13 10q5 0 16 -7l149 -102q10 -7 10 -12q0 -3 -5 -13zM439 255v-7q0 -11 -1 -16.5t-4.5 -9.5t-10.5 -4h-278q6 -147 121 -147q21 0 41 4.5t29 7.5t29.5 13l22.5 11t5 1q4 0 8 -7 l23 -50q3 -6 3 -10q0 -7 -13 -15q-66 -41 -158 -41q-102 0 -158.5 67.5t-56.5 189.5q0 119 57 190t151 71q92 0 141 -64t49 -184zM332 295q-3 132 -89 132q-87 0 -97 -132h186z"/>
    <glyph glyph-name="eacute" unicode="é" horiz-adv-x="470" d="M396 663q4 -7 4 -11q0 -6 -14 -12l-171 -78q-7 -3 -11 -3t-7 6l-17 32q-3 6 -3 8q0 4 10 11l154 105q6 5 12 5q4 0 10 -10zM439 255v-7q0 -11 -1 -16.5t-4.5 -9.5t-10.5 -4h-278q6 -147 121 -147q21 0 41 4.5t29 7.5t29.5 13l22.5 11t5 1q4 0 8 -7l23 -50q3 -6 3 -10 q0 -7 -13 -15q-66 -41 -158 -41q-102 0 -158.5 67.5t-56.5 189.5q0 119 57 190t151 71q92 0 141 -64t49 -184zM332 295q-3 132 -89 132q-87 0 -97 -132h186z"/>
    <glyph glyph-name="ecircumflex" unicode="ê" horiz-adv-x="470" d="M378 603l-19 -31q-4 -7 -9 -7q-3 0 -11 5l-90 56l-92 -57q-7 -5 -9 -5q-3 0 -9 9l-19 29q-6 7 -6 11q0 2 8 8l117 92q8 6 10 6q4 0 12 -7l115 -91q7 -6 7 -9q0 -1 -2 -3.5t-3 -5.5zM439 255v-7q0 -11 -1 -16.5t-4.5 -9.5t-10.5 -4h-278q6 -147 121 -147q21 0 41 4.5 t29 7.5t29.5 13l22.5 11t5 1q4 0 8 -7l23 -50q3 -6 3 -10q0 -7 -13 -15q-66 -41 -158 -41q-102 0 -158.5 67.5t-56.5 189.5q0 119 57 190t151 71q92 0 141 -64t49 -184zM332 295q-3 132 -89 132q-87 0 -97 -132h186z"/>
    <glyph glyph-name="edieresis" unicode="ë" horiz-adv-x="470" d="M403 648q0 -26 -17.5 -43.5t-43.5 -17.5q-25 0 -43 18t-18 43q0 26 18 44.5t43 18.5t43 -18.5t18 -44.5zM216 648q0 -25 -18.5 -43t-43.5 -18t-42.5 18t-17.5 43q0 26 17.5 44.5t42.5 18.5t43.5 -18.5t18.5 -44.5zM439 255v-7q0 -11 -1 -16.5t-4.5 -9.5t-10.5 -4h-278 q6 -147 121 -147q21 0 41 4.5t29 7.5t29.5 13l22.5 11t5 1q4 0 8 -7l23 -50q3 -6 3 -10q0 -7 -13 -15q-66 -41 -158 -41q-102 0 -158.5 67.5t-56.5 189.5q0 119 57 190t151 71q92 0 141 -64t49 -184zM332 295q-3 132 -89 132q-87 0 -97 -132h186z"/>
    <glyph glyph-name="igrave" unicode="ì" horiz-adv-x="276" d="M177 591l-14 -24q-5 -9 -9 -9q-2 0 -12 5l-170 77q-12 5 -12 11q0 5 5 13l29 51q6 10 13 10q6 0 16 -7l149 -102q10 -7 10 -12q0 -3 -5 -13zM196 14q0 -9 -2 -11.5t-11 -2.5h-73q-10 0 -12 2.5t-2 12.5v395h-77q-10 0 -12.5 2.5t-2.5 12.5v48q0 10 2.5 12.5t12.5 2.5h163 q9 0 11.5 -2.5t2.5 -12.5v-459z"/>
    <glyph glyph-name="iacute" unicode="í" horiz-adv-x="276" d="M286 663q4 -7 4 -11q0 -6 -14 -12l-171 -78q-7 -3 -11 -3t-7 6l-17 32q-3 6 -3 8q0 4 10 11l154 105q6 5 12 5q4 0 10 -10zM196 14q0 -9 -2 -11.5t-11 -2.5h-73q-10 0 -12 2.5t-2 12.5v395h-77q-10 0 -12.5 2.5t-2.5 12.5v48q0 10 2.5 12.5t12.5 2.5h163q9 0 11.5 -2.5 t2.5 -12.5v-459z"/>
    <glyph glyph-name="icircumflex" unicode="î" horiz-adv-x="276" d="M268 603l-19 -31q-4 -7 -9 -7q-3 0 -11 5l-90 56l-92 -57q-7 -5 -9 -5q-3 0 -9 9l-19 29q-6 8 -6 11q0 2 8 8l117 92q8 6 10 6q4 0 12 -7l115 -91q7 -6 7 -9q0 -1 -2 -3.5t-3 -5.5zM196 14q0 -9 -2 -11.5t-11 -2.5h-73q-10 0 -12 2.5t-2 12.5v395h-77q-10 0 -12.5 2.5 t-2.5 12.5v48q0 10 2.5 12.5t12.5 2.5h163q9 0 11.5 -2.5t2.5 -12.5v-459z"/>
    <glyph glyph-name="idieresis" unicode="ï" horiz-adv-x="276" d="M283 648q0 -26 -17.5 -43.5t-43.5 -17.5q-25 0 -43 18t-18 43q0 26 18 44.5t43 18.5t43 -18.5t18 -44.5zM96 648q0 -25 -18.5 -43t-43.5 -18t-42.5 18t-17.5 43q0 26 17.5 44.5t42.5 18.5t43.5 -18.5t18.5 -44.5zM196 14q0 -9 -2 -11.5t-11 -2.5h-73q-10 0 -12 2.5 t-2 12.5v395h-77q-10 0 -12.5 2.5t-2.5 12.5v48q0 10 2.5 12.5t12.5 2.5h163q9 0 11.5 -2.5t2.5 -12.5v-459z"/>
    <glyph glyph-name="eth" unicode="ð" horiz-adv-x="498" d="M458 253q0 -124 -57 -196t-155 -72q-97 0 -151 69t-54 192q0 116 55 186q55 71 143 71q40 0 78 -26q-26 69 -61 119l-86 -43q-4 -3 -8 -3q-5 0 -8 8l-15 30q-3 6 -3 9q0 4 8 8l83 41q-14 25 -41 63q-8 10 -8 16t12 9l47 7q4 1 11 1q8 0 15 -7q12 -11 40 -52l87 43 q3 2 7 2t9 -8l14 -28q3 -7 3 -10q0 -4 -9 -8l-80 -41q124 -208 124 -380zM354 243q0 178 -105 178q-100 0 -100 -171q0 -95 27 -143q23 -40 76 -40q54 0 77 42q25 44 25 134z"/>
    <glyph glyph-name="ntilde" unicode="ñ" horiz-adv-x="526" d="M408 672q2 -1 2 -5q0 -1 -5 -16q-36 -72 -93 -72q-24 0 -56 19.5t-47 19.5q-23 0 -41 -30q-5 -8 -9 -8t-12 5l-32 16q-7 4 -7 8q0 3 3 9q18 36 39 56.5t54 20.5q28 0 60.5 -19t46.5 -19q23 0 38 27q5 10 10 10q1 0 7 -2zM454 14q0 -9 -3 -11.5t-12 -2.5h-73q-9 0 -11 2 t-2 12v321q0 44 -15 64t-48 20q-52 0 -109 -52v-353q0 -9 -2.5 -11.5t-11.5 -2.5h-73q-9 0 -11.5 2.5t-2.5 11.5v341q0 58 -19 99q-3 6 -3 10t7 8l67 30q2 1 6 1q6 0 15 -17q12 -26 20 -51q32 25 48 36t43.5 21t57.5 10q70 0 101 -35t31 -118v-335z"/>
    <glyph glyph-name="ograve" unicode="ò" horiz-adv-x="498" d="M297 591l-14 -24q-5 -9 -9 -9q-2 0 -12 5l-170 77q-12 5 -12 11q0 5 5 13l29 51q6 10 13 10q5 0 16 -7l149 -102q10 -7 10 -12q0 -3 -5 -13zM458 245q0 -121 -56.5 -190.5t-154.5 -69.5t-152 68t-54 190t56 191t155 69q97 0 151.5 -68t54.5 -190zM350 247q0 174 -100 174 q-101 0 -101 -174q0 -93 24.5 -136.5t76.5 -43.5t76 43.5t24 136.5z"/>
    <glyph glyph-name="oacute" unicode="ó" horiz-adv-x="498" d="M396 663q4 -7 4 -11q0 -6 -14 -12l-171 -78q-7 -3 -11 -3t-7 6l-17 32q-3 6 -3 8q0 4 10 11l154 105q6 5 12 5q4 0 10 -10zM458 245q0 -121 -56.5 -190.5t-154.5 -69.5t-152 68t-54 190t56 191t155 69q97 0 151.5 -68t54.5 -190zM350 247q0 174 -100 174 q-101 0 -101 -174q0 -93 24.5 -136.5t76.5 -43.5t76 43.5t24 136.5z"/>
    <glyph glyph-name="ocircumflex" unicode="ô" horiz-adv-x="498" d="M378 603l-19 -31q-4 -7 -9 -7q-3 0 -11 5l-90 56l-92 -57q-7 -5 -9 -5q-3 0 -9 9l-19 29q-6 7 -6 11q0 2 8 8l117 92q8 6 10 6q4 0 12 -7l115 -91q7 -6 7 -9q0 -1 -2 -3.5t-3 -5.5zM458 245q0 -121 -56.5 -190.5t-154.5 -69.5t-152 68t-54 190t56 191t155 69 q97 0 151.5 -68t54.5 -190zM350 247q0 174 -100 174q-101 0 -101 -174q0 -93 24.5 -136.5t76.5 -43.5t76 43.5t24 136.5z"/>
    <glyph glyph-name="otilde" unicode="õ" horiz-adv-x="498" d="M388 672q2 -1 2 -5q0 -1 -5 -16q-36 -72 -93 -72q-24 0 -56 19.5t-47 19.5q-23 0 -41 -30q-5 -8 -9 -8t-12 5l-32 16q-7 4 -7 8q0 3 3 9q18 36 39 56.5t54 20.5q28 0 60.5 -19t46.5 -19q23 0 38 27q5 10 10 10q1 0 7 -2zM458 245q0 -121 -56.5 -190.5t-154.5 -69.5 t-152 68t-54 190t56 191t155 69q97 0 151.5 -68t54.5 -190zM350 247q0 174 -100 174q-101 0 -101 -174q0 -93 24.5 -136.5t76.5 -43.5t76 43.5t24 136.5z"/>
    <glyph glyph-name="odieresis" unicode="ö" horiz-adv-x="498" d="M405 648q0 -26 -17.5 -43.5t-43.5 -17.5q-25 0 -43 18t-18 43q0 26 18 44.5t43 18.5t43 -18.5t18 -44.5zM218 648q0 -25 -18.5 -43t-43.5 -18t-42.5 18t-17.5 43q0 26 17.5 44.5t42.5 18.5t43.5 -18.5t18.5 -44.5zM458 245q0 -121 -56.5 -190.5t-154.5 -69.5t-152 68 t-54 190t56 191t155 69q97 0 151.5 -68t54.5 -190zM350 247q0 174 -100 174q-101 0 -101 -174q0 -93 24.5 -136.5t76.5 -43.5t76 43.5t24 136.5z"/>
    <glyph glyph-name="divide" unicode="÷" horiz-adv-x="500" d="M312 511q0 -25 -18.5 -43.5t-43.5 -18.5q-26 0 -44 18.5t-18 43.5t18.5 43t43.5 18t43.5 -18t18.5 -43zM478 302q0 -12 -2.5 -15t-13.5 -3h-423q-11 0 -14 3.5t-3 14.5v53q0 11 3 14.5t14 3.5h423q11 0 13.5 -3.5t2.5 -14.5v-53zM312 147q0 -25 -18.5 -43t-43.5 -18 t-43.5 18t-18.5 43t18 43t44 18q25 0 43.5 -18t18.5 -43z"/>
    <glyph glyph-name="oslash" unicode="ø" horiz-adv-x="498" d="M458 246q0 -122 -56 -191.5t-155 -69.5q-53 0 -98 22l-29 -54q-4 -8 -8 -8t-11 5l-30 16q-8 4 -8 8q0 3 4 10l34 61q-60 71 -60 198q0 121 56.5 190.5t154.5 69.5q52 0 96 -22l25 48q4 9 9 9q4 0 10 -3l32 -17q7 -4 7 -8q0 -2 -1.5 -4.5t-1.5 -3.5l-32 -59 q62 -71 62 -197zM303 404q-22 17 -53 17q-101 0 -101 -174q0 -75 14 -114zM350 247q0 57 -14 104l-140 -269q19 -15 54 -15q52 0 76 43.5t24 136.5z"/>
    <glyph glyph-name="ugrave" unicode="ù" horiz-adv-x="516" d="M317 591l-14 -24q-5 -9 -9 -9q-2 0 -12 5l-170 77q-12 5 -12 11q0 5 5 13l29 51q6 10 13 10q5 0 16 -7l149 -102q10 -7 10 -12q0 -3 -5 -13zM463 30q4 -6 4 -9q0 -5 -7 -8l-64 -24q-6 -2 -8 -2q-10 0 -19 16q-8 14 -15 41q-37 -33 -69 -46t-74 -13q-79 0 -111 41.5 t-32 122.5v319q0 12 13 15l70 17q3 1 9 1q10 0 10 -13v-316q0 -58 14.5 -80.5t51.5 -22.5q52 0 104 44v355q0 12 13 15l70 17q8 2 10 2q8 0 8 -14v-358q0 -63 22 -100z"/>
    <glyph glyph-name="uacute" unicode="ú" horiz-adv-x="516" d="M406 663q4 -7 4 -11q0 -6 -14 -12l-171 -78q-7 -3 -11 -3t-7 6l-17 32q-3 6 -3 8q0 4 10 11l154 105q6 5 12 5q4 0 10 -10zM463 30q4 -6 4 -9q0 -5 -7 -8l-64 -24q-6 -2 -8 -2q-10 0 -19 16q-8 14 -15 41q-37 -33 -69 -46t-74 -13q-79 0 -111 41.5t-32 122.5v319 q0 12 13 15l70 17q3 1 9 1q10 0 10 -13v-316q0 -58 14.5 -80.5t51.5 -22.5q52 0 104 44v355q0 12 13 15l70 17q8 2 10 2q8 0 8 -14v-358q0 -63 22 -100z"/>
    <glyph glyph-name="ucircumflex" unicode="û" horiz-adv-x="516" d="M386 603l-19 -31q-4 -7 -9 -7q-3 0 -11 5l-90 56l-92 -57q-7 -5 -9 -5q-3 0 -9 9l-19 29q-6 7 -6 11q0 2 8 8l117 92q7 6 10 6q4 0 12 -7l115 -91q7 -6 7 -9q0 -1 -2 -3.5t-3 -5.5zM463 30q4 -6 4 -9q0 -5 -7 -8l-64 -24q-6 -2 -8 -2q-10 0 -19 16q-8 14 -15 41 q-37 -33 -69 -46t-74 -13q-79 0 -111 41.5t-32 122.5v319q0 12 13 15l70 17q3 1 9 1q10 0 10 -13v-316q0 -58 14.5 -80.5t51.5 -22.5q52 0 104 44v355q0 12 13 15l70 17q8 2 10 2q8 0 8 -14v-358q0 -63 22 -100z"/>
    <glyph glyph-name="udieresis" unicode="ü" horiz-adv-x="516" d="M417 648q0 -26 -17.5 -43.5t-43.5 -17.5q-25 0 -43 18t-18 43q0 26 18 44.5t43 18.5t43 -18.5t18 -44.5zM230 648q0 -25 -18.5 -43t-43.5 -18t-42.5 18t-17.5 43q0 26 17.5 44.5t42.5 18.5t43.5 -18.5t18.5 -44.5zM463 30q4 -6 4 -9q0 -5 -7 -8l-64 -24q-6 -2 -8 -2 q-10 0 -19 16q-8 14 -15 41q-37 -33 -69 -46t-74 -13q-79 0 -111 41.5t-32 122.5v319q0 12 13 15l70 17q3 1 9 1q10 0 10 -13v-316q0 -58 14.5 -80.5t51.5 -22.5q52 0 104 44v355q0 12 13 15l70 17q8 2 10 2q8 0 8 -14v-358q0 -63 22 -100z"/>
    <glyph glyph-name="yacute" unicode="ý" horiz-adv-x="433" d="M386 663q4 -7 4 -11q0 -6 -14 -12l-171 -78q-7 -3 -11 -3t-7 6l-17 32q-3 6 -3 8q0 4 10 11l154 105q6 5 12 5q4 0 10 -10zM433 462l-116 -414q-34 -126 -56 -175q-40 -89 -135 -89q-65 0 -122 36q-8 4 -8 12q0 3 1 5l28 57q2 5 6 5q2 0 5 -2t4 -2q45 -28 80 -28 q29 0 47 19t32 62l16 52h-40q-13 0 -17 11l-156 447q-3 8 -3 12q0 6 12 9l75 15q2 0 4 0.5t3 0.5q11 0 14 -12l97 -312q11 -37 30 -123q2 13 5.5 33.5l6.5 37t7 30.5l82 334q3 13 10 13h2q2 -1 3 -1l77 -19q7 -3 7 -9v-2q-1 -2 -1 -3z"/>
    <glyph glyph-name="thorn" unicode="þ" horiz-adv-x="507" d="M467 253q0 -130 -45 -199t-130 -69q-56 0 -110 35v-198q0 -8 -2 -10.5t-10 -4.5l-71 -17q-8 -2 -9 -2q-9 0 -9 14v888q0 9 3 12.5t12 5.5l69 15q4 1 9 1q8 0 8 -14v-254q58 47 121 47q80 0 122 -63.5t42 -186.5zM363 250q0 31 -2 52.5t-9 52.5t-25.5 47.5t-47.5 16.5 q-41 0 -97 -43v-279q47 -30 90 -30q50 0 70.5 41.5t20.5 141.5z"/>
    <glyph glyph-name="ydieresis" unicode="ÿ" horiz-adv-x="433" d="M373 648q0 -26 -17.5 -43.5t-43.5 -17.5q-25 0 -43 18t-18 43q0 26 18 44.5t43 18.5t43 -18.5t18 -44.5zM186 648q0 -25 -18.5 -43t-43.5 -18t-42.5 18t-17.5 43q0 26 17.5 44.5t42.5 18.5t43.5 -18.5t18.5 -44.5zM433 462l-116 -414q-34 -126 -56 -175q-40 -89 -135 -89 q-65 0 -122 36q-8 4 -8 12q0 3 1 5l28 57q2 5 6 5q2 0 5 -2t4 -2q45 -28 80 -28q29 0 47 19t32 62l16 52h-40q-13 0 -17 11l-156 447q-3 8 -3 12q0 6 12 9l75 15q2 0 4 0.5t3 0.5q11 0 14 -12l97 -312q11 -37 30 -123q2 13 5.5 33.5l6.5 37t7 30.5l82 334q3 13 10 13h2 q2 -1 3 -1l77 -19q7 -3 7 -9v-2q-1 -2 -1 -3z"/>
    <glyph glyph-name="Amacron" unicode="Ā" horiz-adv-x="544" d="M530 25q0 -1 1.5 -6.5t1.5 -7.5q0 -11 -17 -11h-86q-16 0 -19 14l-49 179h-186l-49 -179q-3 -14 -19 -14h-80q-17 0 -17 10q0 6 3 15l199 647q3 10 5.5 12t12.5 2h82q10 0 12.5 -2t5.5 -12zM339 275l-50 201q-10 40 -23 110q-13 -75 -22 -110l-52 -201h147zM167 843h211 q11 0 13.5 -2.5t2.5 -13.5v-41q0 -11 -2.5 -14t-13.5 -3h-211q-11 0 -14 3t-3 14v41q0 11 3 13.5t14 2.5z"/>
    <glyph glyph-name="amacron" unicode="ā" horiz-adv-x="470" d="M418 37q3 -9 3 -10q0 -5 -5 -7l-61 -30q-6 -3 -10 -3q-9 0 -17 16q-10 18 -17 45q-60 -60 -135 -60q-65 0 -103.5 39t-38.5 105q0 43 16.5 75t41 50t61.5 29t70 14.5t73 3.5v32q0 46 -17.5 64.5t-61.5 18.5q-47 0 -115 -29q-6 -2 -9 -2q-6 0 -9 7l-16 49q-2 6 -2 9 q0 13 20 20q70 29 143 29q84 0 124.5 -36t40.5 -115v-196q0 -73 24 -118zM296 112v119q-25 0 -42 -1.5t-42 -6.5t-40.5 -14t-27 -27t-11.5 -43q0 -32 19.5 -53.5t48.5 -21.5q46 0 95 48zM122 664h211q11 0 13.5 -2.5t2.5 -13.5v-41q0 -11 -2.5 -14t-13.5 -3h-211 q-11 0 -14 3t-3 14v41q0 11 3 13.5t14 2.5z"/>
    <glyph glyph-name="Abreve" unicode="Ă" horiz-adv-x="544" d="M530 25q0 -1 1.5 -6.5t1.5 -7.5q0 -11 -17 -11h-86q-16 0 -19 14l-49 179h-186l-49 -179q-3 -14 -19 -14h-80q-17 0 -17 10q0 6 3 15l199 647q3 10 5.5 12t12.5 2h82q10 0 12.5 -2t5.5 -12zM339 275l-50 201q-10 40 -23 110q-13 -75 -22 -110l-52 -201h147zM407 853 q0 -47 -40 -81.5t-94 -34.5q-57 0 -96.5 33.5t-39.5 81.5q0 12 12 14l53 7h4q6 0 9 -11v-2q10 -57 57 -57q48 0 58 57q5 12 9 13h6l51 -7q11 -2 11 -13z"/>
    <glyph glyph-name="abreve" unicode="ă" horiz-adv-x="470" d="M418 37q3 -9 3 -10q0 -5 -5 -7l-61 -30q-6 -3 -10 -3q-9 0 -17 16q-10 18 -17 45q-60 -60 -135 -60q-65 0 -103.5 39t-38.5 105q0 43 16.5 75t41 50t61.5 29t70 14.5t73 3.5v32q0 46 -17.5 64.5t-61.5 18.5q-47 0 -115 -29q-6 -2 -9 -2q-6 0 -9 7l-16 49q-2 6 -2 9 q0 13 20 20q70 29 143 29q84 0 124.5 -36t40.5 -115v-196q0 -73 24 -118zM296 112v119q-25 0 -42 -1.5t-42 -6.5t-40.5 -14t-27 -27t-11.5 -43q0 -32 19.5 -53.5t48.5 -21.5q46 0 95 48zM362 674q0 -47 -40 -81.5t-94 -34.5q-57 0 -96.5 33.5t-39.5 81.5q0 13 12 14l53 7h4 q6 0 9 -11v-2q10 -57 57 -57q48 0 58 57q5 12 9 13h6l51 -7q11 -2 11 -13z"/>
    <glyph glyph-name="Aogonek" unicode="Ą" horiz-adv-x="544" d="M529 -140q1 -4 1 -9q0 -9 -15 -16q-29 -16 -68 -16q-43 0 -69 22t-26 60q0 49 59 111v2l-49 179h-186l-49 -179q-3 -14 -19 -14h-80q-17 0 -17 10q0 6 3 15l199 647q3 10 5.5 12t12.5 2h82q10 0 12.5 -2t5.5 -12l199 -647q0 -1 1.5 -6.5t1.5 -7.5q0 -11 -17 -11h-59 q-33 -43 -33 -87q0 -29 31 -29q23 0 50 16q1 0 3.5 1.5t3.5 1.5q3 0 6 -6zM339 275l-50 201q-10 40 -23 110q-13 -75 -22 -110l-52 -201h147z"/>
    <glyph glyph-name="aogonek" unicode="ą" horiz-adv-x="470" d="M439 -140q1 -4 1 -9q0 -9 -15 -16q-29 -16 -68 -16q-43 0 -69 22t-26 60q0 51 60 112q-8 19 -11 35q-60 -60 -135 -60q-65 0 -103.5 39t-38.5 105q0 43 16.5 75t41 50t61.5 29t70 14.5t73 3.5v32q0 46 -17.5 64.5t-61.5 18.5q-47 0 -115 -29q-6 -2 -9 -2q-6 0 -9 7 l-16 49q-2 6 -2 9q0 13 20 20q70 29 143 29q84 0 124.5 -36t40.5 -115v-196q0 -73 24 -118q3 -9 3 -10q0 -5 -5 -7l-53 -26q-29 -40 -29 -81q0 -29 31 -29q23 0 50 16q1 0 3.5 1.5t3.5 1.5q3 0 6 -6zM296 112v119q-25 0 -42 -1.5t-42 -6.5t-40.5 -14t-27 -27t-11.5 -43 q0 -32 19.5 -53.5t48.5 -21.5q46 0 95 48z"/>
    <glyph glyph-name="Cacute" unicode="Ć" horiz-adv-x="461" d="M417 118l30 -48q5 -8 5 -13q0 -8 -11 -16q-70 -56 -154 -56q-118 0 -180 93.5t-62 272.5q0 50 6 96t22.5 94t42 82.5t68 56.5t97.5 22q87 0 157 -60q10 -9 10 -16q0 -5 -5 -13l-32 -51q-3 -5 -9 -5q-7 0 -12 5q-61 48 -105 48q-63 0 -93 -59t-30 -185q0 -290 135 -290 q46 0 96 41q9 7 14 7q6 0 10 -6zM406 819l-171 -78q-7 -3 -11 -3t-7 6l-17 32q-3 6 -3 8q0 4 10 11l154 105q6 5 12 5q4 0 10 -10l33 -53q4 -7 4 -11q0 -6 -14 -12z"/>
    <glyph glyph-name="cacute" unicode="ć" horiz-adv-x="405" d="M400 435l-33 -54q-3 -4 -7 -4q-5 0 -9 4q-51 38 -92 38q-110 0 -110 -176q0 -174 106 -174q44 0 98 38q7 5 10 5t7 -7l20 -49q3 -8 3 -12q0 -7 -9 -13q-59 -46 -141 -46q-96 0 -149 65t-53 183q0 125 58 197.5t159 72.5q77 0 132 -44q12 -10 12 -18q0 -2 -2 -6zM414 640 l-171 -78q-7 -3 -11 -3t-7 6l-17 32q-3 6 -3 8q0 4 10 11l154 105q6 5 12 5q4 0 10 -10l33 -53q4 -7 4 -11q0 -6 -14 -12z"/>
    <glyph glyph-name="Ccircumflex" unicode="Ĉ" horiz-adv-x="461" d="M417 118l30 -48q5 -8 5 -13q0 -8 -11 -16q-70 -56 -154 -56q-118 0 -180 93.5t-62 272.5q0 50 6 96t22.5 94t42 82.5t68 56.5t97.5 22q87 0 157 -60q10 -9 10 -16q0 -5 -5 -13l-32 -51q-3 -5 -9 -5q-7 0 -12 5q-61 48 -105 48q-63 0 -93 -59t-30 -185q0 -290 135 -290 q46 0 96 41q9 7 14 7q6 0 10 -6zM408 782l-19 -31q-4 -7 -9 -7q-3 0 -11 5l-90 56l-92 -57q-7 -5 -9 -5q-3 0 -9 9l-19 29q-6 7 -6 11q0 2 8 8l117 92q7 6 10 6q4 0 12 -7l115 -91q7 -6 7 -9q0 -1 -2 -3.5t-3 -5.5z"/>
    <glyph glyph-name="ccircumflex" unicode="ĉ" horiz-adv-x="405" d="M400 435l-33 -54q-3 -4 -7 -4q-5 0 -9 4q-51 38 -92 38q-110 0 -110 -176q0 -174 106 -174q44 0 98 38q7 5 10 5t7 -7l20 -49q3 -8 3 -12q0 -7 -9 -13q-59 -46 -141 -46q-96 0 -149 65t-53 183q0 125 58 197.5t159 72.5q77 0 132 -44q12 -10 12 -18q0 -2 -2 -6zM386 603 l-19 -31q-4 -7 -9 -7q-3 0 -11 5l-90 56l-92 -57q-7 -5 -9 -5q-3 0 -9 9l-19 29q-6 7 -6 11q0 2 8 8l117 92q7 6 10 6q4 0 12 -7l115 -91q7 -6 7 -9q0 -1 -2 -3.5t-3 -5.5z"/>
    <glyph glyph-name="Cdotaccent" unicode="Ċ" horiz-adv-x="461" d="M417 118l30 -48q5 -8 5 -13q0 -8 -11 -16q-70 -56 -154 -56q-118 0 -180 93.5t-62 272.5q0 50 6 96t22.5 94t42 82.5t68 56.5t97.5 22q87 0 157 -60q10 -9 10 -16q0 -5 -5 -13l-32 -51q-3 -5 -9 -5q-7 0 -12 5q-61 48 -105 48q-63 0 -93 -59t-30 -185q0 -290 135 -290 q46 0 96 41q9 7 14 7q6 0 10 -6zM349 812q0 -29 -20.5 -49.5t-49.5 -20.5t-49.5 20.5t-20.5 49.5t20.5 49.5t49.5 20.5t49.5 -20.5t20.5 -49.5z"/>
    <glyph glyph-name="cdotaccent" unicode="ċ" horiz-adv-x="405" d="M400 435l-33 -54q-3 -4 -7 -4q-5 0 -9 4q-51 38 -92 38q-110 0 -110 -176q0 -174 106 -174q44 0 98 38q7 5 10 5t7 -7l20 -49q3 -8 3 -12q0 -7 -9 -13q-59 -46 -141 -46q-96 0 -149 65t-53 183q0 125 58 197.5t159 72.5q77 0 132 -44q12 -10 12 -18q0 -2 -2 -6zM327 633 q0 -29 -20.5 -49.5t-49.5 -20.5t-49.5 20.5t-20.5 49.5t20.5 49.5t49.5 20.5t49.5 -20.5t20.5 -49.5z"/>
    <glyph glyph-name="Ccaron" unicode="Č" horiz-adv-x="461" d="M417 118l30 -48q5 -8 5 -13q0 -8 -11 -16q-70 -56 -154 -56q-118 0 -180 93.5t-62 272.5q0 50 6 96t22.5 94t42 82.5t68 56.5t97.5 22q87 0 157 -60q10 -9 10 -16q0 -5 -5 -13l-32 -51q-3 -5 -9 -5q-7 0 -12 5q-61 48 -105 48q-63 0 -93 -59t-30 -185q0 -290 135 -290 q46 0 96 41q9 7 14 7q6 0 10 -6zM391 883l15 -25q5 -10 5 -12q0 -4 -9 -11l-112 -89q-8 -7 -12 -7q-3 0 -10 7l-112 89q-10 7 -10 11q0 3 6 12l16 25q6 9 10 9q2 0 12 -5l89 -54l88 54q8 5 12 5q6 0 12 -9z"/>
    <glyph glyph-name="ccaron" unicode="č" horiz-adv-x="405" d="M400 435l-33 -54q-3 -4 -7 -4q-5 0 -9 4q-51 38 -92 38q-110 0 -110 -176q0 -174 106 -174q44 0 98 38q7 5 10 5t7 -7l20 -49q3 -8 3 -12q0 -7 -9 -13q-59 -46 -141 -46q-96 0 -149 65t-53 183q0 125 58 197.5t159 72.5q77 0 132 -44q12 -10 12 -18q0 -2 -2 -6zM369 704 l15 -25q5 -10 5 -12q0 -3 -9 -11l-112 -89q-8 -7 -12 -7q-3 0 -10 7l-112 89q-10 7 -10 11q0 3 6 12l16 25q6 9 10 9q2 0 12 -5l89 -54l88 54q8 5 12 5q6 0 12 -9z"/>
    <glyph glyph-name="Dcaron" unicode="Ď" horiz-adv-x="572" d="M527 353q0 -76 -11.5 -135t-39.5 -110.5t-81 -79.5t-129 -28h-160q-11 0 -13.5 3t-2.5 14v652q0 11 2.5 14t13.5 3h140q149 0 215 -84t66 -249zM411 344q0 46 -3 80t-13 68.5t-27 55.5t-46.5 34.5t-70.5 13.5h-51v-505h56q42 0 71.5 15t45.5 36.5t25 58t11 67t2 76.5z M384 883l15 -25q5 -10 5 -12q0 -4 -9 -11l-112 -89q-8 -7 -12 -7q-3 0 -10 7l-112 89q-10 7 -10 11q0 3 6 12l16 25q6 9 10 9q2 0 12 -5l89 -54l88 54q8 5 12 5q6 0 12 -9z"/>
    <glyph glyph-name="dcaron" unicode="ď" horiz-adv-x="507" d="M449 21l-64 -30q-3 -2 -9 -2q-10 0 -20 20q-5 9 -11 35q-75 -59 -144 -59q-75 0 -117.5 67t-42.5 185q0 141 60 210q50 56 123 56q49 0 104 -31v220q0 14 11 16l72 15q4 1 10 1q8 0 8 -14v-569q0 -39 3 -58t15 -39q1 -2 2.5 -4.5t2.5 -4t2 -3.5t1 -4q0 -5 -6 -7zM328 114 v280q-46 25 -87 25q-52 0 -74 -39.5t-22 -132.5q0 -96 19.5 -137.5t65.5 -41.5q51 0 98 46zM609 683l-80 -152q-8 -14 -18 -14q-2 0 -12 2l-14 5q-15 4 -15 13q0 4 3 13l36 141q5 17 22 17h63q21 0 21 -10q0 -6 -6 -15z"/>
    <glyph glyph-name="Dcroat" unicode="Đ" horiz-adv-x="572" d="M527 349q0 -245 -125 -317q-55 -32 -160 -32h-136q-11 0 -14 3.5t-3 14.5v301h-55q-11 0 -14 3t-3 14v42q0 11 3 14.5t14 3.5h55v273q0 11 3 14t14 3h131q83 0 142 -23q148 -59 148 -314zM415 345q0 98 -18 153t-58 78q-33 20 -102 20h-38v-200h110q12 0 14.5 -3t2.5 -15 v-42q0 -12 -2.5 -14.5t-14.5 -2.5h-110v-229h43q49 0 76.5 10t48.5 34q48 56 48 211z"/>
    <glyph glyph-name="dcroat" unicode="đ" horiz-adv-x="507" d="M449 21l-64 -30q-3 -2 -9 -2q-10 0 -20 20q-5 9 -11 35q-75 -59 -144 -59q-75 0 -117.5 67t-42.5 185q0 141 60 210q50 56 123 56q49 0 104 -31v89h-123q-9 0 -11.5 2.5t-2.5 11.5v42q0 9 2.5 11.5t11.5 2.5h123v61q0 14 11 16l72 15q4 1 10 1q8 0 8 -14v-79h64 q9 0 11.5 -2.5t2.5 -11.5v-42q0 -8 -3 -11t-11 -3h-64v-420q0 -39 3 -58t15 -39q1 -2 2.5 -4.5t2.5 -4t2 -3.5t1 -4q0 -5 -6 -7zM328 114v280q-46 25 -87 25q-52 0 -74 -39.5t-22 -132.5q0 -96 19.5 -137.5t65.5 -41.5q51 0 98 46z"/>
    <glyph glyph-name="Emacron" unicode="Ē" horiz-adv-x="470" d="M442 666l-17 -56q-4 -14 -19 -14h-206v-195h181q11 0 14 -3t3 -14v-54q0 -10 -3 -13t-14 -3h-181v-223h223q11 0 14 -3.5t3 -14.5v-56q0 -11 -3 -14t-14 -3h-317q-11 0 -13.5 3t-2.5 14v652q0 11 2.5 14t13.5 3h322q16 0 16 -9q0 -3 -2 -11zM165 843h211q11 0 13.5 -2.5 t2.5 -13.5v-41q0 -11 -2.5 -14t-13.5 -3h-211q-11 0 -14 3t-3 14v41q0 11 3 13.5t14 2.5z"/>
    <glyph glyph-name="emacron" unicode="ē" horiz-adv-x="470" d="M439 255v-7q0 -11 -1 -16.5t-4.5 -9.5t-10.5 -4h-278q6 -147 121 -147q21 0 41 4.5t29 7.5t29.5 13l22.5 11t5 1q4 0 8 -7l23 -50q3 -6 3 -10q0 -7 -13 -15q-66 -41 -158 -41q-102 0 -158.5 67.5t-56.5 189.5q0 119 57 190t151 71q92 0 141 -64t49 -184zM332 295 q-3 132 -89 132q-87 0 -97 -132h186zM144 664h211q11 0 13.5 -2.5t2.5 -13.5v-41q0 -11 -2.5 -14t-13.5 -3h-211q-11 0 -14 3t-3 14v41q0 11 3 13.5t14 2.5z"/>
    <glyph glyph-name="Ebreve" unicode="Ĕ" horiz-adv-x="470" d="M442 666l-17 -56q-4 -14 -19 -14h-206v-195h181q11 0 14 -3t3 -14v-54q0 -10 -3 -13t-14 -3h-181v-223h223q11 0 14 -3.5t3 -14.5v-56q0 -11 -3 -14t-14 -3h-317q-11 0 -13.5 3t-2.5 14v652q0 11 2.5 14t13.5 3h322q16 0 16 -9q0 -3 -2 -11zM405 853q0 -47 -40 -81.5 t-94 -34.5q-57 0 -96.5 33.5t-39.5 81.5q0 12 12 14l53 7h4q6 0 9 -11v-2q10 -57 57 -57q48 0 58 57q5 12 9 13h6l51 -7q11 -2 11 -13z"/>
    <glyph glyph-name="ebreve" unicode="ĕ" horiz-adv-x="470" d="M439 255v-7q0 -11 -1 -16.5t-4.5 -9.5t-10.5 -4h-278q6 -147 121 -147q21 0 41 4.5t29 7.5t29.5 13l22.5 11t5 1q4 0 8 -7l23 -50q3 -6 3 -10q0 -7 -13 -15q-66 -41 -158 -41q-102 0 -158.5 67.5t-56.5 189.5q0 119 57 190t151 71q92 0 141 -64t49 -184zM332 295 q-3 132 -89 132q-87 0 -97 -132h186zM384 674q0 -47 -40 -81.5t-94 -34.5q-57 0 -96.5 33.5t-39.5 81.5q0 13 12 14l53 7h4q6 0 9 -11v-2q10 -57 57 -57q48 0 58 57q5 12 9 13h6l51 -7q11 -2 11 -13z"/>
    <glyph glyph-name="Edotaccent" unicode="Ė" horiz-adv-x="470" d="M442 666l-17 -56q-4 -14 -19 -14h-206v-195h181q11 0 14 -3t3 -14v-54q0 -10 -3 -13t-14 -3h-181v-223h223q11 0 14 -3.5t3 -14.5v-56q0 -11 -3 -14t-14 -3h-317q-11 0 -13.5 3t-2.5 14v652q0 11 2.5 14t13.5 3h322q16 0 16 -9q0 -3 -2 -11zM340 812q0 -29 -20.5 -49.5 t-49.5 -20.5t-49.5 20.5t-20.5 49.5t20.5 49.5t49.5 20.5t49.5 -20.5t20.5 -49.5z"/>
    <glyph glyph-name="edotaccent" unicode="ė" horiz-adv-x="470" d="M439 255v-7q0 -11 -1 -16.5t-4.5 -9.5t-10.5 -4h-278q6 -147 121 -147q21 0 41 4.5t29 7.5t29.5 13l22.5 11t5 1q4 0 8 -7l23 -50q3 -6 3 -10q0 -7 -13 -15q-66 -41 -158 -41q-102 0 -158.5 67.5t-56.5 189.5q0 119 57 190t151 71q92 0 141 -64t49 -184zM332 295 q-3 132 -89 132q-87 0 -97 -132h186zM319 633q0 -29 -20.5 -49.5t-49.5 -20.5t-49.5 20.5t-20.5 49.5t20.5 49.5t49.5 20.5t49.5 -20.5t20.5 -49.5z"/>
    <glyph glyph-name="Eogonek" unicode="Ę" horiz-adv-x="470" d="M268 0h-162q-11 0 -13.5 3t-2.5 14v652q0 11 2.5 14t13.5 3h322q16 0 16 -9q0 -3 -2 -11l-17 -56q-4 -14 -19 -14h-206v-195h181q11 0 14 -3t3 -14v-54q0 -10 -3 -13t-14 -3h-181v-223h223q11 0 14 -3.5t3 -14.5v-56q0 -11 -3 -14t-14 -3h-97q-33 -43 -33 -86 q0 -29 31 -29q23 0 50 16q1 0 3.5 1.5t3.5 1.5q3 0 6 -6l11 -37q1 -4 1 -9q0 -8 -15 -16q-29 -16 -68 -16q-43 0 -69 22t-26 60q0 45 47 98z"/>
    <glyph glyph-name="eogonek" unicode="ę" horiz-adv-x="470" d="M402 -140q1 -4 1 -9q0 -9 -15 -16q-29 -16 -68 -16q-43 0 -69 22t-26 60q0 42 35 84h-4q-102 0 -158.5 67.5t-56.5 189.5q0 119 57 190t151 71q92 0 141 -64t49 -184v-7q0 -11 -1 -16.5t-4.5 -9.5t-10.5 -4h-278q6 -147 121 -147q21 0 41 4.5t29 7.5t29.5 13l22.5 11t5 1 q4 0 8 -7l23 -50q3 -6 3 -10q0 -7 -13 -15q-34 -21 -89 -33q-28 -39 -28 -80q0 -29 31 -29q23 0 50 16q1 0 3.5 1.5t3.5 1.5q3 0 6 -6zM332 295q-3 132 -89 132q-87 0 -97 -132h186z"/>
    <glyph glyph-name="Ecaron" unicode="Ě" horiz-adv-x="470" d="M442 666l-17 -56q-4 -14 -19 -14h-206v-195h181q11 0 14 -3t3 -14v-54q0 -10 -3 -13t-14 -3h-181v-223h223q11 0 14 -3.5t3 -14.5v-56q0 -11 -3 -14t-14 -3h-317q-11 0 -13.5 3t-2.5 14v652q0 11 2.5 14t13.5 3h322q16 0 16 -9q0 -3 -2 -11zM382 883l15 -25q5 -10 5 -12 q0 -4 -9 -11l-112 -89q-8 -7 -12 -7q-3 0 -10 7l-112 89q-10 7 -10 11q0 3 6 12l16 25q6 9 10 9q2 0 12 -5l89 -54l88 54q8 5 12 5q6 0 12 -9z"/>
    <glyph glyph-name="ecaron" unicode="ě" horiz-adv-x="470" d="M439 255v-7q0 -11 -1 -16.5t-4.5 -9.5t-10.5 -4h-278q6 -147 121 -147q21 0 41 4.5t29 7.5t29.5 13l22.5 11t5 1q4 0 8 -7l23 -50q3 -6 3 -10q0 -7 -13 -15q-66 -41 -158 -41q-102 0 -158.5 67.5t-56.5 189.5q0 119 57 190t151 71q92 0 141 -64t49 -184zM332 295 q-3 132 -89 132q-87 0 -97 -132h186zM361 704l15 -25q5 -10 5 -12q0 -3 -9 -11l-112 -89q-8 -7 -12 -7q-3 0 -10 7l-112 89q-10 7 -10 11q0 3 6 12l16 25q6 9 10 9q2 0 12 -5l89 -54l88 54q8 5 12 5q6 0 12 -9z"/>
    <glyph glyph-name="Gcircumflex" unicode="Ĝ" horiz-adv-x="544" d="M385 92v173h-77q-11 0 -14 3t-3 14v54q0 11 3 14.5t14 3.5h162q11 0 14.5 -3.5t3.5 -14.5v-286q0 -12 -16 -22q-70 -43 -173 -43q-254 0 -254 353q0 179 65 271.5t191 92.5q97 0 167 -51q8 -6 8 -12q0 -4 -4 -12l-26 -51q-4 -7 -10 -7t-10 3q-42 25 -67 33.5t-56 8.5 q-74 0 -109 -64t-35 -199q0 -35 1.5 -60.5t5.5 -61t14 -60t26 -48t42 -35.5t60 -12q38 0 77 18zM430 782l-19 -31q-4 -7 -9 -7q-3 0 -11 5l-90 56l-92 -57q-7 -5 -9 -5q-3 0 -9 9l-19 29q-6 7 -6 11q0 2 8 8l117 92q7 6 10 6q4 0 12 -7l115 -91q7 -6 7 -9q0 -1 -2 -3.5 t-3 -5.5z"/>
    <glyph glyph-name="gcircumflex" unicode="ĝ" horiz-adv-x="498" d="M454 459q-29 -50 -29 -113v-152q0 -48 2 -130q2 -54 2 -82q0 -25 -1 -38q-12 -154 -180 -154q-95 0 -175 41q-11 5 -11 11t2 10l19 55q3 8 9 8q3 0 13 -4q78 -35 136 -35q50 0 70.5 22t20.5 74q0 57 -4 84q-60 -46 -127 -46q-74 0 -117 62.5t-43 168.5q0 124 49 193 t137 69q62 0 119 -44q1 2 4.5 10.5t5.5 12.5q1 2 4 6.5t4.5 7t3.5 5t5 4t6 1.5q1 0 7 -2l63 -28q7 -4 7 -9q0 -2 -2 -8zM326 136v253q-47 29 -83 29q-47 0 -72.5 -42.5t-25.5 -121.5q0 -160 82 -160q45 0 99 42zM378 603l-19 -31q-4 -7 -9 -7q-3 0 -11 5l-90 56l-92 -57 q-7 -5 -9 -5q-3 0 -9 9l-19 29q-6 7 -6 11q0 2 8 8l117 92q8 6 10 6q4 0 12 -7l115 -91q7 -6 7 -9q0 -1 -2 -3.5t-3 -5.5z"/>
    <glyph glyph-name="Gbreve" unicode="Ğ" horiz-adv-x="544" d="M385 92v173h-77q-11 0 -14 3t-3 14v54q0 11 3 14.5t14 3.5h162q11 0 14.5 -3.5t3.5 -14.5v-286q0 -12 -16 -22q-70 -43 -173 -43q-254 0 -254 353q0 179 65 271.5t191 92.5q97 0 167 -51q8 -6 8 -12q0 -4 -4 -12l-26 -51q-4 -7 -10 -7t-10 3q-42 25 -67 33.5t-56 8.5 q-74 0 -109 -64t-35 -199q0 -35 1.5 -60.5t5.5 -61t14 -60t26 -48t42 -35.5t60 -12q38 0 77 18zM436 853q0 -47 -40 -81.5t-94 -34.5q-57 0 -96.5 33.5t-39.5 81.5q0 12 12 14l53 7h4q6 0 9 -11v-2q10 -57 57 -57q48 0 58 57q5 12 9 13h6l51 -7q11 -2 11 -13z"/>
    <glyph glyph-name="gbreve" unicode="ğ" horiz-adv-x="498" d="M454 459q-29 -50 -29 -113v-152q0 -48 2 -130q2 -54 2 -82q0 -25 -1 -38q-12 -154 -180 -154q-95 0 -175 41q-11 5 -11 11t2 10l19 55q3 8 9 8q3 0 13 -4q78 -35 136 -35q50 0 70.5 22t20.5 74q0 57 -4 84q-60 -46 -127 -46q-74 0 -117 62.5t-43 168.5q0 124 49 193 t137 69q62 0 119 -44q1 2 4.5 10.5t5.5 12.5q1 2 4 6.5t4.5 7t3.5 5t5 4t6 1.5q1 0 7 -2l63 -28q7 -4 7 -9q0 -2 -2 -8zM326 136v253q-47 29 -83 29q-47 0 -72.5 -42.5t-25.5 -121.5q0 -160 82 -160q45 0 99 42zM384 674q0 -47 -40 -81.5t-94 -34.5q-57 0 -96.5 33.5 t-39.5 81.5q0 13 12 14l53 7h4q6 0 9 -11v-2q10 -57 57 -57q48 0 58 57q5 12 9 13h6l51 -7q11 -2 11 -13z"/>
    <glyph glyph-name="Gdotaccent" unicode="Ġ" horiz-adv-x="544" d="M385 92v173h-77q-11 0 -14 3t-3 14v54q0 11 3 14.5t14 3.5h162q11 0 14.5 -3.5t3.5 -14.5v-286q0 -12 -16 -22q-70 -43 -173 -43q-254 0 -254 353q0 179 65 271.5t191 92.5q97 0 167 -51q8 -6 8 -12q0 -4 -4 -12l-26 -51q-4 -7 -10 -7t-10 3q-42 25 -67 33.5t-56 8.5 q-74 0 -109 -64t-35 -199q0 -35 1.5 -60.5t5.5 -61t14 -60t26 -48t42 -35.5t60 -12q38 0 77 18zM371 812q0 -29 -20.5 -49.5t-49.5 -20.5t-49.5 20.5t-20.5 49.5t20.5 49.5t49.5 20.5t49.5 -20.5t20.5 -49.5z"/>
    <glyph glyph-name="gdotaccent" unicode="ġ" horiz-adv-x="498" d="M454 459q-29 -50 -29 -113v-152q0 -48 2 -130q2 -54 2 -82q0 -25 -1 -38q-12 -154 -180 -154q-95 0 -175 41q-11 5 -11 11t2 10l19 55q3 8 9 8q3 0 13 -4q78 -35 136 -35q50 0 70.5 22t20.5 74q0 57 -4 84q-60 -46 -127 -46q-74 0 -117 62.5t-43 168.5q0 124 49 193 t137 69q62 0 119 -44q1 2 4.5 10.5t5.5 12.5q1 2 4 6.5t4.5 7t3.5 5t5 4t6 1.5q1 0 7 -2l63 -28q7 -4 7 -9q0 -2 -2 -8zM326 136v253q-47 29 -83 29q-47 0 -72.5 -42.5t-25.5 -121.5q0 -160 82 -160q45 0 99 42zM319 633q0 -29 -20.5 -49.5t-49.5 -20.5t-49.5 20.5 t-20.5 49.5t20.5 49.5t49.5 20.5t49.5 -20.5t20.5 -49.5z"/>
    <glyph glyph-name="Gcommaaccent" unicode="Ģ" horiz-adv-x="544" d="M385 92v173h-77q-11 0 -14 3t-3 14v54q0 11 3 14.5t14 3.5h162q11 0 14.5 -3.5t3.5 -14.5v-286q0 -12 -16 -22q-70 -43 -173 -43q-254 0 -254 353q0 179 65 271.5t191 92.5q97 0 167 -51q8 -6 8 -12q0 -4 -4 -12l-26 -51q-4 -7 -10 -7t-10 3q-42 25 -67 33.5t-56 8.5 q-74 0 -109 -64t-35 -199q0 -35 1.5 -60.5t5.5 -61t14 -60t26 -48t42 -35.5t60 -12q38 0 77 18zM351 -75l-80 -152q-8 -14 -18 -14q-2 0 -12 2l-14 5q-15 4 -15 13q0 4 3 13l36 141q5 17 22 17h63q21 0 21 -10q0 -6 -6 -15z"/>
    <glyph glyph-name="gcommaaccent" unicode="ģ" horiz-adv-x="498" d="M182 568l80 152q8 14 18 14q2 0 12 -2l14 -5q14 -4 14 -13q0 -1 -2 -13l-36 -141q-5 -17 -22 -17h-63q-21 0 -21 10q0 6 6 15zM454 459q-29 -50 -29 -113v-152q0 -48 2 -130q2 -54 2 -82q0 -25 -1 -38q-12 -154 -180 -154q-95 0 -175 41q-11 5 -11 11t2 10l19 55q3 8 9 8 q3 0 13 -4q78 -35 136 -35q50 0 70.5 22t20.5 74q0 57 -4 84q-60 -46 -127 -46q-74 0 -117 62.5t-43 168.5q0 124 49 193t137 69q62 0 119 -44q1 2 4.5 10.5t5.5 12.5q1 2 4 6.5t4.5 7t3.5 5t5 4t6 1.5q1 0 7 -2l63 -28q7 -4 7 -9q0 -2 -2 -8zM326 136v253q-47 29 -83 29 q-47 0 -72.5 -42.5t-25.5 -121.5q0 -160 82 -160q45 0 99 42z"/>
    <glyph glyph-name="Hcircumflex" unicode="Ĥ" horiz-adv-x="618" d="M200 399h220v270q0 11 3 14t14 3h75q11 0 14.5 -3t3.5 -14v-652q0 -11 -3.5 -14t-14.5 -3h-75q-11 0 -14 3t-3 14v297h-220v-297q0 -11 -3.5 -14t-14.5 -3h-76q-11 0 -13.5 3t-2.5 14v652q0 11 2.5 14t13.5 3h76q11 0 14.5 -3t3.5 -14v-270zM438 782l-19 -31q-4 -7 -9 -7 q-3 0 -11 5l-90 56l-92 -57q-7 -5 -9 -5q-3 0 -9 9l-19 29q-6 7 -6 11q0 2 8 8l117 92q7 6 10 6q4 0 12 -7l115 -91q7 -6 7 -9q0 -1 -2 -3.5t-3 -5.5z"/>
    <glyph glyph-name="hcircumflex" unicode="ĥ" horiz-adv-x="526" d="M181 367v-353q0 -9 -2.5 -11.5t-11.5 -2.5h-72q-10 0 -13 2.5t-3 11.5v678q0 13 14 16l69 14q8 2 11 2q8 0 8 -14v-270q67 63 146 63q73 0 100 -39.5t27 -114.5v-335q0 -9 -3 -11.5t-12 -2.5h-73q-10 0 -12 3t-2 13v319q0 47 -14 65.5t-48 18.5q-49 0 -109 -52zM262 820 l-19 -31q-4 -7 -9 -7q-3 0 -11 5l-90 56l-92 -57q-7 -5 -9 -5q-3 0 -9 9l-19 29q-6 7 -6 11q0 2 8 8l117 92q8 6 10 6q4 0 12 -7l115 -91q7 -6 7 -9q0 -1 -2 -3.5t-3 -5.5z"/>
    <glyph glyph-name="Hbar" unicode="Ħ" horiz-adv-x="618" d="M530 17q0 -11 -3.5 -14t-14.5 -3h-75q-11 0 -14 3t-3 14v297h-220v-297q0 -11 -3.5 -14t-14.5 -3h-76q-11 0 -13.5 3t-2.5 14v484h-68q-11 0 -14 3t-3 14v42q0 11 3 14.5t14 3.5h68v91q0 11 2.5 14t13.5 3h76q11 0 14.5 -3t3.5 -14v-91h220v91q0 11 3 14t14 3h75 q11 0 14.5 -3t3.5 -14v-91h66q12 0 14.5 -3t2.5 -15v-42q0 -12 -2.5 -14.5t-14.5 -2.5h-66v-484zM200 399h220v102h-220v-102z"/>
    <glyph glyph-name="hbar" unicode="ħ" horiz-adv-x="526" d="M181 367v-353q0 -9 -2.5 -11.5t-11.5 -2.5h-72q-10 0 -13 2.5t-3 11.5v547h-65q-9 0 -11.5 2.5t-2.5 11.5v42q0 8 3 11t11 3h65v61q0 13 14 16l69 14q8 2 11 2q8 0 8 -14v-79h121q9 0 11.5 -2.5t2.5 -11.5v-42q0 -9 -2.5 -11.5t-11.5 -2.5h-121v-121q67 63 146 63 q73 0 100 -39.5t27 -114.5v-335q0 -9 -3 -11.5t-12 -2.5h-73q-10 0 -12 3t-2 13v319q0 47 -14 65.5t-48 18.5q-49 0 -109 -52z"/>
    <glyph glyph-name="Itilde" unicode="Ĩ" horiz-adv-x="341" d="M115 82v522h-71q-11 0 -14 3t-3 14v48q0 11 3 14t14 3h252q11 0 14.5 -3t3.5 -14v-48q0 -11 -3.5 -14t-14.5 -3h-71v-522h71q11 0 14.5 -3t3.5 -14v-48q0 -11 -3.5 -14t-14.5 -3h-252q-11 0 -14 3t-3 14v48q0 11 3 14t14 3h71zM277 871l42 -20q2 -1 2 -5q0 -1 -5 -16 q-36 -72 -93 -72q-24 0 -56 19.5t-47 19.5q-23 0 -41 -30q-5 -8 -9 -8t-12 5l-32 16q-7 4 -7 8q0 3 3 9q18 36 39 56.5t54 20.5q28 0 60.5 -19t46.5 -19q23 0 38 27q5 10 10 10q1 0 7 -2z"/>
    <glyph glyph-name="itilde" unicode="ĩ" horiz-adv-x="276" d="M96 410h-77q-10 0 -12.5 2.5t-2.5 12.5v48q0 10 2.5 12.5t12.5 2.5h163q9 0 11.5 -2.5t2.5 -12.5v-459q0 -9 -2 -11.5t-11 -2.5h-73q-10 0 -12 2.5t-2 12.5v395zM226 692l42 -20q2 -1 2 -5q0 -1 -5 -16q-36 -72 -93 -72q-24 0 -56 19.5t-47 19.5q-23 0 -41 -30 q-5 -8 -9 -8t-12 5l-32 16q-7 4 -7 8q0 3 3 9q18 36 39 56.5t54 20.5q28 0 60.5 -19t46.5 -19q23 0 38 27q5 10 10 10q1 0 7 -2z"/>
    <glyph glyph-name="Imacron" unicode="Ī" horiz-adv-x="341" d="M115 82v522h-71q-11 0 -14 3t-3 14v48q0 11 3 14t14 3h252q11 0 14.5 -3t3.5 -14v-48q0 -11 -3.5 -14t-14.5 -3h-71v-522h71q11 0 14.5 -3t3.5 -14v-48q0 -11 -3.5 -14t-14.5 -3h-252q-11 0 -14 3t-3 14v48q0 11 3 14t14 3h71zM65 843h211q11 0 13.5 -2.5t2.5 -13.5v-41 q0 -11 -2.5 -14t-13.5 -3h-211q-11 0 -14 3t-3 14v41q0 11 3 13.5t14 2.5z"/>
    <glyph glyph-name="imacron" unicode="ī" horiz-adv-x="276" d="M96 410h-77q-10 0 -12.5 2.5t-2.5 12.5v48q0 10 2.5 12.5t12.5 2.5h163q9 0 11.5 -2.5t2.5 -12.5v-459q0 -9 -2 -11.5t-11 -2.5h-73q-10 0 -12 2.5t-2 12.5v395zM14 664h211q11 0 13.5 -2.5t2.5 -13.5v-41q0 -11 -2.5 -14t-13.5 -3h-211q-11 0 -14 3t-3 14v41 q0 11 3 13.5t14 2.5z"/>
    <glyph glyph-name="Ibreve" unicode="Ĭ" horiz-adv-x="341" d="M115 82v522h-71q-11 0 -14 3t-3 14v48q0 11 3 14t14 3h252q11 0 14.5 -3t3.5 -14v-48q0 -11 -3.5 -14t-14.5 -3h-71v-522h71q11 0 14.5 -3t3.5 -14v-48q0 -11 -3.5 -14t-14.5 -3h-252q-11 0 -14 3t-3 14v48q0 11 3 14t14 3h71zM305 853q0 -47 -40 -81.5t-94 -34.5 q-57 0 -96.5 33.5t-39.5 81.5q0 12 12 14l53 7h4q6 0 9 -11v-2q10 -57 57 -57q48 0 58 57q5 12 9 13h6l51 -7q11 -2 11 -13z"/>
    <glyph glyph-name="ibreve" unicode="ĭ" horiz-adv-x="276" d="M96 410h-77q-10 0 -12.5 2.5t-2.5 12.5v48q0 10 2.5 12.5t12.5 2.5h163q9 0 11.5 -2.5t2.5 -12.5v-459q0 -9 -2 -11.5t-11 -2.5h-73q-10 0 -12 2.5t-2 12.5v395zM254 674q0 -47 -40 -81.5t-94 -34.5q-57 0 -96.5 33.5t-39.5 81.5q0 13 12 14l53 7h4q6 0 9 -11v-2 q10 -57 57 -57q48 0 58 57q5 12 9 13h6l51 -7q11 -2 11 -13z"/>
    <glyph glyph-name="Iogonek" unicode="Į" horiz-adv-x="341" d="M115 82v522h-71q-11 0 -14 3t-3 14v48q0 11 3 14t14 3h252q11 0 14.5 -3t3.5 -14v-48q0 -11 -3.5 -14t-14.5 -3h-71v-522h71q11 0 14.5 -3t3.5 -14v-48q0 -11 -3.5 -14t-14.5 -3h-61q-33 -43 -33 -87q0 -29 31 -29q23 0 50 16q1 0 3.5 1.5t3.5 1.5q3 0 6 -6l11 -37 q1 -4 1 -9q0 -9 -15 -16q-29 -16 -68 -16q-43 0 -69 22t-26 60q0 45 48 99h-134q-11 0 -14 3t-3 14v48q0 11 3 14t14 3h71z"/>
    <glyph glyph-name="iogonek" unicode="į" horiz-adv-x="276" d="M196 14q0 -9 -2 -11.5t-11 -2.5h-40q-33 -43 -33 -87q0 -29 31 -29q23 0 50 16q1 0 3.5 1.5t3.5 1.5q3 0 6 -6l11 -37q1 -4 1 -9q0 -9 -15 -16q-29 -16 -68 -16q-43 0 -69 22t-26 60q0 49 58 110v399h-77q-10 0 -12.5 2.5t-2.5 12.5v48q0 10 2.5 12.5t12.5 2.5h163 q9 0 11.5 -2.5t2.5 -12.5v-459zM212 649q0 -30 -20.5 -50.5t-50.5 -20.5q-29 0 -50 20.5t-21 50.5q0 29 21 50t50 21t50 -21t21 -50z"/>
    <glyph glyph-name="Idotaccent" unicode="İ" horiz-adv-x="341" d="M115 82v522h-71q-11 0 -14 3t-3 14v48q0 11 3 14t14 3h252q11 0 14.5 -3t3.5 -14v-48q0 -11 -3.5 -14t-14.5 -3h-71v-522h71q11 0 14.5 -3t3.5 -14v-48q0 -11 -3.5 -14t-14.5 -3h-252q-11 0 -14 3t-3 14v48q0 11 3 14t14 3h71zM240 812q0 -29 -20.5 -49.5t-49.5 -20.5 t-49.5 20.5t-20.5 49.5t20.5 49.5t49.5 20.5t49.5 -20.5t20.5 -49.5z"/>
    <glyph glyph-name="dotlessi" unicode="ı" horiz-adv-x="276" d="M96 410h-77q-10 0 -12.5 2.5t-2.5 12.5v48q0 10 2.5 12.5t12.5 2.5h163q9 0 11.5 -2.5t2.5 -12.5v-459q0 -9 -2 -11.5t-11 -2.5h-73q-10 0 -12 2.5t-2 12.5v395z"/>
    <glyph glyph-name="Jcircumflex" unicode="Ĵ" horiz-adv-x="433" d="M249 603h-155q-12 0 -15 2.5t-3 13.5v50q0 11 3.5 14t14.5 3h248q11 0 14 -3t3 -14v-439v-28q0 -57 -9 -96.5t-39 -71.5q-47 -49 -135 -49q-172 0 -177 192v11q0 7 2 9.5t9 2.5h77q10 0 10 -16v-10q0 -100 80 -100q24 0 39.5 9t22 27t8.5 34.5t2 40.5v31v387zM360 801 l-19 -31q-4 -7 -9 -7q-3 0 -11 5l-90 56l-92 -57q-7 -5 -9 -5q-3 0 -9 9l-19 29q-6 8 -6 11q0 2 8 8l117 92q7 6 10 6q4 0 12 -7l115 -91q7 -6 7 -9q0 -1 -2 -3.5t-3 -5.5z"/>
    <glyph glyph-name="jcircumflex" unicode="ĵ" horiz-adv-x="276" d="M196 -21q0 -69 -9 -103t-33 -58q-41 -41 -116 -41q-56 0 -106 22q-11 4 -11 10q0 3 3 10l20 58q3 6 8 6q4 0 11 -3q41 -18 70 -18q38 0 50.5 25t12.5 101v422h-80q-9 0 -10.5 2t-1.5 13v48q0 11 2.5 13t12.5 2h165q8 0 10 -2.5t2 -12.5v-494zM247 603l-19 -31 q-4 -7 -9 -7q-3 0 -11 5l-90 56l-92 -57q-7 -5 -9 -5q-3 0 -9 9l-19 29q-6 8 -6 11q0 2 8 8l117 92q8 6 10 6q4 0 12 -7l115 -91q7 -6 7 -9q0 -1 -2 -3.5t-3 -5.5z"/>
    <glyph glyph-name="Kcommaaccent" unicode="Ķ" horiz-adv-x="544" d="M299 346l238 -294q7 -10 7 -12q0 -4 -8 -8l-71 -41q-7 -4 -11 -4q-6 0 -12 9l-242 317v-296q0 -11 -3.5 -14t-14.5 -3h-76q-11 0 -13.5 3t-2.5 14v652q0 11 2.5 14t13.5 3h76q11 0 14.5 -3t3.5 -14v-304l236 321q8 9 11 9t8 -3l64 -40q5 -2 5 -7q0 -3 -8 -13zM349 -75 l-80 -152q-8 -14 -18 -14q-2 0 -12 2l-14 5q-15 4 -15 13q0 4 3 13l36 141q5 17 22 17h63q21 0 21 -10q0 -6 -6 -15z"/>
    <glyph glyph-name="kcommaaccent" unicode="ķ" horiz-adv-x="470" d="M458 30l-61 -37q-5 -4 -10 -4q-4 0 -8 6l-198 245v-226q0 -9 -2.5 -11.5t-11.5 -2.5h-72q-10 0 -13 2.5t-3 11.5v678q0 13 14 16l69 14q4 1 10 1q9 0 9 -13v-426l198 210q5 5 10 5q4 0 16 -8l40 -30q7 -6 7 -11q0 -4 -7 -11l-166 -172l179 -215q8 -10 8 -13q0 -4 -8 -9z M313 -75l-80 -152q-8 -14 -18 -14q-2 0 -12 2l-14 5q-15 4 -15 13q0 4 3 13l36 141q5 17 22 17h63q21 0 21 -10q0 -6 -6 -15z"/>
    <glyph glyph-name="kgreenlandic" unicode="ĸ" horiz-adv-x="470" d="M181 385v-101l198 210q5 5 10 5q4 0 16 -8l40 -30q7 -6 7 -11q0 -4 -7 -11l-166 -172l179 -215q8 -10 8 -13q0 -4 -8 -9l-61 -37q-5 -4 -10 -4q-4 0 -8 6l-198 245v-226q0 -9 -2.5 -11.5t-11.5 -2.5h-72q-10 0 -13 2.5t-3 11.5v341q0 58 -19 99q-3 6 -3 10t7 8l74 30 q2 1 6 1q6 0 15 -17q22 -47 22 -101z"/>
    <glyph glyph-name="Lacute" unicode="Ĺ" horiz-adv-x="461" d="M459 75l-17 -61q-4 -14 -18 -14h-318q-11 0 -13.5 3t-2.5 14v652q0 11 2.5 14t13.5 3h76q11 0 14.5 -3t3.5 -14v-571h244q17 0 17 -11q0 -2 -2 -12zM304 819l-171 -78q-7 -3 -11 -3t-7 6l-17 32q-3 6 -3 8q0 4 10 11l154 105q6 5 12 5q4 0 10 -10l33 -53q4 -7 4 -11 q0 -6 -14 -12z"/>
    <glyph glyph-name="lacute" unicode="ĺ" horiz-adv-x="266" d="M262 80l17 -58q0 -1 1.5 -4.5t1.5 -5.5q0 -4 -9 -8q-39 -17 -86 -17q-65 0 -89.5 33t-24.5 98q0 14 -0.5 42.5t-0.5 41.5v490q0 13 13 16l75 16q2 0 4 0.5t3 0.5q8 0 8 -15v-591q0 -43 34 -43q19 0 36 8q5 3 9 3q5 0 8 -7zM290 857l-171 -78q-8 -3 -11 -3q-4 0 -7 6 l-17 32q-3 6 -3 8q0 4 10 11l154 105q6 5 12 5q4 0 10 -10l33 -53q4 -7 4 -11q0 -6 -14 -12z"/>
    <glyph glyph-name="Lcommaaccent" unicode="Ļ" horiz-adv-x="461" d="M459 75l-17 -61q-4 -14 -18 -14h-318q-11 0 -13.5 3t-2.5 14v652q0 11 2.5 14t13.5 3h76q11 0 14.5 -3t3.5 -14v-571h244q17 0 17 -11q0 -2 -2 -12zM320 -75l-80 -152q-8 -14 -18 -14q-2 0 -12 2l-14 5q-15 4 -15 13q0 4 3 13l36 141q5 17 22 17h63q21 0 21 -10 q0 -6 -6 -15z"/>
    <glyph glyph-name="lcommaaccent" unicode="ļ" horiz-adv-x="266" d="M262 80l17 -58q0 -1 1.5 -4.5t1.5 -5.5q0 -4 -9 -8q-39 -17 -86 -17q-65 0 -89.5 33t-24.5 98q0 14 -0.5 42.5t-0.5 41.5v490q0 13 13 16l75 16q2 0 4 0.5t3 0.5q8 0 8 -15v-591q0 -43 34 -43q19 0 36 8q5 3 9 3q5 0 8 -7zM230 -75l-80 -152q-8 -14 -18 -14q-2 0 -12 2 l-14 5q-15 4 -15 13q0 4 3 13l36 141q5 17 22 17h63q21 0 21 -10q0 -6 -6 -15z"/>
    <glyph glyph-name="Lcaron" unicode="Ľ" horiz-adv-x="461" d="M459 75l-17 -61q-4 -14 -18 -14h-318q-11 0 -13.5 3t-2.5 14v652q0 11 2.5 14t13.5 3h76q11 0 14.5 -3t3.5 -14v-571h244q17 0 17 -11q0 -2 -2 -12zM259 883l15 -25q5 -10 5 -12q0 -4 -9 -11l-112 -89q-8 -7 -12 -7q-3 0 -10 7l-112 89q-10 7 -10 11q0 3 6 12l16 25 q6 9 10 9q2 0 12 -5l89 -54l88 54q8 5 12 5q6 0 12 -9z"/>
    <glyph glyph-name="lcaron" unicode="ľ" horiz-adv-x="266" d="M262 80l17 -58q0 -1 1.5 -4.5t1.5 -5.5q0 -4 -9 -8q-39 -17 -86 -17q-65 0 -89.5 33t-24.5 98q0 14 -0.5 42.5t-0.5 41.5v490q0 13 13 16l75 16q2 0 4 0.5t3 0.5q8 0 8 -15v-591q0 -43 34 -43q19 0 36 8q5 3 9 3q5 0 8 -7zM359 683l-80 -152q-8 -14 -18 -14q-2 0 -12 2 l-14 5q-15 4 -15 13q0 4 3 13l36 141q5 17 22 17h63q21 0 21 -10q0 -6 -6 -15z"/>
    <glyph glyph-name="Ldot" unicode="Ŀ" horiz-adv-x="461" d="M459 75l-17 -61q-4 -14 -18 -14h-318q-11 0 -13.5 3t-2.5 14v652q0 11 2.5 14t13.5 3h76q11 0 14.5 -3t3.5 -14v-571h244q17 0 17 -11q0 -2 -2 -12zM444 353q0 -29 -20.5 -49.5t-49.5 -20.5t-49.5 20.5t-20.5 49.5t20.5 49.5t49.5 20.5t49.5 -20.5t20.5 -49.5z"/>
    <glyph glyph-name="ldot" unicode="ŀ" horiz-adv-x="393" d="M262 80l17 -58q0 -1 1.5 -4.5t1.5 -5.5q0 -4 -9 -8q-39 -17 -86 -17q-65 0 -89.5 33t-24.5 98q0 14 -0.5 42.5t-0.5 41.5v490q0 13 13 16l75 16q2 0 4 0.5t3 0.5q8 0 8 -15v-591q0 -43 34 -43q19 0 36 8q5 3 9 3q5 0 8 -7zM393 353q0 -29 -20.5 -49.5t-49.5 -20.5 t-49.5 20.5t-20.5 49.5t20.5 49.5t49.5 20.5t49.5 -20.5t20.5 -49.5z"/>
    <glyph glyph-name="Lslash" unicode="Ł" horiz-adv-x="461" d="M459 78l-17 -63q-4 -15 -19 -15h-316q-11 0 -14 3t-3 15v247l-63 -40q-5 -3 -9 -3q-6 0 -6 11v54q0 9 8 14l70 45v323q0 11 3 14t14 3h75q11 0 14 -2.5t3 -14.5v-253l135 86q5 4 10 4q6 0 6 -11v-58q0 -7 -10 -14l-141 -89v-236h245q17 0 17 -9q0 -1 -2 -11z"/>
    <glyph glyph-name="lslash" unicode="ł" horiz-adv-x="285" d="M190 365v-178q0 -66 2 -77q4 -30 33 -30q18 0 39 9q2 1 7 1q6 0 7 -6l16 -60l2 -8q0 -4 -10 -10q-30 -16 -82 -16q-87 0 -108 71q-7 27 -7 123v118l-78 -51q-5 -4 -9 -4q-6 0 -6 11v50q0 10 7 14l86 57v317q0 13 12 15l73 16q1 0 3 0.5t3 0.5q10 0 10 -14v-273l91 63 q5 3 8 3q7 0 7 -11v-51q0 -8 -9 -14z"/>
    <glyph glyph-name="Nacute" unicode="Ń" horiz-adv-x="590" d="M497 0h-60q-14 0 -21 14l-202 410q-24 47 -46 118q6 -74 6 -110v-415q0 -11 -3.5 -14t-14.5 -3h-60q-11 0 -14 3t-3 14v652q0 11 3 14t14 3h72q14 0 20 -13l190 -381q24 -47 46 -118q-4 47 -4 106v389q0 11 3 14t14 3h60q11 0 14 -3t3 -14v-652q0 -11 -3 -14t-14 -3z M452 819l-171 -78q-7 -3 -11 -3t-7 6l-17 32q-3 6 -3 8q0 4 10 11l154 105q6 5 12 5q4 0 10 -10l33 -53q4 -7 4 -11q0 -6 -14 -12z"/>
    <glyph glyph-name="nacute" unicode="ń" horiz-adv-x="526" d="M181 367v-353q0 -9 -2.5 -11.5t-11.5 -2.5h-73q-9 0 -11.5 2.5t-2.5 11.5v341q0 58 -19 99q-3 6 -3 10t7 8l67 30q2 1 6 1q6 0 15 -17q12 -26 20 -51q32 25 48 36t43.5 21t57.5 10q70 0 101 -35t31 -118v-335q0 -9 -3 -11.5t-12 -2.5h-73q-9 0 -11 2t-2 12v321 q0 44 -15 64t-48 20q-52 0 -109 -52zM434 640l-171 -78q-7 -3 -11 -3t-7 6l-17 32q-3 6 -3 8q0 4 10 11l154 105q6 5 12 5q4 0 10 -10l33 -53q4 -7 4 -11q0 -6 -14 -12z"/>
    <glyph glyph-name="Ncommaaccent" unicode="Ņ" horiz-adv-x="590" d="M497 0h-60q-14 0 -21 14l-202 410q-24 47 -46 118q6 -74 6 -110v-415q0 -11 -3.5 -14t-14.5 -3h-60q-11 0 -14 3t-3 14v652q0 11 3 14t14 3h72q14 0 20 -13l190 -381q24 -47 46 -118q-4 47 -4 106v389q0 11 3 14t14 3h60q11 0 14 -3t3 -14v-652q0 -11 -3 -14t-14 -3z M350 -75l-80 -152q-8 -14 -18 -14q-2 0 -12 2l-14 5q-15 4 -15 13q0 4 3 13l36 141q5 17 22 17h63q21 0 21 -10q0 -6 -6 -15z"/>
    <glyph glyph-name="ncommaaccent" unicode="ņ" horiz-adv-x="526" d="M181 367v-353q0 -9 -2.5 -11.5t-11.5 -2.5h-73q-9 0 -11.5 2.5t-2.5 11.5v341q0 58 -19 99q-3 6 -3 10t7 8l67 30q2 1 6 1q6 0 15 -17q12 -26 20 -51q32 25 48 36t43.5 21t57.5 10q70 0 101 -35t31 -118v-335q0 -9 -3 -11.5t-12 -2.5h-73q-9 0 -11 2t-2 12v321 q0 44 -15 64t-48 20q-52 0 -109 -52zM318 -75l-80 -152q-8 -14 -18 -14q-2 0 -12 2l-14 5q-15 4 -15 13q0 4 3 13l36 141q5 17 22 17h63q21 0 21 -10q0 -6 -6 -15z"/>
    <glyph glyph-name="Ncaron" unicode="Ň" horiz-adv-x="590" d="M497 0h-60q-14 0 -21 14l-202 410q-24 47 -46 118q6 -74 6 -110v-415q0 -11 -3.5 -14t-14.5 -3h-60q-11 0 -14 3t-3 14v652q0 11 3 14t14 3h72q14 0 20 -13l190 -381q24 -47 46 -118q-4 47 -4 106v389q0 11 3 14t14 3h60q11 0 14 -3t3 -14v-652q0 -11 -3 -14t-14 -3z M407 883l15 -25q5 -10 5 -12q0 -4 -9 -11l-112 -89q-8 -7 -12 -7q-3 0 -10 7l-112 89q-10 7 -10 11q0 3 6 12l16 25q6 9 10 9q2 0 12 -5l89 -54l88 54q8 5 12 5q6 0 12 -9z"/>
    <glyph glyph-name="ncaron" unicode="ň" horiz-adv-x="526" d="M181 367v-353q0 -9 -2.5 -11.5t-11.5 -2.5h-73q-9 0 -11.5 2.5t-2.5 11.5v341q0 58 -19 99q-3 6 -3 10t7 8l67 30q2 1 6 1q6 0 15 -17q12 -26 20 -51q32 25 48 36t43.5 21t57.5 10q70 0 101 -35t31 -118v-335q0 -9 -3 -11.5t-12 -2.5h-73q-9 0 -11 2t-2 12v321 q0 44 -15 64t-48 20q-52 0 -109 -52zM389 704l15 -25q5 -10 5 -12q0 -3 -9 -11l-112 -89q-8 -7 -12 -7q-3 0 -10 7l-112 89q-10 7 -10 11q0 3 6 12l16 25q6 9 10 9q2 0 12 -5l89 -54l88 54q8 5 12 5q6 0 12 -9z"/>
    <glyph glyph-name="Eng" unicode="Ŋ" horiz-adv-x="590" d="M514 669v-690q0 -69 -9 -103t-33 -58q-41 -41 -116 -41q-50 0 -100 22q-11 4 -11 10q0 3 3 10l20 58q3 6 8 6q4 0 11 -3q41 -18 70 -18q38 0 50.5 25t12.5 101v34l-206 402q-24 47 -46 118q6 -74 6 -110v-415q0 -11 -3.5 -14t-14.5 -3h-60q-11 0 -14 3t-3 14v652 q0 11 3 14t14 3h72q14 0 20 -13l190 -371q24 -47 46 -118q-4 47 -4 106v379q0 11 3 14t14 3h60q11 0 14 -3t3 -14z"/>
    <glyph glyph-name="eng" unicode="ŋ" horiz-adv-x="526" d="M253 -131q21 -7 38 -7q37 0 49.5 25t12.5 101v347q0 44 -15 64t-48 20q-52 0 -109 -52v-353q0 -9 -2.5 -11.5t-11.5 -2.5h-73q-9 0 -11.5 2.5t-2.5 11.5v341q0 58 -19 99q-3 6 -3 10t7 8l67 30q2 1 6 1q6 0 15 -17q12 -26 20 -51q32 25 48 36t43.5 21t57.5 10 q70 0 101 -35t31 -118v-360q0 -71 -9 -109t-33 -62q-41 -41 -116 -41q-42 0 -74 11q-11 4 -11 9q0 3 3 11l20 58q2 6 7 6q2 0 6 -1.5t6 -1.5z"/>
    <glyph glyph-name="Omacron" unicode="Ō" horiz-adv-x="563" d="M518 348q0 -363 -240 -363q-233 0 -233 362q0 162 58 258.5t182 96.5q233 0 233 -354zM401 343q0 142 -34 213q-27 58 -84 58q-62 0 -91.5 -65.5t-29.5 -204.5q0 -145 33 -214q27 -58 86 -58q62 0 91 65.5t29 205.5zM176 843h211q11 0 13.5 -2.5t2.5 -13.5v-41 q0 -11 -2.5 -14t-13.5 -3h-211q-11 0 -14 3t-3 14v41q0 11 3 13.5t14 2.5z"/>
    <glyph glyph-name="omacron" unicode="ō" horiz-adv-x="498" d="M458 245q0 -121 -56.5 -190.5t-154.5 -69.5t-152 68t-54 190t56 191t155 69q97 0 151.5 -68t54.5 -190zM350 247q0 174 -100 174q-101 0 -101 -174q0 -93 24.5 -136.5t76.5 -43.5t76 43.5t24 136.5zM144 664h211q11 0 13.5 -2.5t2.5 -13.5v-41q0 -11 -2.5 -14t-13.5 -3 h-211q-11 0 -14 3t-3 14v41q0 11 3 13.5t14 2.5z"/>
    <glyph glyph-name="Obreve" unicode="Ŏ" horiz-adv-x="563" d="M518 348q0 -363 -240 -363q-233 0 -233 362q0 162 58 258.5t182 96.5q233 0 233 -354zM401 343q0 142 -34 213q-27 58 -84 58q-62 0 -91.5 -65.5t-29.5 -204.5q0 -145 33 -214q27 -58 86 -58q62 0 91 65.5t29 205.5zM416 853q0 -47 -40 -81.5t-94 -34.5q-57 0 -96.5 33.5 t-39.5 81.5q0 12 12 14l53 7h4q6 0 9 -11v-2q10 -57 57 -57q48 0 58 57q5 12 9 13h6l51 -7q11 -2 11 -13z"/>
    <glyph glyph-name="obreve" unicode="ŏ" horiz-adv-x="498" d="M458 245q0 -121 -56.5 -190.5t-154.5 -69.5t-152 68t-54 190t56 191t155 69q97 0 151.5 -68t54.5 -190zM350 247q0 174 -100 174q-101 0 -101 -174q0 -93 24.5 -136.5t76.5 -43.5t76 43.5t24 136.5zM384 674q0 -47 -40 -81.5t-94 -34.5q-57 0 -96.5 33.5t-39.5 81.5 q0 13 12 14l53 7h4q6 0 9 -11v-2q10 -57 57 -57q48 0 58 57q5 12 9 13h6l51 -7q11 -2 11 -13z"/>
    <glyph glyph-name="Ohungarumlaut" unicode="Ő" horiz-adv-x="563" d="M518 348q0 -363 -240 -363q-233 0 -233 362q0 162 58 258.5t182 96.5q233 0 233 -354zM401 343q0 142 -34 213q-27 58 -84 58q-62 0 -91.5 -65.5t-29.5 -204.5q0 -145 33 -214q27 -58 86 -58q62 0 91 65.5t29 205.5zM470 849l-124 -112q-7 -7 -13 -7q-4 0 -7 3l-21 22 q-3 3 -3 7q0 6 6 13l99 125q7 10 12 10q3 0 12 -7l38 -34q8 -8 8 -12q0 -3 -7 -8zM324 849l-124 -112q-7 -7 -13 -7q-4 0 -7 3l-21 22q-3 3 -3 7q0 6 6 13l99 125q7 10 12 10q3 0 12 -7l38 -34q8 -8 8 -12q0 -3 -7 -8z"/>
    <glyph glyph-name="ohungarumlaut" unicode="ő" horiz-adv-x="498" d="M458 245q0 -121 -56.5 -190.5t-154.5 -69.5t-152 68t-54 190t56 191t155 69q97 0 151.5 -68t54.5 -190zM350 247q0 174 -100 174q-101 0 -101 -174q0 -93 24.5 -136.5t76.5 -43.5t76 43.5t24 136.5zM438 670l-124 -112q-7 -7 -13 -7q-4 0 -7 3l-21 22q-3 3 -3 7q0 5 6 13 l99 125q7 10 12 10q3 0 12 -7l38 -34q8 -8 8 -12q0 -3 -7 -8zM292 670l-124 -112q-7 -7 -13 -7q-4 0 -7 3l-21 22q-3 3 -3 7q0 5 6 13l99 125q7 10 12 10q3 0 12 -7l38 -34q8 -8 8 -12q0 -3 -7 -8z"/>
    <glyph glyph-name="OE" unicode="Œ" horiz-adv-x="766" d="M739 667l-17 -57q-4 -14 -19 -14h-209v-195h183q11 0 14 -3t3 -14v-54q0 -11 -3 -13.5t-14 -2.5h-183v-223h226q11 0 14.5 -3.5t3.5 -14.5v-56q0 -11 -3.5 -14t-14.5 -3h-317q-10 0 -21 17q-49 -32 -105 -32q-113 0 -172.5 90.5t-59.5 264.5q0 205 77 294q59 68 159 68 q57 0 100 -29q9 13 19 13h325q16 0 16 -8q0 -3 -2 -11zM388 114v457q-51 45 -102 45q-65 0 -94 -62q-30 -66 -30 -211q0 -139 30 -205.5t94 -66.5q52 0 102 43z"/>
    <glyph glyph-name="oe" unicode="œ" horiz-adv-x="766" d="M735 245q0 -27 -14 -27h-279q2 -67 31 -107.5t90 -40.5q49 0 113 33q8 4 12 4q5 0 10 -8l22 -48q3 -6 3 -10t-12 -12q-65 -44 -156 -44q-114 0 -157 79q-51 -79 -150 -79q-97 0 -152 68.5t-55 190.5q0 120 56.5 189.5t155.5 69.5q48 0 82 -17.5t65 -57.5q59 75 150 75 q98 0 141.5 -71t43.5 -187zM630 295q-3 69 -24.5 100.5t-65.5 31.5q-45 0 -68 -31t-29 -101h187zM348 247q0 89 -24 131.5t-75 42.5t-76 -42t-25 -131q0 -95 24.5 -138t76.5 -43t75.5 43.5t23.5 136.5z"/>
    <glyph glyph-name="Racute" unicode="Ŕ" horiz-adv-x="535" d="M516 33q6 -12 6 -16q0 -7 -10 -10l-78 -19q-8 -2 -9 -2q-5 0 -11 11l-152 299h-64v-279q0 -11 -3.5 -14t-14.5 -3h-74q-11 0 -13.5 3.5t-2.5 15.5v650q0 11 2.5 14t13.5 3h159q63 0 98 -8t61 -30q58 -47 58 -146q0 -141 -121 -193zM372 499q0 58 -25.5 80.5t-89.5 22.5 h-59v-221h52q64 0 93 28t29 90zM424 819l-171 -78q-7 -3 -11 -3t-7 6l-17 32q-3 6 -3 8q0 4 10 11l154 105q6 5 12 5q4 0 10 -10l33 -53q4 -7 4 -11q0 -6 -14 -12z"/>
    <glyph glyph-name="racute" unicode="ŕ" horiz-adv-x="341" d="M347 474l-26 -64q-5 -10 -10 -10h-2q-28 8 -37 8q-35 0 -88 -61v-333q0 -10 -2 -12t-12 -2h-72q-9 0 -12 2.5t-3 11.5v303q0 81 -20 125q-9 18 -9 20q0 6 7 10l61 28q6 2 9 2q4 0 7 -1.5t5.5 -5.5t4 -7t4 -9t3.5 -9q12 -26 15 -48q2 3 7 8q22 25 34.5 37t35.5 24t48 12 q30 0 47 -11q7 -4 7 -10q0 -2 -2 -8zM361 640l-171 -78q-8 -3 -11 -3q-4 0 -7 6l-17 32q-3 6 -3 8q0 4 10 11l154 105q6 5 12 5q4 0 10 -10l33 -53q4 -7 4 -11q0 -6 -14 -12z"/>
    <glyph glyph-name="Rcommaaccent" unicode="Ŗ" horiz-adv-x="535" d="M516 33q6 -12 6 -16q0 -7 -10 -10l-78 -19q-8 -2 -9 -2q-5 0 -11 11l-152 299h-64v-279q0 -11 -3.5 -14t-14.5 -3h-74q-11 0 -13.5 3.5t-2.5 15.5v650q0 11 2.5 14t13.5 3h159q63 0 98 -8t61 -30q58 -47 58 -146q0 -141 -121 -193zM372 499q0 58 -25.5 80.5t-89.5 22.5 h-59v-221h52q64 0 93 28t29 90zM342 -75l-80 -152q-8 -14 -18 -14q-2 0 -12 2l-14 5q-15 4 -15 13q0 4 3 13l36 141q5 17 22 17h63q21 0 21 -10q0 -6 -6 -15z"/>
    <glyph glyph-name="rcommaaccent" unicode="ŗ" horiz-adv-x="341" d="M347 474l-26 -64q-5 -10 -10 -10h-2q-28 8 -37 8q-35 0 -88 -61v-333q0 -10 -2 -12t-12 -2h-72q-9 0 -12 2.5t-3 11.5v303q0 81 -20 125q-9 18 -9 20q0 6 7 10l61 28q6 2 9 2q4 0 7 -1.5t5.5 -5.5t4 -7t4 -9t3.5 -9q12 -26 15 -48q2 3 7 8q22 25 34.5 37t35.5 24t48 12 q30 0 47 -11q7 -4 7 -10q0 -2 -2 -8zM188 -75l-80 -152q-8 -14 -18 -14q-2 0 -12 2l-14 5q-15 4 -15 13q0 4 3 13l36 141q5 17 22 17h63q21 0 21 -10q0 -6 -6 -15z"/>
    <glyph glyph-name="Rcaron" unicode="Ř" horiz-adv-x="535" d="M516 33q6 -12 6 -16q0 -7 -10 -10l-78 -19q-8 -2 -9 -2q-5 0 -11 11l-152 299h-64v-279q0 -11 -3.5 -14t-14.5 -3h-74q-11 0 -13.5 3.5t-2.5 15.5v650q0 11 2.5 14t13.5 3h159q63 0 98 -8t61 -30q58 -47 58 -146q0 -141 -121 -193zM372 499q0 58 -25.5 80.5t-89.5 22.5 h-59v-221h52q64 0 93 28t29 90zM379 883l15 -25q5 -10 5 -12q0 -4 -9 -11l-112 -89q-8 -7 -12 -7q-3 0 -10 7l-112 89q-10 7 -10 11q0 3 6 12l16 25q6 9 10 9q2 0 12 -5l89 -54l88 54q8 5 12 5q6 0 12 -9z"/>
    <glyph glyph-name="rcaron" unicode="ř" horiz-adv-x="341" d="M347 474l-26 -64q-5 -10 -10 -10h-2q-28 8 -37 8q-35 0 -88 -61v-333q0 -10 -2 -12t-12 -2h-72q-9 0 -12 2.5t-3 11.5v303q0 81 -20 125q-9 18 -9 20q0 6 7 10l61 28q6 2 9 2q4 0 7 -1.5t5.5 -5.5t4 -7t4 -9t3.5 -9q12 -26 15 -48q2 3 7 8q22 25 34.5 37t35.5 24t48 12 q30 0 47 -11q7 -4 7 -10q0 -2 -2 -8zM316 704l15 -25q5 -10 5 -12q0 -3 -9 -11l-112 -89q-8 -7 -12 -7q-3 0 -10 7l-112 89q-10 7 -10 11q0 3 6 12l16 25q6 9 10 9q2 0 12 -5l89 -54l88 54q8 5 12 5q6 0 12 -9z"/>
    <glyph glyph-name="Sacute" unicode="Ś" horiz-adv-x="479" d="M443 188q0 -91 -59 -146t-156 -55q-44 0 -96.5 12.5t-88.5 32.5q-12 5 -12 13q0 5 3 12l25 65q3 6 8 6t20 -9q74 -39 142 -39q49 0 77.5 26t28.5 72t-23 70t-107 69q-43 23 -63 35.5t-48 37t-39.5 54.5t-11.5 69q0 84 57.5 135t151.5 51q97 0 169 -45q10 -7 10 -12 q0 -1 -2 -7l-26 -60q-5 -9 -10 -9t-18 8q-67 35 -122 35q-47 0 -73.5 -22.5t-26.5 -62.5q0 -35 17.5 -55t75.5 -51q96 -52 124 -74q73 -59 73 -156zM411 819l-171 -78q-8 -3 -11 -3q-4 0 -7 6l-17 32q-3 6 -3 8q0 4 10 11l154 105q6 5 12 5q4 0 10 -10l33 -53q4 -7 4 -11 q0 -6 -14 -12z"/>
    <glyph glyph-name="sacute" unicode="ś" horiz-adv-x="405" d="M370 137q0 -68 -45.5 -110t-119.5 -42q-93 0 -164 43q-10 6 -10 9q0 1 1.5 4.5t2.5 6.5l21 52q3 7 7 7q2 0 12 -5q74 -36 126 -36q31 0 50 17t19 46q0 22 -13 33.5t-57 34.5q-66 33 -96 51q-56 35 -56 104q0 66 46.5 108.5t119.5 42.5t131 -33q9 -6 9 -13q0 -4 -3 -10 l-21 -44q-4 -8 -10 -8q-4 0 -10 3q-55 25 -94 25q-34 0 -52 -15.5t-18 -43.5q0 -21 12.5 -34t48.5 -32l51 -26.5t48 -25.5q36 -21 50 -46t14 -63zM342 640l-171 -78q-8 -3 -11 -3q-4 0 -7 6l-17 32q-3 6 -3 8q0 4 10 11l154 105q6 5 12 5q4 0 10 -10l33 -53q4 -7 4 -11 q0 -6 -14 -12z"/>
    <glyph glyph-name="Scircumflex" unicode="Ŝ" horiz-adv-x="479" d="M443 188q0 -91 -59 -146t-156 -55q-44 0 -96.5 12.5t-88.5 32.5q-12 5 -12 13q0 5 3 12l25 65q3 6 8 6t20 -9q74 -39 142 -39q49 0 77.5 26t28.5 72t-23 70t-107 69q-43 23 -63 35.5t-48 37t-39.5 54.5t-11.5 69q0 84 57.5 135t151.5 51q97 0 169 -45q10 -7 10 -12 q0 -1 -2 -7l-26 -60q-5 -9 -10 -9t-18 8q-67 35 -122 35q-47 0 -73.5 -22.5t-26.5 -62.5q0 -35 17.5 -55t75.5 -51q96 -52 124 -74q73 -59 73 -156zM383 782l-19 -31q-4 -7 -9 -7q-3 0 -11 5l-90 56l-92 -57q-7 -5 -9 -5q-3 0 -9 9l-19 29q-6 7 -6 11q0 2 8 8l117 92 q8 6 10 6q4 0 12 -7l115 -91q7 -6 7 -9q0 -1 -2 -3.5t-3 -5.5z"/>
    <glyph glyph-name="scircumflex" unicode="ŝ" horiz-adv-x="405" d="M370 137q0 -68 -45.5 -110t-119.5 -42q-93 0 -164 43q-10 6 -10 9q0 1 1.5 4.5t2.5 6.5l21 52q3 7 7 7q2 0 12 -5q74 -36 126 -36q31 0 50 17t19 46q0 22 -13 33.5t-57 34.5q-66 33 -96 51q-56 35 -56 104q0 66 46.5 108.5t119.5 42.5t131 -33q9 -6 9 -13q0 -4 -3 -10 l-21 -44q-4 -8 -10 -8q-4 0 -10 3q-55 25 -94 25q-34 0 -52 -15.5t-18 -43.5q0 -21 12.5 -34t48.5 -32l51 -26.5t48 -25.5q36 -21 50 -46t14 -63zM344 603l-19 -31q-4 -7 -9 -7q-3 0 -11 5l-90 56l-92 -57q-7 -5 -9 -5q-3 0 -9 9l-19 29q-6 7 -6 11q0 2 8 8l117 92q7 6 10 6 q4 0 12 -7l115 -91q7 -6 7 -9q0 -1 -2 -3.5t-3 -5.5z"/>
    <glyph glyph-name="Scedilla" unicode="Ş" horiz-adv-x="479" d="M314 -123q0 -38 -29 -61t-77 -23q-39 0 -57 10q-9 4 -9 12q0 5 1 8l6 32q1 5 7 5h4q19 -7 41 -7q35 0 35 24q0 22 -45 22q-24 0 -24 17q0 1 0.5 4.5t0.5 5.5l8 65q-79 11 -133 41q-12 5 -12 13q0 5 3 12l25 65q3 6 8 6t20 -9q74 -39 142 -39q49 0 77.5 26t28.5 72t-23 70 t-107 69q-43 23 -63 35.5t-48 37t-39.5 54.5t-11.5 69q0 84 57.5 135t151.5 51q97 0 169 -45q10 -7 10 -12q0 -1 -2 -7l-26 -60q-5 -9 -10 -9t-18 8q-67 35 -122 35q-47 0 -73.5 -22.5t-26.5 -62.5q0 -35 17.5 -55t75.5 -51q96 -52 124 -74q73 -59 73 -156q0 -87 -54.5 -141 t-145.5 -59l-3 -43q39 -5 56.5 -21t17.5 -47z"/>
    <glyph glyph-name="scedilla" unicode="ş" horiz-adv-x="405" d="M288 -123q0 -38 -29 -61t-77 -23q-39 0 -57 10q-9 4 -9 12q0 5 1 8l6 32q1 5 7 5h4q19 -7 41 -7q35 0 35 24q0 22 -45 22q-24 0 -24 17q0 1 0.5 4.5t0.5 5.5l7 64q-61 9 -108 38q-10 6 -10 9q0 1 1.5 4.5t2.5 6.5l21 52q3 7 7 7q2 0 12 -5q74 -36 126 -36q31 0 50 17 t19 46q0 22 -13 33.5t-57 34.5q-66 33 -96 51q-56 35 -56 104q0 66 46.5 108.5t119.5 42.5t131 -33q9 -6 9 -13q0 -4 -3 -10l-21 -44q-4 -8 -10 -8q-4 0 -10 3q-55 25 -94 25q-34 0 -52 -15.5t-18 -43.5q0 -21 12.5 -34t48.5 -32l51 -26.5t48 -25.5q36 -21 50 -46t14 -63 q0 -66 -42 -106.5t-111 -44.5l-3 -41q39 -5 56.5 -21t17.5 -47z"/>
    <glyph glyph-name="Scaron" unicode="Š" horiz-adv-x="479" d="M366 857q5 -10 5 -12q0 -3 -9 -11l-112 -89q-8 -7 -12 -7q-3 0 -10 7l-112 89q-10 7 -10 11q0 3 6 12l16 25q6 9 10 9q2 0 12 -5l89 -54l88 54q8 5 12 5q6 0 12 -9zM443 188q0 -91 -59 -146t-156 -55q-44 0 -96.5 12.5t-88.5 32.5q-12 5 -12 13q0 5 3 12l25 65q3 6 8 6 t20 -9q74 -39 142 -39q49 0 77.5 26t28.5 72t-23 70t-107 69q-43 23 -63 35.5t-48 37t-39.5 54.5t-11.5 69q0 84 57.5 135t151.5 51q97 0 169 -45q10 -7 10 -12q0 -1 -2 -7l-26 -60q-5 -9 -10 -9t-18 8q-67 35 -122 35q-47 0 -73.5 -22.5t-26.5 -62.5q0 -35 17.5 -55 t75.5 -51q96 -52 124 -74q73 -59 73 -156z"/>
    <glyph glyph-name="scaron" unicode="š" horiz-adv-x="405" d="M336 699q5 -10 5 -12q0 -3 -9 -11l-112 -89q-8 -7 -12 -7q-3 0 -10 7l-112 89q-10 7 -10 11q0 3 6 12l16 25q6 9 10 9q2 0 12 -5l89 -54l88 54q8 5 12 5q6 0 12 -9zM370 137q0 -68 -45.5 -110t-119.5 -42q-93 0 -164 43q-10 6 -10 9q0 1 1.5 4.5t2.5 6.5l21 52q3 7 7 7 q2 0 12 -5q74 -36 126 -36q31 0 50 17t19 46q0 22 -13 33.5t-57 34.5q-66 33 -96 51q-56 35 -56 104q0 66 46.5 108.5t119.5 42.5t131 -33q9 -6 9 -13q0 -4 -3 -10l-21 -44q-4 -8 -10 -8q-4 0 -10 3q-55 25 -94 25q-34 0 -52 -15.5t-18 -43.5q0 -21 12.5 -34t48.5 -32 l51 -26.5t48 -25.5q36 -21 50 -46t14 -63z"/>
    <glyph glyph-name="Tcedilla" unicode="Ţ" horiz-adv-x="405" d="M429 663l-18 -58q-4 -14 -17 -14h-135v-574q0 -11 -2.5 -14t-13.5 -3h-76q-11 0 -14.5 3t-3.5 14v574h-136q-11 0 -14 3.5t-3 14.5v60q0 11 3 14t14 3h402q17 0 17 -9q0 -5 -3 -14zM257 -75l-80 -152q-8 -14 -18 -14q-2 0 -12 2l-14 5q-15 4 -15 13q0 4 3 13l36 141 q5 17 22 17h63q21 0 21 -10q0 -6 -6 -15z"/>
    <glyph glyph-name="tcedilla" unicode="ţ" horiz-adv-x="350" d="M195 410v-262q0 -44 9.5 -58.5t39.5 -14.5q29 0 76 20q4 2 9 2q6 0 9 -12l14 -51q2 -8 2 -10q0 -6 -11 -11q-57 -26 -120 -26q-74 0 -101.5 38.5t-27.5 112.5v272h-69q-10 0 -13 3t-3 12v48q0 9 3 12t13 3h69v131q0 12 13 15l68 13q5 1 12 1q8 0 8 -13v-147h132 q13 0 13 -8q0 -2 -2 -10l-11 -47q-3 -13 -15 -13h-117zM270 -75l-80 -152q-8 -14 -18 -14q-2 0 -12 2l-14 5q-15 4 -15 13q0 4 3 13l36 141q5 17 22 17h63q21 0 21 -10q0 -6 -6 -15z"/>
    <glyph glyph-name="Tcaron" unicode="Ť" horiz-adv-x="405" d="M429 663l-18 -58q-4 -14 -17 -14h-135v-574q0 -11 -2.5 -14t-13.5 -3h-76q-11 0 -14.5 3t-3.5 14v574h-136q-11 0 -14 3.5t-3 14.5v60q0 11 3 14t14 3h402q17 0 17 -9q0 -5 -3 -14zM314 883l15 -25q5 -10 5 -12q0 -4 -9 -11l-112 -89q-8 -7 -12 -7q-3 0 -10 7l-112 89 q-10 7 -10 11q0 3 6 12l16 25q6 9 10 9q2 0 12 -5l89 -54l88 54q8 5 12 5q6 0 12 -9z"/>
    <glyph glyph-name="tcaron" unicode="ť" horiz-adv-x="350" d="M195 410v-262q0 -44 9.5 -58.5t39.5 -14.5q29 0 76 20q4 2 9 2q6 0 9 -12l14 -51q2 -8 2 -10q0 -6 -11 -11q-57 -26 -120 -26q-74 0 -101.5 38.5t-27.5 112.5v272h-69q-10 0 -13 3t-3 12v48q0 9 3 12t13 3h69v131q0 12 13 15l68 13q5 1 12 1q8 0 8 -13v-147h132 q13 0 13 -8q0 -2 -2 -10l-11 -47q-3 -13 -15 -13h-117zM384 703l-80 -152q-8 -14 -18 -14q-2 0 -12 2l-14 5q-15 4 -15 13q0 4 3 13l36 141q5 17 22 17h63q21 0 21 -10q0 -6 -6 -15z"/>
    <glyph glyph-name="Tbar" unicode="Ŧ" horiz-adv-x="405" d="M429 663l-18 -58q-4 -14 -17 -14h-135v-195h101q9 0 11.5 -2.5t2.5 -11.5v-49q0 -9 -2.5 -11.5t-11.5 -2.5h-101v-302q0 -11 -2.5 -14t-13.5 -3h-76q-11 0 -14.5 3t-3.5 14v302h-101q-9 0 -11.5 2.5t-2.5 11.5v49q0 8 3 11t11 3h101v195h-136q-11 0 -14 3.5t-3 14.5v60 q0 11 3 14t14 3h402q17 0 17 -9q0 -5 -3 -14z"/>
    <glyph glyph-name="tbar" unicode="ŧ" horiz-adv-x="350" d="M195 306h87q9 0 11.5 -2.5t2.5 -11.5v-42q0 -9 -2.5 -11.5t-11.5 -2.5h-87v-88q0 -44 9.5 -58.5t39.5 -14.5q29 0 76 20q4 2 9 2q6 0 9 -12l14 -51q2 -8 2 -10q0 -6 -11 -11q-57 -26 -120 -26q-74 0 -101.5 38.5t-27.5 112.5v98h-61q-9 0 -11.5 2.5t-2.5 11.5v42 q0 8 3 11t11 3h61v104h-69q-10 0 -13 3t-3 12v48q0 9 3 12t13 3h69v131q0 12 13 15l68 13q5 1 12 1q8 0 8 -13v-147h132q13 0 13 -8q0 -2 -2 -10l-11 -47q-3 -13 -15 -13h-117v-104z"/>
    <glyph glyph-name="Utilde" unicode="Ũ" horiz-adv-x="600" d="M527 669v-460q0 -65 -16 -105t-53 -70q-62 -49 -166 -49q-114 0 -166 55.5t-52 166.5v462q0 11 3.5 14t14.5 3h75q11 0 14 -3t3 -14v-460q0 -76 25.5 -106.5t88.5 -30.5q65 0 94.5 32.5t29.5 103.5v461q0 11 3 14t14 3h71q11 0 14 -3t3 -14zM407 871l42 -20q2 -1 2 -5 q0 -1 -5 -16q-36 -72 -93 -72q-24 0 -56 19.5t-47 19.5q-23 0 -41 -30q-5 -8 -9 -8t-12 5l-32 16q-7 4 -7 8q0 3 3 9q18 36 39 56.5t54 20.5q28 0 60.5 -19t46.5 -19q23 0 38 27q5 10 10 10q1 0 7 -2z"/>
    <glyph glyph-name="utilde" unicode="ũ" horiz-adv-x="516" d="M463 30q4 -6 4 -9q0 -5 -7 -8l-64 -24q-6 -2 -8 -2q-10 0 -19 16q-8 14 -15 41q-37 -33 -69 -46t-74 -13q-79 0 -111 41.5t-32 122.5v319q0 12 13 15l70 17q3 1 9 1q10 0 10 -13v-316q0 -58 14.5 -80.5t51.5 -22.5q52 0 104 44v355q0 12 13 15l70 17q8 2 10 2q8 0 8 -14 v-358q0 -63 22 -100zM365 692l42 -20q2 -1 2 -5q0 -1 -5 -16q-36 -72 -93 -72q-24 0 -56 19.5t-47 19.5q-23 0 -41 -30q-5 -8 -9 -8t-12 5l-32 16q-7 4 -7 8q0 3 3 9q18 36 39 56.5t54 20.5q28 0 60.5 -19t46.5 -19q23 0 38 27q5 10 10 10q1 0 7 -2z"/>
    <glyph glyph-name="Umacron" unicode="Ū" horiz-adv-x="600" d="M527 669v-460q0 -65 -16 -105t-53 -70q-62 -49 -166 -49q-114 0 -166 55.5t-52 166.5v462q0 11 3.5 14t14.5 3h75q11 0 14 -3t3 -14v-460q0 -76 25.5 -106.5t88.5 -30.5q65 0 94.5 32.5t29.5 103.5v461q0 11 3 14t14 3h71q11 0 14 -3t3 -14zM195 843h211q11 0 13.5 -2.5 t2.5 -13.5v-41q0 -11 -2.5 -14t-13.5 -3h-211q-11 0 -14 3t-3 14v41q0 11 3 13.5t14 2.5z"/>
    <glyph glyph-name="umacron" unicode="ū" horiz-adv-x="516" d="M463 30q4 -6 4 -9q0 -5 -7 -8l-64 -24q-6 -2 -8 -2q-10 0 -19 16q-8 14 -15 41q-37 -33 -69 -46t-74 -13q-79 0 -111 41.5t-32 122.5v319q0 12 13 15l70 17q3 1 9 1q10 0 10 -13v-316q0 -58 14.5 -80.5t51.5 -22.5q52 0 104 44v355q0 12 13 15l70 17q8 2 10 2q8 0 8 -14 v-358q0 -63 22 -100zM153 664h211q11 0 13.5 -2.5t2.5 -13.5v-41q0 -11 -2.5 -14t-13.5 -3h-211q-11 0 -14 3t-3 14v41q0 11 3 13.5t14 2.5z"/>
    <glyph glyph-name="Ubreve" unicode="Ŭ" horiz-adv-x="600" d="M527 669v-460q0 -65 -16 -105t-53 -70q-62 -49 -166 -49q-114 0 -166 55.5t-52 166.5v462q0 11 3.5 14t14.5 3h75q11 0 14 -3t3 -14v-460q0 -76 25.5 -106.5t88.5 -30.5q65 0 94.5 32.5t29.5 103.5v461q0 11 3 14t14 3h71q11 0 14 -3t3 -14zM435 853q0 -47 -40 -81.5 t-94 -34.5q-57 0 -96.5 33.5t-39.5 81.5q0 12 12 14l53 7h4q6 0 9 -11v-2q10 -57 57 -57q48 0 58 57q5 12 9 13h6l51 -7q11 -2 11 -13z"/>
    <glyph glyph-name="ubreve" unicode="ŭ" horiz-adv-x="516" d="M463 30q4 -6 4 -9q0 -5 -7 -8l-64 -24q-6 -2 -8 -2q-10 0 -19 16q-8 14 -15 41q-37 -33 -69 -46t-74 -13q-79 0 -111 41.5t-32 122.5v319q0 12 13 15l70 17q3 1 9 1q10 0 10 -13v-316q0 -58 14.5 -80.5t51.5 -22.5q52 0 104 44v355q0 12 13 15l70 17q8 2 10 2q8 0 8 -14 v-358q0 -63 22 -100zM393 674q0 -47 -40 -81.5t-94 -34.5q-57 0 -96.5 33.5t-39.5 81.5q0 13 12 14l53 7h4q6 0 9 -11v-2q10 -57 57 -57q48 0 58 57q5 12 9 13h6l51 -7q11 -2 11 -13z"/>
    <glyph glyph-name="Uring" unicode="Ů" horiz-adv-x="600" d="M527 669v-460q0 -65 -16 -105t-53 -70q-62 -49 -166 -49q-114 0 -166 55.5t-52 166.5v462q0 11 3.5 14t14.5 3h75q11 0 14 -3t3 -14v-460q0 -76 25.5 -106.5t88.5 -30.5q65 0 94.5 32.5t29.5 103.5v461q0 11 3 14t14 3h71q11 0 14 -3t3 -14zM395 827q0 -40 -27.5 -67.5 t-67.5 -27.5t-67.5 27.5t-27.5 67.5t27.5 67.5t67.5 27.5t67.5 -27.5t27.5 -67.5zM340 827q0 18 -11.5 31t-28.5 13q-18 0 -29 -13t-11 -31q0 -19 11 -32t29 -13q17 0 28.5 13.5t11.5 31.5z"/>
    <glyph glyph-name="uring" unicode="ů" horiz-adv-x="516" d="M463 30q4 -6 4 -9q0 -5 -7 -8l-64 -24q-6 -2 -8 -2q-10 0 -19 16q-8 14 -15 41q-37 -33 -69 -46t-74 -13q-79 0 -111 41.5t-32 122.5v319q0 12 13 15l70 17q3 1 9 1q10 0 10 -13v-316q0 -58 14.5 -80.5t51.5 -22.5q52 0 104 44v355q0 12 13 15l70 17q8 2 10 2q8 0 8 -14 v-358q0 -63 22 -100zM353 648q0 -40 -27.5 -67.5t-67.5 -27.5t-67.5 27.5t-27.5 67.5t27.5 67.5t67.5 27.5t67.5 -27.5t27.5 -67.5zM298 648q0 18 -11.5 31t-28.5 13q-18 0 -29 -13t-11 -31q0 -19 11 -32t29 -13q17 0 28.5 13.5t11.5 31.5z"/>
    <glyph glyph-name="Uhungarumlaut" unicode="Ű" horiz-adv-x="600" d="M527 669v-460q0 -65 -16 -105t-53 -70q-62 -49 -166 -49q-114 0 -166 55.5t-52 166.5v462q0 11 3.5 14t14.5 3h75q11 0 14 -3t3 -14v-460q0 -76 25.5 -106.5t88.5 -30.5q65 0 94.5 32.5t29.5 103.5v461q0 11 3 14t14 3h71q11 0 14 -3t3 -14zM489 849l-124 -112 q-7 -7 -13 -7q-4 0 -7 3l-21 22q-3 3 -3 7q0 6 6 13l99 125q7 10 12 10q3 0 12 -7l38 -34q8 -8 8 -12q0 -3 -7 -8zM343 849l-124 -112q-7 -7 -13 -7q-4 0 -7 3l-21 22q-3 3 -3 7q0 6 6 13l99 125q7 10 12 10q3 0 12 -7l38 -34q8 -8 8 -12q0 -3 -7 -8z"/>
    <glyph glyph-name="uhungarumlaut" unicode="ű" horiz-adv-x="516" d="M463 30q4 -6 4 -9q0 -5 -7 -8l-64 -24q-6 -2 -8 -2q-10 0 -19 16q-8 14 -15 41q-37 -33 -69 -46t-74 -13q-79 0 -111 41.5t-32 122.5v319q0 12 13 15l70 17q3 1 9 1q10 0 10 -13v-316q0 -58 14.5 -80.5t51.5 -22.5q52 0 104 44v355q0 12 13 15l70 17q8 2 10 2q8 0 8 -14 v-358q0 -63 22 -100zM447 670l-124 -112q-7 -7 -13 -7q-4 0 -7 3l-21 22q-3 3 -3 7q0 5 6 13l99 125q7 10 12 10q3 0 12 -7l38 -34q8 -8 8 -12q0 -3 -7 -8zM301 670l-124 -112q-7 -7 -13 -7q-4 0 -7 3l-21 22q-3 3 -3 7q0 5 6 13l99 125q7 10 12 10q3 0 12 -7l38 -34 q8 -8 8 -12q0 -3 -7 -8z"/>
    <glyph glyph-name="Uogonek" unicode="Ų" horiz-adv-x="600" d="M527 669v-460q0 -65 -16 -105t-53 -70q-39 -30 -90 -42q-27 -38 -27 -79q0 -29 31 -29q23 0 50 16q1 0 3.5 1.5t3.5 1.5q3 0 6 -6l11 -37q1 -4 1 -9q0 -9 -15 -16q-29 -16 -68 -16q-43 0 -69 22t-26 60q0 42 35 84h-12q-114 0 -166 55.5t-52 166.5v462q0 11 3.5 14 t14.5 3h75q11 0 14 -3t3 -14v-460q0 -76 25.5 -106.5t88.5 -30.5q65 0 94.5 32.5t29.5 103.5v461q0 11 3 14t14 3h71q11 0 14 -3t3 -14z"/>
    <glyph glyph-name="uogonek" unicode="ų" horiz-adv-x="516" d="M441 488v-358q0 -63 22 -100q4 -6 4 -9q0 -5 -7 -8l-47 -17q-30 -42 -30 -83q0 -29 31 -29q23 0 50 16q1 0 3.5 1.5t3.5 1.5q3 0 6 -6l11 -37q1 -4 1 -9q0 -9 -15 -16q-29 -16 -68 -16q-43 0 -69 22t-26 60q0 48 55 107q-7 13 -12 36q-37 -33 -69 -46t-74 -13 q-79 0 -111 41.5t-32 122.5v319q0 12 13 15l70 17q3 1 9 1q10 0 10 -13v-316q0 -58 14.5 -80.5t51.5 -22.5q52 0 104 44v355q0 12 13 15l70 17q8 2 10 2q8 0 8 -14z"/>
    <glyph glyph-name="Wcircumflex" unicode="Ŵ" horiz-adv-x="729" d="M712 655l-141 -647q-2 -9 -5.5 -11.5t-13.5 -2.5h-77q-11 0 -14 2t-4 12l-62 355q-22 125 -26 176q-2 -25 -31 -176l-73 -355q-2 -10 -5 -12t-13 -2h-76q-11 0 -14 2t-5 12l-128 647q-2 10 -2 12q0 8 14 11l71 12q12 2 13 2q5 0 8 -14l73 -414q7 -40 14 -147 q16 123 24 158l83 395q2 10 5 12.5t13 2.5h67q11 0 14 -3t5 -14l74 -404q13 -71 21 -151q7 103 19 167l72 397q3 14 11 14h4l79 -16q8 -1 8 -9q0 -3 -2 -11zM503 782l-19 -31q-4 -7 -9 -7q-3 0 -11 5l-90 56l-92 -57q-7 -5 -9 -5q-3 0 -9 9l-19 29q-6 7 -6 11q0 2 8 8 l117 92q8 6 10 6q4 0 12 -7l115 -91q7 -6 7 -9q0 -1 -2 -3.5t-3 -5.5z"/>
    <glyph glyph-name="wcircumflex" unicode="ŵ" horiz-adv-x="637" d="M625 462l-134 -458q-3 -11 -14 -11h-59q-7 0 -10 0.5t-5.5 3t-3.5 8.5l-63 279q-2 9 -13 96q-8 -65 -16 -95l-78 -280q-2 -8 -4.5 -10t-8.5 -2h-62q-12 0 -15 12l-117 459q-2 6 -2 8q0 7 13 10l69 14q2 0 4.5 0.5t3.5 0.5q5 0 8 -13l52 -244q1 -2 22 -142q8 80 17 111 l71 267q2 9 4 11t10 2h66q7 0 9.5 -2t4.5 -11l64 -281q5 -21 14 -96q8 72 18 116l65 269q2 12 10 12q2 0 12 -2l60 -13q11 -3 11 -7t-3 -12zM456 603l-19 -31q-4 -7 -9 -7q-3 0 -11 5l-90 56l-92 -57q-7 -5 -9 -5q-3 0 -9 9l-19 29q-6 7 -6 11q0 2 8 8l117 92q7 6 10 6 q4 0 12 -7l115 -91q7 -6 7 -9q0 -1 -2 -3.5t-3 -5.5z"/>
    <glyph glyph-name="Ycircumflex" unicode="Ŷ" horiz-adv-x="452" d="M468 648l-184 -362v-269q0 -11 -3.5 -14t-14.5 -3h-75q-11 0 -13.5 3t-2.5 14v269l-193 366q-5 10 -5 15q0 7 8 8l89 18q4 1 9 1q7 0 12 -11l99 -210q20 -42 37 -91q5 11 15.5 40t17.5 44l104 216q6 12 11 12h3l86 -22q7 -1 7 -7q0 -3 -7 -17zM355 782l-19 -31 q-4 -7 -9 -7q-3 0 -11 5l-90 56l-92 -57q-7 -5 -9 -5q-3 0 -9 9l-19 29q-6 7 -6 11q0 2 8 8l117 92q7 6 10 6q4 0 12 -7l115 -91q7 -6 7 -9q0 -1 -2 -3.5t-3 -5.5z"/>
    <glyph glyph-name="ycircumflex" unicode="ŷ" horiz-adv-x="433" d="M433 462l-116 -414q-34 -126 -56 -175q-40 -89 -135 -89q-65 0 -122 36q-8 4 -8 12q0 3 1 5l28 57q2 5 6 5q2 0 5 -2t4 -2q45 -28 80 -28q29 0 47 19t32 62l16 52h-40q-13 0 -17 11l-156 447q-3 8 -3 12q0 6 12 9l75 15q2 0 4 0.5t3 0.5q11 0 14 -12l97 -312 q11 -37 30 -123q2 13 5.5 33.5l6.5 37t7 30.5l82 334q3 13 10 13h2q2 -1 3 -1l77 -19q7 -3 7 -9v-2q-1 -2 -1 -3zM345 603l-19 -31q-4 -7 -9 -7q-3 0 -11 5l-90 56l-92 -57q-7 -5 -9 -5q-3 0 -9 9l-19 29q-6 7 -6 11q0 2 8 8l117 92q7 6 10 6q4 0 12 -7l115 -91q7 -6 7 -9 q0 -1 -2 -3.5t-3 -5.5z"/>
    <glyph glyph-name="Ydieresis" unicode="Ÿ" horiz-adv-x="452" d="M382 798q0 -26 -18 -43.5t-43 -17.5t-43 18t-18 43q0 26 18 44.5t43 18.5t43 -18.5t18 -44.5zM195 798q0 -25 -18.5 -43t-43.5 -18t-42.5 18t-17.5 43q0 26 17.5 44.5t42.5 18.5t43.5 -18.5t18.5 -44.5zM468 648l-184 -362v-269q0 -11 -3.5 -14t-14.5 -3h-75 q-11 0 -13.5 3t-2.5 14v269l-193 366q-5 10 -5 15q0 7 8 8l89 18q4 1 9 1q7 0 12 -11l99 -210q20 -42 37 -91q5 11 15.5 40t17.5 44l104 216q6 12 11 12h3l86 -22q7 -1 7 -7q0 -3 -7 -17z"/>
    <glyph glyph-name="Zacute" unicode="Ź" horiz-adv-x="470" d="M455 82l-8 -69q-1 -13 -14 -13h-389q-11 0 -13.5 3t-2.5 14v67l283 511h-252q-18 0 -18 9q0 3 1 6l19 71q1 5 15 5h339q11 0 13.5 -3t2.5 -14v-69l-280 -503h289q15 0 15 -13v-2zM392 819l-171 -78q-7 -3 -11 -3t-7 6l-17 32q-3 6 -3 8q0 4 10 11l154 105q6 5 12 5 q4 0 10 -10l33 -53q4 -7 4 -11q0 -6 -14 -12z"/>
    <glyph glyph-name="zacute" unicode="ź" horiz-adv-x="415" d="M398 68l-24 -57q-4 -11 -16 -11h-316q-10 0 -12 2t-2 12v55l242 336h-207q-10 0 -12.5 2.5t-2.5 12.5v53q0 9 2.5 12t12.5 3h308q9 0 12 -3t3 -12v-57l-238 -331h239q15 0 15 -6q0 -1 -4 -11zM373 640l-171 -78q-8 -3 -11 -3q-4 0 -7 6l-17 32q-3 6 -3 8q0 4 10 11 l154 105q6 5 12 5q4 0 10 -10l33 -53q4 -7 4 -11q0 -6 -14 -12z"/>
    <glyph glyph-name="Zdotaccent" unicode="Ż" horiz-adv-x="470" d="M455 82l-8 -69q-1 -13 -14 -13h-389q-11 0 -13.5 3t-2.5 14v67l283 511h-252q-18 0 -18 9q0 3 1 6l19 71q1 5 15 5h339q11 0 13.5 -3t2.5 -14v-69l-280 -503h289q15 0 15 -13v-2zM305 812q0 -29 -20.5 -49.5t-49.5 -20.5t-49.5 20.5t-20.5 49.5t20.5 49.5t49.5 20.5 t49.5 -20.5t20.5 -49.5z"/>
    <glyph glyph-name="zdotaccent" unicode="ż" horiz-adv-x="415" d="M398 68l-24 -57q-4 -11 -16 -11h-316q-10 0 -12 2t-2 12v55l242 336h-207q-10 0 -12.5 2.5t-2.5 12.5v53q0 9 2.5 12t12.5 3h308q9 0 12 -3t3 -12v-57l-238 -331h239q15 0 15 -6q0 -1 -4 -11zM286 633q0 -29 -20.5 -49.5t-49.5 -20.5t-49.5 20.5t-20.5 49.5t20.5 49.5 t49.5 20.5t49.5 -20.5t20.5 -49.5z"/>
    <glyph glyph-name="Zcaron" unicode="Ž" horiz-adv-x="470" d="M376 857q5 -10 5 -12q0 -3 -9 -11l-112 -89q-8 -7 -12 -7q-3 0 -10 7l-112 89q-10 7 -10 11q0 3 6 12l16 25q6 9 10 9q2 0 12 -5l89 -54l88 54q8 5 12 5q6 0 12 -9zM455 82l-8 -69q-1 -13 -14 -13h-389q-11 0 -13.5 3t-2.5 14v67l283 511h-252q-18 0 -18 9q0 3 1 6l19 71 q1 5 15 5h339q11 0 13.5 -3t2.5 -14v-69l-280 -503h289q15 0 15 -13v-2z"/>
    <glyph glyph-name="zcaron" unicode="ž" horiz-adv-x="415" d="M346 699q5 -10 5 -12q0 -3 -9 -11l-112 -89q-8 -7 -12 -7q-3 0 -10 7l-112 89q-10 7 -10 11q0 3 6 12l16 25q6 9 10 9q2 0 12 -5l89 -54l88 54q8 5 12 5q6 0 12 -9zM398 68l-24 -57q-4 -11 -16 -11h-316q-10 0 -12 2t-2 12v55l242 336h-207q-10 0 -12.5 2.5t-2.5 12.5v53 q0 9 2.5 12t12.5 3h308q9 0 12 -3t3 -12v-57l-238 -331h239q15 0 15 -6q0 -1 -4 -11z"/>
    <glyph glyph-name="florin" unicode="ƒ" horiz-adv-x="508" d="M539 682l-21 -57q-1 -5 -8 -5q-4 0 -8 2q-40 17 -66 17q-33 0 -48.5 -18.5t-26.5 -68.5l-13 -63h120q15 0 15 -8q0 -2 -2 -10l-16 -44q-4 -13 -18 -13h-116l-88 -431q-19 -92 -62.5 -139.5t-130.5 -47.5q-47 0 -72 9q-11 4 -11 8q0 2 2 8l19 61q1 5 6 5q2 0 4.5 -0.5 t3.5 -0.5q26 -4 42 -4q8 0 22 2q31 4 50 30t30 79l88 421h-67q-14 0 -14 8q0 6 1 9l10 44q2 10 4.5 12t11.5 2h72l17 78q11 49 23 75t32 43q41 34 112 34q59 0 99 -21q6 -4 6 -8z"/>
    <glyph glyph-name="AEacute" unicode="Ǽ" horiz-adv-x="711" d="M439 314v-223h227q11 0 14 -3.5t3 -14.5v-56q0 -11 -3 -14t-14 -3h-316q-11 0 -14.5 3t-3.5 14v176h-176l-76 -180q-5 -13 -18 -13h-83q-14 0 -14 8q0 5 4 13l296 653q5 12 19 12h387q14 0 14 -7q0 -1 -2 -11l-15 -57q-4 -15 -20 -15h-209v-195h184q11 0 14.5 -3t3.5 -14 v-54q0 -10 -3.5 -13t-14.5 -3h-184zM332 275v289q0 33 1 63q-13 -40 -48 -121l-100 -231h147zM492 838l-171 -78q-7 -3 -11 -3t-7 6l-17 32q-3 6 -3 8q0 4 10 11l154 105q6 5 12 5q4 0 10 -10l33 -53q4 -7 4 -11q0 -6 -14 -12z"/>
    <glyph glyph-name="aeacute" unicode="ǽ" horiz-adv-x="711" d="M680 246q0 -24 -15 -24h-275q5 -152 116 -152q16 0 29 1.5t26 6t20 7.5t22.5 10.5t22.5 10.5q2 1 6 1q7 0 10 -6l23 -53q2 -6 2 -8q0 -4 -14 -12q-79 -43 -153 -43q-101 0 -160 73q-73 -69 -165 -69q-66 0 -103.5 38t-37.5 104q0 53 23 88.5t65.5 52t81.5 22t91 6.5v41 q0 41 -18.5 59.5t-58.5 18.5q-18 0 -35 -3t-26 -5.5t-29 -10t-29 -10.5q-2 -1 -7 -1q-6 0 -9 7l-17 52q-2 6 -2 8q0 8 17 15q71 31 140 31q92 0 134 -65q53 66 140 66q90 0 137.5 -66t47.5 -191zM574 299q-6 128 -88 128q-46 0 -66 -31t-29 -97h183zM295 111v116 q-89 -2 -125.5 -22t-36.5 -67q0 -32 18.5 -52.5t47.5 -20.5q51 0 96 46zM492 640l-171 -78q-7 -3 -11 -3t-7 6l-17 32q-3 6 -3 8q0 4 10 11l154 105q6 5 12 5q4 0 10 -10l33 -53q4 -7 4 -11q0 -6 -14 -12z"/>
    <glyph glyph-name="Oslashacute" unicode="Ǿ" horiz-adv-x="563" d="M518 344q0 -359 -239 -359q-77 0 -132 42l-39 -74q-6 -10 -9 -10q-1 0 -9 4l-34 17q-13 6 -13 11q0 3 4 10l52 97q-54 95 -54 257q0 78 13 142t40 114.5t74.5 78.5t111.5 28q65 0 120 -34l34 65q6 10 10 10t11 -4l35 -18q8 -4 8 -9q0 -4 -3 -10l-43 -84q62 -91 62 -274z M358 584q-31 32 -76 32q-67 0 -99 -67.5t-32 -209.5q0 -67 12 -158zM413 345q0 85 -16 178l-198 -411q30 -42 82 -42q68 0 100 66.5t32 208.5zM418 838l-171 -78q-8 -3 -11 -3q-4 0 -7 6l-17 32q-3 6 -3 8q0 4 10 11l154 105q6 5 12 5q4 0 10 -10l33 -53q4 -7 4 -11 q0 -6 -14 -12z"/>
    <glyph glyph-name="oslashacute" unicode="ǿ" horiz-adv-x="498" d="M458 246q0 -122 -56 -191.5t-155 -69.5q-53 0 -98 22l-29 -54q-4 -8 -8 -8t-11 5l-30 16q-8 4 -8 8q0 3 4 10l34 61q-60 71 -60 198q0 121 56.5 190.5t154.5 69.5q52 0 96 -22l25 48q4 9 9 9q4 0 10 -3l32 -17q7 -4 7 -8q0 -2 -1.5 -4.5t-1.5 -3.5l-32 -59 q62 -71 62 -197zM303 404q-22 17 -53 17q-101 0 -101 -174q0 -75 14 -114zM350 247q0 57 -14 104l-140 -269q19 -15 54 -15q52 0 76 43.5t24 136.5zM381 640l-171 -78q-8 -3 -11 -3q-4 0 -7 6l-17 32q-3 6 -3 8q0 4 10 11l154 105q6 5 12 5q4 0 10 -10l33 -53q4 -7 4 -11 q0 -6 -14 -12z"/>
    <glyph glyph-name="Scommaaccent" unicode="Ș" horiz-adv-x="479" d="M443 188q0 -91 -59 -146t-156 -55q-44 0 -96.5 12.5t-88.5 32.5q-12 5 -12 13q0 5 3 12l25 65q3 6 8 6t20 -9q74 -39 142 -39q49 0 77.5 26t28.5 72t-23 70t-107 69q-43 23 -63 35.5t-48 37t-39.5 54.5t-11.5 69q0 84 57.5 135t151.5 51q97 0 169 -45q10 -7 10 -12 q0 -1 -2 -7l-26 -60q-5 -9 -10 -9t-18 8q-67 35 -122 35q-47 0 -73.5 -22.5t-26.5 -62.5q0 -35 17.5 -55t75.5 -51q96 -52 124 -74q73 -59 73 -156zM283 -75l-80 -152q-8 -14 -18 -14q-2 0 -12 2l-14 5q-15 4 -15 13q0 4 3 13l36 141q5 17 22 17h63q21 0 21 -10q0 -6 -6 -15 z"/>
    <glyph glyph-name="scommaaccent" unicode="ș" horiz-adv-x="405" d="M370 137q0 -68 -45.5 -110t-119.5 -42q-93 0 -164 43q-10 6 -10 9q0 1 1.5 4.5t2.5 6.5l21 52q3 7 7 7q2 0 12 -5q74 -36 126 -36q31 0 50 17t19 46q0 22 -13 33.5t-57 34.5q-66 33 -96 51q-56 35 -56 104q0 66 46.5 108.5t119.5 42.5t131 -33q9 -6 9 -13q0 -4 -3 -10 l-21 -44q-4 -8 -10 -8q-4 0 -10 3q-55 25 -94 25q-34 0 -52 -15.5t-18 -43.5q0 -21 12.5 -34t48.5 -32l51 -26.5t48 -25.5q36 -21 50 -46t14 -63zM257 -75l-80 -152q-8 -14 -18 -14q-2 0 -12 2l-14 5q-15 4 -15 13q0 4 3 13l36 141q5 17 22 17h63q21 0 21 -10q0 -6 -6 -15z "/>
    <glyph glyph-name="Tcommaaccent" unicode="Ț" horiz-adv-x="405" d="M429 663l-18 -58q-4 -14 -17 -14h-135v-574q0 -11 -2.5 -14t-13.5 -3h-76q-11 0 -14.5 3t-3.5 14v574h-136q-11 0 -14 3.5t-3 14.5v60q0 11 3 14t14 3h402q17 0 17 -9q0 -5 -3 -14zM257 -75l-80 -152q-8 -14 -18 -14q-2 0 -12 2l-14 5q-15 4 -15 13q0 4 3 13l36 141 q5 17 22 17h63q21 0 21 -10q0 -6 -6 -15z"/>
    <glyph glyph-name="tcommaaccent" unicode="ț" horiz-adv-x="350" d="M195 410v-262q0 -44 9.5 -58.5t39.5 -14.5q29 0 76 20q4 2 9 2q6 0 9 -12l14 -51q2 -8 2 -10q0 -6 -11 -11q-57 -26 -120 -26q-74 0 -101.5 38.5t-27.5 112.5v272h-69q-10 0 -13 3t-3 12v48q0 9 3 12t13 3h69v131q0 12 13 15l68 13q5 1 12 1q8 0 8 -13v-147h132 q13 0 13 -8q0 -2 -2 -10l-11 -47q-3 -13 -15 -13h-117zM270 -75l-80 -152q-8 -14 -18 -14q-2 0 -12 2l-14 5q-15 4 -15 13q0 4 3 13l36 141q5 17 22 17h63q21 0 21 -10q0 -6 -6 -15z"/>
    <glyph glyph-name="circumflex" unicode="ˆ" horiz-adv-x="498" d="M378 603l-19 -31q-4 -7 -9 -7q-3 0 -11 5l-90 56l-92 -57q-7 -5 -9 -5q-3 0 -9 9l-19 29q-6 7 -6 11q0 2 8 8l117 92q8 6 10 6q4 0 12 -7l115 -91q7 -6 7 -9q0 -1 -2 -3.5t-3 -5.5z"/>
    <glyph glyph-name="caron" unicode="ˇ" horiz-adv-x="498" d="M361 704l15 -25q5 -10 5 -12q0 -3 -9 -11l-112 -89q-8 -7 -12 -7q-3 0 -10 7l-112 89q-10 7 -10 11q0 3 6 12l16 25q6 9 10 9q2 0 12 -5l89 -54l88 54q8 5 12 5q6 0 12 -9z"/>
    <glyph glyph-name="uni02C9" unicode="ˉ" horiz-adv-x="498" d="M144 664h211q11 0 13.5 -2.5t2.5 -13.5v-41q0 -11 -2.5 -14t-13.5 -3h-211q-11 0 -14 3t-3 14v41q0 11 3 13.5t14 2.5z"/>
    <glyph glyph-name="breve" unicode="˘" horiz-adv-x="498" d="M384 674q0 -47 -40 -81.5t-94 -34.5q-57 0 -96.5 33.5t-39.5 81.5q0 13 12 14l53 7h4q6 0 9 -11v-2q10 -57 57 -57q48 0 58 57q5 12 9 13h6l51 -7q11 -2 11 -13z"/>
    <glyph glyph-name="dotaccent" unicode="˙" horiz-adv-x="498" d="M319 633q0 -29 -20.5 -49.5t-49.5 -20.5t-49.5 20.5t-20.5 49.5t20.5 49.5t49.5 20.5t49.5 -20.5t20.5 -49.5z"/>
    <glyph glyph-name="ring" unicode="˚" horiz-adv-x="498" d="M344 648q0 -40 -27.5 -67.5t-67.5 -27.5t-67.5 27.5t-27.5 67.5t27.5 67.5t67.5 27.5t67.5 -27.5t27.5 -67.5zM289 648q0 18 -11.5 31t-28.5 13q-18 0 -29 -13t-11 -31q0 -19 11 -32t29 -13q17 0 28.5 13.5t11.5 31.5z"/>
    <glyph glyph-name="ogonek" unicode="˛" horiz-adv-x="498" d="M221 15l93 18q-83 -84 -83 -120q0 -29 31 -29q23 0 50 16q1 0 3.5 1.5t3.5 1.5q3 0 6 -6l11 -37q1 -4 1 -9q0 -9 -15 -16q-29 -16 -68 -16q-43 0 -69 22t-26 60q0 49 62 114z"/>
    <glyph glyph-name="tilde" unicode="˜" horiz-adv-x="498" d="M356 692l42 -20q2 -1 2 -5q0 -1 -5 -16q-36 -72 -93 -72q-24 0 -56 19.5t-47 19.5q-23 0 -41 -30q-5 -8 -9 -8t-12 5l-32 16q-7 4 -7 8q0 3 3 9q18 36 39 56.5t54 20.5q28 0 60.5 -19t46.5 -19q23 0 38 27q5 10 10 10q1 0 7 -2z"/>
    <glyph glyph-name="hungarumlaut" unicode="˝" horiz-adv-x="498" d="M438 670l-124 -112q-7 -7 -13 -7q-4 0 -7 3l-21 22q-3 3 -3 7q0 5 6 13l99 125q7 10 12 10q3 0 12 -7l38 -34q8 -8 8 -12q0 -3 -7 -8zM292 670l-124 -112q-7 -7 -13 -7q-4 0 -7 3l-21 22q-3 3 -3 7q0 5 6 13l99 125q7 10 12 10q3 0 12 -7l38 -34q8 -8 8 -12q0 -3 -7 -8z "/>
    <glyph glyph-name="uni03A9" unicode="Ω" horiz-adv-x="670" d="M612 0h-226v87q113 118 113 285q0 112 -44 179.5t-125 67.5t-128 -69t-47 -180q0 -170 115 -283v-87h-226v87h136q-138 126 -138 305q0 139 81 229.5t210 90.5q131 0 206 -87.5t75 -229.5q0 -182 -138 -308h136v-87z"/>
    <glyph glyph-name="uni03BC" unicode="μ" horiz-adv-x="516" d="M463 27q3 -5 3 -8t-7 -6l-63 -24q-7 -3 -9 -3q-7 0 -16.5 17t-16.5 41q-60 -59 -123 -59q-33 0 -63 15v-178q0 -14 -12 -16l-72 -17q-2 -1 -5 -1q-11 0 -11 14v666q0 12 13 15l71 17q3 1 7 1q9 0 9 -13v-311q0 -57 11 -79q15 -30 56 -30q53 0 105 44v356q0 12 13 15 l72 17q3 1 7 1q9 0 9 -13v-358q0 -68 22 -103z"/>
    <glyph glyph-name="pi" unicode="π" horiz-adv-x="588" d="M540 80l19 -70q-29 -18 -79 -18q-68 0 -98.5 40.5t-30.5 104.5v284h-105v-276q0 -87 -15 -145h-109q17 61 17 154v267q-52 -2 -89 -23l-29 70q56 32 148 32h385v-79h-96v-271q0 -79 52 -79q14 0 30 9z"/>
    <glyph glyph-name="Wgrave" unicode="Ẁ" horiz-adv-x="729" d="M712 655l-141 -647q-2 -9 -5.5 -11.5t-13.5 -2.5h-77q-11 0 -14 2t-4 12l-62 355q-22 125 -26 176q-2 -25 -31 -176l-73 -355q-2 -10 -5 -12t-13 -2h-76q-11 0 -14 2t-5 12l-128 647q-2 10 -2 12q0 8 14 11l71 12q12 2 13 2q5 0 8 -14l73 -414q7 -40 14 -147 q16 123 24 158l83 395q2 10 5 12.5t13 2.5h67q11 0 14 -3t5 -14l74 -404q13 -71 21 -151q7 103 19 167l72 397q3 14 11 14h4l79 -16q8 -1 8 -9q0 -3 -2 -11zM422 770l-14 -24q-5 -9 -9 -9q-2 0 -12 5l-170 77q-12 5 -12 11t5 13l29 51q6 10 13 10q6 0 16 -7l149 -102 q10 -7 10 -12q0 -3 -5 -13z"/>
    <glyph glyph-name="wgrave" unicode="ẁ" horiz-adv-x="637" d="M625 462l-134 -458q-3 -11 -14 -11h-59q-7 0 -10 0.5t-5.5 3t-3.5 8.5l-63 279q-2 9 -13 96q-8 -65 -16 -95l-78 -280q-2 -8 -4.5 -10t-8.5 -2h-62q-12 0 -15 12l-117 459q-2 6 -2 8q0 7 13 10l69 14q2 0 4.5 0.5t3.5 0.5q5 0 8 -13l52 -244q1 -2 22 -142q8 80 17 111 l71 267q2 9 4 11t10 2h66q7 0 9.5 -2t4.5 -11l64 -281q5 -21 14 -96q8 72 18 116l65 269q2 12 10 12q2 0 12 -2l60 -13q11 -3 11 -7t-3 -12zM375 591l-14 -24q-5 -9 -9 -9q-2 0 -12 5l-170 77q-12 5 -12 11q0 5 5 13l29 51q6 10 13 10q6 0 16 -7l149 -102q10 -7 10 -12 q0 -3 -5 -13z"/>
    <glyph glyph-name="Wacute" unicode="Ẃ" horiz-adv-x="729" d="M712 655l-141 -647q-2 -9 -5.5 -11.5t-13.5 -2.5h-77q-11 0 -14 2t-4 12l-62 355q-22 125 -26 176q-2 -25 -31 -176l-73 -355q-2 -10 -5 -12t-13 -2h-76q-11 0 -14 2t-5 12l-128 647q-2 10 -2 12q0 8 14 11l71 12q12 2 13 2q5 0 8 -14l73 -414q7 -40 14 -147 q16 123 24 158l83 395q2 10 5 12.5t13 2.5h67q11 0 14 -3t5 -14l74 -404q13 -71 21 -151q7 103 19 167l72 397q3 14 11 14h4l79 -16q8 -1 8 -9q0 -3 -2 -11zM531 819l-171 -78q-8 -3 -11 -3q-4 0 -7 6l-17 32q-3 6 -3 8q0 4 10 11l154 105q6 5 12 5q4 0 10 -10l33 -53 q4 -7 4 -11q0 -6 -14 -12z"/>
    <glyph glyph-name="wacute" unicode="ẃ" horiz-adv-x="637" d="M625 462l-134 -458q-3 -11 -14 -11h-59q-7 0 -10 0.5t-5.5 3t-3.5 8.5l-63 279q-2 9 -13 96q-8 -65 -16 -95l-78 -280q-2 -8 -4.5 -10t-8.5 -2h-62q-12 0 -15 12l-117 459q-2 6 -2 8q0 7 13 10l69 14q2 0 4.5 0.5t3.5 0.5q5 0 8 -13l52 -244q1 -2 22 -142q8 80 17 111 l71 267q2 9 4 11t10 2h66q7 0 9.5 -2t4.5 -11l64 -281q5 -21 14 -96q8 72 18 116l65 269q2 12 10 12q2 0 12 -2l60 -13q11 -3 11 -7t-3 -12zM484 640l-171 -78q-7 -3 -11 -3t-7 6l-17 32q-3 6 -3 8q0 4 10 11l154 105q6 5 12 5q4 0 10 -10l33 -53q4 -7 4 -11q0 -6 -14 -12z "/>
    <glyph glyph-name="Wdieresis" unicode="Ẅ" horiz-adv-x="729" d="M712 655l-141 -647q-2 -9 -5.5 -11.5t-13.5 -2.5h-77q-11 0 -14 2t-4 12l-62 355q-22 125 -26 176q-2 -25 -31 -176l-73 -355q-2 -10 -5 -12t-13 -2h-76q-11 0 -14 2t-5 12l-128 647q-2 10 -2 12q0 8 14 11l71 12q12 2 13 2q5 0 8 -14l73 -414q7 -40 14 -147 q16 123 24 158l83 395q2 10 5 12.5t13 2.5h67q11 0 14 -3t5 -14l74 -404q13 -71 21 -151q7 103 19 167l72 397q3 14 11 14h4l79 -16q8 -1 8 -9q0 -3 -2 -11zM529 827q0 -25 -17.5 -43t-43.5 -18q-25 0 -43 18t-18 43q0 26 18 44.5t43 18.5t43 -18.5t18 -44.5zM342 827 q0 -25 -18.5 -43t-43.5 -18t-42.5 18t-17.5 43q0 26 17.5 44.5t42.5 18.5t43.5 -18.5t18.5 -44.5z"/>
    <glyph glyph-name="wdieresis" unicode="ẅ" horiz-adv-x="637" d="M625 462l-134 -458q-3 -11 -14 -11h-59q-7 0 -10 0.5t-5.5 3t-3.5 8.5l-63 279q-2 9 -13 96q-8 -65 -16 -95l-78 -280q-2 -8 -4.5 -10t-8.5 -2h-62q-12 0 -15 12l-117 459q-2 6 -2 8q0 7 13 10l69 14q2 0 4.5 0.5t3.5 0.5q5 0 8 -13l52 -244q1 -2 22 -142q8 80 17 111 l71 267q2 9 4 11t10 2h66q7 0 9.5 -2t4.5 -11l64 -281q5 -21 14 -96q8 72 18 116l65 269q2 12 10 12q2 0 12 -2l60 -13q11 -3 11 -7t-3 -12zM482 648q0 -26 -18 -43.5t-43 -17.5t-43 18t-18 43q0 26 18 44.5t43 18.5t43 -18.5t18 -44.5zM295 648q0 -25 -18.5 -43t-43.5 -18 t-42.5 18t-17.5 43q0 26 17.5 44.5t42.5 18.5t43.5 -18.5t18.5 -44.5z"/>
    <glyph glyph-name="Ygrave" unicode="Ỳ" horiz-adv-x="452" d="M468 648l-184 -362v-269q0 -11 -3.5 -14t-14.5 -3h-75q-11 0 -13.5 3t-2.5 14v269l-193 366q-5 10 -5 15q0 7 8 8l89 18q4 1 9 1q7 0 12 -11l99 -210q20 -42 37 -91q5 11 15.5 40t17.5 44l104 216q6 12 11 12h3l86 -22q7 -1 7 -7q0 -3 -7 -17zM274 770l-14 -24 q-5 -9 -9 -9q-2 0 -12 5l-170 77q-12 5 -12 11t5 13l29 51q6 10 13 10q6 0 16 -7l149 -102q10 -7 10 -12q0 -3 -5 -13z"/>
    <glyph glyph-name="ygrave" unicode="ỳ" horiz-adv-x="433" d="M433 462l-116 -414q-34 -126 -56 -175q-40 -89 -135 -89q-65 0 -122 36q-8 4 -8 12q0 3 1 5l28 57q2 5 6 5q2 0 5 -2t4 -2q45 -28 80 -28q29 0 47 19t32 62l16 52h-40q-13 0 -17 11l-156 447q-3 8 -3 12q0 6 12 9l75 15q2 0 4 0.5t3 0.5q11 0 14 -12l97 -312 q11 -37 30 -123q2 13 5.5 33.5l6.5 37t7 30.5l82 334q3 13 10 13h2q2 -1 3 -1l77 -19q7 -3 7 -9v-2q-1 -2 -1 -3zM264 591l-14 -24q-5 -9 -9 -9q-2 0 -12 5l-170 77q-12 5 -12 11q0 5 5 13l29 51q6 10 13 10q6 0 16 -7l149 -102q10 -7 10 -12q0 -3 -5 -13z"/>
    <glyph glyph-name="endash" unicode="–" horiz-adv-x="498" d="M53 300h392q11 0 14 -3t3 -14v-53q0 -11 -3 -14t-14 -3h-392q-11 0 -14 3t-3 14v53q0 11 3 14t14 3z"/>
    <glyph glyph-name="emdash" unicode="—" horiz-adv-x="802" d="M51 298h700q11 0 14 -3t3 -14v-49q0 -11 -3 -14t-14 -3h-700q-11 0 -14 3t-3 14v49q0 11 3 14t14 3z"/>
    <glyph glyph-name="quoteleft" unicode="‘" horiz-adv-x="266" d="M216 684l-61 -203q-4 -13 -18 -13h-90q-16 0 -16 8q0 5 5 13l117 218q5 11 11 11q2 0 5 -1q4 -2 6 -2l32 -11q11 -4 11 -10z"/>
    <glyph glyph-name="quoteright" unicode="’" horiz-adv-x="266" d="M230 690l-117 -218q-5 -11 -12 -11q-3 0 -11 3l-32 10q-11 3 -11 9q0 5 3 12l60 202q4 14 18 14h90q16 0 16 -9q0 -5 -4 -12z"/>
    <glyph glyph-name="quotesinglbase" unicode="‚" horiz-adv-x="266" d="M231 99l-117 -218q-7 -12 -12 -12t-11 3l-32 11q-12 4 -12 9q0 4 3 11l61 203q4 13 18 13h90q16 0 16 -8q0 -5 -4 -12z"/>
    <glyph glyph-name="quotedblleft" unicode="“" horiz-adv-x="452" d="M401 684l-61 -203q-4 -13 -18 -13h-90q-16 0 -16 8q0 5 5 13l117 218q6 11 11 11q2 0 5 -1q4 -2 6 -2l32 -11q11 -4 11 -10zM216 684l-61 -203q-4 -13 -18 -13h-90q-16 0 -16 8q0 5 5 13l117 218q5 11 11 11q2 0 5 -1q4 -2 6 -2l32 -11q11 -4 11 -10z"/>
    <glyph glyph-name="quotedblright" unicode="”" horiz-adv-x="452" d="M417 688l-118 -218q-5 -11 -11 -11q-4 0 -11 3l-32 11q-11 4 -11 9q0 3 3 12l59 201q4 15 19 15h89q17 0 17 -10q0 -5 -4 -12zM231 688l-117 -218q-6 -11 -11 -11q-3 0 -11 3l-32 11q-11 4 -11 10t2 11l60 201q5 15 19 15h89q16 0 16 -9q0 -6 -4 -13z"/>
    <glyph glyph-name="quotedblbase" unicode="„" horiz-adv-x="452" d="M417 99l-118 -218q-7 -12 -12 -12q-4 0 -10 3l-32 11q-11 4 -11 8q0 5 3 12l59 203q4 13 19 13h89q17 0 17 -8q0 -5 -4 -12zM231 99l-117 -218q-7 -11 -12 -11t-10 2l-32 11q-11 3 -11 9t2 11l60 203q4 13 19 13h89q16 0 16 -9q0 -4 -4 -11z"/>
    <glyph glyph-name="dagger" unicode="†" horiz-adv-x="516" d="M212 468v201q0 11 3 14t14 3h59q11 0 13.5 -3t2.5 -14v-201h119q11 0 13.5 -3t2.5 -14v-50q0 -11 -2.5 -13.5t-13.5 -2.5h-119v-579q0 -11 -3 -14.5t-13 -3.5h-59q-11 0 -14 3.5t-3 14.5v579h-117q-12 0 -15 2.5t-3 13.5v50q0 11 3.5 14t14.5 3h117z"/>
    <glyph glyph-name="daggerdbl" unicode="‡" horiz-adv-x="516" d="M212 468v201q0 11 3 14t14 3h59q11 0 13.5 -3t2.5 -14v-201h119q11 0 13.5 -2.5t2.5 -15.5v-47q0 -11 -3 -14t-13 -3h-119v-291h119q10 0 13 -3.5t3 -14.5v-48q0 -11 -3 -14t-13 -3h-119v-206q0 -11 -3 -14.5t-13 -3.5h-59q-11 0 -14 3.5t-3 14.5v206h-117q-11 0 -14.5 3 t-3.5 14v48q0 11 3.5 14.5t14.5 3.5h117v291h-117q-11 0 -14.5 3t-3.5 14v48q0 11 3.5 14t14.5 3h117z"/>
    <glyph glyph-name="bullet" unicode="•" horiz-adv-x="500" d="M391 350q0 -59 -41 -101.5t-99 -42.5t-100 42.5t-42 101.5t42 101.5t100 42.5t99 -42.5t41 -101.5z"/>
    <glyph glyph-name="ellipsis" unicode="…" horiz-adv-x="887" d="M823 68q0 -34 -24 -58t-59 -24t-59 24t-24 58t24.5 58t58.5 24t58.5 -24t24.5 -58zM526 68q0 -34 -24 -58t-59 -24t-58.5 24t-23.5 58t24 58t58 24t58.5 -24t24.5 -58zM229 68q0 -34 -23.5 -58t-58.5 -24t-58.5 24t-23.5 58t24 58t58 24t58 -24t24 -58z"/>
    <glyph glyph-name="perthousand" unicode="‰" horiz-adv-x="1147" d="M1108 167q0 -83 -38.5 -131t-106.5 -48t-104 44t-36 124q0 83 39.5 131t106.5 48q65 0 102 -44.5t37 -123.5zM758 167q0 -83 -38.5 -131t-107.5 -48q-67 0 -103.5 44t-36.5 124q0 83 39.5 131t106.5 48q65 0 102.5 -44.5t37.5 -123.5zM574 649l-277 -664q-6 -15 -21 -15 h-46q-15 0 -15 9q0 5 3 12l277 665q5 13 19 13h48q15 0 15 -8q0 -5 -3 -12zM324 490q0 -84 -38.5 -132t-107.5 -48q-67 0 -103.5 44t-36.5 125q0 83 39 131t106 48q65 0 103 -45t38 -123zM1028 161q0 111 -61 111q-30 0 -46.5 -29t-16.5 -82q0 -109 60 -109q64 0 64 109z M678 163q0 109 -61 109q-30 0 -47 -29.5t-17 -81.5q0 -109 61 -109q64 0 64 111zM243 484q0 110 -61 110q-30 0 -46.5 -29t-16.5 -82q0 -109 60 -109q64 0 64 110z"/>
    <glyph glyph-name="guilsinglleft" unicode="‹" horiz-adv-x="331" d="M158 245l126 -188q7 -11 7 -14q0 -5 -11 -11l-39 -23q-10 -5 -12 -5q-6 0 -12 9l-169 216q-7 7 -7 12q0 6 8 15l168 217q5 8 12 8q2 0 12 -4l38 -22q10 -6 10 -12q0 -4 -5 -12z"/>
    <glyph glyph-name="guilsinglright" unicode="›" horiz-adv-x="331" d="M284 233l-170 -220q-6 -9 -11 -9q-3 0 -11 5l-40 23q-11 6 -11 12q0 4 6 12l127 186l-127 189q-6 7 -6 12t13 12l38 22q8 5 11 5t11 -9l170 -216q6 -7 6 -12q0 -2 -6 -12z"/>
    <glyph glyph-name="fraction" unicode="⁄" horiz-adv-x="133" d="M247 649l-277 -664q-6 -15 -22 -15h-46q-15 0 -15 7q0 4 3 10l279 669q5 13 18 13h47q16 0 16 -9q0 -5 -3 -11z"/>
    <glyph glyph-name="zero.superior" unicode="⁰" d="M325 636v-5q0 -207 -147 -207q-70 0 -107.5 52.5t-37.5 150.5q0 92 36.5 150.5t114.5 58.5q141 0 141 -200zM247 627q0 84 -14 115.5t-51 31.5q-70 0 -70 -145q0 -143 68 -143q37 0 52 33t15 108z"/>
    <glyph glyph-name="four.superior" unicode="⁴" d="M202 514h-152q-11 0 -14 2.5t-3 12.5v50l161 249q6 9 13 9q5 0 9 -2l-1 1l38 -15q13 -5 13 -11q0 -2 -4 -10l-153 -227h94q1 15 4 46t4 46q2 9 4 11t12 2h34q10 0 13 -3t3 -12v-91h38q11 0 13.5 -2t2.5 -13v-28q0 -9 -3 -12t-13 -3h-38v-74q0 -10 -2.5 -12.5t-13.5 -2.5 h-43q-10 0 -13 2.5t-3 12.5v74z"/>
    <glyph glyph-name="five.superior" unicode="⁵" d="M316 568q0 -68 -43.5 -108.5t-117.5 -40.5q-44 0 -89 15q-12 4 -12 11q0 6 1 9q1 6 3.5 17t3.5 17q3 9 13 9q8 0 14 -3q39 -11 66 -11q41 0 64 22t23 62q0 31 -15.5 48t-43.5 17q-34 0 -65 -29q-4 -4 -11 -4h-7l-32 9h1q-11 2 -11 12v5l20 192q1 9 3.5 11.5t12.5 2.5h175 q11 0 14 -3t3 -13v-32q0 -10 -3 -12.5t-14 -2.5h-126l-10 -92q26 17 63 17q55 0 87.5 -34.5t32.5 -90.5z"/>
    <glyph glyph-name="six.superior" unicode="⁶" d="M317 570q0 -65 -37 -105.5t-98 -40.5q-65 0 -99 44.5t-34 128.5q0 110 50.5 174.5t136.5 64.5q34 0 58 -11q7 -3 7 -9q0 -1 -1 -2v-2l-11 -37q-3 -8 -10 -8q-3 0 -9 2q-17 7 -36 7q-78 0 -101 -91q25 26 68 26q57 0 86.5 -40t29.5 -101zM242 571q0 37 -15 57.5t-41 20.5 q-56 0 -56 -77q0 -87 54 -87q27 0 42.5 23t15.5 63z"/>
    <glyph glyph-name="seven.superior" unicode="⁷" d="M312 792l-146 -357q-5 -10 -15 -10l-3 1q-2 0 -13 2t-29 5q-13 3 -13 10q0 5 2 9l128 309h-149q-11 0 -14 2.5t-3 12.5v36q0 9 3 12t14 3h220q11 0 14.5 -3t3.5 -12v-20z"/>
    <glyph glyph-name="eight.superior" unicode="⁸" d="M326 537q-3 -55 -45 -84.5t-102 -29.5q-67 0 -106.5 30.5t-39.5 82.5q0 68 83 104q-65 28 -65 94q0 46 36 74t93 28t93.5 -27.5t36.5 -72.5q0 -32 -16 -53.5t-50 -40.5q82 -38 82 -105zM246 537q-1 30 -16.5 44.5t-52.5 26.5q-28 -4 -47 -25.5t-19 -45.5t19.5 -39 t49.5 -15q29 0 47.5 15t18.5 39zM233 730q0 22 -14 34t-39 12q-24 0 -38.5 -12t-14.5 -33q0 -37 55 -61q48 14 51 60z"/>
    <glyph glyph-name="nine.superior" unicode="⁹" d="M48 690q0 65 37 105.5t98 40.5q65 0 99 -44.5t34 -128.5q0 -111 -49 -175t-134 -64q-38 0 -62 11q-7 3 -7 9q0 3 1 4l11 37q3 8 10 8q3 0 9 -2q17 -7 40 -7q74 0 97 91q-25 -26 -68 -26q-57 0 -86.5 40t-29.5 101zM123 689q0 -37 15 -57.5t41 -20.5q56 0 56 77 q0 87 -54 87q-27 0 -42.5 -23t-15.5 -63z"/>
    <glyph glyph-name="zero.inferior" unicode="₀" d="M325 38v-5q0 -207 -147 -207q-70 0 -107.5 52.5t-37.5 150.5q0 92 36.5 150.5t114.5 58.5q141 0 141 -200zM247 29q0 84 -14 115.5t-51 31.5q-70 0 -70 -145q0 -143 68 -143q37 0 52 33t15 108z"/>
    <glyph glyph-name="one.inferior" unicode="₁" d="M153 -107v249l-67 -35q-7 -4 -11 -4q-7 0 -11 9q-8 14 -10 16q-6 12 -6 14t9 10l117 77h39q11 0 14 -3t3 -12v-321h44q10 0 13 -3t3 -13v-27q0 -10 -2.5 -12.5t-13.5 -2.5h-176q-12 0 -15 2.5t-3 12.5v27q0 10 3.5 13t13.5 3h56z"/>
    <glyph glyph-name="two.inferior" unicode="₂" d="M311 124q0 -38 -19 -64.5t-64 -57.5l-16 -12t-15 -11.5t-11.5 -9t-12 -10.5t-9 -11l-10.5 -14q-8 -14 -11 -34h148q11 0 14.5 -3t3.5 -13v-34q0 -10 -3 -12.5t-15 -2.5h-218q-9 0 -12 2.5t-3 11.5v16q2 51 21 84q21 43 96 95q35 26 47.5 41t12.5 39q0 23 -13 36.5 t-37 13.5q-22 0 -36 -12t-26 -39q-6 -10 -13 -10q-5 0 -8 1l-17.5 6t-15.5 5q-11 3 -11 12q0 12 14 35v-1q36 67 117 67q57 0 89.5 -30t32.5 -84z"/>
    <glyph glyph-name="three.inferior" unicode="₃" d="M113 26v32q0 10 3 12.5t14 2.5h21q68 0 68 57q0 22 -13.5 35t-36.5 13q-29 0 -58 -31q-9 -6 -12 -6q-5 0 -8 3l-30 24q-4 4 -4 8q0 7 4 11q43 51 112 51q54 0 87.5 -29t33.5 -76q0 -58 -53 -85q67 -28 67 -99v-3q0 -54 -40 -86.5t-105 -32.5t-106 23q-11 6 -11 11 q0 2 2 6q1 3 7 16.5t8 19.5q3 8 11 8q5 0 14 -6q39 -18 71 -18q71 0 71 62q0 61 -79 61h-21q-11 0 -14 3t-3 13z"/>
    <glyph glyph-name="four.inferior" unicode="₄" d="M202 -84h-152q-11 0 -14 2.5t-3 12.5v50l161 249q6 9 13 9q5 0 9 -2l-1 1l38 -15q13 -5 13 -11q0 -2 -4 -10l-153 -227h94q1 15 4 46t4 46q2 9 4 11t12 2h34q10 0 13 -3t3 -12v-91h38q11 0 13.5 -2t2.5 -13v-28q0 -9 -3 -12t-13 -3h-38v-74q0 -10 -2.5 -12.5t-13.5 -2.5 h-43q-10 0 -13 2.5t-3 12.5v74z"/>
    <glyph glyph-name="five.inferior" unicode="₅" d="M316 -30q0 -68 -43.5 -108.5t-117.5 -40.5q-44 0 -89 15q-12 4 -12 11q0 6 1 9q1 6 3.5 17t3.5 17q3 9 13 9q8 0 14 -3q39 -11 66 -11q41 0 64 22t23 62q0 31 -15.5 48t-43.5 17q-34 0 -65 -29q-4 -4 -11 -4h-7l-32 9h1q-11 2 -11 12v5l20 192q1 9 3.5 11.5t12.5 2.5h175 q11 0 14 -3t3 -13v-32q0 -10 -3 -12.5t-14 -2.5h-126l-10 -92q25 17 63 17q55 0 87.5 -34.5t32.5 -90.5z"/>
    <glyph glyph-name="six.inferior" unicode="₆" d="M317 -28q0 -65 -37 -105.5t-98 -40.5q-65 0 -99 44.5t-34 128.5q0 110 50.5 174.5t136.5 64.5q34 0 58 -11q7 -3 7 -9q0 -1 -1 -2v-2l-11 -37q-3 -8 -10 -8q-3 0 -9 2q-17 7 -36 7q-78 0 -101 -91q25 26 68 26q57 0 86.5 -40t29.5 -101zM242 -27q0 37 -15 57.5t-41 20.5 q-56 0 -56 -77q0 -87 54 -87q27 0 42.5 23t15.5 63z"/>
    <glyph glyph-name="seven.inferior" unicode="₇" d="M312 194l-146 -357q-5 -10 -15 -10l-3 1q-2 0 -13 2t-29 5q-13 3 -13 10q0 5 2 9l128 309h-149q-11 0 -14 2.5t-3 12.5v36q0 9 3 12t14 3h220q11 0 14.5 -3t3.5 -12v-20z"/>
    <glyph glyph-name="eight.inferior" unicode="₈" d="M326 -61q-3 -55 -45 -84.5t-102 -29.5q-67 0 -106.5 30.5t-39.5 82.5q0 68 83 104q-65 28 -65 94q0 46 36 74t93 28t93.5 -27.5t36.5 -72.5q0 -32 -16 -53.5t-50 -40.5q82 -38 82 -105zM246 -61q-1 30 -16.5 44.5t-52.5 26.5q-28 -4 -47 -25.5t-19 -45.5t19.5 -39 t49.5 -15q29 0 47.5 15t18.5 39zM233 132q0 22 -14 34t-39 12q-24 0 -38.5 -12t-14.5 -33q0 -37 55 -61q48 14 51 60z"/>
    <glyph glyph-name="nine.inferior" unicode="₉" d="M48 92q0 65 37 105.5t98 40.5q65 0 99 -44.5t34 -128.5q0 -111 -49 -175t-134 -64q-38 0 -62 11q-7 3 -7 9q0 3 1 4l11 37q3 8 10 8q3 0 9 -2q17 -7 40 -7q74 0 97 91q-25 -26 -68 -26q-57 0 -86.5 40t-29.5 101zM123 91q0 -37 15 -57.5t41 -20.5q56 0 56 77q0 87 -54 87 q-27 0 -42.5 -23t-15.5 -63z"/>
    <glyph glyph-name="Euro" unicode="€" horiz-adv-x="508" d="M515 54q0 -7 -11 -15q-67 -54 -152 -54q-102 0 -161.5 69.5t-73.5 203.5h-74q-14 0 -14 7q0 5 1 9l3 16q2 11 5.5 13.5t13.5 2.5h62v30v26h-71q-14 0 -14 7q0 5 1 9l3 16q2 11 5.5 13.5t13.5 2.5h66q6 52 20 96t40 83t69 61t99 22q87 0 155 -58q10 -7 10 -14t-5 -13 l-32 -50q-3 -4 -10 -4q-5 0 -11 4q-57 46 -103 46q-108 0 -126 -173h170q15 0 15 -9q0 -4 -1 -7l-3 -16q-2 -10 -5.5 -13t-14.5 -3h-164q0 -5 -0.5 -17t-0.5 -18q0 -14 1 -21h151q15 0 15 -9q0 -4 -1 -7l-3 -16q-2 -10 -5.5 -13t-14.5 -3h-140q8 -92 41.5 -138t97.5 -46 q54 0 95 37q9 7 13 7q5 0 11 -7l29 -45q5 -7 5 -12z"/>
    <glyph glyph-name="litre" unicode="ℓ" horiz-adv-x="464" d="M381 44q-63 -59 -125 -59q-55 0 -89 34q-40 42 -40 128v89l-52 -56q-5 8 -17 23.5t-17 23.5l86 93v221q0 93 36.5 140t96.5 47q54 0 79.5 -35t25.5 -79q0 -68 -28.5 -130t-82.5 -132q-5 -5 -15.5 -18.5t-14.5 -17.5v-162q0 -92 56 -92q32 0 71 41zM304 602q0 50 -34 50 q-46 0 -46 -99v-146q9 9 14 18q66 96 66 177z"/>
    <glyph glyph-name="trademark" unicode="™" horiz-adv-x="692" d="M641 309v-3q0 -11 -15 -11h-45q-15 0 -15 13l-5 203q0 2 -0.5 20.5t-0.5 28.5q0 6 0.5 13t0.5 8q-7 -27 -23 -70l-43 -119q-3 -9 -16 -9h-27q-13 0 -16 9l-40 114q-18 54 -23 74v-22v-53l-5 -197q0 -13 -15 -13h-41q-15 0 -15 11v2l21 366q1 8 3.5 10t10.5 2h50 q12 0 15 -9l60 -166q2 -5 6 -19.5t4 -15.5q5 21 10 33l64 168q3 9 16 9h48q14 0 15 -12zM279 673l-12 -37q-3 -11 -16 -11h-78v-316q0 -14 -15 -14h-46q-10 0 -13 3t-3 11v316h-81q-9 0 -11.5 3t-2.5 11v34q0 13 14 13h249q16 0 16 -9v-1q-1 -2 -1 -3z"/>
    <glyph glyph-name="Omega" unicode="Ω" horiz-adv-x="670" d="M612 0h-226v87q113 118 113 285q0 112 -44 179.5t-125 67.5t-128 -69t-47 -180q0 -170 115 -283v-87h-226v87h136q-138 126 -138 305q0 139 81 229.5t210 90.5q131 0 206 -87.5t75 -229.5q0 -182 -138 -308h136v-87z"/>
    <glyph glyph-name="estimated" unicode="℮" horiz-adv-x="637" d="M573 270h-417v-185q61 -61 148 -61q126 0 198 123l36 -21q-48 -69 -102 -103.5t-132 -34.5q-119 0 -191 80.5t-72 201.5t71.5 201.5t191.5 80.5q122 0 193 -79t76 -203zM453 306v148q-61 63 -150 63q-87 0 -147 -62v-149h297z"/>
    <glyph glyph-name="onethird" unicode="⅓" horiz-adv-x="851" d="M153 326v249l-67 -35q-7 -4 -11 -4q-7 0 -11 9q-8 14 -10 16q-6 12 -6 14q0 3 9 10l117 77h39q11 0 14 -3t3 -12v-321h44q10 0 13 -3t3 -13v-27q0 -10 -2.5 -12.5t-13.5 -2.5h-176q-12 0 -15 2.5t-3 12.5v27q0 10 3.5 13t13.5 3h56zM606 649l-277 -664q-6 -15 -22 -15 h-46q-15 0 -15 7q0 4 3 10l279 669q5 13 18 13h47q16 0 16 -9q0 -5 -3 -11zM605 191v32q0 10 3 12.5t14 2.5h21q68 0 68 57q0 22 -13.5 35t-36.5 13q-29 0 -58 -31q-9 -6 -12 -6q-5 0 -8 3l-9 7l-11.5 9t-9.5 8q-4 4 -4 8q0 7 4 11q43 51 112 51q54 0 87.5 -29t33.5 -76 q0 -58 -53 -85q67 -28 67 -99v-3q0 -54 -40 -86.5t-105 -32.5t-106 23q-11 5 -11 11q0 2 2 6q1 3 7 16.5t8 19.5q3 8 11 8q5 0 14 -6q39 -18 71 -18q71 0 71 62q0 61 -79 61h-21q-11 0 -14 3t-3 13z"/>
    <glyph glyph-name="twothirds" unicode="⅔" horiz-adv-x="851" d="M311 557q0 -38 -19 -64.5t-64 -57.5l-16 -12t-15 -11.5t-11.5 -9t-12 -10.5t-9 -11l-10.5 -14q-8 -14 -11 -34h148q11 0 14.5 -3t3.5 -13v-34q0 -10 -3 -12.5t-15 -2.5h-218q-9 0 -12 2.5t-3 11.5v16q2 51 21 84q21 43 96 95q35 26 47.5 41.5t12.5 38.5t-13 36.5 t-37 13.5q-22 0 -36 -12t-26 -39q-6 -10 -13 -10q-5 0 -8 1l-17.5 6t-15.5 5q-11 3 -11 12q0 12 14 35v-1q36 67 117 67q57 0 89.5 -30t32.5 -84zM606 649l-277 -664q-6 -15 -22 -15h-46q-15 0 -15 7q0 4 3 10l279 669q5 13 18 13h47q16 0 16 -9q0 -5 -3 -11zM605 191v32 q0 10 3 12.5t14 2.5h21q68 0 68 57q0 22 -13.5 35t-36.5 13q-29 0 -58 -31q-9 -6 -12 -6q-5 0 -8 3l-9 7l-11.5 9t-9.5 8q-4 4 -4 8q0 7 4 11q43 51 112 51q54 0 87.5 -29t33.5 -76q0 -58 -53 -85q67 -28 67 -99v-3q0 -54 -40 -86.5t-105 -32.5t-106 23q-11 5 -11 11 q0 2 2 6q1 3 7 16.5t8 19.5q3 8 11 8q5 0 14 -6q39 -18 71 -18q71 0 71 62q0 61 -79 61h-21q-11 0 -14 3t-3 13z"/>
    <glyph glyph-name="oneeighth" unicode="⅛" horiz-adv-x="851" d="M153 326v249l-67 -35q-7 -4 -11 -4q-7 0 -11 9q-8 14 -10 16q-6 12 -6 14q0 3 9 10l117 77h39q11 0 14 -3t3 -12v-321h44q10 0 13 -3t3 -13v-27q0 -10 -2.5 -12.5t-13.5 -2.5h-176q-12 0 -15 2.5t-3 12.5v27q0 10 3.5 13t13.5 3h56zM606 649l-277 -664q-6 -15 -22 -15 h-46q-15 0 -15 7q0 4 3 10l279 669q5 13 18 13h47q16 0 16 -9q0 -5 -3 -11zM818 104q-3 -55 -45 -84.5t-102 -29.5q-67 0 -106.5 30.5t-39.5 82.5q0 68 83 104q-65 28 -65 94q0 46 36 74t93 28t93.5 -27.5t36.5 -72.5q0 -32 -16 -53.5t-50 -40.5q82 -38 82 -105zM738 104 q-1 30 -16.5 44.5t-52.5 26.5q-28 -4 -47 -25.5t-19 -45.5t19.5 -39t49.5 -15q29 0 47.5 15t18.5 39zM725 297q0 22 -14 34t-39 12q-24 0 -38.5 -12t-14.5 -33q0 -37 55 -61q48 14 51 60z"/>
    <glyph glyph-name="threeeighths" unicode="⅜" horiz-adv-x="851" d="M113 459v32q0 10 3 12.5t14 2.5h21q68 0 68 57q0 22 -13.5 35t-36.5 13q-29 0 -58 -31q-9 -6 -12 -6q-5 0 -8 3l-30 24q-4 4 -4 8q0 7 4 11q43 51 112 51q54 0 87.5 -29t33.5 -76q0 -58 -53 -85q67 -28 67 -99v-3q0 -54 -40 -86.5t-105 -32.5t-106 23q-11 5 -11 11 q0 2 2 6q1 3 7 16.5t8 19.5q3 8 11 8q5 0 14 -6q39 -18 71 -18q71 0 71 62q0 61 -79 61h-21q-11 0 -14 3t-3 13zM606 649l-277 -664q-6 -15 -22 -15h-46q-15 0 -15 7q0 4 3 10l279 669q5 13 18 13h47q16 0 16 -9q0 -5 -3 -11zM818 104q-3 -55 -45 -84.5t-102 -29.5 q-67 0 -106.5 30.5t-39.5 82.5q0 68 83 104q-65 28 -65 94q0 46 36 74t93 28t93.5 -27.5t36.5 -72.5q0 -32 -16 -53.5t-50 -40.5q82 -38 82 -105zM738 104q-1 30 -16.5 44.5t-52.5 26.5q-28 -4 -47 -25.5t-19 -45.5t19.5 -39t49.5 -15q29 0 47.5 15t18.5 39zM725 297 q0 22 -14 34t-39 12q-24 0 -38.5 -12t-14.5 -33q0 -37 55 -61q48 14 51 60z"/>
    <glyph glyph-name="fiveeighths" unicode="⅝" horiz-adv-x="851" d="M316 403q0 -68 -43.5 -108.5t-117.5 -40.5q-44 0 -89 15q-12 4 -12 11q0 6 1 9q1 6 3.5 17t3.5 17q3 9 13 9q8 0 14 -3q39 -11 66 -11q41 0 64 22t23 62q0 31 -15.5 48t-43.5 17q-34 0 -65 -29q-4 -4 -11 -4h-7l-32 9h1q-11 2 -11 12v5l20 192q1 9 3.5 11.5t12.5 2.5h175 q11 0 14 -3t3 -13v-32q0 -10 -3 -12.5t-14 -2.5h-126l-10 -92q26 17 63 17q55 0 87.5 -34.5t32.5 -90.5zM606 649l-277 -664q-6 -15 -22 -15h-46q-15 0 -15 7q0 4 3 10l279 669q5 13 18 13h47q16 0 16 -9q0 -5 -3 -11zM818 104q-3 -55 -45 -84.5t-102 -29.5 q-67 0 -106.5 30.5t-39.5 82.5q0 68 83 104q-65 28 -65 94q0 46 36 74t93 28t93.5 -27.5t36.5 -72.5q0 -32 -16 -53.5t-50 -40.5q82 -38 82 -105zM738 104q-1 30 -16.5 44.5t-52.5 26.5q-28 -4 -47 -25.5t-19 -45.5t19.5 -39t49.5 -15q29 0 47.5 15t18.5 39zM725 297 q0 22 -14 34t-39 12q-24 0 -38.5 -12t-14.5 -33q0 -37 55 -61q48 14 51 60z"/>
    <glyph glyph-name="seveneighths" unicode="⅞" horiz-adv-x="851" d="M312 627l-146 -357q-5 -10 -15 -10h-3q-2 1 -13 3t-29 5q-13 3 -13 10q0 5 2 9l128 309h-149q-11 0 -14 2.5t-3 12.5v36q0 9 3 12t14 3h220q11 0 14.5 -3t3.5 -12v-20zM571 649l-277 -664q-6 -15 -22 -15h-46q-15 0 -15 7q0 4 3 10l279 669q5 13 18 13h47q16 0 16 -9 q0 -5 -3 -11zM818 104q-3 -55 -45 -84.5t-102 -29.5q-67 0 -106.5 30.5t-39.5 82.5q0 68 83 104q-65 28 -65 94q0 46 36 74t93 28t93.5 -27.5t36.5 -72.5q0 -32 -16 -53.5t-50 -40.5q82 -38 82 -105zM738 104q-1 30 -16.5 44.5t-52.5 26.5q-28 -4 -47 -25.5t-19 -45.5 t19.5 -39t49.5 -15q29 0 47.5 15t18.5 39zM725 297q0 22 -14 34t-39 12q-24 0 -38.5 -12t-14.5 -33q0 -37 55 -61q48 14 51 60z"/>
    <glyph glyph-name="partialdiff" unicode="∂" horiz-adv-x="537" d="M511 478q0 -91 -23 -192q-30 -124 -100 -210.5t-169 -86.5q-82 0 -133 53t-51 138q0 141 76 228t175 87q40 0 71 -17.5t44 -41.5h2q4 42 4 66q0 73 -32 110t-88 37q-45 0 -86 -24q-16 48 -23 72q48 32 122 32q97 0 154 -64t57 -187zM392 350q-23 70 -92 70 q-62 0 -110 -73t-48 -174q0 -47 21 -74.5t56 -27.5q61 0 107 79t66 200z"/>
    <glyph glyph-name="Delta" unicode="∆" horiz-adv-x="559" d="M576 0h-556v48l207 652h147l202 -652v-48zM450 88l-139 458q-1 4 -14 60h-4q0 -1 -4.5 -22.5t-8.5 -35.5l-139 -460h309z"/>
    <glyph glyph-name="product" unicode="∏" horiz-adv-x="667" d="M594 -230h-108v837h-305v-837h-108v930h521v-930z"/>
    <glyph glyph-name="summation" unicode="∑" horiz-adv-x="589" d="M531 -230h-506v54l273 415l-254 401v60h466v-87h-341l236 -371l-252 -385h378v-87z"/>
    <glyph glyph-name="minus" unicode="−" horiz-adv-x="500" d="M40 373h421q11 0 14 -3.5t3 -14.5v-54q0 -11 -3 -14t-14 -3h-421q-11 0 -14.5 3t-3.5 14v54q0 11 3.5 14.5t14.5 3.5z"/>
    <glyph glyph-name="uni2215" unicode="∕" horiz-adv-x="221" d="M291 649l-277 -664q-6 -15 -22 -15h-46q-15 0 -15 7q0 4 3 10l279 669q5 13 18 13h47q16 0 16 -9q0 -5 -3 -11z"/>
    <glyph glyph-name="uni2219" unicode="∙" horiz-adv-x="294" d="M209 329q0 -25 -18.5 -43.5t-43.5 -18.5t-43.5 18.5t-18.5 43.5t18.5 43t43.5 18t43.5 -18t18.5 -43z"/>
    <glyph glyph-name="radical" unicode="√" horiz-adv-x="461" d="M474 729l-156 -741h-92l-116 317l-51 -32l-36 55l136 90l112 -310l129 621h74z"/>
    <glyph glyph-name="infinity" unicode="∞" horiz-adv-x="723" d="M680 293q0 -71 -45.5 -119.5t-113.5 -48.5q-50 0 -93.5 27.5t-71.5 72.5h-2q-68 -100 -161 -100q-66 0 -114 44.5t-48 121.5q0 75 47.5 120t113.5 45q99 0 162 -99h2q25 40 66.5 69.5t96.5 29.5q69 0 115 -46t46 -117zM596 293q0 38 -22 63.5t-62 25.5q-36 0 -63 -22.5 t-54 -67.5q48 -92 116 -92q41 0 63 27t22 66zM316 292q-54 90 -117 90q-40 0 -62 -27t-22 -65q0 -39 24 -65t61 -26q63 0 116 93z"/>
    <glyph glyph-name="integral" unicode="∫" horiz-adv-x="462" d="M383 660q-16 7 -38 7q-69 0 -69 -90v-623q0 -82 -39.5 -131.5t-121.5 -49.5q-46 0 -72 11q12 52 19 78q15 -7 38 -7q69 0 69 89v623q0 83 41 132.5t123 49.5q50 0 72 -13q-4 -13 -11 -38t-11 -38z"/>
    <glyph glyph-name="approxequal" unicode="≈" horiz-adv-x="500" d="M479 421q-55 -87 -133 -87q-56 0 -103 31q-49 31 -84 31q-42 0 -78 -65l-59 68q57 88 133 88q51 0 102 -30q52 -32 86 -32q41 0 77 64zM479 194q-55 -87 -133 -87q-55 0 -103 30q-50 32 -84 32q-42 0 -78 -65l-59 69q28 42 58.5 64.5t74.5 22.5q52 0 102 -31t86 -31 q41 0 77 64z"/>
    <glyph glyph-name="notequal" unicode="≠" horiz-adv-x="500" d="M452 138h-220l-48 -111h-98l48 111h-86v91h124l59 137h-183v91h221l53 124h99l-53 -124h84v-91h-123l-59 -137h182v-91z"/>
    <glyph glyph-name="lessequal" unicode="≤" horiz-adv-x="500" d="M452 0h-404v91h404v-91zM452 140l-404 179v80l404 178v-95l-289 -123v-2l289 -123v-94z"/>
    <glyph glyph-name="greaterequal" unicode="≥" horiz-adv-x="500" d="M452 0h-404v91h404v-91zM452 319l-404 -179v96l290 123v2l-290 123v94l404 -179v-80z"/>
    <glyph glyph-name="lozenge" unicode="◊" horiz-adv-x="516" d="M450 350l-181 -350h-52l-180 349l180 351h52zM370 350l-127 250l-127 -250l127 -250z"/>
    <glyph glyph-name="a.sc" unicode="" horiz-adv-x="486" d="M471 21q2 -8 2 -10q0 -11 -17 -11h-77q-10 0 -13 2t-6 11l-41 134h-158l-41 -134q-4 -13 -19 -13h-71q-17 0 -17 8q0 3 2 9l174 512q3 8 6 10.5t13 2.5h71q10 0 13 -2t6 -11zM296 225l-41 144q-1 3 -16 76q-8 -45 -17 -76l-42 -144h116z"/>
    <glyph glyph-name="ae.sc" unicode="" horiz-adv-x="627" d="M602 16q0 -10 -4 -13t-15 -3h-275q-12 0 -15.5 3t-3.5 13v131h-148l-64 -135q-5 -12 -19 -12h-71q-17 0 -17 11q0 3 4 11l257 508q6 12 20 12h336q16 0 16 -10q0 -6 -1 -9l-14 -52q-4 -14 -20 -14h-178v-133h156q11 0 15 -3.5t4 -13.5v-50q0 -10 -4 -13t-15 -3h-156v-156 h193q12 0 15.5 -3t3.5 -13v-53zM289 225v217v32q-24 -63 -31 -77l-86 -172h117z"/>
    <glyph glyph-name="aacute.sc" unicode="" horiz-adv-x="486" d="M397 696q4 -7 4 -11q0 -6 -14 -12l-171 -78q-8 -3 -11 -3q-4 0 -7 6l-17 32q-3 6 -3 8q0 4 10 11l154 105q6 5 12 5q4 0 10 -10zM471 21q2 -8 2 -10q0 -11 -17 -11h-77q-10 0 -13 2t-6 11l-41 134h-158l-41 -134q-4 -13 -19 -13h-71q-17 0 -17 8q0 3 2 9l174 512 q3 8 6 10.5t13 2.5h71q10 0 13 -2t6 -11zM296 225l-41 144q-1 3 -16 76q-8 -45 -17 -76l-42 -144h116z"/>
    <glyph glyph-name="acircumflex.sc" unicode="" horiz-adv-x="486" d="M369 636l-19 -31q-4 -7 -9 -7q-3 0 -11 5l-90 56l-92 -57q-7 -5 -9 -5q-3 0 -9 9l-19 29q-6 7 -6 11q0 2 8 8l117 92q8 6 10 6q4 0 12 -7l115 -91q7 -6 7 -9q0 -1 -2 -3.5t-3 -5.5zM471 21q2 -8 2 -10q0 -11 -17 -11h-77q-10 0 -13 2t-6 11l-41 134h-158l-41 -134 q-4 -13 -19 -13h-71q-17 0 -17 8q0 3 2 9l174 512q3 8 6 10.5t13 2.5h71q10 0 13 -2t6 -11zM296 225l-41 144q-1 3 -16 76q-8 -45 -17 -76l-42 -144h116z"/>
    <glyph glyph-name="adieresis.sc" unicode="" horiz-adv-x="486" d="M395 673q0 -25 -17.5 -43t-43.5 -18q-25 0 -43 18t-18 43q0 26 18 44.5t43 18.5t43 -18.5t18 -44.5zM208 673q0 -25 -18.5 -43t-43.5 -18t-42.5 18t-17.5 43q0 26 17.5 44.5t42.5 18.5t43.5 -18.5t18.5 -44.5zM471 21q2 -8 2 -10q0 -11 -17 -11h-77q-10 0 -13 2t-6 11 l-41 134h-158l-41 -134q-4 -13 -19 -13h-71q-17 0 -17 8q0 3 2 9l174 512q3 8 6 10.5t13 2.5h71q10 0 13 -2t6 -11zM296 225l-41 144q-1 3 -16 76q-8 -45 -17 -76l-42 -144h116z"/>
    <glyph glyph-name="agrave.sc" unicode="" horiz-adv-x="486" d="M298 624l-14 -24q-5 -9 -9 -9q-2 0 -12 5l-170 77q-12 5 -12 11t5 13l29 51q6 10 13 10q6 0 16 -7l149 -102q10 -7 10 -12q0 -3 -5 -13zM471 21q2 -8 2 -10q0 -11 -17 -11h-77q-10 0 -13 2t-6 11l-41 134h-158l-41 -134q-4 -13 -19 -13h-71q-17 0 -17 8q0 3 2 9l174 512 q3 8 6 10.5t13 2.5h71q10 0 13 -2t6 -11zM296 225l-41 144q-1 3 -16 76q-8 -45 -17 -76l-42 -144h116z"/>
    <glyph glyph-name="aring.sc" unicode="" horiz-adv-x="486" d="M340 693q0 -40 -28.5 -67.5t-68.5 -27.5t-68.5 27.5t-28.5 67.5t28.5 67.5t68.5 27.5t68.5 -27.5t28.5 -67.5zM471 21q2 -8 2 -10q0 -11 -17 -11h-77q-10 0 -13 2t-6 11l-41 134h-158l-41 -134q-4 -13 -19 -13h-71q-17 0 -17 8q0 3 2 9l174 512q3 8 6 10.5t13 2.5h71 q10 0 13 -2t6 -11zM285 693q0 18 -12.5 31t-29.5 13q-18 0 -30 -13t-12 -31t12 -31.5t30 -13.5q17 0 29.5 13.5t12.5 31.5zM296 225l-41 144q-1 3 -16 76q-8 -45 -17 -76l-42 -144h116z"/>
    <glyph glyph-name="atilde.sc" unicode="" horiz-adv-x="486" d="M389 705q2 -1 2 -5q0 -1 -5 -16q-36 -72 -93 -72q-24 0 -56 19.5t-47 19.5q-23 0 -41 -30q-5 -8 -9 -8t-12 5l-32 16q-7 4 -7 8q0 3 3 9q18 36 39 56.5t54 20.5q28 0 60.5 -19t46.5 -19q23 0 38 27q5 10 10 10q1 0 7 -2zM471 21q2 -8 2 -10q0 -11 -17 -11h-77 q-10 0 -13 2t-6 11l-41 134h-158l-41 -134q-4 -13 -19 -13h-71q-17 0 -17 8q0 3 2 9l174 512q3 8 6 10.5t13 2.5h71q10 0 13 -2t6 -11zM296 225l-41 144q-1 3 -16 76q-8 -45 -17 -76l-42 -144h116z"/>
    <glyph glyph-name="b.sc" unicode="" horiz-adv-x="487" d="M447 153q0 -55 -32.5 -95t-85.5 -51q-35 -7 -98 -7h-137q-11 0 -15 3t-4 13v509q0 10 4 13.5t15 3.5h141q62 0 92.5 -7t53.5 -27q44 -38 44 -102q0 -84 -78 -122q31 -10 52 -26q48 -40 48 -105zM321 397q0 37 -19.5 51.5t-67.5 14.5h-60v-147h51q96 0 96 81zM342 159 q0 36 -23 57t-66 21h-79v-155h60q57 0 82.5 17.5t25.5 59.5z"/>
    <glyph glyph-name="c.sc" unicode="" horiz-adv-x="413" d="M365 102l30 -41q3 -5 3 -9q0 -13 -19 -26q-56 -38 -126 -38q-104 0 -158.5 74t-54.5 215q0 143 61 214q53 62 146 62q81 0 139 -46q10 -8 10 -15q0 -4 -3 -9l-33 -48q-4 -6 -10 -6q-7 0 -11 4q-52 35 -88 35q-104 0 -104 -179q0 -215 114 -215q42 0 83 31q5 4 10 4t11 -7 z"/>
    <glyph glyph-name="ccedilla.sc" unicode="" horiz-adv-x="413" d="M365 102l30 -41q3 -5 3 -9q0 -13 -19 -26q-52 -35 -114 -38l-3 -43q39 -5 56.5 -21t17.5 -47q0 -38 -29 -61t-77 -23q-39 0 -57 10q-9 4 -9 12q0 5 1 8l6 32q1 5 7 5h4q19 -7 41 -7q35 0 35 24q0 22 -45 22q-24 0 -24 17q0 1 0.5 4.5t0.5 5.5l8 68q-78 18 -118 90.5 t-40 192.5q0 143 61 214q53 62 146 62q81 0 139 -46q10 -8 10 -15q0 -4 -3 -9l-33 -48q-4 -6 -10 -6q-7 0 -11 4q-52 35 -88 35q-104 0 -104 -179q0 -215 114 -215q42 0 83 31q5 4 10 4t11 -7z"/>
    <glyph glyph-name="d.sc" unicode="" horiz-adv-x="500" d="M460 278q0 -125 -43 -192q-32 -51 -83 -68.5t-123 -17.5h-117q-11 0 -15 3t-4 13v509q0 10 4 13.5t15 3.5h113q68 0 110.5 -10t72.5 -40q70 -69 70 -214zM353 271q0 115 -44 156q-33 30 -103 30h-29v-372h34q49 0 73 10t40 36q29 46 29 140z"/>
    <glyph glyph-name="eth.sc" unicode="" horiz-adv-x="500" d="M460 278q0 -125 -43 -192q-32 -51 -83 -68.5t-123 -17.5h-117q-11 0 -15 3t-4 13v233h-36q-9 0 -11 2t-2 11v41q0 9 2 12t11 3h36v207q0 10 4 13.5t15 3.5h113q68 0 110.5 -10t72.5 -40q70 -69 70 -214zM353 271q0 115 -44 156q-33 30 -103 30h-29v-139h80q9 0 11 -2.5 t2 -12.5v-41q0 -10 -2 -11.5t-11 -1.5h-80v-164h34q49 0 73 10t40 36q29 46 29 140z"/>
    <glyph glyph-name="e.sc" unicode="" horiz-adv-x="411" d="M386 525l-15 -55q-4 -13 -19 -13h-175v-133h152q11 0 15 -3.5t4 -13.5v-50q0 -10 -4 -13t-15 -3h-152v-156h189q12 0 15.5 -3t3.5 -13v-53q0 -10 -4 -13t-15 -3h-272q-12 0 -15.5 3t-3.5 13v509q0 10 4 13.5t15 3.5h277q16 0 16 -9q0 -5 -1 -8z"/>
    <glyph glyph-name="eacute.sc" unicode="" horiz-adv-x="411" d="M367 696q4 -7 4 -11q0 -6 -14 -12l-171 -78q-7 -3 -11 -3t-7 6l-17 32q-3 6 -3 8q0 4 10 11l154 105q6 5 12 5q4 0 10 -10zM386 525l-15 -55q-4 -13 -19 -13h-175v-133h152q11 0 15 -3.5t4 -13.5v-50q0 -10 -4 -13t-15 -3h-152v-156h189q12 0 15.5 -3t3.5 -13v-53 q0 -10 -4 -13t-15 -3h-272q-12 0 -15.5 3t-3.5 13v509q0 10 4 13.5t15 3.5h277q16 0 16 -9q0 -5 -1 -8z"/>
    <glyph glyph-name="ecircumflex.sc" unicode="" horiz-adv-x="411" d="M349 636l-19 -31q-4 -7 -9 -7q-3 0 -11 5l-90 56l-92 -57q-7 -5 -9 -5q-3 0 -9 9l-19 29q-6 7 -6 11q0 2 8 8l117 92q8 6 10 6q4 0 12 -7l115 -91q7 -6 7 -9q0 -1 -2 -3.5t-3 -5.5zM386 525l-15 -55q-4 -13 -19 -13h-175v-133h152q11 0 15 -3.5t4 -13.5v-50q0 -10 -4 -13 t-15 -3h-152v-156h189q12 0 15.5 -3t3.5 -13v-53q0 -10 -4 -13t-15 -3h-272q-12 0 -15.5 3t-3.5 13v509q0 10 4 13.5t15 3.5h277q16 0 16 -9q0 -5 -1 -8z"/>
    <glyph glyph-name="edieresis.sc" unicode="" horiz-adv-x="411" d="M375 673q0 -25 -17.5 -43t-43.5 -18q-25 0 -43 18t-18 43q0 26 18 44.5t43 18.5t43 -18.5t18 -44.5zM188 673q0 -25 -18.5 -43t-43.5 -18t-42.5 18t-17.5 43q0 26 17.5 44.5t42.5 18.5t43.5 -18.5t18.5 -44.5zM386 525l-15 -55q-4 -13 -19 -13h-175v-133h152 q11 0 15 -3.5t4 -13.5v-50q0 -10 -4 -13t-15 -3h-152v-156h189q12 0 15.5 -3t3.5 -13v-53q0 -10 -4 -13t-15 -3h-272q-12 0 -15.5 3t-3.5 13v509q0 10 4 13.5t15 3.5h277q16 0 16 -9q0 -5 -1 -8z"/>
    <glyph glyph-name="egrave.sc" unicode="" horiz-adv-x="411" d="M278 624l-14 -24q-5 -9 -9 -9q-2 0 -12 5l-170 77q-12 5 -12 11t5 13l29 51q6 10 13 10q6 0 16 -7l149 -102q10 -7 10 -12q0 -3 -5 -13zM386 525l-15 -55q-4 -13 -19 -13h-175v-133h152q11 0 15 -3.5t4 -13.5v-50q0 -10 -4 -13t-15 -3h-152v-156h189q12 0 15.5 -3 t3.5 -13v-53q0 -10 -4 -13t-15 -3h-272q-12 0 -15.5 3t-3.5 13v509q0 10 4 13.5t15 3.5h277q16 0 16 -9q0 -5 -1 -8z"/>
    <glyph glyph-name="f.sc" unicode="" horiz-adv-x="386" d="M386 523l-15 -53q-4 -13 -19 -13h-175v-136h152q11 0 15 -3.5t4 -13.5v-49q0 -10 -4 -13.5t-15 -3.5h-152v-222q0 -10 -3.5 -13t-14.5 -3h-65q-11 0 -15 3t-4 13v509q0 10 4 13.5t15 3.5h277q16 0 16 -10q0 -6 -1 -9z"/>
    <glyph glyph-name="g.sc" unicode="" horiz-adv-x="480" d="M333 203h-62q-11 0 -14.5 3t-3.5 13v50q0 11 3.5 14.5t14.5 3.5h140q11 0 15 -3.5t4 -14.5v-226q0 -8 -2.5 -11t-12.5 -9q-62 -35 -152 -35q-223 0 -223 279q0 140 57 213t168 73q85 0 146 -39q9 -6 9 -12q0 -4 -3 -8l-27 -51q-4 -6 -9 -6t-10 3q-55 31 -104 31 q-121 0 -121 -194q0 -111 35 -163q28 -42 93 -42q29 0 59 13v118z"/>
    <glyph glyph-name="h.sc" unicode="" horiz-adv-x="538" d="M177 321h184v204q0 11 3.5 14t14.5 3h65q11 0 15 -3.5t4 -13.5v-509q0 -10 -4 -13t-15 -3h-65q-11 0 -14.5 3t-3.5 13v224h-184v-224q0 -10 -3 -13t-14 -3h-66q-11 0 -15 3t-4 13v509q0 10 4 13.5t15 3.5h66q10 0 13.5 -3t3.5 -14v-204z"/>
    <glyph glyph-name="i.sc" unicode="" horiz-adv-x="308" d="M103 78v385h-57q-11 0 -14.5 3t-3.5 14v45q0 11 3.5 14t14.5 3h215q11 0 15 -3.5t4 -13.5v-45q0 -10 -4 -13.5t-15 -3.5h-56v-385h56q12 0 15.5 -3t3.5 -13v-46q0 -10 -3.5 -13t-15.5 -3h-215q-11 0 -14.5 3t-3.5 13v46q0 11 3 13.5t15 2.5h57z"/>
    <glyph glyph-name="iacute.sc" unicode="" horiz-adv-x="308" d="M295 696q4 -7 4 -11q0 -6 -14 -12l-171 -78q-8 -3 -11 -3q-4 0 -7 6l-17 32q-3 6 -3 8q0 4 10 11l154 105q6 5 12 5q4 0 10 -10zM280 16q0 -10 -3.5 -13t-15.5 -3h-215q-11 0 -14.5 3t-3.5 13v46q0 11 3 13.5t15 2.5h57v385h-57q-11 0 -14.5 3t-3.5 14v45q0 11 3.5 14 t14.5 3h215q11 0 15 -3.5t4 -13.5v-45q0 -10 -4 -13.5t-15 -3.5h-56v-385h56q12 0 15.5 -3t3.5 -13v-46z"/>
    <glyph glyph-name="icircumflex.sc" unicode="" horiz-adv-x="308" d="M283 636l-19 -31q-4 -7 -9 -7q-3 0 -11 5l-90 56l-92 -57q-7 -5 -9 -5q-3 0 -9 9l-19 29q-6 7 -6 11q0 2 8 8l117 92q8 6 10 6q4 0 12 -7l115 -91q7 -6 7 -9q0 -1 -2 -3.5t-3 -5.5zM280 16q0 -10 -3.5 -13t-15.5 -3h-215q-11 0 -14.5 3t-3.5 13v46q0 11 3 13.5t15 2.5h57 v385h-57q-11 0 -14.5 3t-3.5 14v45q0 11 3.5 14t14.5 3h215q11 0 15 -3.5t4 -13.5v-45q0 -10 -4 -13.5t-15 -3.5h-56v-385h56q12 0 15.5 -3t3.5 -13v-46z"/>
    <glyph glyph-name="idieresis.sc" unicode="" horiz-adv-x="308" d="M309 673q0 -25 -17.5 -43t-43.5 -18q-25 0 -43 18t-18 43q0 26 18 44.5t43 18.5t43 -18.5t18 -44.5zM122 673q0 -25 -18.5 -43t-43.5 -18t-42.5 18t-17.5 43q0 26 17.5 44.5t42.5 18.5t43.5 -18.5t18.5 -44.5zM280 16q0 -10 -3.5 -13t-15.5 -3h-215q-11 0 -14.5 3 t-3.5 13v46q0 11 3 13.5t15 2.5h57v385h-57q-11 0 -14.5 3t-3.5 14v45q0 11 3.5 14t14.5 3h215q11 0 15 -3.5t4 -13.5v-45q0 -10 -4 -13.5t-15 -3.5h-56v-385h56q12 0 15.5 -3t3.5 -13v-46z"/>
    <glyph glyph-name="igrave.sc" unicode="" horiz-adv-x="308" d="M226 624l-14 -24q-5 -9 -9 -9q-2 0 -12 5l-170 77q-12 5 -12 11t5 13l29 51q6 10 13 10q6 0 16 -7l149 -102q10 -7 10 -12q0 -3 -5 -13zM280 16q0 -10 -3.5 -13t-15.5 -3h-215q-11 0 -14.5 3t-3.5 13v46q0 11 3 13.5t15 2.5h57v385h-57q-11 0 -14.5 3t-3.5 14v45 q0 11 3.5 14t14.5 3h215q11 0 15 -3.5t4 -13.5v-45q0 -10 -4 -13.5t-15 -3.5h-56v-385h56q12 0 15.5 -3t3.5 -13v-46z"/>
    <glyph glyph-name="j.sc" unicode="" horiz-adv-x="387" d="M215 462h-131q-10 0 -13.5 3t-3.5 14v46q0 11 3 14t14 3h214q11 0 15 -3.5t4 -13.5v-373q0 -83 -42 -124q-42 -40 -120 -40q-116 0 -146 92q-9 26 -9 61q0 23 12 23h67q13 0 13 -17v-1v-6v-1q0 -67 62 -67q32 0 46.5 17t14.5 56v317z"/>
    <glyph glyph-name="k.sc" unicode="" horiz-adv-x="477" d="M265 273l206 -224q6 -7 6 -12q0 -6 -11 -12l-63 -33q-4 -3 -8 -3t-13 9l-205 239v-221q0 -10 -3 -13t-14 -3h-66q-11 0 -15 3t-4 13v509q0 10 4 13.5t15 3.5h66q10 0 13.5 -3t3.5 -14v-226l199 241q6 9 13 9q4 0 11 -4l51 -27q11 -6 11 -11t-6 -12z"/>
    <glyph glyph-name="l.sc" unicode="" horiz-adv-x="405" d="M400 72l-14 -59q-4 -13 -20 -13h-272q-11 0 -15 3t-4 13v509q0 10 4 13.5t15 3.5h65q11 0 14.5 -3.5t3.5 -13.5v-433h209q15 0 15 -10q0 -6 -1 -10z"/>
    <glyph glyph-name="lslash.sc" unicode="" horiz-adv-x="405" d="M400 72l-14 -59q-4 -13 -20 -13h-272q-11 0 -15 3t-4 13v215l-77 -50q-5 -4 -9 -4q-6 0 -6 11v50q0 10 7 14l85 56v217q0 10 4 13.5t15 3.5h65q11 0 14.5 -3.5t3.5 -13.5v-151l91 60q4 3 8 3q7 0 7 -11v-51q0 -8 -9 -14l-97 -63v-206h209q15 0 15 -10q0 -6 -1 -10z"/>
    <glyph glyph-name="m.sc" unicode="" horiz-adv-x="607" d="M512 526l30 -509v-5q0 -12 -17 -12h-65q-11 0 -15 3t-4 13l-9 336v47q-10 -41 -14 -53l-81 -212q-3 -8 -6.5 -10.5t-13.5 -2.5h-39q-9 0 -12.5 2.5t-6.5 11.5l-75 208q-2 6 -7 27l-7 30v-36v-17l-11 -331q0 -10 -3.5 -13t-14.5 -3h-59q-10 0 -13.5 2.5t-3.5 10.5v4 l29 509q1 10 4.5 13t13.5 3h69q10 0 13.5 -2.5t6.5 -10.5l86 -243q3 -9 13 -54q2 8 5 17l7 20t6 17l88 243q3 8 6.5 10.5t13.5 2.5h68q10 0 13.5 -3t4.5 -13z"/>
    <glyph glyph-name="n.sc" unicode="" horiz-adv-x="533" d="M458 525v-509q0 -10 -3.5 -13t-14.5 -3h-51q-15 0 -23 13l-174 319q-25 46 -31 63q3 -51 3 -55v-324q0 -10 -3.5 -13t-14.5 -3h-53q-11 0 -14.5 3t-3.5 13v509q0 11 3.5 14t14.5 3h62q15 0 22 -12l163 -298q14 -24 31 -68q-2 36 -2 57v304q0 10 4 13.5t15 3.5h52 q11 0 14.5 -3t3.5 -14z"/>
    <glyph glyph-name="ntilde.sc" unicode="" horiz-adv-x="533" d="M419 705q2 -1 2 -5q0 -1 -5 -16q-36 -72 -93 -72q-24 0 -56 19.5t-47 19.5q-23 0 -41 -30q-5 -8 -9 -8t-12 5l-32 16q-7 4 -7 8q0 3 3 9q18 36 39 56.5t54 20.5q28 0 60.5 -19t46.5 -19q23 0 38 27q5 10 10 10q1 0 7 -2zM458 16q0 -10 -3.5 -13t-14.5 -3h-51 q-15 0 -23 13l-174 319q-25 46 -31 63q3 -51 3 -55v-324q0 -10 -3.5 -13t-14.5 -3h-53q-11 0 -14.5 3t-3.5 13v509q0 11 3.5 14t14.5 3h62q15 0 22 -12l163 -298q14 -24 31 -68q-2 36 -2 57v304q0 10 4 13.5t15 3.5h52q11 0 14.5 -3t3.5 -14v-509z"/>
    <glyph glyph-name="o.sc" unicode="" horiz-adv-x="497" d="M457 275q0 -141 -53.5 -214t-158.5 -73q-205 0 -205 286q0 128 50.5 203.5t160.5 75.5q206 0 206 -278zM348 271q0 106 -30 160q-21 40 -69 40q-101 0 -101 -200q0 -106 31 -161q22 -39 69 -39q100 0 100 200z"/>
    <glyph glyph-name="oe.sc" unicode="" horiz-adv-x="675" d="M650 16q0 -10 -4 -13t-15 -3h-275q-11 0 -20 12q-42 -24 -91 -24q-100 0 -152.5 71.5t-52.5 208.5q0 285 209 285q52 0 97 -23q12 12 24 12h266q16 0 16 -9q0 -3 -2 -11l-14 -52q-4 -13 -20 -13h-178v-133h156q11 0 14.5 -3t3.5 -14v-50q0 -10 -3.5 -13t-14.5 -3h-156 v-156h193q12 0 15.5 -3t3.5 -13v-53zM338 102v337q-42 34 -85 34q-50 0 -73 -41q-32 -59 -32 -161q0 -201 106 -201q42 0 84 32z"/>
    <glyph glyph-name="oacute.sc" unicode="" horiz-adv-x="497" d="M397 696q4 -7 4 -11q0 -6 -14 -12l-171 -78q-8 -3 -11 -3q-4 0 -7 6l-17 32q-3 6 -3 8q0 4 10 11l154 105q6 5 12 5q4 0 10 -10zM457 275q0 -141 -53.5 -214t-158.5 -73q-205 0 -205 286q0 128 50.5 203.5t160.5 75.5q206 0 206 -278zM348 271q0 106 -30 160 q-21 40 -69 40q-101 0 -101 -200q0 -106 31 -161q22 -39 69 -39q100 0 100 200z"/>
    <glyph glyph-name="ocircumflex.sc" unicode="" horiz-adv-x="497" d="M378 636l-19 -31q-4 -7 -9 -7q-3 0 -11 5l-90 56l-92 -57q-7 -5 -9 -5q-3 0 -9 9l-19 29q-6 7 -6 11q0 2 8 8l117 92q8 6 10 6q4 0 12 -7l115 -91q7 -6 7 -9q0 -1 -2 -3.5t-3 -5.5zM457 275q0 -141 -53.5 -214t-158.5 -73q-205 0 -205 286q0 128 50.5 203.5t160.5 75.5 q206 0 206 -278zM348 271q0 106 -30 160q-21 40 -69 40q-101 0 -101 -200q0 -106 31 -161q22 -39 69 -39q100 0 100 200z"/>
    <glyph glyph-name="odieresis.sc" unicode="" horiz-adv-x="497" d="M405 673q0 -25 -17.5 -43t-43.5 -18q-25 0 -43 18t-18 43q0 26 18 44.5t43 18.5t43 -18.5t18 -44.5zM218 673q0 -25 -18.5 -43t-43.5 -18t-42.5 18t-17.5 43q0 26 17.5 44.5t42.5 18.5t43.5 -18.5t18.5 -44.5zM457 275q0 -141 -53.5 -214t-158.5 -73q-205 0 -205 286 q0 128 50.5 203.5t160.5 75.5q206 0 206 -278zM348 271q0 106 -30 160q-21 40 -69 40q-101 0 -101 -200q0 -106 31 -161q22 -39 69 -39q100 0 100 200z"/>
    <glyph glyph-name="ograve.sc" unicode="" horiz-adv-x="497" d="M308 624l-14 -24q-5 -9 -9 -9q-2 0 -12 5l-170 77q-12 5 -12 11t5 13l29 51q6 10 13 10q6 0 16 -7l149 -102q10 -7 10 -12q0 -3 -5 -13zM457 275q0 -141 -53.5 -214t-158.5 -73q-205 0 -205 286q0 128 50.5 203.5t160.5 75.5q206 0 206 -278zM348 271q0 106 -30 160 q-21 40 -69 40q-101 0 -101 -200q0 -106 31 -161q22 -39 69 -39q100 0 100 200z"/>
    <glyph glyph-name="oslash.sc" unicode="" horiz-adv-x="497" d="M457 270q0 -283 -211 -283q-65 0 -112 31l-31 -52q-7 -12 -14 -12q-4 0 -11 4l-26 13q-12 6 -12 13q0 6 4 11l42 71q-46 72 -46 201q0 157 68 229q54 57 142 57q59 0 103 -25l27 46q6 11 12 11q2 0 12 -4l26 -12q12 -6 12 -12q0 -3 -4 -11l-35 -61q54 -73 54 -215z M305 449q-20 21 -56 21q-101 0 -101 -200q0 -56 9 -97zM348 270q0 60 -12 110l-151 -281q22 -29 63 -29q100 0 100 200z"/>
    <glyph glyph-name="otilde.sc" unicode="" horiz-adv-x="497" d="M391 705q2 -1 2 -5q0 -1 -5 -16q-36 -72 -93 -72q-24 0 -56 19.5t-47 19.5q-23 0 -41 -30q-5 -8 -9 -8t-12 5l-32 16q-7 4 -7 8q0 3 3 9q18 36 39 56.5t54 20.5q28 0 60.5 -19t46.5 -19q23 0 38 27q5 10 10 10q1 0 7 -2zM457 275q0 -141 -53.5 -214t-158.5 -73 q-205 0 -205 286q0 128 50.5 203.5t160.5 75.5q206 0 206 -278zM348 271q0 106 -30 160q-21 40 -69 40q-101 0 -101 -200q0 -106 31 -161q22 -39 69 -39q100 0 100 200z"/>
    <glyph glyph-name="p.sc" unicode="" horiz-adv-x="432" d="M422 393q0 -61 -31.5 -105.5t-85.5 -61.5q-30 -10 -79 -10h-49v-200q0 -10 -3.5 -13t-14.5 -3h-65q-11 0 -15 3t-4 13v509q0 10 4 13.5t15 3.5h135q102 0 142 -32q51 -41 51 -117zM322 389q0 42 -22 57t-75 15h-48v-158h38q58 0 81 19q26 21 26 67z"/>
    <glyph glyph-name="thorn.sc" unicode="" horiz-adv-x="432" d="M422 313q0 -61 -31.5 -105.5t-85.5 -61.5q-30 -10 -79 -10h-49v-120q0 -10 -3.5 -13t-14.5 -3h-65q-11 0 -15 3t-4 13v509q0 10 4 13.5t15 3.5h70q9 0 11 -3t2 -13v-64h52q102 0 142 -32q51 -41 51 -117zM322 309q0 42 -22 57t-75 15h-48v-158h38q58 0 81 19q26 21 26 67 z"/>
    <glyph glyph-name="q.sc" unicode="" horiz-adv-x="497" d="M476 -20l-46 -37q-6 -5 -12 -5q-25 0 -91 64q-33 -14 -80 -14q-207 0 -207 281q0 284 210 284q207 0 207 -277q0 -151 -58 -224q18 -15 66 -45q16 -11 16 -18q0 -5 -5 -9zM349 269q0 107 -31 162q-21 40 -68 40q-102 0 -102 -200q0 -106 31 -161q22 -39 69 -39 q101 0 101 198z"/>
    <glyph glyph-name="r.sc" unicode="" horiz-adv-x="467" d="M453 28q4 -7 4 -11q0 -9 -14 -12l-67 -15q-3 -1 -9 -1q-8 0 -13 10l-128 228h-50v-211q0 -10 -4 -13t-15 -3h-63q-12 0 -15.5 3t-3.5 14v508q0 10 4 13.5t15 3.5h137q96 0 138 -31q53 -39 53 -117q0 -111 -103 -153zM320 392q0 40 -22.5 55t-74.5 15h-47v-154h42 q52 0 77 20t25 64z"/>
    <glyph glyph-name="s.sc" unicode="" horiz-adv-x="421" d="M388 150q0 -73 -52 -116.5t-137 -43.5q-94 0 -162 35q-12 6 -12 14q0 2 2 8l22 55q4 10 14 10q6 0 16 -4q67 -31 121 -31q38 0 62.5 17t24.5 48q0 33 -20 52t-90 53q-82 40 -108 69q-33 36 -33 87q0 67 50.5 108t132.5 41q83 0 147 -36q10 -7 10 -13q0 -1 -2 -7l-25 -53 q-3 -7 -11 -7q-4 0 -8 2q-63 29 -110 29q-39 0 -61 -15t-22 -41q0 -24 15.5 -39t63.5 -40l57 -29q57 -29 86 -63.5t29 -89.5z"/>
    <glyph glyph-name="scaron.sc" unicode="" horiz-adv-x="421" d="M337 716q5 -10 5 -12q0 -4 -9 -11l-112 -89q-8 -7 -12 -7q-3 0 -10 7l-112 89q-10 7 -10 11q0 3 6 12l16 25q6 9 10 9q2 0 12 -5l89 -54l88 54q8 5 12 5q6 0 12 -9zM388 150q0 -73 -52 -116.5t-137 -43.5q-94 0 -162 35q-12 6 -12 14q0 2 2 8l22 55q4 10 14 10q6 0 16 -4 q67 -31 121 -31q38 0 62.5 17t24.5 48q0 33 -20 52t-90 53q-82 40 -108 69q-33 36 -33 87q0 67 50.5 108t132.5 41q83 0 147 -36q10 -7 10 -13q0 -1 -2 -7l-25 -53q-3 -7 -11 -7q-4 0 -8 2q-63 29 -110 29q-39 0 -61 -15t-22 -41q0 -24 15.5 -39t63.5 -40l57 -29 q57 -29 86 -63.5t29 -89.5z"/>
    <glyph glyph-name="t.sc" unicode="" horiz-adv-x="372" d="M382 523l-16 -57q-4 -13 -18 -13h-114v-437q0 -11 -3 -13.5t-14 -2.5h-66q-11 0 -14.5 3t-3.5 13v437h-115q-11 0 -14.5 3.5t-3.5 13.5v55q0 10 3.5 13.5t14.5 3.5h350q16 0 16 -9q0 -2 -2 -10z"/>
    <glyph glyph-name="u.sc" unicode="" horiz-adv-x="538" d="M468 525v-359q0 -52 -14 -83.5t-47 -55.5q-54 -39 -145 -39q-129 0 -171 75q-21 38 -21 103v359q0 11 3.5 14t14.5 3h65q11 0 15 -3.5t4 -13.5v-358q0 -54 21.5 -75t73.5 -21q103 0 103 95v359q0 10 4 13.5t15 3.5h61q11 0 14.5 -3t3.5 -14z"/>
    <glyph glyph-name="uacute.sc" unicode="" horiz-adv-x="538" d="M417 696q4 -7 4 -11q0 -6 -14 -12l-171 -78q-8 -3 -11 -3q-4 0 -7 6l-17 32q-3 6 -3 8q0 4 10 11l154 105q6 5 12 5q4 0 10 -10zM468 166q0 -52 -14 -83.5t-47 -55.5q-54 -39 -145 -39q-129 0 -171 75q-21 38 -21 103v359q0 11 3.5 14t14.5 3h65q11 0 15 -3.5t4 -13.5 v-358q0 -54 21.5 -75t73.5 -21q103 0 103 95v359q0 10 4 13.5t15 3.5h61q11 0 14.5 -3t3.5 -14v-359z"/>
    <glyph glyph-name="ucircumflex.sc" unicode="" horiz-adv-x="538" d="M398 636l-19 -31q-4 -7 -9 -7q-3 0 -11 5l-90 56l-92 -57q-7 -5 -9 -5q-3 0 -9 9l-19 29q-6 7 -6 11q0 2 8 8l117 92q7 6 10 6q4 0 12 -7l115 -91q7 -6 7 -9q0 -1 -2 -3.5t-3 -5.5zM468 166q0 -52 -14 -83.5t-47 -55.5q-54 -39 -145 -39q-129 0 -171 75q-21 38 -21 103 v359q0 11 3.5 14t14.5 3h65q11 0 15 -3.5t4 -13.5v-358q0 -54 21.5 -75t73.5 -21q103 0 103 95v359q0 10 4 13.5t15 3.5h61q11 0 14.5 -3t3.5 -14v-359z"/>
    <glyph glyph-name="udieresis.sc" unicode="" horiz-adv-x="538" d="M425 673q0 -25 -17.5 -43t-43.5 -18q-25 0 -43 18t-18 43q0 26 18 44.5t43 18.5t43 -18.5t18 -44.5zM238 673q0 -25 -18.5 -43t-43.5 -18t-42.5 18t-17.5 43q0 26 17.5 44.5t42.5 18.5t43.5 -18.5t18.5 -44.5zM468 166q0 -52 -14 -83.5t-47 -55.5q-54 -39 -145 -39 q-129 0 -171 75q-21 38 -21 103v359q0 11 3.5 14t14.5 3h65q11 0 15 -3.5t4 -13.5v-358q0 -54 21.5 -75t73.5 -21q103 0 103 95v359q0 10 4 13.5t15 3.5h61q11 0 14.5 -3t3.5 -14v-359z"/>
    <glyph glyph-name="ugrave.sc" unicode="" horiz-adv-x="538" d="M328 624l-14 -24q-5 -9 -9 -9q-2 0 -12 5l-170 77q-12 5 -12 11t5 13l29 51q6 10 13 10q6 0 16 -7l149 -102q10 -7 10 -12q0 -3 -5 -13zM468 166q0 -52 -14 -83.5t-47 -55.5q-54 -39 -145 -39q-129 0 -171 75q-21 38 -21 103v359q0 11 3.5 14t14.5 3h65q11 0 15 -3.5 t4 -13.5v-358q0 -54 21.5 -75t73.5 -21q103 0 103 95v359q0 10 4 13.5t15 3.5h61q11 0 14.5 -3t3.5 -14v-359z"/>
    <glyph glyph-name="v.sc" unicode="" horiz-adv-x="437" d="M432 516l-156 -508q-4 -13 -20 -13h-78q-10 0 -13 2t-6 11l-154 507q-2 8 -2 9q0 9 16 12l71 12q2 0 5 0.5t4 0.5q8 0 12 -13l93 -375q7 -30 14 -73q9 48 15 72l98 374q4 14 13 14q1 0 4 -0.5t5 -0.5l69 -10q12 -1 12 -10q0 -3 -2 -11z"/>
    <glyph glyph-name="w.sc" unicode="" horiz-adv-x="625" d="M615 514l-123 -505q-2 -9 -6 -11.5t-14 -2.5h-66q-18 0 -20 14l-54 284q-11 53 -19 116q-1 -4 -5.5 -31t-9 -51t-6.5 -31l-65 -287q-3 -14 -21 -14h-66q-10 0 -13 2.5t-5 11.5l-112 506q-2 6 -2 9q0 9 16 12l63 10q2 0 5 0.5t4 0.5q8 0 11 -14l65 -343q4 -22 8 -80 q8 54 12 70l77 347q2 9 5.5 11.5t13.5 2.5h59q11 0 15 -3t5 -12l64 -336q12 -62 14 -80q7 64 10 81l66 341q2 14 13 14q5 0 8 -1l60 -11q14 -3 14 -11q0 -5 -1 -9z"/>
    <glyph glyph-name="x.sc" unicode="" horiz-adv-x="445" d="M278 285l158 -254q4 -7 4 -12q0 -8 -14 -11l-65 -16q-8 -2 -11 -2q-6 0 -13 11l-97 165q-12 19 -17 37q-13 -29 -17 -37l-99 -164q-7 -11 -14 -11q-1 0 -9 2l-63 16q-16 4 -16 12q0 4 5 12l156 252l-142 224q-5 8 -5 12q0 7 15 11l65 16q8 2 10 2q5 0 12 -11l85 -137 q2 -4 18 -43q11 32 18 45l80 136q6 10 12 10q1 0 11 -2l61 -17q14 -4 14 -12q0 -5 -4 -12z"/>
    <glyph glyph-name="y.sc" unicode="" horiz-adv-x="431" d="M431 512l-162 -287v-209q0 -10 -3.5 -13t-14.5 -3h-65q-12 0 -15.5 3t-3.5 13v209l-167 288q-4 5 -4 10q0 9 12 10l75 14q2 0 4.5 0.5t3.5 0.5q6 0 13 -11l96 -172q5 -10 12.5 -34t9.5 -29q2 5 10 32t14 39l89 164q5 11 12 11q5 0 9 -1l67 -14q12 -3 12 -10q0 -3 -4 -11z "/>
    <glyph glyph-name="yacute.sc" unicode="" horiz-adv-x="431" d="M387 683q4 -7 4 -11q0 -6 -14 -12l-171 -78q-8 -3 -11 -3q-4 0 -7 6l-17 32q-3 6 -3 8q0 4 10 11l154 105q6 5 12 5q4 0 10 -10zM431 512l-162 -287v-209q0 -10 -3.5 -13t-14.5 -3h-65q-12 0 -15.5 3t-3.5 13v209l-167 288q-4 5 -4 10q0 9 12 10l75 14q2 0 4.5 0.5 t3.5 0.5q6 0 13 -11l96 -172q5 -10 12.5 -34t9.5 -29q2 5 10 32t14 39l89 164q5 11 12 11q5 0 9 -1l67 -14q12 -3 12 -10q0 -3 -4 -11z"/>
    <glyph glyph-name="ydieresis.sc" unicode="" horiz-adv-x="431" d="M375 673q0 -25 -17.5 -43t-43.5 -18q-25 0 -43 18t-18 43q0 26 18 44.5t43 18.5t43 -18.5t18 -44.5zM188 673q0 -25 -18.5 -43t-43.5 -18t-42.5 18t-17.5 43q0 26 17.5 44.5t42.5 18.5t43.5 -18.5t18.5 -44.5zM431 512l-162 -287v-209q0 -10 -3.5 -13t-14.5 -3h-65 q-12 0 -15.5 3t-3.5 13v209l-167 288q-4 5 -4 10q0 9 12 10l75 14q2 0 4.5 0.5t3.5 0.5q6 0 13 -11l96 -172q5 -10 12.5 -34t9.5 -29q2 5 10 32t14 39l89 164q5 11 12 11q5 0 9 -1l67 -14q12 -3 12 -10q0 -3 -4 -11z"/>
    <glyph glyph-name="z.sc" unicode="" horiz-adv-x="428" d="M403 74l-8 -58q-2 -16 -20 -16h-332q-11 0 -14.5 3t-3.5 13v59l240 381h-212q-16 0 -16 10q0 5 1 8l12 54q4 14 20 14h292q11 0 15 -3.5t4 -13.5v-62l-237 -372h240q19 0 19 -12v-5z"/>
    <glyph glyph-name="zcaron.sc" unicode="" horiz-adv-x="428" d="M347 719q5 -10 5 -12q0 -3 -9 -11l-112 -89q-8 -7 -12 -7q-3 0 -10 7l-112 89q-10 7 -10 11q0 3 6 12l16 25q6 9 10 9q2 0 12 -5l89 -54l88 54q8 5 12 5q6 0 12 -9zM403 74l-8 -58q-2 -16 -20 -16h-332q-11 0 -14.5 3t-3.5 13v59l240 381h-212q-16 0 -16 10q0 5 1 8 l12 54q4 14 20 14h292q11 0 15 -3.5t4 -13.5v-62l-237 -372h240q19 0 19 -12v-5z"/>
    <glyph glyph-name="germandbls.sc" unicode="" horiz-adv-x="833" d="M800 150q0 -72 -52.5 -116t-137.5 -44q-92 0 -160 35q-13 7 -13 15q0 1 2 7l24 60q2 7 10 7q6 0 14 -4q69 -33 125 -33q38 0 63 17.5t25 47.5q0 32 -20 51.5t-91 53.5q-84 40 -109 69q-32 35 -32 87q0 67 50.5 108t132.5 41q84 0 148 -36q9 -6 9 -12q0 -2 -2 -8l-25 -53 q-3 -7 -10 -7q-4 0 -8 2q-63 29 -110 29q-39 0 -61.5 -15t-22.5 -41q0 -24 15.5 -39t63.5 -40q5 -5 29.5 -16t27.5 -13q63 -31 87 -64q28 -37 28 -89zM388 150q0 -73 -52 -116.5t-137 -43.5q-94 0 -162 35q-12 7 -12 14q0 2 2 8l25 60q2 7 10 7q5 0 13 -4q69 -33 125 -33 q38 0 62.5 17t24.5 48q0 33 -20 52t-90 53q-82 40 -108 69q-33 36 -33 87q0 67 50.5 108t132.5 41q83 0 147 -36q10 -7 10 -13q0 -1 -2 -7l-25 -53q-3 -7 -11 -7q-4 0 -8 2q-63 29 -110 29q-39 0 -61 -15t-22 -41q0 -24 15.5 -39t63.5 -40q5 -5 29.5 -16t27.5 -13 q63 -31 87 -64q28 -37 28 -89z"/>
    <glyph glyph-name="f_i.sc" unicode="" horiz-adv-x="710" d="M682 16q0 -10 -3.5 -13t-15.5 -3h-215q-11 0 -14.5 3t-3.5 13v46q0 11 3 13.5t15 2.5h57v385h-57q-11 0 -14.5 3t-3.5 14v45q0 11 3.5 14t14.5 3h215q11 0 15 -3.5t4 -13.5v-45q0 -10 -4 -13.5t-15 -3.5h-56v-385h56q12 0 15.5 -3t3.5 -13v-46zM386 523l-15 -53 q-4 -13 -19 -13h-175v-136h152q11 0 15 -3.5t4 -13.5v-49q0 -10 -4 -13.5t-15 -3.5h-152v-222q0 -10 -3.5 -13t-14.5 -3h-65q-11 0 -15 3t-4 13v509q0 10 4 13.5t15 3.5h277q16 0 16 -10q0 -6 -1 -9z"/>
    <glyph glyph-name="f_l.sc" unicode="" horiz-adv-x="795" d="M790 72l-14 -59q-4 -13 -20 -13h-272q-11 0 -15 3t-4 13v509q0 10 4 13.5t15 3.5h65q11 0 14.5 -3.5t3.5 -13.5v-433h209q15 0 15 -10q0 -6 -1 -10zM386 523l-15 -53q-4 -13 -19 -13h-175v-136h152q11 0 15 -3.5t4 -13.5v-49q0 -10 -4 -13.5t-15 -3.5h-152v-222 q0 -10 -3.5 -13t-14.5 -3h-65q-11 0 -15 3t-4 13v509q0 10 4 13.5t15 3.5h277q16 0 16 -10q0 -6 -1 -9z"/>
    <glyph glyph-name="abreve.sc" unicode="" horiz-adv-x="486" d="M471 21q2 -8 2 -10q0 -11 -17 -11h-77q-10 0 -13 2t-6 11l-41 134h-158l-41 -134q-4 -13 -19 -13h-71q-17 0 -17 8q0 3 2 9l174 512q3 8 6 10.5t13 2.5h71q10 0 13 -2t6 -11zM296 225l-41 144q-1 3 -16 76q-8 -45 -17 -76l-42 -144h116zM378 726q0 -47 -40 -81.5 t-94 -34.5q-57 0 -96.5 33.5t-39.5 81.5q0 13 12 14l53 7h4q6 0 9 -11v-2q10 -57 57 -57q48 0 58 57q5 12 9 13h6l51 -7q11 -2 11 -13z"/>
    <glyph glyph-name="amacron.sc" unicode="" horiz-adv-x="486" d="M471 21q2 -8 2 -10q0 -11 -17 -11h-77q-10 0 -13 2t-6 11l-41 134h-158l-41 -134q-4 -13 -19 -13h-71q-17 0 -17 8q0 3 2 9l174 512q3 8 6 10.5t13 2.5h71q10 0 13 -2t6 -11zM296 225l-41 144q-1 3 -16 76q-8 -45 -17 -76l-42 -144h116zM138 716h211q11 0 13.5 -2.5 t2.5 -13.5v-41q0 -11 -2.5 -14t-13.5 -3h-211q-11 0 -14 3t-3 14v41q0 11 3 13.5t14 2.5z"/>
    <glyph glyph-name="aogonek.sc" unicode="" horiz-adv-x="486" d="M480 -140q1 -4 1 -9q0 -9 -15 -16q-29 -16 -68 -16q-43 0 -69 22t-26 60q0 48 58 109q-1 1 -1 3l-41 134h-158l-41 -134q-4 -13 -19 -13h-71q-17 0 -17 8q0 3 2 9l174 512q3 8 6 10.5t13 2.5h71q10 0 13 -2t6 -11l173 -508q2 -8 2 -10q0 -11 -17 -11h-48q-33 -43 -33 -87 q0 -29 31 -29q23 0 50 16q1 0 3.5 1.5t3.5 1.5q3 0 6 -6zM296 225l-41 144q-1 3 -16 76q-8 -45 -17 -76l-42 -144h116z"/>
    <glyph glyph-name="aeacute.sc" unicode="" horiz-adv-x="627" d="M602 16q0 -10 -4 -13t-15 -3h-275q-12 0 -15.5 3t-3.5 13v131h-148l-64 -135q-5 -12 -19 -12h-71q-17 0 -17 11q0 3 4 11l257 508q6 12 20 12h336q16 0 16 -10q0 -6 -1 -9l-14 -52q-4 -14 -20 -14h-178v-133h156q11 0 15 -3.5t4 -13.5v-50q0 -10 -4 -13t-15 -3h-156v-156 h193q12 0 15.5 -3t3.5 -13v-53zM289 225v217v32q-24 -63 -31 -77l-86 -172h117zM457 692l-171 -78q-8 -3 -11 -3q-4 0 -7 6l-17 32q-3 6 -3 8q0 4 10 11l154 105q6 5 12 5q4 0 10 -10l33 -53q4 -7 4 -11q0 -6 -14 -12z"/>
    <glyph glyph-name="cacute.sc" unicode="" horiz-adv-x="413" d="M365 102l30 -41q3 -5 3 -9q0 -13 -19 -26q-56 -38 -126 -38q-104 0 -158.5 74t-54.5 215q0 143 61 214q53 62 146 62q81 0 139 -46q10 -8 10 -15q0 -4 -3 -9l-33 -48q-4 -6 -10 -6q-7 0 -11 4q-52 35 -88 35q-104 0 -104 -179q0 -215 114 -215q42 0 83 31q5 4 10 4t11 -7 zM371 692l-171 -78q-8 -3 -11 -3q-4 0 -7 6l-17 32q-3 6 -3 8q0 4 10 11l154 105q6 5 12 5q4 0 10 -10l33 -53q4 -7 4 -11q0 -6 -14 -12z"/>
    <glyph glyph-name="ccaron.sc" unicode="" horiz-adv-x="413" d="M365 102l30 -41q3 -5 3 -9q0 -13 -19 -26q-56 -38 -126 -38q-104 0 -158.5 74t-54.5 215q0 143 61 214q53 62 146 62q81 0 139 -46q10 -8 10 -15q0 -4 -3 -9l-33 -48q-4 -6 -10 -6q-7 0 -11 4q-52 35 -88 35q-104 0 -104 -179q0 -215 114 -215q42 0 83 31q5 4 10 4t11 -7 zM356 756l15 -25q5 -10 5 -12q0 -3 -9 -11l-112 -89q-8 -7 -12 -7q-3 0 -10 7l-112 89q-10 7 -10 11q0 3 6 12l16 25q6 9 10 9q2 0 12 -5l89 -54l88 54q8 5 12 5q6 0 12 -9z"/>
    <glyph glyph-name="ccircumflex.sc" unicode="" horiz-adv-x="413" d="M365 102l30 -41q3 -5 3 -9q0 -13 -19 -26q-56 -38 -126 -38q-104 0 -158.5 74t-54.5 215q0 143 61 214q53 62 146 62q81 0 139 -46q10 -8 10 -15q0 -4 -3 -9l-33 -48q-4 -6 -10 -6q-7 0 -11 4q-52 35 -88 35q-104 0 -104 -179q0 -215 114 -215q42 0 83 31q5 4 10 4t11 -7 zM373 655l-19 -31q-4 -7 -9 -7q-3 0 -11 5l-90 56l-92 -57q-7 -5 -9 -5q-3 0 -9 9l-19 29q-6 8 -6 11q0 2 8 8l117 92q8 6 10 6q4 0 12 -7l115 -91q7 -6 7 -9q0 -1 -2 -3.5t-3 -5.5z"/>
    </font>
</defs>
</svg>
