<?xml version="1.0" encoding="UTF-8" standalone="no"?>
<!DOCTYPE svg PUBLIC "-//W3C//DTD SVG 1.1//EN" "http://www.w3.org/Graphics/SVG/1.1/DTD/svg11.dtd">
<svg>
<metadata>
Created by FontForge 20090622 at Wed Aug  5 13:03:53 2015
 By deploy user
Copyright 1997 International Typeface Corporation. All rights reserved.
</metadata>
<defs>
<font id="OfficinaSansITCPro-MediumItalic" horiz-adv-x="500">
  <font-face font-family="OfficinaSansITCPro Medium" font-weight="500" font-style="italic" font-stretch="normal" units-per-em="1000" panose-1="2 0 6 6 4 0 0 9 0 4" ascent="724" descent="-276" x-height="487" cap-height="686" bbox="-184 -245 1072 928" underline-thickness="50" underline-position="-50" slope="-12" unicode-range="U+0020-U+FB04"/>
<missing-glyph d="M12 0v665h475v-665h-475zM88 618l162 -243l161 243h-323zM60 575v-484l161 242zM440 575l-162 -242l162 -243v485zM411 48l-161 242l-162 -242h323z"/>
    <glyph glyph-name="IJ" unicode="IJ" horiz-adv-x="778" d="M399 666l-10 -46q-2 -13 -17 -13h-74l-112 -528h73q12 0 12 -9q0 -4 -2 -12l-9 -45q-2 -13 -17 -13h-252q-13 0 -13 9q0 3 2 11l10 46q2 8 4.5 10.5t11.5 2.5h75l112 528h-74q-12 0 -12 8q0 2 2 12l9 46q2 13 17 13h253q12 0 12 -12q0 -1 -0.5 -3.5t-0.5 -4.5zM786 666 l-97 -455q-16 -73 -35 -113t-50 -66q-54 -45 -132 -45q-66 0 -104.5 37t-38.5 100q0 76 18 76h74q8 0 8 -10v-4q-5 -38 -5 -46q0 -65 60 -65q38 0 59.5 25t34.5 83l91 422h-159q-13 0 -13 9q0 1 2 11l11 48q2 13 16 13h249q12 0 12 -10q0 -7 -1 -10z"/>
    <glyph glyph-name="ij" unicode="ij" horiz-adv-x="540" d="M293 650q0 -29 -20.5 -49.5t-48.5 -20.5q-29 0 -49.5 20.5t-20.5 49.5q0 28 20.5 48.5t49.5 20.5t49 -20t20 -49zM239 472l-98 -461q-2 -11 -13 -11h-72q-12 0 -12 7q0 4 1 7l86 399h-79q-11 0 -11 7q0 5 1 8l10 48q3 11 13 11h164q11 0 11 -9q0 -1 -0.5 -3t-0.5 -3z M559 650q0 -29 -20 -49.5t-49 -20.5t-49 20.5t-20 49.5q0 28 20.5 48.5t48.5 20.5t48.5 -20.5t20.5 -48.5zM511 473l-101 -474q-15 -71 -31 -112t-45 -68q-47 -42 -117 -42q-47 0 -93 23q-9 4 -9 10q0 4 3 11l20 51q4 9 9 9q4 0 7 -1q7 -2 16.5 -6.5t15.5 -6.5t15.5 -4 t21.5 -2q37 0 55.5 30t37.5 117l87 405h-80q-10 0 -10 7q0 5 1 8l10 48q3 11 13 11h164q11 0 11 -8v-3q-1 -2 -1 -3z"/>
    <glyph glyph-name="napostrophe" unicode="'n" horiz-adv-x="509" d="M465 410q0 -27 -10 -74l-71 -325q-2 -11 -14 -11h-72q-10 0 -10 6q0 4 1 7l68 312q8 37 8 51q0 42 -39 42q-54 0 -97.5 -54t-63.5 -143l-45 -210q-2 -11 -14 -11h-71q-11 0 -11 8q0 4 1 7l71 325q9 41 9 64q0 21 -6 45q-2 8 -2 10q0 8 9 12l61 27q4 2 8 2q8 0 14 -21 t6 -51v-14q0 -9 -1 -16q37 50 75 74q47 30 99 30q45 0 71 -24.5t26 -67.5zM190 695l-160 -226q-6 -9 -10 -9t-9 4l-31 17q-9 5 -9 9q0 3 3 9l93 206q4 10 17 10h96q14 0 14 -9q0 -3 -4 -11z"/>
    <glyph glyph-name="f_f" unicode="ff" horiz-adv-x="589" d="M406 413h-179l-82 -430q-17 -91 -60.5 -139t-128.5 -48q-48 0 -69 7q-14 4 -14 12q0 2 1 4l17 53q4 13 10 13l2 -1h3q30 -6 44 -6q43 0 64.5 25t34.5 89l83 421h-71q-11 0 -11 8q0 1 0.5 2t0.5 2l11 51q3 11 13 11h73l17 80q11 54 24.5 80.5t38.5 43.5q42 28 97 28 q50 0 79 -17q5 -4 5 -8t-1 -6l-21 -56q-2 -6 -7 -6q-2 0 -8 2q-33 13 -47 13q-28 0 -42.5 -19t-25.5 -70l-14 -65h180l21 99q14 65 50.5 99t112.5 34q62 0 97 -20q6 -4 6 -10q0 -3 -2 -11l-18 -47q-3 -8 -11 -8q-4 0 -6 1q-6 2 -19 7t-23.5 7.5t-23.5 2.5q-33 0 -48.5 -18.5 t-26.5 -70.5l-14 -65h128q9 0 9 -8l-1 -2v-3l-16 -51q-3 -10 -14 -10h-122l-82 -430q-17 -91 -60.5 -139t-128.5 -48q-47 0 -72 9q-11 4 -11 10t2 10l17 52q3 8 8 8q3 0 9 -2q22 -5 41 -5q43 0 64.5 25t34.5 89z"/>
    <glyph glyph-name="fi" unicode="fi" horiz-adv-x="546" d="M571 650q0 -28 -19 -47t-47 -19t-47.5 19t-19.5 47q0 27 19 46.5t47 19.5t47.5 -19.5t19.5 -46.5zM517 472l-98 -461q-2 -11 -13 -11h-73q-11 0 -11 5q0 4 1 7l85 401h-180l-82 -430q-17 -91 -60.5 -139t-128.5 -48q-48 0 -69 7q-14 4 -14 12q0 2 1 4l17 53q4 13 10 13 l2 -1h3q30 -6 44 -6q43 0 64.5 25t34.5 89l83 421h-71q-11 0 -11 8q0 1 0.5 2t0.5 2l11 51q3 11 13 11h73l17 80q11 54 24.5 80.5t38.5 43.5q42 28 97 28q50 0 79 -17q5 -4 5 -8t-1 -6l-21 -56q-2 -6 -7 -6q-2 0 -8 2q-33 13 -47 13q-28 0 -42.5 -19t-25.5 -70l-14 -65h263 q11 0 11 -9q0 -1 -0.5 -3t-0.5 -3z"/>
    <glyph glyph-name="fl" unicode="fl" horiz-adv-x="565" d="M568 710l-113 -528q-13 -46 -13 -80q0 -29 26 -29q21 0 32 8q6 3 10 3q7 0 8 -7l8 -44q0 -2 0.5 -4.5t0.5 -3.5q0 -6 -7 -12q-29 -25 -87 -25q-90 0 -90 80q0 38 19 125l106 500q2 12 14 14l72 16h5q10 0 10 -8l-1 -2v-3zM419 681l-18 -47q-4 -9 -9 -9q-2 0 -8 2 q-3 1 -12.5 5t-18.5 6.5t-20 2.5q-33 0 -48.5 -18.5t-26.5 -70.5l-14 -65h123q9 0 9 -8v-2q-1 -2 -1 -3l-16 -51q-3 -10 -14 -10h-117l-82 -430q-17 -91 -60.5 -139t-128.5 -48q-47 0 -72 9q-11 4 -11 10t2 10l17 52q3 8 8 8q3 0 9 -2q22 -5 41 -5q43 0 64.5 25t34.5 89 l83 421h-71q-11 0 -11 8q0 4 1 6l11 49q3 11 13 11h73l21 99q14 65 50.5 99t112.5 34q46 0 82 -17q6 -2 6 -10q0 -3 -2 -11z"/>
    <glyph glyph-name="f_f_i" unicode="ffi" horiz-adv-x="819" d="M844 650q0 -28 -19 -47t-47 -19t-47.5 19t-19.5 47q0 27 19 46.5t47 19.5t47.5 -19.5t19.5 -46.5zM407 413h-180l-82 -430q-17 -91 -60.5 -139t-128.5 -48q-48 0 -69 7q-14 4 -14 12q0 2 1 4l17 53q4 13 10 13l2 -1h3q30 -6 44 -6q43 0 64.5 25t34.5 89l83 421h-71 q-11 0 -11 8q0 1 0.5 2t0.5 2l11 51q3 11 13 11h73l17 80q11 54 24.5 80.5t38.5 43.5q42 28 97 28q50 0 79 -17q5 -4 5 -8t-1 -6l-21 -56q-2 -6 -7 -6q-2 0 -8 2q-33 13 -47 13q-28 0 -42.5 -19t-25.5 -70l-14 -65h179l17 80q11 54 24.5 80.5t38.5 43.5q42 28 97 28 q50 0 79 -17q5 -4 5 -8t-1 -6l-21 -56q-2 -6 -7 -6q-2 0 -8 2q-33 13 -47 13q-28 0 -42.5 -19t-25.5 -70l-14 -65h263q11 0 11 -9q0 -1 -0.5 -3t-0.5 -3l-98 -461q-2 -11 -13 -11h-73q-11 0 -11 5q0 4 1 7l85 401h-180l-82 -430q-17 -91 -60.5 -139t-128.5 -48q-48 0 -69 7 q-14 4 -14 12q0 2 1 4l17 53q4 13 10 13l2 -1h3q30 -6 44 -6q43 0 64.5 25t34.5 89z"/>
    <glyph glyph-name="f_f_l" unicode="ffl" horiz-adv-x="837" d="M421 487l21 99q14 65 50.5 99t112.5 34q46 0 82 -17q6 -2 6 -10q0 -3 -2 -11l-18 -47q-4 -9 -9 -9q-2 0 -8 2q-3 1 -12.5 5t-18.5 6.5t-20 2.5q-33 0 -48.5 -18.5t-26.5 -70.5l-14 -65h123q9 0 9 -8v-2q-1 -2 -1 -3l-16 -51q-3 -10 -14 -10h-117l-82 -430 q-17 -91 -60.5 -139t-128.5 -48q-47 0 -72 9q-11 4 -11 10t2 10l17 52q3 8 8 8q3 0 9 -2q22 -5 41 -5q43 0 64.5 25t34.5 89l83 421h-178l-82 -430q-17 -91 -60.5 -139t-128.5 -48q-48 0 -69 7q-14 4 -14 12q0 2 1 4l17 53q4 13 10 13l2 -1h3q30 -6 44 -6q43 0 64.5 25 t34.5 89l83 421h-71q-11 0 -11 8q0 1 0.5 2t0.5 2l11 51q3 11 13 11h73l17 80q11 54 24.5 80.5t38.5 43.5q42 28 97 28q50 0 79 -17q5 -4 5 -8t-1 -6l-21 -56q-2 -6 -7 -6q-2 0 -8 2q-33 13 -47 13q-28 0 -42.5 -19t-25.5 -70l-14 -65h178zM840 710l-113 -528 q-13 -46 -13 -80q0 -29 26 -29q21 0 32 8q6 3 10 3q7 0 8 -7l8 -44q0 -2 0.5 -4.5t0.5 -3.5q0 -6 -7 -12q-29 -25 -87 -25q-90 0 -90 80q0 38 19 125l106 500q2 12 14 14l72 16h5q10 0 10 -8l-1 -2v-3z"/>
    <glyph glyph-name=".notdef" d="M12 0v665h475v-665h-475zM88 618l162 -243l161 243h-323zM60 575v-484l161 242zM440 575l-162 -242l162 -243v485zM411 48l-161 242l-162 -242h323z"/>
    <glyph glyph-name=".null" horiz-adv-x="0"/>
    <glyph glyph-name="nonmarkingreturn" horiz-adv-x="333"/>
    <glyph glyph-name="space" unicode=" " horiz-adv-x="206"/>
    <glyph glyph-name="exclam" unicode="!" horiz-adv-x="343" d="M316 671l-109 -405q-2 -8 -5 -10.5t-12 -2.5h-47q-11 0 -11 9q0 4 1 7l62 402q2 10 4.5 12.5t11.5 2.5h92q14 0 14 -8q0 -1 -0.5 -3.5t-0.5 -3.5zM203 60q0 -31 -21.5 -52t-52.5 -21t-52 21t-21 52t21 52.5t52 21.5t52.5 -21.5t21.5 -52.5z"/>
    <glyph glyph-name="quotedbl" unicode="&quot;" horiz-adv-x="359" d="M402 672l-69 -247q-2 -11 -4.5 -13t-11.5 -2h-43q-12 0 -12 10v4l38 248q1 8 3.5 11t10.5 3h76q13 0 13 -8q0 -4 -1 -6zM240 672l-68 -247q-2 -11 -4.5 -13t-11.5 -2h-44q-11 0 -11 9v5l38 248q1 8 3.5 11t10.5 3h76q12 0 12 -8q0 -3 -1 -6z"/>
    <glyph glyph-name="numbersign" unicode="#" horiz-adv-x="509" d="M514 450l-9 -45q-3 -13 -16 -13h-65l-59 -185h55q12 0 12 -9q0 -7 -1 -11l-9 -45q-2 -13 -16 -13h-65l-59 -185q-4 -12 -17 -12h-44q-13 0 -13 9q0 5 3 13l56 175h-116l-59 -185q-2 -8 -5 -10t-11 -2h-44q-13 0 -13 9q0 5 3 13l56 175h-54q-13 0 -13 11q0 6 1 10l10 44 q3 13 16 13h64l59 185h-54q-13 0 -13 11q0 6 1 10l10 44q2 8 5 10.5t11 2.5h65l60 189q2 8 5 10t12 2h43q13 0 13 -8q0 -5 -3 -13l-57 -180h116l60 189q3 12 17 12h43q14 0 14 -9l-3 -12l-57 -180h54q12 0 12 -9q0 -7 -1 -11zM351 392h-116l-59 -185h115z"/>
    <glyph glyph-name="dollar" unicode="$" horiz-adv-x="509" d="M494 607l-32 -55q-3 -7 -9 -7q-4 0 -7 3q-3 2 -14.5 9t-17 9.5l-16 7.5t-22 7.5t-24.5 4.5l-44 -209l17.5 -12t18.5 -13l16.5 -12t16.5 -13.5t13.5 -14t13 -16.5t9.5 -18t8.5 -21t4.5 -23t2 -27q0 -69 -37 -121t-102 -74q-25 -9 -61 -13l-11 -56q-2 -12 -16 -12h-25 q-13 0 -13 7q0 6 1 9l10 51q-75 8 -134 39q-14 6 -14 13q0 5 6 15l28 54q3 6 8 6q3 0 15 -7q50 -33 110 -40l49 233q-124 66 -124 169q0 61 36.5 109t97.5 65q27 7 64 11l9 42q2 8 4.5 10.5t11.5 2.5h25q14 0 14 -8q0 -1 -0.5 -3t-0.5 -3l-9 -40q63 -5 108 -31 q19 -12 19 -19q0 -4 -3 -9zM302 585q-91 -20 -91 -102q0 -25 11 -42.5t41 -37.5zM333 195q0 28 -10.5 47.5t-36.5 42.5l-43 -204q90 23 90 114z"/>
    <glyph glyph-name="percent" unicode="%" horiz-adv-x="796" d="M741 214q0 -95 -53 -161.5t-129 -66.5q-53 0 -83 32t-30 88q0 87 50 158.5t134 71.5q53 0 82 -32t29 -90zM661 651l-422 -672q-6 -8 -18 -8h-54q-12 0 -12 8q0 6 4 11l422 669q6 10 17 10h56q11 0 11 -8q0 -2 -4 -10zM376 536q0 -95 -53 -160.5t-129 -65.5 q-52 0 -82 31.5t-30 87.5q0 88 49.5 158.5t133.5 70.5q52 0 81.5 -32.5t29.5 -89.5zM663 218q0 51 -42 51q-39 0 -67 -48.5t-28 -117.5q0 -50 42 -50q39 0 67 48.5t28 116.5zM298 541q0 51 -42 51q-39 0 -67 -48.5t-28 -116.5q0 -51 42 -51q39 0 67 48.5t28 116.5z"/>
    <glyph glyph-name="ampersand" unicode="&amp;" horiz-adv-x="611" d="M579 311q-20 -99 -93 -188l51 -76q5 -7 5 -10q0 -5 -9 -11l-53 -37q-8 -6 -11 -6q-5 0 -9 8l-43 66q-34 -27 -64 -43q-64 -33 -144 -33q-86 0 -133 41.5t-47 117.5q0 83 47.5 135.5t132.5 95.5q-30 47 -44 80.5t-14 74.5q0 79 57 127.5t149 48.5q70 0 110.5 -36t40.5 -97 q0 -63 -40.5 -113.5t-132.5 -102.5l101 -152q40 55 53 120q3 18 12 18q1 0 3.5 -0.5t4.5 -0.5l61 -9q10 -1 10 -8q0 -6 -1 -10zM411 558q0 32 -17.5 49.5t-49.5 17.5q-42 0 -69.5 -27t-27.5 -68q0 -24 9.5 -47t37.5 -67q34 20 55.5 35.5t41.5 44.5t20 62zM370 128l-119 179 q-56 -30 -87 -62.5t-31 -82.5q0 -45 25.5 -70.5t70.5 -25.5q72 0 141 62z"/>
    <glyph glyph-name="quotesingle" unicode="'" horiz-adv-x="205" d="M240 672l-69 -247q-2 -11 -4.5 -13t-11.5 -2h-43q-12 0 -12 10v4l38 248q1 8 3.5 11t10.5 3h76q13 0 13 -8q0 -4 -1 -6z"/>
    <glyph glyph-name="parenleft" unicode="(" horiz-adv-x="435" d="M438 738l35 -29q5 -4 5 -10q0 -8 -14 -22q-100 -113 -160.5 -216.5t-84.5 -230.5q-13 -68 -13 -128q0 -147 71 -291q6 -14 6 -19q0 -8 -10 -13l-41 -21q-3 -2 -9 -2q-9 0 -18 17q-102 174 -102 342q0 321 302 609q17 17 25 17q4 0 8 -3z"/>
    <glyph glyph-name="parenright" unicode=")" horiz-adv-x="435" d="M328 381q0 -316 -302 -609q-17 -17 -25 -17q-4 0 -8 3l-36 29q-6 5 -6 9t2.5 7.5t7.5 8t6 6.5q120 133 188.5 271.5t68.5 304.5q0 159 -70 291q-7 12 -7 17q0 8 11 14l40 22q6 3 10 3q8 0 15 -14q53 -96 79 -174.5t26 -171.5z"/>
    <glyph glyph-name="asterisk" unicode="*" horiz-adv-x="509" d="M345 541l117 27q3 1 8 1q11 0 12 -13l5 -51v-5q0 -8 -3.5 -10.5t-12.5 -2.5l-121 3l64 -106q3 -6 3 -9q0 -7 -10 -11l-49 -22q-6 -3 -11 -3q-7 0 -9 10l-36 120l-80 -95q-6 -6 -10 -6t-11 7l-37 41q-5 5 -5 10q0 6 8 11l101 70l-113 47q-11 4 -11 10q0 3 5 13l25 45 q4 9 10 9t13 -6l97 -73l9 120q1 17 8 17q4 0 8 -1l57 -12q12 -3 12 -10q0 -1 -5 -16z"/>
    <glyph glyph-name="plus" unicode="+" d="M219 373v167q0 11 2.5 13.5t13.5 2.5h57q12 0 15 -2.5t3 -13.5v-167h165q11 0 14.5 -3t3.5 -14v-55q0 -11 -3 -14t-14 -3h-166v-166q0 -11 -3 -14t-14 -3h-57q-10 0 -13.5 3.5t-3.5 13.5v166h-165q-11 0 -14.5 3t-3.5 14v55q0 11 3 14t14 3h166z"/>
    <glyph glyph-name="comma" unicode="," horiz-adv-x="296" d="M191 98l-159 -225q-6 -8 -10 -8q-3 0 -11 5l-29 16q-9 4 -9 9q0 3 5 13l92 201q4 10 17 10h95q14 0 14 -8q0 -6 -5 -13z"/>
    <glyph glyph-name="hyphen" unicode="-" horiz-adv-x="315" d="M285 282l-13 -62q-3 -14 -17 -14h-215q-13 0 -13 10q0 3 2 11l13 61q2 13 16 13h215q13 0 13 -11q0 -1 -0.5 -3.5t-0.5 -4.5z"/>
    <glyph glyph-name="period" unicode="." horiz-adv-x="296" d="M186 66q0 -33 -23.5 -56t-55.5 -23q-33 0 -56 23t-23 56t23 56t56 23q32 0 55.5 -23t23.5 -56z"/>
    <glyph glyph-name="slash" unicode="/" horiz-adv-x="463" d="M501 692l-515 -884q-6 -10 -20 -10h-55q-15 0 -15 7q0 3 4 11l517 887q6 10 20 10h55q14 0 14 -8q0 -5 -5 -13z"/>
    <glyph glyph-name="zero" unicode="0" horiz-adv-x="509" d="M506 485q0 -96 -29 -202.5t-74 -178.5q-34 -55 -89.5 -86.5t-116.5 -31.5q-80 0 -122.5 47.5t-42.5 137.5q0 97 29.5 204.5t75.5 180.5q35 55 89.5 85t117.5 30q78 0 120 -48t42 -138zM407 481q0 103 -82 103q-80 0 -129 -112q-24 -55 -44 -146.5t-20 -148.5 q0 -104 81 -104q80 0 130 114q25 56 44.5 146t19.5 148z"/>
    <glyph glyph-name="one" unicode="1" horiz-adv-x="509" d="M408 637l-118 -559h81q11 0 11 -11q0 -7 -1 -10l-9 -44q-2 -13 -17 -13h-275q-13 0 -13 11q0 6 1 9l10 45q3 13 16 13h102l100 470l-125 -69q-8 -5 -12 -5q-5 0 -11 11l-14 28q-4 10 -4 12q0 5 8 10l190 117q7 5 20 5h49q12 0 12 -9q0 -7 -1 -11z"/>
    <glyph glyph-name="two" unicode="2" horiz-adv-x="509" d="M499 528q0 -89 -59 -153q-24 -27 -51.5 -48t-99.5 -70q-74 -50 -107.5 -86t-47.5 -82h257q12 0 12 -9q0 -7 -1 -11l-11 -56q-2 -13 -17 -13h-347q-10 0 -10 7q0 11 9.5 46.5t18.5 57.5q26 62 68.5 109.5t130.5 108.5q97 67 124 101q29 37 29 85q0 34 -17.5 52.5 t-50.5 18.5q-37 0 -65.5 -21.5t-58.5 -72.5q-9 -16 -17 -16q-5 0 -8 2l-50 21q-8 3 -8 9q0 8 19 41q72 122 204 122q72 0 113 -38t41 -105z"/>
    <glyph glyph-name="three" unicode="3" horiz-adv-x="509" d="M467 539q0 -62 -34.5 -111t-95.5 -74q45 -21 64.5 -51.5t19.5 -79.5q0 -100 -67 -167q-70 -70 -188 -70q-85 0 -144 31q-18 10 -18 17q0 5 2 8l28 59q3 7 9 7q3 0 13 -5q59 -33 120 -33q62 0 102 37q46 43 46 109q0 87 -117 87h-33q-13 0 -13 10q0 6 1 10l11 52 q3 14 17 14h37q72 0 112 46q32 37 32 86q0 68 -72 68q-50 0 -113 -57q-11 -9 -13 -9q-4 0 -7 4l-39 38q-4 4 -4 8q0 7 17 24q34 35 81 55t94 20q69 0 110.5 -36.5t41.5 -96.5z"/>
    <glyph glyph-name="four" unicode="4" horiz-adv-x="509" d="M466 215l-10 -48q-2 -8 -5 -11t-10 -3h-74l-29 -140q-2 -13 -17 -13h-62q-14 0 -14 9q0 3 2 11l28 133h-250q-14 0 -14 9q0 3 2 11l12 55q5 26 17 40l330 409q6 7 11 7q2 0 10 -2l56 -21q9 -5 9 -10q0 -4 -4 -8l-331 -407h171l51 164q3 12 17 12h45q12 0 12 -9 q0 -7 -1 -11l-33 -156h70q12 0 12 -10q0 -7 -1 -11z"/>
    <glyph glyph-name="five" unicode="5" horiz-adv-x="509" d="M491 637l-12 -53q-3 -13 -16 -13h-211l-58 -183q51 33 106 33q69 0 111 -42.5t42 -111.5q0 -58 -25 -114.5t-67 -97.5q-72 -69 -190 -69q-89 0 -139 24q-14 7 -14 13q0 4 3 10l20 55q3 10 13 10q6 0 16 -4q61 -23 110 -23q77 0 128 52.5t51 131.5q0 41 -21.5 63.5 t-61.5 22.5q-64 0 -118 -52q-10 -10 -16 -10q-1 0 -7 2l-42 14q-14 4 -14 9q0 1 4 13l101 328q4 12 17 12h278q13 0 13 -10q0 -6 -1 -10z"/>
    <glyph glyph-name="six" unicode="6" horiz-adv-x="509" d="M522 639l-28 -57q-4 -7 -10 -7q-3 0 -13 4q-27 10 -55 10q-73 0 -134 -62q-52 -53 -82 -132q62 59 131 59q62 0 98 -43t36 -119q0 -149 -94 -243q-63 -63 -155 -63q-76 0 -116.5 46.5t-40.5 133.5q0 96 36 201.5t95 181.5q94 123 235 123q60 0 90 -16q9 -5 9 -10 q0 -1 -2 -7zM368 282q0 89 -77 89q-34 0 -63 -22t-46 -59q-26 -57 -26 -130q0 -91 75 -91q69 0 109 86q28 59 28 127z"/>
    <glyph glyph-name="seven" unicode="7" horiz-adv-x="509" d="M520 637l-5 -20q-2 -10 -10 -23l-349 -597q-5 -9 -14 -9q-6 0 -9 1l-66 13q-11 1 -11 9q0 4 5 12l333 544h-255q-13 0 -13 10q0 6 1 10l12 57q3 13 16 13h353q14 0 14 -10q0 -2 -2 -10z"/>
    <glyph glyph-name="eight" unicode="8" horiz-adv-x="509" d="M500 533q0 -118 -145 -185q102 -51 102 -151q0 -87 -67 -149q-68 -62 -180 -62q-92 0 -142.5 39.5t-50.5 112.5q0 96 84 159q34 25 97 50q-84 52 -84 139q0 83 58.5 134t154.5 51q80 0 126.5 -37t46.5 -101zM404 516q0 35 -22 54.5t-62 19.5q-49 0 -79 -27.5t-30 -71.5 q0 -33 15.5 -54.5t59.5 -50.5q61 26 89.5 57t28.5 73zM358 189q0 56 -43 87q-18 13 -52 29q-78 -29 -112.5 -64t-34.5 -84q0 -42 28.5 -65t79.5 -23q61 0 97.5 33t36.5 87z"/>
    <glyph glyph-name="nine" unicode="9" horiz-adv-x="509" d="M480 499q0 -111 -41.5 -227t-106.5 -190q-84 -96 -208 -96q-50 0 -75 11q-13 5 -13 12q0 2 2 10l15 52q3 9 11 9l15 -3q22 -6 48 -6q71 0 130 56q53 52 92 153q-62 -74 -140 -74q-61 0 -97 44.5t-36 119.5q0 140 82 230q65 71 166 71q76 0 116 -44t40 -128zM383 506 q0 39 -19 60.5t-54 21.5q-57 0 -95 -59q-42 -66 -42 -151q0 -43 19 -66t54 -23q56 0 89 46q21 28 34.5 76t13.5 95z"/>
    <glyph glyph-name="colon" unicode=":" horiz-adv-x="296" d="M259 408q0 -33 -23.5 -56.5t-55.5 -23.5q-33 0 -56 23.5t-23 56.5q0 32 23 55.5t56 23.5q32 0 55.5 -23t23.5 -56zM186 66q0 -33 -23.5 -56t-55.5 -23q-33 0 -56 23t-23 56t23 56t56 23q32 0 55.5 -23t23.5 -56z"/>
    <glyph glyph-name="semicolon" unicode=";" horiz-adv-x="296" d="M272 407q0 -33 -23 -56t-56 -23t-56 23t-23 56q0 32 23 55.5t56 23.5t56 -23.5t23 -55.5zM196 98l-158 -225q-6 -8 -10 -8q-3 0 -11 5l-29 16q-9 4 -9 9q0 3 5 13l92 201q4 10 17 10h95q14 0 14 -8q0 -3 -6 -13z"/>
    <glyph glyph-name="less" unicode="&lt;" d="M147 327l324 -153q15 -7 16 -14q1 -3 1 -8v-66q0 -13 -6 -13q-2 0 -10 4l-413 200q-16 7 -17 14q-1 3 -1 8v57q0 10 3.5 13.5t13.5 8.5l413 200q8 3 11 3q6 0 6 -12v-67q0 -7 -2 -11t-4 -5.5t-10 -5.5z"/>
    <glyph glyph-name="equal" unicode="=" d="M53 456h423q11 0 14 -3t3 -14v-54q0 -11 -2.5 -13.5t-13.5 -2.5h-423q-12 0 -15 2.5t-3 13.5v54q0 11 3 14t14 3zM53 290h423q11 0 13.5 -3t2.5 -14v-53q0 -12 -2 -15t-13 -3h-423q-11 0 -14.5 3.5t-3.5 14.5v53q0 11 3 14t14 3z"/>
    <glyph glyph-name="greater" unicode="&gt;" d="M382 328l-324 153q-11 5 -14 8.5t-3 14.5v66q0 12 6 12q3 0 10 -3l413 -200q11 -5 14.5 -8.5t3.5 -13.5v-57q0 -7 -2.5 -11.5t-4.5 -5.5l-10 -5l-413 -200q-10 -4 -11 -4q-6 0 -6 13v67q0 7 2 11t4 5.5t10 5.5z"/>
    <glyph glyph-name="question" unicode="?" horiz-adv-x="463" d="M469 560q0 -56 -30.5 -105t-82.5 -75q-35 -17 -85 -29l-18 -83q-2 -13 -16 -13h-62q-13 0 -13 9q0 5 1 7l27 126q2 9 7.5 13t22.5 8q30 7 50.5 14.5t43.5 21.5t35 35.5t12 51.5q0 65 -78 65q-38 0 -103 -23q-8 -4 -15 -4t-10 7l-22 57q-1 2 -1 5q0 9 22 18q78 32 153 32 q74 0 118 -37.5t44 -100.5zM240 60q0 -31 -21 -52t-52 -21t-52.5 21t-21.5 52t21.5 52.5t52.5 21.5t52 -21.5t21 -52.5z"/>
    <glyph glyph-name="at" unicode="@" horiz-adv-x="972" d="M901 361q0 -127 -77 -219.5t-184 -92.5q-82 0 -90 81q-59 -81 -128 -81q-41 0 -64.5 31.5t-23.5 87.5q0 55 18 112.5t61 103.5t100 46q49 0 81 -36q1 1 4.5 10.5t5.5 10.5q5 5 10 5h52q8 0 8 -9q0 -6 -1 -9l-47 -219q-2 -9 -2 -18v-10q0 -39 40 -39q64 0 111 71.5 t47 168.5q0 110 -71.5 172.5t-196.5 62.5q-169 0 -279.5 -117t-110.5 -289q0 -143 82 -217t226 -74q88 0 156 18.5t143 52.5q5 3 10 3q6 0 7 -4l17 -46q0 -1 0.5 -2.5t0.5 -2.5q0 -11 -15 -17q-58 -32 -147.5 -52t-176.5 -20q-181 0 -284 93.5t-103 267.5q0 200 139 338.5 t339 138.5q152 0 247.5 -78t95.5 -223zM575 336q-32 29 -60 29q-24 0 -44 -23.5t-30 -57t-15.5 -64t-5.5 -52.5q0 -48 32 -48q35 0 63 33.5t39 86.5z"/>
    <glyph glyph-name="A" unicode="A" horiz-adv-x="518" d="M465 16v-4q0 -12 -14 -12h-77q-10 0 -12.5 2.5t-3.5 12.5l-11 178h-191l-89 -183q-6 -10 -18 -10h-75q-15 0 -15 7q0 4 5 14l335 655q4 10 17 10h73q15 0 16 -15zM339 273l-11 197q-1 16 -1 49v49l-43 -98l-93 -197h148z"/>
    <glyph glyph-name="B" unicode="B" horiz-adv-x="546" d="M528 548q0 -64 -36 -114t-101 -75q92 -36 92 -138q0 -61 -32.5 -115t-83.5 -79q-34 -17 -66.5 -22t-103.5 -5h-146q-15 0 -15 11q0 2 2 10l138 652q2 13 16 13h138q117 0 161 -41q37 -34 37 -97zM419 532q0 37 -19.5 53t-62.5 16h-73l-45 -210h64q61 0 98.5 40t37.5 101z M374 227q0 43 -25 62t-81 19h-67l-47 -224h76q65 0 104.5 36t39.5 107z"/>
    <glyph glyph-name="C" unicode="C" horiz-adv-x="444" d="M512 622l-34 -52q-4 -6 -9 -6q-6 0 -17 9q-49 40 -93 40q-52 0 -93 -48.5t-61.5 -119.5t-31 -134.5t-10.5 -109.5q0 -124 91 -124q16 0 31.5 4t22.5 7t26.5 12.5t24.5 12.5q10 4 13 4q8 0 12 -11l18 -45q2 -6 2 -8q0 -7 -16 -17q-81 -51 -165 -51q-90 0 -131 61t-41 158 q0 57 10.5 121t35.5 131.5t60 121.5t90 88.5t120 34.5q76 0 138 -50q12 -11 12 -16t-5 -13z"/>
    <glyph glyph-name="D" unicode="D" horiz-adv-x="565" d="M551 481q0 -110 -38 -225.5t-94 -176.5q-73 -79 -240 -79h-131q-12 0 -12 9q0 4 2 12l138 652q2 13 18 13h117q85 0 126 -11.5t68 -43.5q46 -54 46 -150zM442 480q0 66 -28 92t-101 26h-49l-108 -510h50q62 0 101.5 27t69.5 88q28 58 46.5 135t18.5 142z"/>
    <glyph glyph-name="E" unicode="E" horiz-adv-x="472" d="M520 664l-28 -56q-4 -10 -18 -10h-209l-42 -197h184q12 0 12 -9q0 -3 -2 -11l-11 -53q-2 -8 -5 -11t-11 -3h-185l-48 -226h227q13 0 13 -7q0 -2 -1.5 -6.5t-1.5 -6.5l-11 -55q-2 -13 -16 -13h-319q-12 0 -12 10q0 3 2 11l138 652q2 13 16 13h320q13 0 13 -8q0 -6 -5 -14z "/>
    <glyph glyph-name="F" unicode="F" horiz-adv-x="435" d="M523 664l-30 -56q-5 -10 -18 -10h-211l-43 -202h186q12 0 12 -8q0 -4 -2 -12l-11 -53q-2 -13 -16 -13h-187l-63 -297q-2 -13 -16 -13h-76q-11 0 -11 11q0 6 1 10l138 652q2 13 16 13h322q14 0 14 -8q0 -6 -5 -14z"/>
    <glyph glyph-name="G" unicode="G" horiz-adv-x="537" d="M552 632l-40 -59q-4 -6 -8 -6q-3 0 -12 7q-51 41 -108 41q-104 0 -157 -114q-31 -64 -49.5 -147t-18.5 -155q0 -64 25.5 -94.5t80.5 -30.5q38 0 79 16l39 180h-76q-14 0 -14 6q0 3 2 11l13 60q2 11 14 11h165q12 0 12 -10q0 -6 -1 -10l-62 -289q-2 -10 -6.5 -14.5 t-17.5 -10.5q-85 -39 -170 -39q-94 0 -143 59t-49 161q0 77 22 167t56 157q41 80 109 126t154 46q93 0 155 -49q9 -7 9 -12q0 -4 -3 -8z"/>
    <glyph glyph-name="H" unicode="H" horiz-adv-x="592" d="M591 665l-138 -652q-2 -13 -17 -13h-76q-12 0 -12 9q0 4 2 12l61 291h-207l-64 -299q-2 -8 -4.5 -10.5t-11.5 -2.5h-76q-12 0 -12 9q0 2 2 12l138 652q2 13 16 13h75q14 0 14 -8q0 -3 -2 -13l-56 -265h207l59 273q2 13 16 13h75q13 0 13 -9q0 -4 -2 -12z"/>
    <glyph glyph-name="I" unicode="I" horiz-adv-x="343" d="M399 666l-10 -46q-2 -13 -17 -13h-74l-112 -528h73q12 0 12 -9q0 -4 -2 -12l-9 -45q-2 -13 -17 -13h-252q-13 0 -13 9q0 3 2 11l10 46q2 8 4.5 10.5t11.5 2.5h75l112 528h-74q-12 0 -12 8q0 2 2 12l9 46q2 13 17 13h253q12 0 12 -12q0 -1 -0.5 -3.5t-0.5 -4.5z"/>
    <glyph glyph-name="J" unicode="J" horiz-adv-x="435" d="M443 666l-97 -455q-16 -73 -35 -113t-50 -66q-54 -45 -132 -45q-66 0 -104.5 37t-38.5 100q0 76 18 76h74q8 0 8 -10v-4q-5 -37 -5 -46q0 -65 60 -65q38 0 59.5 25t34.5 83l91 422h-159q-13 0 -13 9q0 1 2 11l11 48q2 13 16 13h249q12 0 12 -10q0 -7 -1 -10z"/>
    <glyph glyph-name="K" unicode="K" horiz-adv-x="528" d="M590 641l-281 -285l169 -311q5 -8 5 -12q0 -5 -10 -9l-71 -33q-10 -4 -11 -4q-6 0 -10 9l-172 338l-69 -321q-2 -8 -4.5 -10.5t-11.5 -2.5h-76q-12 0 -12 10q0 3 2 11l138 652q2 13 16 13h75q13 0 13 -10q0 -7 -1 -11l-60 -284l296 308q8 8 12 8q3 0 11 -5l49 -30 q9 -6 9 -11q0 -4 -6 -10z"/>
    <glyph glyph-name="L" unicode="L" horiz-adv-x="435" d="M413 74l-31 -64q-5 -10 -16 -10h-318q-12 0 -12 10q0 3 2 11l138 652q2 13 16 13h75q14 0 14 -10q0 -5 -1 -8l-122 -573h247q12 0 12 -8q0 -3 -4 -13z"/>
    <glyph glyph-name="M" unicode="M" horiz-adv-x="667" d="M646 670l-104 -656q-2 -8 -5 -11t-12 -3h-72q-12 0 -12 9q0 3 2 11l81 434q3 16 10 46.5t9 38.5q-18 -41 -41 -85l-156 -288q-6 -11 -17 -11h-39q-15 0 -16 15l-28 280q-3 32 -5 91q-11 -58 -20 -93l-103 -435q-2 -8 -5 -10.5t-11 -2.5h-70q-11 0 -11 8q0 7 2 13l173 652 q4 13 17 13h75q15 0 16 -15l31 -298q2 -19 4 -76q20 48 36 76l165 303q5 10 16 10h79q12 0 12 -9q0 -1 -0.5 -3t-0.5 -4z"/>
    <glyph glyph-name="N" unicode="N" horiz-adv-x="583" d="M588 670l-139 -657q-2 -13 -16 -13h-57q-9 0 -11.5 2t-4.5 11l-115 435q-16 63 -19 83q-4 -50 -13 -91l-90 -427q-2 -13 -17 -13h-65q-12 0 -12 8q0 4 1 6l140 659q2 13 17 13h65q8 0 11 -2.5t5 -10.5l107 -405q19 -72 23 -91q6 61 13 94l85 402q2 13 17 13h65 q11 0 11 -9q0 -4 -1 -7z"/>
    <glyph glyph-name="O" unicode="O" horiz-adv-x="555" d="M543 498q0 -114 -40 -237t-111 -202q-66 -74 -166 -74q-177 0 -177 204q0 92 23.5 188.5t62.5 170.5q81 153 233 153q175 0 175 -203zM436 496q0 64 -18.5 92t-59.5 28q-53 0 -94.5 -50t-63.5 -123t-33 -139.5t-11 -115.5q0 -63 18.5 -90.5t59.5 -27.5q54 0 95.5 49.5 t63.5 122t32.5 138.5t10.5 116z"/>
    <glyph glyph-name="P" unicode="P" horiz-adv-x="491" d="M528 536q0 -70 -30 -128.5t-82 -88.5q-61 -36 -158 -36h-61l-57 -270q-2 -8 -4.5 -10.5t-11.5 -2.5h-76q-13 0 -13 10q0 4 1 6l140 657q2 13 16 13h151q89 0 137 -31.5t48 -118.5zM422 526q0 41 -21 57.5t-72 16.5h-64l-48 -229h46q50 0 79 11.5t49 38.5q31 43 31 105z "/>
    <glyph glyph-name="Q" unicode="Q" horiz-adv-x="555" d="M544 494q0 -150 -62 -306q-27 -68 -78 -128q40 -48 80 -75q13 -9 13 -17t-11 -13l-57 -33q-5 -3 -11 -3q-13 0 -38.5 24t-53.5 62q-44 -20 -98 -20q-91 0 -135 50.5t-44 156.5q0 83 21 178t62 171q87 160 234 160q178 0 178 -207zM436 496q0 65 -18 92.5t-60 27.5 q-53 0 -95 -50t-63.5 -123t-32.5 -139.5t-11 -115.5q0 -63 18.5 -90.5t60.5 -27.5q98 0 153 161q48 141 48 265z"/>
    <glyph glyph-name="R" unicode="R" horiz-adv-x="518" d="M523 538q0 -89 -45.5 -148t-121.5 -82l99 -280q3 -8 3 -12q0 -6 -10 -9l-77 -18q-8 -2 -10 -2q-6 0 -9 11l-93 298h-60l-61 -283q-2 -13 -16 -13h-74q-12 0 -12 12q0 6 1 9l139 652q2 13 16 13h143q89 0 138.5 -32.5t49.5 -115.5zM417 530q0 39 -21.5 55.5t-73.5 16.5 h-58l-47 -221h56q69 0 106.5 38.5t37.5 110.5z"/>
    <glyph glyph-name="S" unicode="S" horiz-adv-x="472" d="M491 639l-33 -56q-8 -12 -14 -12q-5 0 -10 4q-33 21 -57 30t-57 9q-53 0 -85.5 -30t-32.5 -77q0 -28 12.5 -47t49.5 -45l44 -31q62 -43 87 -82.5t25 -92.5q0 -104 -73 -166q-65 -56 -172 -56q-88 0 -164 40q-15 7 -15 14q0 4 5 14l32 58q4 7 9 7q2 0 8 -2l22 -11t25 -12 t23.5 -9t30.5 -7.5t34 -2.5q58 0 91 31.5t33 84.5q0 32 -13.5 53t-54.5 52l-73 57q-41 34 -57.5 66t-16.5 75q0 105 78 161q59 43 161 43q87 0 141 -33q19 -13 19 -19q0 -5 -2 -8z"/>
    <glyph glyph-name="T" unicode="T" horiz-adv-x="407" d="M512 670l-33 -67q-5 -11 -17 -11h-136l-123 -579q-2 -13 -16 -13h-76q-13 0 -13 9q0 2 2 10l121 573h-139q-12 0 -12 10q0 4 1 7l14 65q2 12 16 12h401q12 0 12 -8q0 -5 -2 -8z"/>
    <glyph glyph-name="U" unicode="U" horiz-adv-x="592" d="M606 671l-98 -461q-15 -72 -35.5 -112.5t-70.5 -72.5q-61 -38 -153 -38q-187 0 -187 149q0 35 9 74l98 463q2 13 17 13h73q15 0 15 -10v-4l-99 -462q-7 -33 -7 -58q0 -78 94 -78q115 0 144 135l99 464q2 13 17 13h73q12 0 12 -9q0 -1 -0.5 -3t-0.5 -3z"/>
    <glyph glyph-name="V" unicode="V" horiz-adv-x="481" d="M565 656l-317 -651q-5 -11 -18 -11h-89q-9 0 -12 3t-4 12l-37 650q0 1 -0.5 3.5t-0.5 3.5q0 7 13 10l83 15q2 0 4 0.5t3 0.5q10 0 10 -15l6 -473q0 -22 -2 -62.5t-2 -52.5q40 100 45 110l218 486q3 8 10 8h6l77 -16q10 -3 10 -10q0 -5 -3 -11z"/>
    <glyph glyph-name="W" unicode="W" horiz-adv-x="704" d="M772 659l-281 -653q-5 -11 -17 -11h-72q-10 0 -12.5 4t-2.5 14l15 366q0 58 8 146q-14 -41 -57 -145l-159 -374q-5 -11 -17 -11h-73q-15 0 -15 17l12 651q0 14 14 16l72 13q2 0 4 0.5t3 0.5q9 0 9 -12v-5l-22 -431q-4 -59 -12 -125q28 84 45 125l182 430q5 11 16 11h64 q10 0 12.5 -3.5t2.5 -13.5l-12 -422q-1 -32 -9 -122q22 77 39 122l169 435q4 11 11 11q1 0 3 -0.5t3 -0.5l71 -15q8 -1 8 -10q0 -2 -2 -8z"/>
    <glyph glyph-name="X" unicode="X" horiz-adv-x="472" d="M538 650l-227 -295l115 -326q2 -6 2 -9q0 -8 -7 -9l-78 -21q-2 0 -5.5 -1.5t-5.5 -1.5q-6 0 -10 12l-66 211q-6 18 -14 54q-22 -36 -41 -61l-156 -209q-4 -7 -8 -7q-2 0 -8 2l-77 24q-8 3 -8 8q0 4 3 7l258 331l-105 293q-2 8 -2 9q0 7 11 10l73 20q8 2 9 2q6 0 10 -11 l55 -178q7 -23 16 -68q22 44 41 70l129 180q5 7 11 7q5 0 8 -1l75 -23q7 -3 7 -8q0 -4 -5 -11z"/>
    <glyph glyph-name="Y" unicode="Y" horiz-adv-x="444" d="M543 655l-261 -370l-58 -272q-2 -13 -17 -13h-75q-13 0 -13 9q0 4 1 7l57 270l-108 370q-2 6 -2 7q0 8 10 11l76 19q8 2 11 2q8 0 11 -11l44 -177q22 -85 26 -132q17 35 57 95l141 216q5 8 13 8q2 0 12 -2l67 -17q12 -3 12 -11q0 -3 -4 -9z"/>
    <glyph glyph-name="Z" unicode="Z" horiz-adv-x="444" d="M509 669l-16 -68l-389 -506h293q13 0 13 -9q0 -2 -2 -8l-20 -66q-4 -12 -17 -12h-393q-12 0 -12 8q0 5 1 9l13 66l392 512h-249q-14 0 -14 7q0 4 3 10l26 59q6 15 17 15h341q14 0 14 -11q0 -4 -1 -6z"/>
    <glyph glyph-name="bracketleft" unicode="[" horiz-adv-x="435" d="M473 696l-11 -50q-3 -13 -17 -13h-106l-160 -755h104q13 0 13 -7q0 -1 -0.5 -3.5t-0.5 -4.5l-12 -59q-2 -9 -16 -9h-189q-12 0 -12 7q0 1 2 11l189 889q2 13 17 13h187q13 0 13 -10q0 -1 -0.5 -4t-0.5 -5z"/>
    <glyph glyph-name="backslash" unicode="\" horiz-adv-x="514" d="M143 758l336 -827q3 -8 3 -11q0 -5 -10 -5h-68q-8 0 -10.5 2.5t-5.5 10.5l-337 828q-3 6 -3 9q0 6 13 6h66q8 0 10.5 -2.5t5.5 -10.5z"/>
    <glyph glyph-name="bracketright" unicode="]" horiz-adv-x="435" d="M366 702l-189 -894q-3 -13 -17 -13h-187q-13 0 -13 10q0 4 1 7l11 52q2 8 5 11t11 3h106l161 755h-104q-14 0 -14 9q0 3 1 6l12 54q2 13 17 13h188q12 0 12 -7q0 -1 -0.5 -3t-0.5 -3z"/>
    <glyph glyph-name="asciicircum" unicode="^" d="M264 610l-126 -231q-6 -11 -9 -13.5t-14 -2.5h-74q-12 0 -12 5t4 12l157 292q8 14 14 16q3 1 9 1h103q10 0 13 -3t9 -14l158 -292q4 -10 4 -11q0 -6 -13 -6h-74q-10 0 -13 2.5t-9 13.5z"/>
    <glyph glyph-name="underscore" unicode="_" horiz-adv-x="514" d="M514 -136h-514v68h514v-68z"/>
    <glyph glyph-name="grave" unicode="`" d="M407 582l-23 -30q-4 -5 -7 -5t-8 3l-148 79q-8 4 -8 9q0 4 3 8l48 63q3 5 10 5q6 0 11 -5l121 -112q4 -4 4 -8t-3 -7z"/>
    <glyph glyph-name="a" unicode="a" d="M470 473l-70 -324q-8 -32 -8 -64q0 -25 6 -48q0 -1 1.5 -6t1.5 -8q0 -7 -8 -10l-65 -25l-8 -2q-6 0 -10 10q-10 23 -10 63q0 4 0.5 12.5t0.5 12.5q-72 -99 -161 -99q-52 0 -80.5 40.5t-28.5 115.5q0 94 32 178q33 88 85 135.5t117 47.5q35 0 59.5 -12t49.5 -42l13 30 q4 9 12 9h61q10 0 10 -9v-5zM354 384q-45 41 -85 41q-67 0 -104 -105q-36 -103 -36 -180q0 -72 49 -72t88.5 46.5t55.5 120.5z"/>
    <glyph glyph-name="b" unicode="b" d="M464 358q0 -89 -36 -184t-88 -144q-48 -45 -124 -45q-42 0 -81 12t-53 20t-44 27q-6 5 -6 16q0 6 1 9l132 624q3 12 13 14l70 15q2 0 4.5 0.5t3.5 0.5q9 0 9 -9q0 -6 -1 -10l-49 -227q-6 -31 -16 -55q57 80 149 80q116 0 116 -144zM366 351q0 70 -57 70q-49 0 -85.5 -39 t-50.5 -106l-40 -188q49 -26 90 -26q33 0 57 23t43 74q43 111 43 192z"/>
    <glyph glyph-name="c" unicode="c" horiz-adv-x="398" d="M420 449l-29 -47q-5 -8 -11 -8q-4 0 -14 7q-33 20 -73 20q-75 0 -114 -71q-50 -91 -50 -189q0 -90 83 -90q15 0 29.5 3.5t22 6.5t21.5 10.5t18 9.5q6 3 8 3q5 0 9 -9l20 -51q1 -2 1 -5q0 -8 -16 -17q-62 -37 -133 -37q-78 0 -120.5 47t-42.5 134q0 75 25.5 144.5 t70.5 118.5q68 73 174 73q66 0 116 -31q7 -5 7 -13q0 -6 -2 -9z"/>
    <glyph glyph-name="d" unicode="d" d="M518 709l-113 -538q-10 -45 -10 -82q0 -26 6 -50q2 -8 2 -11q0 -7 -8 -11l-65 -29q-6 -3 -9 -3q-5 0 -10 12q-10 27 -10 84q-70 -96 -158 -96q-110 0 -110 149q0 87 27.5 171t73.5 134q56 63 142 63q52 0 97 -29l47 220q2 12 13 14l74 16q1 0 2.5 0.5t2.5 0.5q7 0 7 -8 q0 -1 -0.5 -3.5t-0.5 -3.5zM357 398q-39 25 -77 25q-41 0 -67.5 -23t-45.5 -75q-36 -99 -36 -183q0 -74 50 -74q35 0 74 34q48 43 68 134z"/>
    <glyph glyph-name="e" unicode="e" horiz-adv-x="454" d="M437 372q0 -48 -26 -86t-69 -59q-78 -39 -193 -39q-3 0 -10 0.5t-11 0.5q-1 -8 -1 -23q0 -98 90 -98q55 0 120 39q12 7 15 7q5 0 9 -7l23 -46q3 -6 3 -9q0 -5 -10 -12q-78 -55 -180 -55q-82 0 -125 47t-43 137q0 140 78 236.5t190 96.5q65 0 102.5 -34.5t37.5 -95.5z M343 367q0 28 -16 44t-45 16q-52 0 -89 -42t-54 -119q204 0 204 101z"/>
    <glyph glyph-name="f" unicode="f" horiz-adv-x="315" d="M434 678l-18 -47q-3 -8 -11 -8q-4 0 -6 1q-6 2 -19 7t-23.5 7.5t-23.5 2.5q-33 0 -48.5 -18.5t-26.5 -70.5l-14 -65h128q9 0 9 -8l-1 -2v-3l-16 -51q-3 -10 -14 -10h-122l-82 -430q-17 -91 -60.5 -139t-128.5 -48q-47 0 -72 9q-11 4 -11 10t2 10l17 52q3 8 8 8q3 0 9 -2 q22 -5 41 -5q43 0 64.5 25t34.5 89l83 421h-71q-11 0 -11 8q0 4 1 6l11 49q3 11 13 11h73l21 99q14 65 50.5 99t112.5 34q62 0 97 -20q6 -4 6 -10q0 -3 -2 -11z"/>
    <glyph glyph-name="g" unicode="g" d="M486 442q-37 -48 -49 -110l-43 -211l-17 -95q-15 -86 -29 -124.5t-41 -63.5q-55 -50 -151 -50q-40 0 -90.5 12.5t-74.5 28.5q-6 4 -6 9q0 4 3 10l23 56q3 9 10 9q4 0 14 -5q74 -38 130 -38q44 0 68.5 20t36.5 66q7 27 17.5 78t12.5 60q-36 -49 -70.5 -71t-76.5 -22 q-56 0 -87 40.5t-31 113.5q0 84 29.5 163.5t76.5 127.5q54 56 124 56q35 0 61 -11t58 -41q12 21 27 35.5t23 14.5q5 0 11 -4l39 -26q10 -7 10 -13q0 -5 -8 -15zM354 388q-47 37 -87 37q-34 0 -61.5 -32t-42 -78.5t-22 -89.5t-7.5 -74q0 -70 49 -70q46 0 84 42.5t53 110.5z "/>
    <glyph glyph-name="h" unicode="h" horiz-adv-x="509" d="M465 408q0 -30 -11 -78l-70 -319q-2 -11 -14 -11h-72q-10 0 -10 8q0 5 1 8l67 309q9 45 9 55q0 38 -40 38q-55 0 -98.5 -54t-63.5 -145l-44 -208q-2 -11 -14 -11h-72q-11 0 -11 6q0 5 1 9l145 678q2 12 13 14l67 15q4 1 10 1q9 0 9 -8q0 -5 -1 -8l-49 -235 q-6 -35 -17 -64q41 47 78 70.5t89 23.5q46 0 72 -25t26 -69z"/>
    <glyph glyph-name="i" unicode="i" horiz-adv-x="268" d="M293 650q0 -29 -20.5 -49.5t-48.5 -20.5q-29 0 -49.5 20.5t-20.5 49.5q0 28 20.5 48.5t49.5 20.5t49 -20t20 -49zM239 472l-98 -461q-2 -11 -13 -11h-72q-12 0 -12 7q0 4 1 7l86 399h-79q-11 0 -11 7q0 5 1 8l10 48q3 11 13 11h164q11 0 11 -9q0 -1 -0.5 -3t-0.5 -3z"/>
    <glyph glyph-name="j" unicode="j" horiz-adv-x="268" d="M287 650q0 -29 -20 -49.5t-49 -20.5t-49 20.5t-20 49.5q0 28 20.5 48.5t48.5 20.5t48.5 -20.5t20.5 -48.5zM239 473l-101 -474q-15 -71 -31 -112t-45 -68q-47 -42 -117 -42q-47 0 -93 23q-9 4 -9 10q0 4 3 11l20 51q4 9 9 9q4 0 7 -1q7 -2 16.5 -6.5t15.5 -6.5t15.5 -4 t21.5 -2q37 0 55.5 30t37.5 117l87 405h-80q-10 0 -10 7q0 5 1 8l10 48q3 11 13 11h164q11 0 11 -8v-3q-1 -2 -1 -3z"/>
    <glyph glyph-name="k" unicode="k" horiz-adv-x="454" d="M478 435l-210 -168l137 -222q3 -5 3 -8q0 -6 -6 -9l-61 -36q-5 -4 -10 -4t-8 6l-153 259l-51 -242q-2 -11 -14 -11h-72q-11 0 -11 7q0 4 1 6l145 680q2 12 13 14l69 16q3 1 8 1q10 0 10 -8q0 -1 -0.5 -3t-0.5 -3l-90 -424l239 205q8 6 13 6t9 -4l40 -41q4 -4 4 -9t-4 -8z "/>
    <glyph glyph-name="l" unicode="l" horiz-adv-x="259" d="M263 710l-113 -528q-13 -46 -13 -80q0 -29 26 -29q21 0 32 8q6 3 10 3q7 0 8 -7l8 -44q0 -2 1 -4v-2q0 -8 -8 -14q-29 -25 -86 -25q-90 0 -90 80q0 43 18 125l107 500q2 12 13 14l72 16h6q10 0 10 -8q0 -1 -0.5 -2.5t-0.5 -2.5z"/>
    <glyph glyph-name="m" unicode="m" horiz-adv-x="741" d="M688 339l-73 -328q-2 -11 -13 -11h-72q-11 0 -11 9q0 3 2 11l68 306q7 30 7 49q0 43 -36 43q-59 0 -92.5 -46t-46.5 -109l-53 -252q-2 -11 -14 -11h-72q-11 0 -11 6l3 12l70 322q5 27 5 36q0 42 -37 42q-52 0 -86.5 -44t-47.5 -103l-58 -260q-2 -11 -14 -11h-71 q-11 0 -11 8q0 4 2 10l76 352q3 14 3 33q0 25 -5 45q-3 9 -3 13q0 8 12 13l51 22q10 4 12 4q9 0 15 -17q7 -21 7 -55q0 -4 -0.5 -12.5t-0.5 -12.5q71 99 164 99q84 0 84 -98q41 53 78.5 75.5t84.5 22.5q91 0 91 -100q0 -28 -7 -63z"/>
    <glyph glyph-name="n" unicode="n" horiz-adv-x="509" d="M465 410q0 -27 -10 -74l-71 -325q-2 -11 -14 -11h-72q-10 0 -10 6q0 4 1 7l68 312q8 37 8 51q0 42 -39 42q-54 0 -97.5 -54t-63.5 -143l-45 -210q-2 -11 -14 -11h-71q-11 0 -11 8q0 4 1 7l71 325q9 41 9 64q0 21 -6 45q-2 8 -2 10q0 8 9 12l61 27q4 2 8 2q8 0 14 -21 t6 -51v-14q0 -9 -1 -16q37 50 75 74q47 30 99 30q45 0 71 -24.5t26 -67.5z"/>
    <glyph glyph-name="o" unicode="o" horiz-adv-x="491" d="M456 329q0 -70 -23.5 -139t-64.5 -120q-68 -85 -181 -85q-159 0 -159 174q0 148 86 257q68 86 183 86q76 0 117.5 -45t41.5 -128zM355 333q0 43 -19.5 65.5t-55.5 22.5q-80 0 -117 -99q-34 -90 -34 -168q0 -88 74 -88q81 0 118 102q34 94 34 165z"/>
    <glyph glyph-name="p" unicode="p" d="M460 348q0 -86 -29.5 -172t-75.5 -135q-52 -56 -130 -56q-56 0 -102 34l-42 -199q-2 -11 -13 -13l-71 -17q-8 -2 -10 -2q-7 0 -7 7q0 5 1 8l115 537q6 28 6 54q0 30 -9 61q-1 2 -1 6q0 6 7 10l62 27q5 2 10 2q15 0 23 -72v-4q1 -4 1 -6q36 46 70 65t79 19q56 0 86 -39.5 t30 -114.5zM362 342q0 79 -56 79q-48 0 -81.5 -41.5t-44.5 -94.5l-41 -191q43 -30 83 -30q38 0 64 26t45 83q31 93 31 169z"/>
    <glyph glyph-name="q" unicode="q" d="M488 471q8 -5 8 -11t-9 -17q-34 -42 -48 -109l-109 -514q-2 -10 -13 -13l-67 -17q-8 -2 -11 -2q-10 0 -10 9q0 3 1 5l59 267q-65 -81 -149 -81q-50 0 -79 40.5t-29 111.5q0 54 14 114t41 117t74.5 94t107.5 37q36 0 61.5 -11.5t55.5 -41.5q33 51 49 51l6 -2zM356 390 q-43 35 -84 35q-69 0 -104 -94q-38 -102 -38 -188q0 -72 49 -72q31 0 61.5 19.5t49.5 51.5q21 35 31 83z"/>
    <glyph glyph-name="r" unicode="r" horiz-adv-x="324" d="M376 477l-31 -74q-3 -6 -7 -6l-2 1h-2q-13 4 -30 4q-36 0 -71 -38q-27 -29 -41 -59.5t-26 -85.5l-45 -208q-2 -11 -12 -11h-72q-11 0 -11 9q0 4 1 7l65 303q10 54 10 82q0 26 -6 50q-1 3 -1 9q0 9 8 12l62 26q4 2 8 2q8 0 14.5 -23t6.5 -53q0 -14 -2 -27q66 102 145 102 q21 0 32 -4q10 -3 10 -8q0 -4 -3 -10z"/>
    <glyph glyph-name="s" unicode="s" horiz-adv-x="380" d="M361 454l-22 -47q-3 -7 -10 -7q-4 0 -18 6q-41 18 -73 18q-36 0 -57.5 -18.5t-21.5 -48.5q0 -15 6.5 -25t15 -16t37.5 -25l39 -25q39 -25 54 -49t15 -63q0 -77 -50 -123t-134 -46q-78 0 -143 36q-12 8 -12 12t3 10l18 49q2 6 10 6q7 0 15 -4q57 -31 113 -31q39 0 62.5 20 t23.5 54q0 23 -11 36t-44 33l-46 28q-37 22 -51.5 46t-14.5 60q0 73 48.5 117.5t127.5 44.5q71 0 112 -28q10 -6 10 -13q0 -1 -2 -7z"/>
    <glyph glyph-name="t" unicode="t" horiz-adv-x="343" d="M377 470l-20 -48q-3 -9 -13 -9h-125l-55 -257q-6 -27 -6 -48q0 -41 43 -41q13 0 26 3t34 11t26 9q6 2 7 2q4 0 6 -6l11 -48q1 -4 1 -8q0 -6 -14 -13q-64 -32 -132 -32q-108 0 -108 100q0 26 8 62l56 266h-70q-10 0 -10 7q0 3 2 11l9 45q2 11 13 11h72l28 131q3 11 12 12 l74 14h5q9 0 9 -8v-2q-1 -3 -1 -4l-31 -143h135q11 0 11 -7q0 -2 -1 -6q-2 -2 -2 -4z"/>
    <glyph glyph-name="u" unicode="u" horiz-adv-x="509" d="M479 477l-72 -331q-8 -35 -8 -63t9 -55v-4q0 -4 -7 -8l-63 -28q-4 -2 -8 -2q-20 0 -20 70v15q0 6 1 13q-80 -99 -169 -99q-48 0 -75 26t-27 74q0 32 11 78l67 305q2 10 13 12l74 16h5q6 0 6 -8q0 -6 -1 -10l-65 -297q-9 -43 -9 -63t12.5 -32.5t32.5 -12.5q60 0 106 68 q29 42 44 112l46 215q1 6 2 7.5t3 3t7 2.5l70 15q3 1 8 1q8 0 8 -10q0 -6 -1 -10z"/>
    <glyph glyph-name="v" unicode="v" horiz-adv-x="417" d="M458 468l-264 -469q-5 -8 -13 -8h-60q-12 0 -13 12l-57 464q0 1 -0.5 3.5t-0.5 3.5q0 6 10 9l74 12q2 0 4.5 0.5t3.5 0.5q6 0 7 -10l22 -275q4 -44 4 -100q20 44 52 106l139 272q4 7 12 7q3 0 13 -2l64 -10q7 -1 7 -5q0 -3 -4 -11z"/>
    <glyph glyph-name="w" unicode="w" horiz-adv-x="620" d="M653 466l-229 -465q-3 -8 -14 -8h-65q-7 0 -9 2t-2 9l-2 286q0 50 3 75q-13 -35 -31 -75l-136 -288q-4 -9 -14 -9h-60q-12 0 -12 11l-20 462v4q0 9 10 11l65 12q3 1 9 1q11 0 11 -12l-3 -289q0 -29 -4 -87q14 42 39 95l129 277q4 9 13 9h64q11 0 11 -11l2 -282 q0 -46 -3 -91q10 34 38 99l121 284q3 8 10 8q5 0 8 -1l63 -12q11 -3 11 -7q0 -3 -3 -8z"/>
    <glyph glyph-name="x" unicode="x" horiz-adv-x="417" d="M445 451l-186 -199l107 -223q0 -2 2 -5t2 -5q0 -4 -8 -7l-71 -22q-6 -3 -10 -3q-5 0 -9 8l-58 140q-16 40 -18 46q-10 -14 -38 -48l-120 -141q-4 -4 -8 -4q-3 0 -9 3l-65 24q-7 3 -7 7q0 5 6 11l203 218l-95 201q-4 8 -4 11q0 5 9 8l67 23q2 0 5.5 1.5t4.5 1.5q4 0 8 -7 l50 -123l18 -48q12 18 40 50l102 123q3 5 8 5q2 0 12 -4l61 -25q6 -3 6 -7q0 -5 -5 -10z"/>
    <glyph glyph-name="y" unicode="y" horiz-adv-x="426" d="M458 460l-189 -401q-44 -93 -62 -126q-37 -71 -79 -109.5t-109 -38.5q-55 0 -103 28q-11 7 -11 13q0 5 4 10l30 50q3 6 7 6q1 0 7 -2q5 -2 15.5 -7.5t16.5 -8t17 -5t23 -2.5q56 0 94 71l33 62h-37q-12 0 -13 11l-60 452q0 2 -0.5 4.5t-0.5 3.5q0 6 9 7l73 15q3 1 9 1 q7 0 8 -10l27 -254q14 -152 15 -171l70 165l115 264q4 8 10 8q2 0 10 -2l66 -16q8 -3 8 -8q0 -1 -3 -10z"/>
    <glyph glyph-name="z" unicode="z" horiz-adv-x="407" d="M424 472l-12 -54l-302 -336h240q8 0 8 -5q0 -4 -5 -11l-37 -57q-6 -9 -17 -9h-313q-11 0 -11 8q0 4 1 6l12 55l309 337h-203q-10 0 -10 8q0 4 1 7l11 55q2 11 14 11h304q11 0 11 -9q0 -1 -0.5 -3t-0.5 -3z"/>
    <glyph glyph-name="braceleft" unicode="{" horiz-adv-x="514" d="M486 695l-18 -81q-64 -2 -85 -16.5t-34 -74.5l-32 -150q-10 -51 -29 -76.5t-60 -46.5q42 -26 42 -76q0 -24 -6 -49l-35 -162q-4 -16 -4 -31q0 -29 19.5 -37t68.5 -8l-17 -82q-13 -1 -36 -1q-67 0 -100 19t-33 75q0 26 7 57l35 166q5 22 5 39q0 44 -42 54l16 78 q32 7 50 28t26 59l37 174q18 85 63 114t124 29q6 0 18.5 -0.5t19.5 -0.5z"/>
    <glyph glyph-name="bar" unicode="|" horiz-adv-x="333" d="M227 670v-824q0 -11 -3.5 -14t-14.5 -3h-57q-12 0 -14 2.5t-2 14.5v824q0 11 2 13.5t13 2.5h57q12 0 15.5 -3t3.5 -13z"/>
    <glyph glyph-name="braceright" unicode="}" horiz-adv-x="514" d="M395 286l-16 -77q-33 -7 -51 -28t-26 -60l-37 -173q-18 -81 -62.5 -113t-121.5 -32q-12 0 -40 2l18 82q60 1 82.5 14.5t34.5 68.5l34 158q11 51 29 76t59 46q-42 29 -42 76q0 22 6 48l33 154q6 27 6 42q0 27 -18.5 34.5t-69.5 9.5l17 81q7 0 19 0.5t18 0.5 q67 0 100 -20.5t33 -73.5q0 -25 -7 -56l-36 -166q-6 -28 -6 -40q0 -44 44 -54z"/>
    <glyph glyph-name="asciitilde" unicode="~" d="M505 361q-54 -108 -146 -108q-34 0 -93 24l-54 22q-37 14 -55 14q-24 0 -41 -12.5t-35 -42.5q-8 -11 -11 -11q-4 0 -12 6l-29 19q-9 5 -9 11q0 4 4 12q30 63 61 88.5t79 25.5q35 0 112 -32q48 -20 62 -24.5t32 -4.5q48 0 77 48q7 11 11 11t11 -4l32 -19q9 -5 9 -10 q0 -3 -5 -13z"/>
    <glyph glyph-name="uni00A0" unicode=" " horiz-adv-x="206"/>
    <glyph glyph-name="exclamdown" unicode="¡" horiz-adv-x="343" d="M279 417q0 -31 -21.5 -52t-52.5 -21t-52 21t-21 52t21 52.5t52 21.5t52.5 -21.5t21.5 -52.5zM202 206l-63 -400q-1 -9 -4.5 -11.5t-12.5 -2.5h-91q-13 0 -13 8q0 3 2 11l108 401q2 9 4 10.5t11 1.5h47q13 0 13 -9q0 -6 -1 -9z"/>
    <glyph glyph-name="cent" unicode="¢" horiz-adv-x="509" d="M499 546l-33 -54q-2 -5 -8 -5q-4 0 -10 4q-30 19 -59 24l-75 -349q33 7 63 28q4 4 10 4q5 0 8 -5l21 -51q2 -8 2 -10q0 -6 -9 -12q-39 -29 -112 -40l-15 -66q-2 -9 -4 -10.5t-13 -1.5h-22q-14 0 -14 6q0 4 1 6l14 67q-137 19 -137 179q0 74 25 144t69 118q58 64 152 74 l13 61q1 6 2.5 8.5t4 4t7.5 1.5h29q11 0 11 -10v-2q-1 -2 -1 -3l-13 -61q56 -8 88 -32q7 -5 7 -11q0 -2 -2 -6zM337 514q-30 -8 -47.5 -23t-34.5 -44q-53 -94 -53 -193q0 -76 61 -90z"/>
    <glyph glyph-name="sterling" unicode="£" horiz-adv-x="509" d="M559 610l-25 -48q-6 -10 -12 -10t-11 4q-52 33 -108 33q-76 0 -114.5 -48.5t-38.5 -125.5q0 -10 2 -32h141q14 0 14 -8q0 -5 -1 -8l-12 -51q-2 -9 -4 -11t-11 -2h-122q0 -5 0.5 -14t0.5 -13q0 -85 -47 -190h266q14 0 14 -9q0 -5 -3 -9l-30 -58q-5 -10 -17 -10h-424 q-14 0 -14 9q0 2 2 10l11 54q3 13 16 13h81q28 56 39.5 100.5t11.5 104.5v12h-94q-11 0 -11 7q0 5 1 8l11 51q3 14 13 14h76q-3 25 -3 40q0 113 68.5 181t182.5 68q92 0 147 -38q8 -6 8 -13q0 -3 -4 -11z"/>
    <glyph glyph-name="currency" unicode="¤" horiz-adv-x="591" d="M517 174q-8 -7 -16 -15.5l-18 -18.5l-16 -16l-68 67q-51 -37 -116 -37q-66 0 -116 37l-68 -67l-49 50l68 66q-37 54 -37 114q0 64 37 114l-31.5 31l-36.5 36l49 50l68 -67q52 36 116 36q67 0 116 -36l68 67l16 -16l18 -18.5t16 -15.5l-69 -67q37 -51 37 -114 q0 -61 -37 -114zM415 355q0 56 -40 93t-91 37q-56 0 -94 -38.5t-38 -91.5t38.5 -92t92.5 -39t93 38.5t39 92.5z"/>
    <glyph glyph-name="yen" unicode="¥" horiz-adv-x="509" d="M572 654l-174 -249h115q11 0 11 -8v-4l-4 -19q-2 -10 -15 -10h-135l-35 -52h158q12 0 12 -8q0 -3 -1 -5l-5 -19q-1 -6 -3.5 -7.5t-11.5 -1.5h-168l-55 -258q-2 -13 -16 -13h-75q-13 0 -13 9q0 2 2 10l54 252h-161q-13 0 -13 5v3l3 22q1 11 16 11h153l-15 52h-125 q-13 0 -13 6q0 1 0.5 3t0.5 4l3 18q1 10 16 10h107l-70 252q-2 8 -2 9q0 7 11 9l73 17q3 1 8 1q7 0 9 -11l51 -225q10 -50 15 -97q3 5 25 45.5t35 60.5l140 220q4 8 10 8q2 0 8 -2l72 -17q8 -3 8 -8q0 -3 -6 -13z"/>
    <glyph glyph-name="brokenbar" unicode="¦" horiz-adv-x="333" d="M227 335h-92v351h92v-351zM227 -171h-92v329h92v-329z"/>
    <glyph glyph-name="section" unicode="§" horiz-adv-x="509" d="M484 635l-28 -46q-4 -7 -10 -7q-5 0 -12 5q-49 33 -97 33q-36 0 -59.5 -18.5t-23.5 -46.5q0 -17 11 -28t43 -32l69 -43q82 -51 82 -123q0 -106 -139 -162q70 -44 70 -115t-53.5 -118.5t-135.5 -47.5q-86 0 -166 52q-12 7 -12 12q0 3 5 11l28 48q6 9 11 9q3 0 11 -5 q65 -46 127 -46q35 0 57 20.5t22 51.5q0 25 -14.5 40.5t-62.5 42.5q-33 19 -47.5 28.5t-38 29t-33 42.5t-9.5 52q0 109 144 164q-66 39 -66 103q0 69 52 113t132 44q87 0 139 -42q7 -6 7 -12q0 -4 -3 -9zM361 318q0 15 -5.5 26.5t-18.5 22.5t-20 15l-25 15 q-114 -45 -114 -108q0 -25 14.5 -40.5t60.5 -41.5q22 10 37 18.5t33.5 22.5t28 31.5t9.5 38.5z"/>
    <glyph glyph-name="dieresis" unicode="¨" d="M482 630q0 -26 -17 -43.5t-42 -17.5t-43 17.5t-18 42.5t17.5 42.5t42.5 17.5t42.5 -17t17.5 -42zM296 629q0 -25 -18 -42.5t-43 -17.5t-42.5 17.5t-17.5 42.5t17.5 42.5t42.5 17.5t43 -17.5t18 -42.5z"/>
    <glyph glyph-name="copyright" unicode="©" horiz-adv-x="705" d="M698 343q0 -147 -95.5 -251.5t-231.5 -104.5q-135 0 -231.5 104.5t-96.5 250.5q0 150 96.5 253.5t235.5 103.5q132 0 227.5 -105.5t95.5 -250.5zM631 342q0 125 -76.5 212t-186.5 87q-106 0 -181.5 -87.5t-75.5 -210.5t76 -210.5t184 -87.5q107 0 183.5 87t76.5 210z M488 178q0 -17 -36.5 -33.5t-74.5 -16.5q-78 0 -118.5 56.5t-40.5 163.5q0 101 40.5 155.5t114.5 54.5q36 0 74.5 -17.5t38.5 -33.5q0 -4 -2 -6q0 -3 -10 -13l-8 -12q-8 -11 -9 -12q-3 -4 -7 -4q-6 0 -24 13q-25 18 -50 18q-71 0 -71 -135q0 -161 78 -161q24 0 60 25 q5 4 11 4q5 0 11 -8l20 -29q3 -5 3 -9z"/>
    <glyph glyph-name="ordfeminine" unicode="ª" horiz-adv-x="339" d="M367 694l-41 -180q-4 -19 -4 -35q0 -12 4 -30v-4q0 -7 -5 -8l-39 -14q-3 -1 -5 -1q-12 0 -14 40v10q-44 -51 -93 -51q-32 0 -49.5 23t-17.5 66q0 83 41.5 143.5t98.5 60.5q42 0 65 -29l7 15q3 6 8 6h37q8 0 8 -6q0 -1 -0.5 -3t-0.5 -3zM295 646q-28 22 -49 22 q-32 0 -56.5 -48.5t-24.5 -109.5q0 -39 27 -39q28 0 51 25.5t33 66.5z"/>
    <glyph glyph-name="guillemotleft" unicode="«" horiz-adv-x="555" d="M546 432l-173 -193l83 -187q4 -10 4 -12q0 -4 -9 -9l-43 -21q-10 -4 -11 -4q-6 0 -10 8l-125 223q-4 7 -4 10t6 9l225 222q6 6 10 6q3 0 10 -5l36 -27q6 -6 6 -10q0 -3 -5 -10zM333 432l-173 -193l83 -187q3 -8 3 -11q0 -6 -8 -10l-43 -21q-10 -4 -11 -4q-6 0 -10 8 l-125 223q-4 7 -4 10t6 9l225 222q6 6 10 6q3 0 10 -5l36 -27q6 -6 6 -10q0 -3 -5 -10z"/>
    <glyph glyph-name="logicalnot" unicode="¬" d="M493 219h-1q0 -12 -2 -14.5t-13 -2.5h-66q-11 0 -14 3t-3 14v150h-340q-11 0 -14.5 3.5t-3.5 14.5v52q0 11 3 14t14 3h423q11 0 14 -3t3 -14v-220z"/>
    <glyph glyph-name="uni00AD" unicode="­" horiz-adv-x="315" d="M285 282l-13 -62q-3 -14 -17 -14h-215q-13 0 -13 10q0 3 2 11l13 61q2 13 16 13h215q13 0 13 -11q0 -1 -0.5 -3.5t-0.5 -4.5z"/>
    <glyph glyph-name="registered" unicode="®" horiz-adv-x="423" d="M477 565q0 -88 -57.5 -151t-138.5 -63t-139 62.5t-58 150.5q0 90 57.5 152t141.5 62q79 0 136.5 -63t57.5 -150zM437 564q0 75 -46 127.5t-112 52.5q-64 0 -109 -52.5t-45 -126.5t45.5 -126.5t110.5 -52.5q64 0 110 52.5t46 125.5zM372 457q0 -5 -9 -7l-25 -6 q-2 -2 -5 -2q-5 0 -8 6l-54 99h-20v-90q0 -10 -10 -10h-26q-11 0 -11 10v221q0 9 11 9h58q35 0 51 -8q33 -17 33 -58q0 -47 -43 -68l55 -90q3 -4 3 -6zM309 620q0 17 -8.5 24t-31.5 7h-18v-67h16q23 0 32.5 8.5t9.5 27.5z"/>
    <glyph glyph-name="macron" unicode="¯" d="M456 647l-11 -47q-2 -9 -4.5 -11t-11.5 -2h-216q-14 0 -14 6q0 3 1 5l10 51q2 13 17 13h218q12 0 12 -7q0 -5 -1 -8z"/>
    <glyph glyph-name="degree" unicode="°" horiz-adv-x="514" d="M467 538q0 -60 -44 -102t-106 -42t-106 41.5t-44 102.5t44 104.5t106 43.5t106 -43.5t44 -104.5zM408 538q0 37 -27 65t-64 28t-64 -28t-27 -65t26.5 -63t64.5 -26t64.5 26t26.5 63z"/>
    <glyph glyph-name="plusminus" unicode="±" d="M493 301q0 -11 -3 -14t-14 -3h-167v-131q0 -11 -3 -14.5t-14 -3.5h-57q-11 0 -14 3.5t-3 14.5v131h-164q-11 0 -14.5 3t-3.5 14v55q0 11 3 14t14 3h165v167q0 11 3 13.5t14 2.5h57q11 0 14 -2.5t3 -13.5v-167h166q11 0 14.5 -3t3.5 -14v-55zM493 32q0 -11 -3.5 -14 t-14.5 -3h-421q-11 0 -14.5 3t-3.5 14v53q0 11 3 14t14 3h421q11 0 15 -3.5t4 -13.5v-53z"/>
    <glyph glyph-name="two.superior" unicode="²" horiz-adv-x="345" d="M396 747q0 -53 -42 -97q-17 -16 -98 -67q-78 -48 -96 -89h165q12 0 12 -8q0 -6 -2 -14l-6 -28q-1 -6 -2.5 -9t-5 -4.5t-9.5 -1.5h-231q-13 0 -13 10t21 67q17 36 46 63.5t80 60.5q71 46 85 63q16 19 16 44q0 33 -40 33q-23 0 -39.5 -12t-35.5 -40q-9 -11 -16 -11t-10 2 q-18 5 -32 11q-8 3 -8 8v2q0 4 5 16q23 41 62.5 64t85.5 23q50 0 79 -23t29 -63z"/>
    <glyph glyph-name="three.superior" unicode="³" horiz-adv-x="345" d="M304 642q47 -24 47 -74q0 -64 -51 -105.5t-125 -41.5q-36 0 -73.5 12t-37.5 23l2 6l19 36q3 7 13 7q4 0 13 -5q35 -17 72 -17q39 0 64.5 22t25.5 57q0 45 -70 45h-25q-13 0 -13 11q0 3 2 13l5 24q2 8 5.5 10.5t12.5 2.5h26q37 0 62 20t25 51q0 34 -42 34q-29 0 -66 -29 q-9 -8 -17 -8q-7 0 -11 4l-24 21q-3 3 -3 9q0 5 13 18q48 45 119 45q49 0 78 -22.5t29 -60.5q0 -72 -75 -108z"/>
    <glyph glyph-name="acute" unicode="´" d="M440 703l30 -60q2 -6 2 -7q0 -5 -11 -9l-180 -74q-10 -4 -12 -4q-5 0 -8 7l-15 30q-3 4 -3 8q0 5 9 10l167 102q8 5 12 5t9 -8z"/>
    <glyph glyph-name="mu" unicode="µ" horiz-adv-x="509" d="M479 477l-72 -331q-8 -35 -8 -63t9 -55v-4q0 -4 -7 -8l-63 -28q-4 -2 -8 -2q-20 0 -20 70v15q0 6 1 13q-80 -99 -169 -99l-32 6l-36 -171q-2 -11 -13 -13l-71 -17q-8 -2 -10 -2q-7 0 -7 7q0 5 1 8l144 665q2 10 13 12l74 16h5q6 0 6 -8q0 -6 -1 -10l-65 -297 q-9 -43 -9 -63t12.5 -32.5t32.5 -12.5q60 0 106 68q29 42 44 112l46 215q1 6 2 7.5t3 3t7 2.5l70 15q3 1 8 1q8 0 8 -10q0 -6 -1 -10z"/>
    <glyph glyph-name="paragraph" unicode="¶" horiz-adv-x="639" d="M591 625q0 -11 -3 -13.5t-14 -2.5h-62v-778q0 -11 -2.5 -14t-13.5 -3h-52q-11 0 -14 3t-3 14v778h-65v-778q0 -11 -2.5 -14t-13.5 -3h-53q-11 0 -13.5 3t-2.5 14v338q-34 -7 -67 -7q-101 0 -152 68.5t-51 193.5q0 193 121 243q49 19 146 19h300q11 0 14 -3t3 -14v-44z M277 245v364h-9q-79 0 -109 -24q-46 -38 -46 -153q0 -43 4.5 -74.5t16.5 -60t36.5 -43t60.5 -14.5q25 0 46 5z"/>
    <glyph glyph-name="periodcentered" unicode="·" horiz-adv-x="296" d="M226 329q0 -25 -18.5 -43.5t-43.5 -18.5q-26 0 -44.5 18.5t-18.5 43.5t18.5 43t43.5 18t44 -18t19 -43z"/>
    <glyph glyph-name="cedilla" unicode="¸" d="M313 -115q0 -42 -30 -67t-80 -25q-71 0 -71 17v3q0 2 1 5l12 35q1 6 7 6q2 0 8 -2q17 -6 37 -6q40 0 40 27q0 4 -1.5 7.5t-5 6t-6.5 4t-8 2.5t-8 1.5t-8.5 1t-7.5 0.5q-16 1 -16 7q0 3 1 6l26 86h66l-15 -57q59 -8 59 -58z"/>
    <glyph glyph-name="one.superior" unicode="¹" horiz-adv-x="345" d="M340 814q0 -5 -1 -7l-73 -318h50q12 0 12 -9q0 -1 -1 -5q-1 -3 -1 -6q-1 -4 -2.5 -14t-2.5 -13q-3 -13 -17 -13h-185q-14 0 -14 11q0 2 2 10q1 6 6 25q3 14 18 14h60l59 255l-74 -36q-7 -4 -13 -4q-7 0 -11 6l-10 20q-3 6 -3 9q0 7 8 12l128 69q8 5 16 5h35q14 0 14 -11z "/>
    <glyph glyph-name="ordmasculine" unicode="º" horiz-adv-x="339" d="M361 615q0 -83 -46.5 -138.5t-115.5 -55.5q-97 0 -97 98q0 83 46 139t116 56q46 0 71.5 -26t25.5 -73zM297 618q0 47 -43 47q-37 0 -62.5 -43t-25.5 -105q0 -47 42 -47q37 0 63 43.5t26 104.5z"/>
    <glyph glyph-name="guillemotright" unicode="»" horiz-adv-x="555" d="M501 254q4 -7 4 -10t-6 -9l-224 -223q-6 -6 -10 -6q-3 0 -10 5l-36 27q-8 6 -8 11q0 4 6 10l172 194l-81 185q-4 10 -4 12q0 5 9 9l44 22q8 4 9 4q4 0 10 -9zM287 256q5 -10 5 -11q0 -4 -6 -10l-224 -223q-6 -6 -10 -6q-3 0 -10 5l-36 27q-8 6 -8 11q0 4 6 10l172 194 l-81 185q-4 10 -4 12q0 5 9 9l44 22q6 3 10 3q5 0 10 -8z"/>
    <glyph glyph-name="onequarter" unicode="¼" horiz-adv-x="824" d="M746 128l-5 -25q-3 -14 -18 -14h-39l-16 -75q-2 -8 -5 -11t-12 -3h-41q-16 0 -16 9q0 3 2 11l15 69h-152q-15 0 -15 10q0 2 2 10l9 39q3 12 7 16l209 241q7 8 10 8q2 0 12 -4l34 -11q11 -3 11 -10q0 -4 -5 -11l-198 -229h90l32 93q4 13 17 13h28q15 0 15 -10q0 -6 -1 -10 l-18 -84h36q14 0 14 -11q0 -3 -2 -11zM664 661q0 -5 -5 -13l-420 -668q-6 -9 -17 -9h-52q-14 0 -14 8q0 4 5 13l420 668q5 9 17 9h53q13 0 13 -8zM301 639l-67 -317h43q14 0 14 -11q0 -5 -1 -8l-6 -26q-2 -9 -5 -11.5t-13 -2.5h-175q-14 0 -14 10q0 5 1 9l5 26q2 8 5 11 t13 3h57l54 252l-65 -33q-7 -4 -12 -4q-7 0 -12 11l-9 17q-3 6 -3 10q0 5 10 11l118 68q8 4 17 4h32q15 0 15 -12q0 -1 -2 -7z"/>
    <glyph glyph-name="onehalf" unicode="½" horiz-adv-x="824" d="M775 312q0 -52 -40 -91q-27 -24 -97 -69q-42 -26 -60.5 -44.5t-28.5 -41.5h156q15 0 15 -7q0 -5 -1 -8l-8 -36q-2 -10 -5 -12.5t-13 -2.5h-222q-12 0 -12 9q0 20 18 64q25 61 106 117l72 52q40 30 40 62q0 35 -37 35q-22 0 -37 -10.5t-34 -39.5q-9 -13 -17 -13q-2 0 -8 2 l-32 12q-9 3 -9 11q0 7 13 28q46 74 136 74q49 0 77 -24t28 -67zM654 661q0 -5 -5 -13l-420 -668q-6 -9 -17 -9h-53q-13 0 -13 8q0 5 5 13l420 668q6 9 17 9h53q13 0 13 -8zM293 639l-68 -317h44q13 0 13 -11q0 -1 -0.5 -3.5t-0.5 -4.5l-5 -26q-1 -9 -4.5 -11.5t-13.5 -2.5 h-176q-15 0 -15 9q0 2 2 10l6 26q2 9 5.5 11.5t12.5 2.5h57l54 252l-66 -33q-7 -4 -12 -4q-6 0 -12 11l-9 17q-3 6 -3 10q0 5 10 11l119 68q8 4 16 4h33q14 0 14 -12q0 -5 -1 -7z"/>
    <glyph glyph-name="threequarters" unicode="¾" horiz-adv-x="825" d="M779 130l-6 -27q-4 -14 -18 -14h-39l-16 -75q-3 -14 -18 -14h-40q-16 0 -16 10q0 2 2 10l15 69h-152q-15 0 -15 10q0 2 2 10l8 39q1 8 9 16l207 241q7 8 11 8q2 0 12 -4l34 -11q12 -3 12 -10q0 -5 -6 -11l-198 -229h90l31 93q5 13 19 13h27q15 0 15 -10q0 -5 -1 -10 l-19 -84h37q14 0 14 -12q0 -5 -1 -8zM681 648l-420 -668q-6 -9 -17 -9h-52q-15 0 -15 8q0 3 6 13l420 668q5 9 17 9h53q13 0 13 -8q0 -5 -5 -13zM348 582q0 -28 -14 -53q-16 -29 -58 -53q25 -14 35.5 -31.5t10.5 -45.5q0 -63 -47 -103.5t-121 -40.5q-37 0 -74 11t-37 22 q0 3 3 9l17 35q5 9 12 9q3 0 13 -4q35 -18 73 -18t61 20t23 54q0 24 -16 35t-53 11h-21q-15 0 -15 10q0 2 2 10l7 30q3 14 18 14h23q37 0 59.5 18.5t22.5 49.5q0 33 -39 33q-29 0 -67 -30q-10 -8 -14 -8t-9 5l-25 22q-5 5 -5 9q0 7 14 19q48 46 116 46q47 0 76 -23t29 -62z "/>
    <glyph glyph-name="questiondown" unicode="¿" horiz-adv-x="463" d="M362 417q0 -31 -21 -52t-52 -21t-53 21.5t-22 51.5q0 31 22 52.5t53 21.5t52 -21.5t21 -52.5zM321 -164q1 -3 1 -8q0 -3 -1 -5t-3.5 -3.5t-4.5 -2.5t-6 -2.5t-6 -2.5q-80 -33 -153 -33q-74 0 -118 38t-44 102q0 85 58.5 139.5t139.5 68.5l18 83q2 13 16 13h62q13 0 13 -9 q0 -5 -1 -7l-27 -125q-2 -10 -7 -14t-22 -8q-78 -20 -110 -47t-32 -75q0 -66 78 -66q40 0 103 23q12 4 15 4q7 0 11 -9z"/>
    <glyph glyph-name="Agrave" unicode="À" horiz-adv-x="518" d="M417 772l-23 -30q-4 -5 -7 -5t-8 3l-148 79q-8 4 -8 9q0 4 3 8l48 63q3 5 10 5q6 0 11 -5l121 -112q4 -4 4 -8t-3 -7zM465 16v-5q0 -11 -14 -11h-77q-10 0 -12.5 2.5t-3.5 12.5l-11 178h-191l-89 -183q-4 -10 -18 -10h-75q-15 0 -15 7q0 4 5 14l335 655q6 10 17 10h73 q15 0 16 -15zM339 273l-11 197q-1 16 -1 49v49q-20 -50 -43 -98l-93 -197h148z"/>
    <glyph glyph-name="Aacute" unicode="Á" horiz-adv-x="518" d="M520 831q2 -6 2 -7q0 -5 -11 -9l-180 -74q-10 -4 -12 -4q-5 0 -8 7l-15 30q-3 4 -3 8q0 5 9 10l167 102q8 5 12 5t9 -8zM465 16v-5q0 -11 -14 -11h-77q-10 0 -12.5 2.5t-3.5 12.5l-11 178h-191l-89 -183q-4 -10 -18 -10h-75q-15 0 -15 7q0 4 5 14l335 655q6 10 17 10h73 q15 0 16 -15zM339 273l-11 197q-1 16 -1 49v49q-20 -50 -43 -98l-93 -197h148z"/>
    <glyph glyph-name="Acircumflex" unicode="Â" horiz-adv-x="518" d="M485 768l-23 -25q-6 -7 -10 -7q-2 0 -10 6l-76 55l-96 -55q-8 -5 -12 -5q-5 0 -9 8l-17 31q-1 1 -2 3l-1.5 3t-0.5 2q0 5 9 10l130 88q7 6 12 6q4 0 11 -7l94 -94q6 -6 6 -10q0 -2 -5 -9zM465 16v-5q0 -11 -14 -11h-77q-10 0 -12.5 2.5t-3.5 12.5l-11 178h-191l-89 -183 q-4 -10 -18 -10h-75q-15 0 -15 7q0 4 5 14l335 655q6 10 17 10h73q15 0 16 -15zM339 273l-11 197q-1 16 -1 49v49q-20 -50 -43 -98l-93 -197h148z"/>
    <glyph glyph-name="Atilde" unicode="Ã" horiz-adv-x="518" d="M511 807q-16 -28 -47 -49t-61 -21q-27 0 -55 19t-42 19q-20 0 -49 -34q-4 -5 -8 -5q-2 0 -9 5l-28 22q-5 4 -5 8t7 13q46 65 102 65q25 0 57 -19t43 -19q23 0 47 32q3 6 9 6q4 0 7 -3l28 -22q7 -7 7 -9q0 -3 -3 -8zM465 16v-5q0 -11 -14 -11h-77q-10 0 -12.5 2.5 t-3.5 12.5l-11 178h-191l-89 -183q-4 -10 -18 -10h-75q-15 0 -15 7q0 4 5 14l335 655q6 10 17 10h73q15 0 16 -15zM339 273l-11 197q-1 16 -1 49v49q-20 -50 -43 -98l-93 -197h148z"/>
    <glyph glyph-name="Adieresis" unicode="Ä" horiz-adv-x="518" d="M512 798q0 -26 -17 -43.5t-42 -17.5t-43 17.5t-18 42.5t17.5 42.5t42.5 17.5t42.5 -17t17.5 -42zM326 797q0 -25 -18 -42.5t-43 -17.5t-42.5 17.5t-17.5 42.5t17.5 42.5t42.5 17.5t43 -17.5t18 -42.5zM465 16v-5q0 -11 -14 -11h-77q-10 0 -12.5 2.5t-3.5 12.5l-11 178 h-191l-89 -183q-4 -10 -18 -10h-75q-15 0 -15 7q0 4 5 14l335 655q6 10 17 10h73q15 0 16 -15zM339 273l-11 197q-1 16 -1 49v49q-20 -50 -43 -98l-93 -197h148z"/>
    <glyph glyph-name="Aring" unicode="Å" horiz-adv-x="518" d="M465 832q0 -40 -28.5 -67.5t-69.5 -27.5t-69.5 28t-28.5 68q0 39 29 67t69 28q41 0 69.5 -28t28.5 -68zM465 16v-5q0 -11 -14 -11h-77q-10 0 -12.5 2.5t-3.5 12.5l-11 178h-191l-89 -183q-4 -10 -18 -10h-75q-15 0 -15 7q0 4 5 14l335 655q6 10 17 10h73q15 0 16 -15z M410 832q0 19 -12.5 32t-30.5 13t-30.5 -13.5t-12.5 -31.5t12.5 -31.5t30.5 -13.5q17 0 30 13.5t13 31.5zM339 273l-11 197q-1 16 -1 49v49q-20 -50 -43 -98l-93 -197h148z"/>
    <glyph glyph-name="AE" unicode="Æ" horiz-adv-x="731" d="M783 668l-32 -60q-5 -10 -17 -10h-209l-42 -197h182q13 0 13 -9q0 -1 -0.5 -3t-0.5 -4l-11 -57q-2 -8 -5 -11t-11 -3h-186l-47 -226h225q14 0 14 -10q0 -1 -0.5 -3t-0.5 -3l-14 -61q-2 -11 -15 -11h-317q-14 0 -14 7q0 1 2 9l37 177h-170l-118 -184q-6 -9 -16 -9h-86 q-11 0 -11 8q0 4 3 8l441 661q6 9 17 9h383q9 0 9 -7q0 -5 -3 -11zM428 627q-31 -61 -90 -153l-129 -201h142l50 232z"/>
    <glyph glyph-name="Ccedilla" unicode="Ç" horiz-adv-x="444" d="M512 622l-34 -52q-4 -6 -9 -6q-6 0 -17 9q-49 40 -93 40q-52 0 -93 -48.5t-61.5 -119.5t-31 -134.5t-10.5 -109.5q0 -124 91 -124q16 0 31.5 4t22.5 7t26.5 12.5t24.5 12.5q10 4 13 4q8 0 12 -11l18 -45q2 -6 2 -8q0 -7 -16 -17q-80 -51 -163 -51l-11 -42q59 -8 59 -58 q0 -42 -30 -67t-80 -25q-71 0 -71 17v3q0 2 1 5l12 35q1 6 7 6q2 0 8 -2q16 -6 37 -6q40 0 40 27q0 4 -1.5 7.5t-5 6t-6.5 4t-8 2.5t-8 1.5t-8.5 1t-7.5 0.5q-16 1 -16 7q0 3 1 6l24 80q-110 38 -110 210q0 57 10.5 121t35.5 131.5t60 121.5t90 88.5t120 34.5q76 0 138 -50 q12 -11 12 -16t-5 -13z"/>
    <glyph glyph-name="Egrave" unicode="È" horiz-adv-x="472" d="M407 772l-23 -30q-4 -5 -7 -5t-8 3l-148 79q-8 4 -8 9q0 4 3 8l48 63q3 5 10 5q6 0 11 -5l121 -112q4 -4 4 -8t-3 -7zM520 664l-28 -56q-4 -10 -18 -10h-209l-42 -197h184q12 0 12 -9q0 -3 -2 -11l-11 -53q-2 -8 -5 -11t-11 -3h-185l-48 -226h227q13 0 13 -7 q0 -2 -1.5 -6.5t-1.5 -6.5l-11 -55q-2 -13 -16 -13h-319q-12 0 -12 10q0 3 2 11l138 652q2 13 16 13h320q13 0 13 -8q0 -6 -5 -14z"/>
    <glyph glyph-name="Eacute" unicode="É" horiz-adv-x="472" d="M500 831q2 -6 2 -7q0 -5 -11 -9l-180 -74q-10 -4 -12 -4q-5 0 -8 7l-15 30q-3 4 -3 8q0 5 9 10l167 102q8 5 12 5t9 -8zM520 664l-28 -56q-4 -10 -18 -10h-209l-42 -197h184q12 0 12 -9q0 -3 -2 -11l-11 -53q-2 -8 -5 -11t-11 -3h-185l-48 -226h227q13 0 13 -7 q0 -2 -1.5 -6.5t-1.5 -6.5l-11 -55q-2 -13 -16 -13h-319q-12 0 -12 10q0 3 2 11l138 652q2 13 16 13h320q13 0 13 -8q0 -6 -5 -14z"/>
    <glyph glyph-name="Ecircumflex" unicode="Ê" horiz-adv-x="472" d="M475 768l-23 -25q-6 -7 -10 -7q-2 0 -10 6l-76 55l-96 -55q-8 -5 -12 -5q-5 0 -9 8l-17 31q-1 1 -2 3l-1.5 3t-0.5 2q0 5 9 10l130 88q7 6 12 6q4 0 11 -7l94 -94q6 -6 6 -10q0 -2 -5 -9zM520 664l-28 -56q-4 -10 -18 -10h-209l-42 -197h184q12 0 12 -9q0 -3 -2 -11 l-11 -53q-2 -8 -5 -11t-11 -3h-185l-48 -226h227q13 0 13 -7q0 -2 -1.5 -6.5t-1.5 -6.5l-11 -55q-2 -13 -16 -13h-319q-12 0 -12 10q0 3 2 11l138 652q2 13 16 13h320q13 0 13 -8q0 -6 -5 -14z"/>
    <glyph glyph-name="Edieresis" unicode="Ë" horiz-adv-x="472" d="M502 798q0 -26 -17 -43.5t-42 -17.5t-43 17.5t-18 42.5t17.5 42.5t42.5 17.5t42.5 -17t17.5 -42zM316 797q0 -25 -18 -42.5t-43 -17.5t-42.5 17.5t-17.5 42.5t17.5 42.5t42.5 17.5t43 -17.5t18 -42.5zM520 664l-28 -56q-4 -10 -18 -10h-209l-42 -197h184q12 0 12 -9 q0 -3 -2 -11l-11 -53q-2 -8 -5 -11t-11 -3h-185l-48 -226h227q13 0 13 -7q0 -2 -1.5 -6.5t-1.5 -6.5l-11 -55q-2 -13 -16 -13h-319q-12 0 -12 10q0 3 2 11l138 652q2 13 16 13h320q13 0 13 -8q0 -6 -5 -14z"/>
    <glyph glyph-name="Igrave" unicode="Ì" horiz-adv-x="343" d="M337 772l-23 -30q-4 -5 -7 -5t-8 3l-148 79q-8 4 -8 9q0 4 3 8l48 63q3 5 10 5q6 0 11 -5l121 -112q4 -4 4 -8t-3 -7zM399 666l-10 -46q-2 -13 -17 -13h-74l-112 -528h73q12 0 12 -9q0 -4 -2 -12l-9 -45q-2 -13 -17 -13h-252q-13 0 -13 9q0 3 2 11l10 46q2 8 4.5 10.5 t11.5 2.5h75l112 528h-74q-12 0 -12 8q0 2 2 12l9 46q2 13 17 13h253q12 0 12 -12q0 -1 -0.5 -3.5t-0.5 -4.5z"/>
    <glyph glyph-name="Iacute" unicode="Í" horiz-adv-x="343" d="M420 831q2 -6 2 -7q0 -5 -11 -9l-180 -74q-10 -4 -12 -4q-5 0 -8 7l-15 30q-3 4 -3 8q0 5 9 10l167 102q8 5 12 5t9 -8zM399 666l-10 -46q-2 -13 -17 -13h-74l-112 -528h73q12 0 12 -9q0 -4 -2 -12l-9 -45q-2 -13 -17 -13h-252q-13 0 -13 9q0 3 2 11l10 46q2 8 4.5 10.5 t11.5 2.5h75l112 528h-74q-12 0 -12 8q0 2 2 12l9 46q2 13 17 13h253q12 0 12 -12q0 -1 -0.5 -3.5t-0.5 -4.5z"/>
    <glyph glyph-name="Icircumflex" unicode="Î" horiz-adv-x="343" d="M396 768l-23 -25q-6 -7 -10 -7q-3 0 -10 6l-76 55l-96 -55q-8 -5 -12 -5q-5 0 -9 8l-17 31q-1 1 -2 3l-1.5 3t-0.5 2q0 5 9 10l130 88q8 6 12 6t11 -7l94 -94q6 -6 6 -10q0 -2 -5 -9zM399 666l-10 -46q-2 -13 -17 -13h-74l-112 -528h73q12 0 12 -9q0 -4 -2 -12l-9 -45 q-2 -13 -17 -13h-252q-13 0 -13 9q0 3 2 11l10 46q2 8 4.5 10.5t11.5 2.5h75l112 528h-74q-12 0 -12 8q0 2 2 12l9 46q2 13 17 13h253q12 0 12 -12q0 -1 -0.5 -3.5t-0.5 -4.5z"/>
    <glyph glyph-name="Idieresis" unicode="Ï" horiz-adv-x="343" d="M432 798q0 -26 -17 -43.5t-42 -17.5t-43 17.5t-18 42.5t17.5 42.5t42.5 17.5t42.5 -17t17.5 -42zM246 797q0 -25 -18 -42.5t-43 -17.5t-42.5 17.5t-17.5 42.5t17.5 42.5t42.5 17.5t43 -17.5t18 -42.5zM399 666l-10 -46q-2 -13 -17 -13h-74l-112 -528h73q12 0 12 -9 q0 -4 -2 -12l-9 -45q-2 -13 -17 -13h-252q-13 0 -13 9q0 3 2 11l10 46q2 8 4.5 10.5t11.5 2.5h75l112 528h-74q-12 0 -12 8q0 2 2 12l9 46q2 13 17 13h253q12 0 12 -12q0 -1 -0.5 -3.5t-0.5 -4.5z"/>
    <glyph glyph-name="Eth" unicode="Ð" horiz-adv-x="565" d="M551 482q0 -111 -38 -226t-95 -177q-39 -43 -94 -61t-145 -18h-131q-13 0 -13 10l3 15l63 296h-60q-13 0 -13 10q0 6 1 9l9 41q2 13 16 13h62l60 279q2 8 4.5 10.5t12.5 2.5h118q74 0 110.5 -7.5t64.5 -29.5q65 -52 65 -167zM442 480q0 80 -44 104q-25 14 -85 14h-49 l-43 -204h108q12 0 12 -8q0 -6 -1 -10l-8 -41q-1 -9 -4.5 -11.5t-13.5 -2.5h-109l-49 -232h49q100 0 145 63q38 53 65 149t27 179z"/>
    <glyph glyph-name="Ntilde" unicode="Ñ" horiz-adv-x="583" d="M541 807q-16 -28 -47 -49t-61 -21q-27 0 -55 19t-42 19q-20 0 -49 -34q-4 -5 -8 -5q-2 0 -9 5l-28 22q-5 4 -5 8t7 13q46 65 102 65q25 0 57 -19t43 -19q23 0 47 32q3 6 9 6q4 0 7 -3l28 -22q7 -7 7 -9q0 -3 -3 -8zM588 670l-139 -657q-2 -13 -16 -13h-57q-9 0 -11.5 2 t-4.5 11l-115 435q-16 63 -19 83q-4 -50 -13 -91l-90 -427q-2 -13 -17 -13h-65q-12 0 -12 8q0 4 1 6l140 659q2 13 17 13h65q8 0 11 -2.5t5 -10.5l107 -405q19 -72 23 -91q6 61 13 94l85 402q2 13 17 13h65q11 0 11 -9q0 -4 -1 -7z"/>
    <glyph glyph-name="Ograve" unicode="Ò" horiz-adv-x="555" d="M437 772l-23 -30q-4 -5 -7 -5t-8 3l-148 79q-8 4 -8 9q0 4 3 8l48 63q3 5 10 5q6 0 11 -5l121 -112q4 -4 4 -8t-3 -7zM543 498q0 -114 -40 -237t-111 -202q-66 -74 -166 -74q-177 0 -177 204q0 92 23.5 188.5t62.5 170.5q81 153 233 153q175 0 175 -203zM436 496 q0 64 -18.5 92t-59.5 28q-53 0 -94.5 -50t-63.5 -123t-33 -139.5t-11 -115.5q0 -63 18.5 -90.5t59.5 -27.5q54 0 95.5 49.5t63.5 122t32.5 138.5t10.5 116z"/>
    <glyph glyph-name="Oacute" unicode="Ó" horiz-adv-x="555" d="M540 831q2 -6 2 -7q0 -5 -11 -9l-180 -74q-10 -4 -12 -4q-5 0 -8 7l-15 30q-3 4 -3 8q0 5 9 10l167 102q8 5 12 5t9 -8zM543 498q0 -114 -40 -237t-111 -202q-66 -74 -166 -74q-177 0 -177 204q0 92 23.5 188.5t62.5 170.5q81 153 233 153q175 0 175 -203zM436 496 q0 64 -18.5 92t-59.5 28q-53 0 -94.5 -50t-63.5 -123t-33 -139.5t-11 -115.5q0 -63 18.5 -90.5t59.5 -27.5q54 0 95.5 49.5t63.5 122t32.5 138.5t10.5 116z"/>
    <glyph glyph-name="Ocircumflex" unicode="Ô" horiz-adv-x="555" d="M509 768l-23 -25q-6 -7 -10 -7q-2 0 -10 6l-76 55l-96 -55q-8 -5 -12 -5q-5 0 -9 8l-17 31q-1 1 -2 3l-1.5 3t-0.5 2q0 5 9 10l130 88q8 6 12 6t11 -7l94 -94q6 -6 6 -10q0 -2 -5 -9zM543 498q0 -114 -40 -237t-111 -202q-66 -74 -166 -74q-177 0 -177 204 q0 92 23.5 188.5t62.5 170.5q81 153 233 153q175 0 175 -203zM436 496q0 64 -18.5 92t-59.5 28q-53 0 -94.5 -50t-63.5 -123t-33 -139.5t-11 -115.5q0 -63 18.5 -90.5t59.5 -27.5q54 0 95.5 49.5t63.5 122t32.5 138.5t10.5 116z"/>
    <glyph glyph-name="Otilde" unicode="Õ" horiz-adv-x="555" d="M531 807q-16 -28 -47 -49t-61 -21q-27 0 -55 19t-42 19q-20 0 -49 -34q-4 -5 -8 -5q-2 0 -9 5l-28 22q-5 4 -5 8t7 13q46 65 102 65q25 0 57 -19t43 -19q23 0 47 32q3 6 9 6q4 0 7 -3l28 -22q7 -7 7 -9q0 -3 -3 -8zM543 498q0 -114 -40 -237t-111 -202q-66 -74 -166 -74 q-177 0 -177 204q0 92 23.5 188.5t62.5 170.5q81 153 233 153q175 0 175 -203zM436 496q0 64 -18.5 92t-59.5 28q-53 0 -94.5 -50t-63.5 -123t-33 -139.5t-11 -115.5q0 -63 18.5 -90.5t59.5 -27.5q54 0 95.5 49.5t63.5 122t32.5 138.5t10.5 116z"/>
    <glyph glyph-name="Odieresis" unicode="Ö" horiz-adv-x="555" d="M542 798q0 -26 -17 -43.5t-42 -17.5t-43 17.5t-18 42.5t17.5 42.5t42.5 17.5t42.5 -17t17.5 -42zM356 797q0 -25 -18 -42.5t-43 -17.5t-42.5 17.5t-17.5 42.5t17.5 42.5t42.5 17.5t43 -17.5t18 -42.5zM543 498q0 -114 -40 -237t-111 -202q-66 -74 -166 -74 q-177 0 -177 204q0 92 23.5 188.5t62.5 170.5q81 153 233 153q175 0 175 -203zM436 496q0 64 -18.5 92t-59.5 28q-53 0 -94.5 -50t-63.5 -123t-33 -139.5t-11 -115.5q0 -63 18.5 -90.5t59.5 -27.5q54 0 95.5 49.5t63.5 122t32.5 138.5t10.5 116z"/>
    <glyph glyph-name="multiply" unicode="×" d="M453 201q0 -5 -7 -12l-41 -41q-7 -7 -12 -7t-12 7l-117 119l-117 -118q-8 -8 -11 -8q-5 0 -13 8l-39 39q-7 7 -7 12t7 12l118 117l-119 117q-7 7 -7 12t7 12l41 41q7 7 12 7q6 0 12 -7l117 -119l117 118q8 8 11 8q5 0 13 -8l39 -39q7 -7 7 -12q0 -6 -7 -13l-118 -116 l119 -117q7 -7 7 -12z"/>
    <glyph glyph-name="Oslash" unicode="Ø" horiz-adv-x="555" d="M565 687l-47 -69q25 -50 25 -121q0 -91 -24 -190t-62 -170q-82 -152 -232 -152q-70 0 -113 36l-35 -54q-4 -8 -11 -8q-2 0 -4 2l-37 25q-5 2 -5 6q0 3 5 10l47 69q-23 49 -23 125q0 147 62 302q36 91 100 147t154 56q70 0 112 -33l37 55q4 7 9 7q1 0 9 -4l30 -20 q7 -4 7 -9t-4 -10zM424 588q-16 32 -65 32q-104 0 -164 -174q-49 -141 -49 -249v-27zM446 486q0 3 -2 33l-279 -420q21 -33 66 -33q105 0 167 172q48 131 48 248z"/>
    <glyph glyph-name="Ugrave" unicode="Ù" horiz-adv-x="592" d="M427 772l-23 -30q-4 -5 -7 -5t-8 3l-148 79q-8 4 -8 9q0 4 3 8l48 63q3 5 10 5q6 0 11 -5l121 -112q4 -4 4 -8t-3 -7zM606 671l-98 -461q-15 -72 -35.5 -112.5t-70.5 -72.5q-61 -38 -153 -38q-187 0 -187 149q0 35 9 74l98 463q2 13 17 13h73q15 0 15 -10v-4l-99 -462 q-7 -33 -7 -58q0 -78 94 -78q115 0 144 135l99 464q2 13 17 13h73q12 0 12 -9q0 -1 -0.5 -3t-0.5 -3z"/>
    <glyph glyph-name="Uacute" unicode="Ú" horiz-adv-x="592" d="M560 831q2 -6 2 -7q0 -5 -11 -9l-180 -74q-10 -4 -12 -4q-5 0 -8 7l-15 30q-3 4 -3 8q0 5 9 10l167 102q8 5 12 5t9 -8zM606 671l-98 -461q-15 -72 -35.5 -112.5t-70.5 -72.5q-61 -38 -153 -38q-187 0 -187 149q0 35 9 74l98 463q2 13 17 13h73q15 0 15 -10v-4l-99 -462 q-7 -33 -7 -58q0 -78 94 -78q115 0 144 135l99 464q2 13 17 13h73q12 0 12 -9q0 -1 -0.5 -3t-0.5 -3z"/>
    <glyph glyph-name="Ucircumflex" unicode="Û" horiz-adv-x="592" d="M530 768l-23 -25q-6 -7 -10 -7q-3 0 -10 6l-76 55l-96 -55q-8 -5 -12 -5q-5 0 -9 8l-17 31q-1 1 -2 3l-1.5 3t-0.5 2q0 5 9 10l130 88q7 6 12 6q4 0 11 -7l94 -94q6 -6 6 -10q0 -2 -5 -9zM606 671l-98 -461q-15 -72 -35.5 -112.5t-70.5 -72.5q-61 -38 -153 -38 q-187 0 -187 149q0 35 9 74l98 463q2 13 17 13h73q15 0 15 -10v-4l-99 -462q-7 -33 -7 -58q0 -78 94 -78q115 0 144 135l99 464q2 13 17 13h73q12 0 12 -9q0 -1 -0.5 -3t-0.5 -3z"/>
    <glyph glyph-name="Udieresis" unicode="Ü" horiz-adv-x="592" d="M562 798q0 -26 -17 -43.5t-42 -17.5t-43 17.5t-18 42.5t17.5 42.5t42.5 17.5t42.5 -17t17.5 -42zM376 797q0 -25 -18 -42.5t-43 -17.5t-42.5 17.5t-17.5 42.5t17.5 42.5t42.5 17.5t43 -17.5t18 -42.5zM606 671l-98 -461q-15 -72 -35.5 -112.5t-70.5 -72.5 q-61 -38 -153 -38q-187 0 -187 149q0 35 9 74l98 463q2 13 17 13h73q15 0 15 -10v-4l-99 -462q-7 -33 -7 -58q0 -78 94 -78q115 0 144 135l99 464q2 13 17 13h73q12 0 12 -9q0 -1 -0.5 -3t-0.5 -3z"/>
    <glyph glyph-name="Yacute" unicode="Ý" horiz-adv-x="444" d="M490 831q2 -6 2 -7q0 -5 -11 -9l-180 -74q-10 -4 -12 -4q-5 0 -8 7l-15 30q-3 4 -3 8q0 5 9 10l167 102q8 5 12 5t9 -8zM543 655l-261 -370l-58 -272q-2 -13 -17 -13h-75q-13 0 -13 9q0 4 1 7l57 270l-108 370q-2 6 -2 7q0 8 10 11l76 19q8 2 11 2q8 0 11 -11l44 -177 q22 -85 26 -132q17 35 57 95l141 216q5 8 13 8q2 0 12 -2l67 -17q12 -3 12 -11q0 -3 -4 -9z"/>
    <glyph glyph-name="Thorn" unicode="Þ" horiz-adv-x="491" d="M501 433q0 -66 -26 -122.5t-72 -87.5q-65 -45 -172 -45h-57l-36 -165q-2 -13 -16 -13h-76q-12 0 -12 9q0 4 2 12l138 652q2 13 17 13h74q13 0 13 -10q0 -6 -1 -10l-18 -85h51q98 0 138 -28q53 -36 53 -120zM395 421q0 41 -21 57.5t-72 16.5h-61l-48 -228h43q79 0 114 34 q45 43 45 120z"/>
    <glyph glyph-name="germandbls" unicode="ß" horiz-adv-x="555" d="M510 595q0 -43 -21.5 -76.5t-47.5 -50.5t-47.5 -37.5t-21.5 -40.5q0 -15 8.5 -27.5t40.5 -45.5l30 -32q34 -36 46 -64t12 -66q0 -77 -52 -123t-138 -46q-70 0 -116 25q-7 4 -7 9q0 1 1.5 4t1.5 5l19 54q3 7 10 7q3 0 18 -6q43 -20 82 -20q41 0 66.5 21.5t25.5 56.5 q0 27 -10.5 44t-44.5 52l-39 40q-48 49 -48 95q0 31 14.5 55.5t35 40.5l41 31.5t35 36t14.5 46.5q0 28 -20.5 44.5t-55.5 16.5q-49 0 -76.5 -28t-40.5 -91l-110 -542q-11 -55 -26.5 -90.5t-48.5 -61.5q-45 -35 -115 -35q-42 0 -66 7q-14 4 -14 10q0 3 1 5l18 59q1 7 8 7 q4 0 12 -2q16 -4 37 -4q44 0 65 25t35 93l108 526q23 112 75 153q60 47 147 47q76 0 117.5 -33t41.5 -94z"/>
    <glyph glyph-name="agrave" unicode="à" d="M377 582l-23 -30q-4 -5 -7 -5t-8 3l-148 79q-8 4 -8 9q0 4 3 8l48 63q3 5 10 5q6 0 11 -5l121 -112q4 -4 4 -8t-3 -7zM470 473l-70 -324q-8 -32 -8 -64q0 -25 6 -48q0 -1 1.5 -6t1.5 -8q0 -7 -8 -10l-65 -25l-8 -2q-6 0 -10 10q-10 23 -10 63q0 4 0.5 12.5t0.5 12.5 q-72 -99 -161 -99q-52 0 -80.5 40.5t-28.5 115.5q0 94 32 178q33 88 85 135.5t117 47.5q35 0 59.5 -12t49.5 -42l13 30q4 9 12 9h61q10 0 10 -9v-5zM354 384q-45 41 -85 41q-67 0 -104 -105q-36 -103 -36 -180q0 -72 49 -72t88.5 46.5t55.5 120.5z"/>
    <glyph glyph-name="aacute" unicode="á" d="M480 643q2 -6 2 -7q0 -5 -11 -9l-180 -74q-10 -4 -12 -4q-5 0 -8 7l-15 30q-3 4 -3 8q0 5 9 10l167 102q8 5 12 5t9 -8zM470 473l-70 -324q-8 -32 -8 -64q0 -25 6 -48q0 -1 1.5 -6t1.5 -8q0 -7 -8 -10l-65 -25l-8 -2q-6 0 -10 10q-10 23 -10 63q0 4 0.5 12.5t0.5 12.5 q-72 -99 -161 -99q-52 0 -80.5 40.5t-28.5 115.5q0 94 32 178q33 88 85 135.5t117 47.5q35 0 59.5 -12t49.5 -42l13 30q4 9 12 9h61q10 0 10 -9v-5zM354 384q-45 41 -85 41q-67 0 -104 -105q-36 -103 -36 -180q0 -72 49 -72t88.5 46.5t55.5 120.5z"/>
    <glyph glyph-name="acircumflex" unicode="â" d="M440 587l-23 -25q-6 -7 -10 -7q-3 0 -10 6l-76 55l-96 -55q-8 -5 -12 -5q-5 0 -9 8l-17 31q-1 1 -2 3l-1.5 3t-0.5 2q0 5 9 10l130 88q8 6 12 6t11 -7l94 -94q6 -6 6 -10q0 -2 -5 -9zM470 473l-70 -324q-8 -32 -8 -64q0 -25 6 -48q0 -1 1.5 -6t1.5 -8q0 -7 -8 -10 l-65 -25l-8 -2q-6 0 -10 10q-10 23 -10 63q0 4 0.5 12.5t0.5 12.5q-72 -99 -161 -99q-52 0 -80.5 40.5t-28.5 115.5q0 94 32 178q33 88 85 135.5t117 47.5q35 0 59.5 -12t49.5 -42l13 30q4 9 12 9h61q10 0 10 -9v-5zM354 384q-45 41 -85 41q-67 0 -104 -105 q-36 -103 -36 -180q0 -72 49 -72t88.5 46.5t55.5 120.5z"/>
    <glyph glyph-name="atilde" unicode="ã" d="M471 646q-16 -28 -47 -49t-61 -21q-27 0 -55 19t-42 19q-20 0 -49 -34q-4 -5 -8 -5q-2 0 -9 5l-28 22q-5 4 -5 8t7 13q46 65 102 65q25 0 57 -19t43 -19q23 0 47 32q3 6 9 6q4 0 7 -3l28 -22q7 -7 7 -9q0 -4 -3 -8zM470 473l-70 -324q-8 -32 -8 -64q0 -25 6 -48 q0 -1 1.5 -6t1.5 -8q0 -7 -8 -10l-65 -25l-8 -2q-6 0 -10 10q-10 23 -10 63q0 4 0.5 12.5t0.5 12.5q-72 -99 -161 -99q-52 0 -80.5 40.5t-28.5 115.5q0 94 32 178q33 88 85 135.5t117 47.5q35 0 59.5 -12t49.5 -42l13 30q4 9 12 9h61q10 0 10 -9v-5zM354 384q-45 41 -85 41 q-67 0 -104 -105q-36 -103 -36 -180q0 -72 49 -72t88.5 46.5t55.5 120.5z"/>
    <glyph glyph-name="adieresis" unicode="ä" d="M492 630q0 -26 -17 -43.5t-42 -17.5t-43 17.5t-18 42.5t17.5 42.5t42.5 17.5t42.5 -17t17.5 -42zM306 629q0 -25 -18 -42.5t-43 -17.5t-42.5 17.5t-17.5 42.5t17.5 42.5t42.5 17.5t43 -17.5t18 -42.5zM470 473l-70 -324q-8 -32 -8 -64q0 -25 6 -48q0 -1 1.5 -6t1.5 -8 q0 -7 -8 -10l-65 -25l-8 -2q-6 0 -10 10q-10 23 -10 63q0 4 0.5 12.5t0.5 12.5q-72 -99 -161 -99q-52 0 -80.5 40.5t-28.5 115.5q0 94 32 178q33 88 85 135.5t117 47.5q35 0 59.5 -12t49.5 -42l13 30q4 9 12 9h61q10 0 10 -9v-5zM354 384q-45 41 -85 41q-67 0 -104 -105 q-36 -103 -36 -180q0 -72 49 -72t88.5 46.5t55.5 120.5z"/>
    <glyph glyph-name="aring" unicode="å" d="M421 635q0 -40 -28.5 -67.5t-69.5 -27.5t-69.5 28t-28.5 68q0 39 29 67t69 28q41 0 69.5 -28t28.5 -68zM470 473l-70 -324q-8 -32 -8 -64q0 -25 6 -48q0 -1 1.5 -6t1.5 -8q0 -7 -8 -10l-65 -25l-8 -2q-6 0 -10 10q-10 23 -10 63q0 4 0.5 12.5t0.5 12.5q-72 -99 -161 -99 q-52 0 -80.5 40.5t-28.5 115.5q0 94 32 178q33 88 85 135.5t117 47.5q35 0 59.5 -12t49.5 -42l13 30q4 9 12 9h61q10 0 10 -9v-5zM366 635q0 19 -12.5 32t-30.5 13t-30.5 -13.5t-12.5 -31.5t12.5 -31.5t30.5 -13.5q17 0 30 13.5t13 31.5zM354 384q-45 41 -85 41 q-67 0 -104 -105q-36 -103 -36 -180q0 -72 49 -72t88.5 46.5t55.5 120.5z"/>
    <glyph glyph-name="ae" unicode="æ" horiz-adv-x="694" d="M677 373q0 -37 -13 -64.5t-38.5 -44.5t-52.5 -27.5t-65.5 -15t-65.5 -6t-64 -1.5q-5 -28 -5 -52q0 -94 88 -94q49 0 117 40q8 5 14 5t10 -7l24 -48q2 -6 2 -8q0 -6 -12 -13q-82 -52 -173 -52q-109 0 -148 86q-69 -86 -164 -86q-56 0 -88.5 34t-32.5 92q0 173 288 175 l9 45q4 26 4 36q0 58 -66 58q-45 0 -107 -27q-15 -5 -16 -5q-6 0 -9 8l-15 46q-1 3 -1 7q0 3 1 4.5t3.5 3.5t4 3t6.5 3t7 3q73 31 141 31q91 0 117 -70q42 38 78.5 54t83.5 16q64 0 101 -34.5t37 -94.5zM586 369q0 28 -16.5 43t-46.5 15q-49 0 -84.5 -37.5t-48.5 -102.5 q108 1 152 19t44 63zM282 214q-91 -3 -124 -16q-53 -22 -53 -79t51 -57q44 0 75 28t41 77z"/>
    <glyph glyph-name="ccedilla" unicode="ç" horiz-adv-x="398" d="M420 449l-29 -47q-5 -8 -11 -8q-4 0 -14 7q-33 20 -73 20q-75 0 -114 -71q-50 -91 -50 -189q0 -90 83 -90q15 0 29.5 3.5t22 6.5t21.5 10.5t18 9.5q6 3 8 3q5 0 9 -9l20 -51q1 -2 1 -5q0 -8 -16 -17q-61 -35 -130 -37l-11 -42q59 -8 59 -58q0 -42 -30 -67t-80 -25 q-71 0 -71 17v3q0 2 1 5l12 35q1 6 7 6q2 0 8 -2q16 -6 37 -6q40 0 40 27q0 4 -1.5 7.5t-5 6t-6.5 4t-8 2.5t-8 1.5t-8.5 1t-7.5 0.5q-16 1 -16 7q0 3 1 6l24 80q-102 32 -102 172q0 75 25.5 144.5t70.5 118.5q68 73 174 73q66 0 116 -31q7 -5 7 -13q0 -6 -2 -9z"/>
    <glyph glyph-name="egrave" unicode="è" horiz-adv-x="454" d="M367 582l-23 -30q-4 -5 -7 -5t-8 3l-148 79q-8 4 -8 9q0 4 3 8l48 63q3 5 10 5q6 0 11 -5l121 -112q4 -4 4 -8t-3 -7zM437 372q0 -48 -26 -86t-69 -59q-78 -39 -193 -39q-3 0 -10 0.5t-11 0.5q-1 -8 -1 -23q0 -98 90 -98q55 0 120 39q12 7 15 7q5 0 9 -7l23 -46 q3 -6 3 -9q0 -5 -10 -12q-78 -55 -180 -55q-82 0 -125 47t-43 137q0 140 78 236.5t190 96.5q65 0 102.5 -34.5t37.5 -95.5zM343 367q0 28 -16 44t-45 16q-52 0 -89 -42t-54 -119q204 0 204 101z"/>
    <glyph glyph-name="eacute" unicode="é" horiz-adv-x="454" d="M480 643q2 -6 2 -7q0 -5 -11 -9l-180 -74q-10 -4 -12 -4q-5 0 -8 7l-15 30q-3 4 -3 8q0 5 9 10l167 102q8 5 12 5t9 -8zM437 372q0 -48 -26 -86t-69 -59q-78 -39 -193 -39q-3 0 -10 0.5t-11 0.5q-1 -8 -1 -23q0 -98 90 -98q55 0 120 39q12 7 15 7q5 0 9 -7l23 -46 q3 -6 3 -9q0 -5 -10 -12q-78 -55 -180 -55q-82 0 -125 47t-43 137q0 140 78 236.5t190 96.5q65 0 102.5 -34.5t37.5 -95.5zM343 367q0 28 -16 44t-45 16q-52 0 -89 -42t-54 -119q204 0 204 101z"/>
    <glyph glyph-name="ecircumflex" unicode="ê" horiz-adv-x="454" d="M430 587l-23 -25q-6 -7 -10 -7q-3 0 -10 6l-76 55l-96 -55q-8 -5 -12 -5q-5 0 -9 8l-17 31q-1 1 -2 3l-1.5 3t-0.5 2q0 5 9 10l130 88q8 6 12 6t11 -7l94 -94q6 -6 6 -10q0 -2 -5 -9zM437 372q0 -48 -26 -86t-69 -59q-78 -39 -193 -39q-3 0 -10 0.5t-11 0.5q-1 -8 -1 -23 q0 -98 90 -98q55 0 120 39q12 7 15 7q5 0 9 -7l23 -46q3 -6 3 -9q0 -5 -10 -12q-78 -55 -180 -55q-82 0 -125 47t-43 137q0 140 78 236.5t190 96.5q65 0 102.5 -34.5t37.5 -95.5zM343 367q0 28 -16 44t-45 16q-52 0 -89 -42t-54 -119q204 0 204 101z"/>
    <glyph glyph-name="edieresis" unicode="ë" horiz-adv-x="454" d="M472 630q0 -26 -17 -43.5t-42 -17.5t-43 17.5t-18 42.5t17.5 42.5t42.5 17.5t42.5 -17t17.5 -42zM286 629q0 -25 -18 -42.5t-43 -17.5t-42.5 17.5t-17.5 42.5t17.5 42.5t42.5 17.5t43 -17.5t18 -42.5zM437 372q0 -48 -26 -86t-69 -59q-78 -39 -193 -39q-3 0 -10 0.5 t-11 0.5q-1 -8 -1 -23q0 -98 90 -98q55 0 120 39q12 7 15 7q5 0 9 -7l23 -46q3 -6 3 -9q0 -5 -10 -12q-78 -55 -180 -55q-82 0 -125 47t-43 137q0 140 78 236.5t190 96.5q65 0 102.5 -34.5t37.5 -95.5zM343 367q0 28 -16 44t-45 16q-52 0 -89 -42t-54 -119q204 0 204 101z "/>
    <glyph glyph-name="igrave" unicode="ì" horiz-adv-x="268" d="M247 582l-23 -30q-4 -5 -7 -5t-8 3l-148 79q-8 4 -8 9q0 4 3 8l48 63q3 5 10 5q6 0 11 -5l121 -112q4 -4 4 -8t-3 -7zM239 472l-98 -461q-2 -11 -13 -11h-72q-12 0 -12 7q0 4 1 7l86 399h-79q-11 0 -11 7q0 5 1 8l10 48q3 11 13 11h164q11 0 11 -9q0 -1 -0.5 -3t-0.5 -3z "/>
    <glyph glyph-name="iacute" unicode="í" horiz-adv-x="268" d="M354 643q2 -6 2 -7q0 -5 -11 -9l-180 -74q-10 -4 -12 -4q-5 0 -8 7l-15 30q-3 4 -3 8q0 5 9 10l167 102q8 5 12 5t9 -8zM239 472l-98 -461q-2 -11 -13 -11h-72q-12 0 -12 7q0 4 1 7l86 399h-79q-11 0 -11 7q0 5 1 8l10 48q3 11 13 11h164q11 0 11 -9q0 -1 -0.5 -3 t-0.5 -3z"/>
    <glyph glyph-name="icircumflex" unicode="î" horiz-adv-x="268" d="M310 587l-23 -25q-6 -7 -10 -7q-3 0 -10 6l-76 55l-96 -55q-8 -5 -12 -5q-5 0 -9 8l-17 31q-1 1 -2 3l-1.5 3t-0.5 2q0 5 9 10l130 88q7 6 12 6q4 0 11 -7l94 -94q6 -6 6 -10q0 -2 -5 -9zM239 472l-98 -461q-2 -11 -13 -11h-72q-12 0 -12 7q0 4 1 7l86 399h-79 q-11 0 -11 7q0 5 1 8l10 48q3 11 13 11h164q11 0 11 -9q0 -1 -0.5 -3t-0.5 -3z"/>
    <glyph glyph-name="idieresis" unicode="ï" horiz-adv-x="268" d="M362 630q0 -26 -17 -43.5t-42 -17.5t-43 17.5t-18 42.5t17.5 42.5t42.5 17.5t42.5 -17t17.5 -42zM176 629q0 -25 -18 -42.5t-43 -17.5t-42.5 17.5t-17.5 42.5t17.5 42.5t42.5 17.5t43 -17.5t18 -42.5zM239 472l-98 -461q-2 -11 -13 -11h-72q-12 0 -12 7q0 4 1 7l86 399 h-79q-11 0 -11 7q0 5 1 8l10 48q3 11 13 11h164q11 0 11 -9q0 -1 -0.5 -3t-0.5 -3z"/>
    <glyph glyph-name="eth" unicode="ð" horiz-adv-x="491" d="M499 655q2 -8 2 -9q0 -5 -8 -8l-89 -26q52 -151 52 -276q0 -168 -95 -275q-68 -76 -172 -76q-79 0 -120 43.5t-41 127.5q0 137 72 239.5t169 102.5q44 0 79 -30q-9 67 -25 118l-91 -27q-8 -2 -9 -2q-5 0 -8 9l-8 28q-2 6 -2 9q0 5 9 8l93 27q-9 24 -35 82q-3 6 -3 10 q0 7 18 7h47q14 0 23 -13t29 -61l89 27q6 2 8 2q6 0 9 -11zM356 337q0 84 -77 84q-65 0 -102 -68q-21 -40 -34.5 -95.5t-13.5 -103.5q0 -88 73 -88q68 0 106 71q21 38 34.5 95.5t13.5 104.5z"/>
    <glyph glyph-name="ntilde" unicode="ñ" horiz-adv-x="509" d="M471 646q-16 -28 -47 -49t-61 -21q-27 0 -55 19t-42 19q-20 0 -49 -34q-4 -5 -8 -5q-2 0 -9 5l-28 22q-5 4 -5 8t7 13q46 65 102 65q25 0 57 -19t43 -19q23 0 47 32q3 6 9 6q4 0 7 -3l28 -22q7 -7 7 -9q0 -4 -3 -8zM465 410q0 -27 -10 -74l-71 -325q-2 -11 -14 -11h-72 q-10 0 -10 6q0 4 1 7l68 312q8 37 8 51q0 42 -39 42q-54 0 -97.5 -54t-63.5 -143l-45 -210q-2 -11 -14 -11h-71q-11 0 -11 8q0 4 1 7l71 325q9 41 9 64q0 21 -6 45q-2 8 -2 10q0 8 9 12l61 27q4 2 8 2q8 0 14 -21t6 -51v-14q0 -9 -1 -16q37 50 75 74q47 30 99 30 q45 0 71 -24.5t26 -67.5z"/>
    <glyph glyph-name="ograve" unicode="ò" horiz-adv-x="491" d="M357 582l-23 -30q-4 -5 -7 -5t-8 3l-148 79q-8 4 -8 9q0 4 3 8l48 63q3 5 10 5q6 0 11 -5l121 -112q4 -4 4 -8t-3 -7zM456 329q0 -70 -23.5 -139t-64.5 -120q-68 -85 -181 -85q-159 0 -159 174q0 148 86 257q68 86 183 86q76 0 117.5 -45t41.5 -128zM355 333 q0 43 -19.5 65.5t-55.5 22.5q-80 0 -117 -99q-34 -90 -34 -168q0 -88 74 -88q81 0 118 102q34 94 34 165z"/>
    <glyph glyph-name="oacute" unicode="ó" horiz-adv-x="491" d="M480 643q2 -6 2 -7q0 -5 -11 -9l-180 -74q-10 -4 -12 -4q-5 0 -8 7l-15 30q-3 4 -3 8q0 5 9 10l167 102q8 5 12 5t9 -8zM456 329q0 -70 -23.5 -139t-64.5 -120q-68 -85 -181 -85q-159 0 -159 174q0 148 86 257q68 86 183 86q76 0 117.5 -45t41.5 -128zM355 333 q0 43 -19.5 65.5t-55.5 22.5q-80 0 -117 -99q-34 -90 -34 -168q0 -88 74 -88q81 0 118 102q34 94 34 165z"/>
    <glyph glyph-name="ocircumflex" unicode="ô" horiz-adv-x="491" d="M436 587l-23 -25q-6 -7 -10 -7q-3 0 -10 6l-76 55l-96 -55q-8 -5 -12 -5q-5 0 -9 8l-17 31q-1 1 -2 3l-1.5 3t-0.5 2q0 5 9 10l130 88q8 6 12 6t11 -7l94 -94q6 -6 6 -10q0 -2 -5 -9zM456 329q0 -70 -23.5 -139t-64.5 -120q-68 -85 -181 -85q-159 0 -159 174 q0 148 86 257q68 86 183 86q76 0 117.5 -45t41.5 -128zM355 333q0 43 -19.5 65.5t-55.5 22.5q-80 0 -117 -99q-34 -90 -34 -168q0 -88 74 -88q81 0 118 102q34 94 34 165z"/>
    <glyph glyph-name="otilde" unicode="õ" horiz-adv-x="491" d="M461 646q-16 -28 -47 -49t-61 -21q-27 0 -55 19t-42 19q-20 0 -49 -34q-4 -5 -8 -5q-2 0 -9 5l-28 22q-5 4 -5 8t7 13q46 65 102 65q25 0 57 -19t43 -19q23 0 47 32q3 6 9 6q4 0 7 -3l28 -22q7 -7 7 -9q0 -4 -3 -8zM456 329q0 -70 -23.5 -139t-64.5 -120 q-68 -85 -181 -85q-159 0 -159 174q0 148 86 257q68 86 183 86q76 0 117.5 -45t41.5 -128zM355 333q0 43 -19.5 65.5t-55.5 22.5q-80 0 -117 -99q-34 -90 -34 -168q0 -88 74 -88q81 0 118 102q34 94 34 165z"/>
    <glyph glyph-name="odieresis" unicode="ö" horiz-adv-x="491" d="M482 630q0 -26 -17 -43.5t-42 -17.5t-43 17.5t-18 42.5t17.5 42.5t42.5 17.5t42.5 -17t17.5 -42zM296 629q0 -25 -18 -42.5t-43 -17.5t-42.5 17.5t-17.5 42.5t17.5 42.5t42.5 17.5t43 -17.5t18 -42.5zM456 329q0 -70 -23.5 -139t-64.5 -120q-68 -85 -181 -85 q-159 0 -159 174q0 148 86 257q68 86 183 86q76 0 117.5 -45t41.5 -128zM355 333q0 43 -19.5 65.5t-55.5 22.5q-80 0 -117 -99q-34 -90 -34 -168q0 -88 74 -88q81 0 118 102q34 94 34 165z"/>
    <glyph glyph-name="divide" unicode="÷" d="M327 511q0 -25 -18.5 -43.5t-43.5 -18.5q-26 0 -44.5 18.5t-18.5 43.5t18.5 43t43.5 18t44 -18t19 -43zM493 302h-1q0 -12 -2 -15t-13 -3h-423q-11 0 -14.5 3.5t-3.5 14.5v53q0 11 3 14.5t14 3.5h423q11 0 14 -3.5t3 -14.5v-53zM326 147h1q0 -25 -18.5 -43t-43.5 -18 q-26 0 -44.5 18t-18.5 43t18 43t44 18q25 0 43.5 -18t18.5 -43z"/>
    <glyph glyph-name="oslash" unicode="ø" horiz-adv-x="491" d="M466 499l-42 -54q32 -47 32 -118q0 -58 -17 -117t-49 -110t-84.5 -83t-116.5 -32q-55 0 -96 24l-38 -51q-5 -6 -9 -6t-8 4l-25 20q-5 4 -5 8q0 3 3 8l42 55q-25 46 -25 114q0 81 29.5 157.5t91.5 130t144 53.5q52 0 89 -20l40 52q5 5 8 5q2 0 7 -3l29 -22q4 -3 4 -6 q0 -1 -4 -9zM330 414q-23 11 -48 11q-43 0 -76 -28t-50.5 -71.5t-26 -87t-8.5 -82.5q0 -12 3 -28zM362 330q0 19 -6 39l-209 -291q21 -16 54 -16q86 0 127 105q34 85 34 163z"/>
    <glyph glyph-name="ugrave" unicode="ù" horiz-adv-x="509" d="M367 582l-23 -30q-4 -5 -7 -5t-8 3l-148 79q-8 4 -8 9q0 4 3 8l48 63q3 5 10 5q6 0 11 -5l121 -112q4 -4 4 -8t-3 -7zM479 477l-72 -331q-8 -35 -8 -63t9 -55v-4q0 -4 -7 -8l-63 -28q-4 -2 -8 -2q-20 0 -20 70v15q0 6 1 13q-80 -99 -169 -99q-48 0 -75 26t-27 74 q0 32 11 78l67 305q2 10 13 12l74 16h5q6 0 6 -8q0 -6 -1 -10l-65 -297q-9 -43 -9 -63t12.5 -32.5t32.5 -12.5q60 0 106 68q29 42 44 112l46 215q1 6 2 7.5t3 3t7 2.5l70 15q3 1 8 1q8 0 8 -10q0 -6 -1 -10z"/>
    <glyph glyph-name="uacute" unicode="ú" horiz-adv-x="509" d="M470 643q2 -6 2 -7q0 -5 -11 -9l-180 -74q-10 -4 -12 -4q-5 0 -8 7l-15 30q-3 4 -3 8q0 5 9 10l167 102q8 5 12 5t9 -8zM479 477l-72 -331q-8 -35 -8 -63t9 -55v-4q0 -4 -7 -8l-63 -28q-4 -2 -8 -2q-20 0 -20 70v15q0 6 1 13q-80 -99 -169 -99q-48 0 -75 26t-27 74 q0 32 11 78l67 305q2 10 13 12l74 16h5q6 0 6 -8q0 -6 -1 -10l-65 -297q-9 -43 -9 -63t12.5 -32.5t32.5 -12.5q60 0 106 68q29 42 44 112l46 215q1 6 2 7.5t3 3t7 2.5l70 15q3 1 8 1q8 0 8 -10q0 -6 -1 -10z"/>
    <glyph glyph-name="ucircumflex" unicode="û" horiz-adv-x="509" d="M440 587l-23 -25q-6 -7 -10 -7q-3 0 -10 6l-76 55l-96 -55q-8 -5 -12 -5q-5 0 -9 8l-17 31q-1 1 -2 3l-1.5 3t-0.5 2q0 5 9 10l130 88q8 6 12 6t11 -7l94 -94q6 -6 6 -10q0 -2 -5 -9zM479 477l-72 -331q-8 -35 -8 -63t9 -55v-4q0 -4 -7 -8l-63 -28q-4 -2 -8 -2 q-20 0 -20 70v15q0 6 1 13q-80 -99 -169 -99q-48 0 -75 26t-27 74q0 32 11 78l67 305q2 10 13 12l74 16h5q6 0 6 -8q0 -6 -1 -10l-65 -297q-9 -43 -9 -63t12.5 -32.5t32.5 -12.5q60 0 106 68q29 42 44 112l46 215q1 6 2 7.5t3 3t7 2.5l70 15q3 1 8 1q8 0 8 -10q0 -6 -1 -10z "/>
    <glyph glyph-name="udieresis" unicode="ü" horiz-adv-x="509" d="M472 630q0 -26 -17 -43.5t-42 -17.5t-43 17.5t-18 42.5t17.5 42.5t42.5 17.5t42.5 -17t17.5 -42zM286 629q0 -25 -18 -42.5t-43 -17.5t-42.5 17.5t-17.5 42.5t17.5 42.5t42.5 17.5t43 -17.5t18 -42.5zM479 477l-72 -331q-8 -35 -8 -63t9 -55v-4q0 -4 -7 -8l-63 -28 q-4 -2 -8 -2q-20 0 -20 70v15q0 6 1 13q-80 -99 -169 -99q-48 0 -75 26t-27 74q0 32 11 78l67 305q2 10 13 12l74 16h5q6 0 6 -8q0 -6 -1 -10l-65 -297q-9 -43 -9 -63t12.5 -32.5t32.5 -12.5q60 0 106 68q29 42 44 112l46 215q1 6 2 7.5t3 3t7 2.5l70 15q3 1 8 1q8 0 8 -10 q0 -6 -1 -10z"/>
    <glyph glyph-name="yacute" unicode="ý" horiz-adv-x="426" d="M420 643q2 -6 2 -7q0 -5 -11 -9l-180 -74q-10 -4 -12 -4q-5 0 -8 7l-15 30q-3 4 -3 8q0 5 9 10l167 102q8 5 12 5t9 -8zM458 460l-189 -401q-44 -93 -62 -126q-37 -71 -79 -109.5t-109 -38.5q-55 0 -103 28q-11 7 -11 13q0 5 4 10l30 50q3 6 7 6q1 0 7 -2q5 -2 15.5 -7.5 t16.5 -8t17 -5t23 -2.5q56 0 94 71l33 62h-37q-12 0 -13 11l-60 452q0 2 -0.5 4.5t-0.5 3.5q0 6 9 7l73 15q3 1 9 1q7 0 8 -10l27 -254q14 -152 15 -171l70 165l115 264q4 8 10 8q2 0 10 -2l66 -16q8 -3 8 -8q0 -1 -3 -10z"/>
    <glyph glyph-name="thorn" unicode="þ" d="M460 349q0 -75 -23 -154t-60 -128q-32 -43 -69 -62.5t-87 -19.5q-56 0 -102 34l-43 -199q-2 -11 -13 -13l-71 -17q-4 -1 -9 -1q-7 0 -7 7q0 5 1 9l189 889q2 10 13 13l71 16q3 1 8 1q8 0 8 -8q0 -5 -1 -8l-49 -228q-9 -42 -15 -54q60 77 141 77q56 0 85 -37 q33 -41 33 -117zM362 343q0 78 -58 78q-53 0 -90 -48q-26 -34 -44 -113l-36 -166q40 -29 85 -29q38 0 61.5 19.5t42.5 67.5q39 96 39 191z"/>
    <glyph glyph-name="ydieresis" unicode="ÿ" horiz-adv-x="426" d="M422 630q0 -26 -17 -43.5t-42 -17.5t-43 17.5t-18 42.5t17.5 42.5t42.5 17.5t42.5 -17t17.5 -42zM236 629q0 -25 -18 -42.5t-43 -17.5t-42.5 17.5t-17.5 42.5t17.5 42.5t42.5 17.5t43 -17.5t18 -42.5zM458 460l-189 -401q-44 -93 -62 -126q-37 -71 -79 -109.5t-109 -38.5 q-55 0 -103 28q-11 7 -11 13q0 5 4 10l30 50q3 6 7 6q1 0 7 -2q5 -2 15.5 -7.5t16.5 -8t17 -5t23 -2.5q56 0 94 71l33 62h-37q-12 0 -13 11l-60 452q0 2 -0.5 4.5t-0.5 3.5q0 6 9 7l73 15q3 1 9 1q7 0 8 -10l27 -254q14 -152 15 -171l70 165l115 264q4 8 10 8q2 0 10 -2 l66 -16q8 -3 8 -8q0 -1 -3 -10z"/>
    <glyph glyph-name="Amacron" unicode="Ā" horiz-adv-x="518" d="M465 16v-4q0 -12 -14 -12h-77q-10 0 -12.5 2.5t-3.5 12.5l-11 178h-191l-89 -183q-6 -10 -18 -10h-75q-15 0 -15 7q0 4 5 14l335 655q4 10 17 10h73q15 0 16 -15zM339 273l-11 197q-1 16 -1 49v49l-43 -98l-93 -197h148zM495 826l-11 -47q-2 -9 -4.5 -11t-11.5 -2h-216 q-14 0 -14 6q0 3 1 5l10 51q2 13 17 13h218q12 0 12 -7q0 -5 -1 -8z"/>
    <glyph glyph-name="amacron" unicode="ā" d="M470 473l-70 -324q-8 -32 -8 -64q0 -25 6 -48q0 -1 1.5 -6t1.5 -8q0 -7 -8 -10l-65 -25l-8 -2q-6 0 -10 10q-10 23 -10 63q0 4 0.5 12.5t0.5 12.5q-72 -99 -161 -99q-52 0 -80.5 40.5t-28.5 115.5q0 94 32 178q33 88 85 135.5t117 47.5q35 0 59.5 -12t49.5 -42l13 30 q4 9 12 9h61q10 0 10 -9v-5zM354 384q-45 41 -85 41q-67 0 -104 -105q-36 -103 -36 -180q0 -72 49 -72t88.5 46.5t55.5 120.5zM431 647l-11 -47q-2 -9 -4.5 -11t-11.5 -2h-216q-14 0 -14 6q0 3 1 5l10 51q2 13 17 13h218q12 0 12 -7q0 -5 -1 -8z"/>
    <glyph glyph-name="Abreve" unicode="Ă" horiz-adv-x="518" d="M465 16v-4q0 -12 -14 -12h-77q-10 0 -12.5 2.5t-3.5 12.5l-11 178h-191l-89 -183q-6 -10 -18 -10h-75q-15 0 -15 7q0 4 5 14l335 655q4 10 17 10h73q15 0 16 -15zM339 273l-11 197q-1 16 -1 49v49l-43 -98l-93 -197h148zM512 857q0 -16 -26 -57q-45 -64 -130 -64 q-54 0 -83.5 29t-29.5 83q0 17 15 18l48 6h6q8 0 8 -7v-10q0 -53 44 -53q49 0 68 56q5 15 13 15q1 0 4 -0.5t5 -0.5l48 -7q10 -1 10 -8z"/>
    <glyph glyph-name="abreve" unicode="ă" d="M470 473l-70 -324q-8 -32 -8 -64q0 -25 6 -48q0 -1 1.5 -6t1.5 -8q0 -7 -8 -10l-65 -25l-8 -2q-6 0 -10 10q-10 23 -10 63q0 4 0.5 12.5t0.5 12.5q-72 -99 -161 -99q-52 0 -80.5 40.5t-28.5 115.5q0 94 32 178q33 88 85 135.5t117 47.5q35 0 59.5 -12t49.5 -42l13 30 q4 9 12 9h61q10 0 10 -9v-5zM354 384q-45 41 -85 41q-67 0 -104 -105q-36 -103 -36 -180q0 -72 49 -72t88.5 46.5t55.5 120.5zM448 678q0 -16 -26 -57q-45 -64 -130 -64q-54 0 -83.5 29t-29.5 83q0 17 15 18l48 6h6q8 0 8 -7v-10q0 -53 44 -53q49 0 68 56q5 15 13 15 q1 0 4 -0.5t5 -0.5l48 -7q10 -1 10 -8z"/>
    <glyph glyph-name="Aogonek" unicode="Ą" horiz-adv-x="518" d="M460 -151q0 -1 0.5 -2.5t0.5 -2.5q0 -7 -14 -13q-41 -22 -85 -22q-37 0 -57.5 17.5t-20.5 48.5q0 59 82 125q-7 1 -8 15l-11 178h-191l-89 -183q-6 -10 -18 -10h-75q-15 0 -15 7q0 4 5 14l335 655q4 10 17 10h73q15 0 16 -15l60 -655v-4q0 -12 -14 -12h-33 q-59 -56 -59 -103q0 -20 25 -20q22 0 50 12q2 1 5.5 2.5t4.5 1.5q3 0 6 -7zM339 273l-11 197q-1 16 -1 49v49l-43 -98l-93 -197h148z"/>
    <glyph glyph-name="aogonek" unicode="ą" d="M393 -151q0 -1 0.5 -2.5t0.5 -2.5q0 -7 -14 -13q-41 -22 -85 -22q-37 0 -57.5 17.5t-20.5 48.5q0 62 89 131q-6 18 -6 51q0 5 0.5 14t0.5 13q-72 -99 -161 -99q-52 0 -80.5 40.5t-28.5 115.5q0 94 32 178q33 88 85 135.5t117 47.5q35 0 59.5 -12t49.5 -42l13 30q4 9 12 9 h61q10 0 10 -9v-5l-70 -324q-8 -40 -8 -64q0 -25 6 -48q0 -1 1.5 -6t1.5 -8q0 -7 -8 -10l-47 -18q-54 -53 -54 -98q0 -20 25 -20q21 0 50 12q2 1 5.5 2.5t4.5 1.5q3 0 6 -7zM354 384q-45 41 -85 41q-67 0 -104 -105q-36 -103 -36 -180q0 -72 49 -72t88.5 46.5t55.5 120.5z "/>
    <glyph glyph-name="Cacute" unicode="Ć" horiz-adv-x="444" d="M512 622l-34 -52q-4 -6 -9 -6q-6 0 -17 9q-49 40 -93 40q-52 0 -93 -48.5t-61.5 -119.5t-31 -134.5t-10.5 -109.5q0 -124 91 -124q16 0 31.5 4t22.5 7t26.5 12.5t24.5 12.5q10 4 13 4q8 0 12 -11l18 -45q2 -6 2 -8q0 -7 -16 -17q-81 -51 -165 -51q-90 0 -131 61t-41 158 q0 57 10.5 121t35.5 131.5t60 121.5t90 88.5t120 34.5q76 0 138 -50q12 -11 12 -16t-5 -13zM492 882l30 -60q2 -6 2 -7q0 -5 -11 -9l-180 -74q-10 -4 -12 -4q-5 0 -8 7l-15 30q-3 5 -3 8q0 5 9 10l167 102q8 5 12 5t9 -8z"/>
    <glyph glyph-name="cacute" unicode="ć" horiz-adv-x="398" d="M420 449l-29 -47q-5 -8 -11 -8q-4 0 -14 7q-33 20 -73 20q-75 0 -114 -71q-50 -91 -50 -189q0 -90 83 -90q15 0 29.5 3.5t22 6.5t21.5 10.5t18 9.5q6 3 8 3q5 0 9 -9l20 -51q1 -2 1 -5q0 -8 -16 -17q-62 -37 -133 -37q-78 0 -120.5 47t-42.5 134q0 75 25.5 144.5 t70.5 118.5q68 73 174 73q66 0 116 -31q7 -5 7 -13q0 -6 -2 -9zM429 703l30 -60q2 -6 2 -7q0 -5 -11 -9l-180 -74q-10 -4 -12 -4q-5 0 -8 7l-15 30q-3 4 -3 8q0 5 9 10l167 102q8 5 12 5t9 -8z"/>
    <glyph glyph-name="Ccircumflex" unicode="Ĉ" horiz-adv-x="444" d="M512 622l-34 -52q-4 -6 -9 -6q-6 0 -17 9q-49 40 -93 40q-52 0 -93 -48.5t-61.5 -119.5t-31 -134.5t-10.5 -109.5q0 -124 91 -124q16 0 31.5 4t22.5 7t26.5 12.5t24.5 12.5q10 4 13 4q8 0 12 -11l18 -45q2 -6 2 -8q0 -7 -16 -17q-81 -51 -165 -51q-90 0 -131 61t-41 158 q0 57 10.5 121t35.5 131.5t60 121.5t90 88.5t120 34.5q76 0 138 -50q12 -11 12 -16t-5 -13zM512 766l-23 -25q-6 -7 -10 -7q-3 0 -10 6l-76 55l-96 -55q-8 -5 -12 -5q-5 0 -9 8l-17 31q-1 1 -2 3l-1.5 3t-0.5 2q0 5 9 10l130 88q8 6 12 6t11 -7l94 -94q6 -6 6 -10 q0 -2 -5 -9z"/>
    <glyph glyph-name="ccircumflex" unicode="ĉ" horiz-adv-x="398" d="M420 449l-29 -47q-5 -8 -11 -8q-4 0 -14 7q-33 20 -73 20q-75 0 -114 -71q-50 -91 -50 -189q0 -90 83 -90q15 0 29.5 3.5t22 6.5t21.5 10.5t18 9.5q6 3 8 3q5 0 9 -9l20 -51q1 -2 1 -5q0 -8 -16 -17q-62 -37 -133 -37q-78 0 -120.5 47t-42.5 134q0 75 25.5 144.5 t70.5 118.5q68 73 174 73q66 0 116 -31q7 -5 7 -13q0 -6 -2 -9zM444 587l-23 -25q-6 -7 -10 -7q-2 0 -10 6l-76 55l-96 -55q-8 -5 -12 -5q-5 0 -9 8l-17 31q-1 1 -2 3l-1.5 3t-0.5 2q0 5 9 10l130 88q8 6 12 6t11 -7l94 -94q6 -6 6 -10q0 -2 -5 -9z"/>
    <glyph glyph-name="Cdotaccent" unicode="Ċ" horiz-adv-x="444" d="M512 622l-34 -52q-4 -6 -9 -6q-6 0 -17 9q-49 40 -93 40q-52 0 -93 -48.5t-61.5 -119.5t-31 -134.5t-10.5 -109.5q0 -124 91 -124q16 0 31.5 4t22.5 7t26.5 12.5t24.5 12.5q10 4 13 4q8 0 12 -11l18 -45q2 -6 2 -8q0 -7 -16 -17q-81 -51 -165 -51q-90 0 -131 61t-41 158 q0 57 10.5 121t35.5 131.5t60 121.5t90 88.5t120 34.5q76 0 138 -50q12 -11 12 -16t-5 -13zM446 809q0 -28 -19 -47t-46 -19t-46.5 19.5t-19.5 46.5q0 26 20 45t46 19q27 0 46 -19t19 -45z"/>
    <glyph glyph-name="cdotaccent" unicode="ċ" horiz-adv-x="398" d="M420 449l-29 -47q-5 -8 -11 -8q-4 0 -14 7q-33 20 -73 20q-75 0 -114 -71q-50 -91 -50 -189q0 -90 83 -90q15 0 29.5 3.5t22 6.5t21.5 10.5t18 9.5q6 3 8 3q5 0 9 -9l20 -51q1 -2 1 -5q0 -8 -16 -17q-62 -37 -133 -37q-78 0 -120.5 47t-42.5 134q0 75 25.5 144.5 t70.5 118.5q68 73 174 73q66 0 116 -31q7 -5 7 -13q0 -6 -2 -9zM383 630q0 -28 -19 -47t-46 -19t-46.5 19.5t-19.5 46.5q0 26 20 45t46 19q27 0 46 -19t19 -45z"/>
    <glyph glyph-name="Ccaron" unicode="Č" horiz-adv-x="444" d="M512 622l-34 -52q-4 -6 -9 -6q-6 0 -17 9q-49 40 -93 40q-52 0 -93 -48.5t-61.5 -119.5t-31 -134.5t-10.5 -109.5q0 -124 91 -124q16 0 31.5 4t22.5 7t26.5 12.5t24.5 12.5q10 4 13 4q8 0 12 -11l18 -45q2 -6 2 -8q0 -7 -16 -17q-81 -51 -165 -51q-90 0 -131 61t-41 158 q0 57 10.5 121t35.5 131.5t60 121.5t90 88.5t120 34.5q76 0 138 -50q12 -11 12 -16t-5 -13zM383 825l96 56q8 5 11 5q4 0 10 -9l17 -30q3 -6 3 -9q0 -4 -8 -9l-130 -88q-10 -7 -13 -7t-10 7l-94 95q-6 6 -6 9q0 4 5 9l23 26q6 7 9 7q1 0 11 -6z"/>
    <glyph glyph-name="ccaron" unicode="č" horiz-adv-x="398" d="M420 449l-29 -47q-5 -8 -11 -8q-4 0 -14 7q-33 20 -73 20q-75 0 -114 -71q-50 -91 -50 -189q0 -90 83 -90q15 0 29.5 3.5t22 6.5t21.5 10.5t18 9.5q6 3 8 3q5 0 9 -9l20 -51q1 -2 1 -5q0 -8 -16 -17q-62 -37 -133 -37q-78 0 -120.5 47t-42.5 134q0 75 25.5 144.5 t70.5 118.5q68 73 174 73q66 0 116 -31q7 -5 7 -13q0 -6 -2 -9zM320 646l96 56q8 5 11 5q4 0 10 -9l17 -30q3 -6 3 -9q0 -4 -8 -9l-130 -88q-10 -7 -13 -7t-10 7l-94 95q-6 6 -6 9q0 4 5 9l23 26q6 7 9 7q1 0 11 -6z"/>
    <glyph glyph-name="Dcaron" unicode="Ď" horiz-adv-x="565" d="M551 481q0 -110 -38 -225.5t-94 -176.5q-73 -79 -240 -79h-131q-12 0 -12 9q0 4 2 12l138 652q2 13 18 13h117q85 0 126 -11.5t68 -43.5q46 -54 46 -150zM442 480q0 66 -28 92t-101 26h-49l-108 -510h50q62 0 101.5 27t69.5 88q28 58 46.5 135t18.5 142zM368 825l96 56 q8 5 11 5q4 0 10 -9l17 -30q3 -6 3 -9q0 -4 -8 -9l-130 -88q-10 -7 -13 -7t-10 7l-94 95q-6 6 -6 9q0 4 5 9l23 26q6 7 9 7q1 0 11 -6z"/>
    <glyph glyph-name="dcaron" unicode="ď" d="M518 709l-113 -538q-10 -45 -10 -82q0 -26 6 -50q2 -8 2 -11q0 -7 -8 -11l-65 -29q-6 -3 -9 -3q-5 0 -10 12q-10 27 -10 84q-70 -96 -158 -96q-110 0 -110 149q0 87 27.5 171t73.5 134q56 63 142 63q52 0 97 -29l47 220q2 12 13 14l74 16q1 0 2.5 0.5t2.5 0.5q7 0 7 -8 q0 -1 -0.5 -3.5t-0.5 -3.5zM357 398q-39 25 -77 25q-41 0 -67.5 -23t-45.5 -75q-36 -99 -36 -183q0 -74 50 -74q35 0 74 34q48 43 68 134zM690 684l-108 -152q-11 -14 -21 -14q-3 0 -11 2l-18 5q-12 4 -12 10q0 4 5 16l64 141q9 17 26 17h65q19 0 19 -8q0 -4 -9 -17z"/>
    <glyph glyph-name="Dcroat" unicode="Đ" horiz-adv-x="565" d="M551 482q0 -111 -38 -226t-95 -177q-39 -43 -94 -61t-145 -18h-131q-13 0 -13 10l3 15l63 296h-60q-13 0 -13 10q0 6 1 9l9 41q2 13 16 13h62l60 279q2 8 4.5 10.5t12.5 2.5h118q74 0 110.5 -7.5t64.5 -29.5q65 -52 65 -167zM442 480q0 80 -44 104q-25 14 -85 14h-49 l-43 -204h108q12 0 12 -8q0 -6 -1 -10l-8 -41q-1 -9 -4.5 -11.5t-13.5 -2.5h-109l-49 -232h49q100 0 145 63q38 53 65 149t27 179z"/>
    <glyph glyph-name="dcroat" unicode="đ" d="M518 709l-17 -78h66q12 0 12 -7q0 -1 -0.5 -3t-0.5 -4l-8 -38q-4 -14 -17 -14h-65l-83 -394q-10 -45 -10 -82q0 -26 6 -50q2 -8 2 -11q0 -7 -8 -11l-65 -29q-6 -3 -9 -3q-5 0 -10 12q-10 27 -10 84q-70 -96 -158 -96q-110 0 -110 149q0 87 27.5 171t73.5 134 q56 63 142 63q52 0 97 -29l20 92h-123q-12 0 -12 6q0 5 1 8l8 38q1 9 4.5 11.5t12.5 2.5h123l13 62q2 12 13 14l74 16q1 0 2.5 0.5t2.5 0.5q7 0 7 -8q0 -1 -0.5 -3.5t-0.5 -3.5zM357 398q-39 25 -77 25q-41 0 -67.5 -23t-45.5 -75q-36 -99 -36 -183q0 -74 50 -74q35 0 74 34 q48 43 68 134z"/>
    <glyph glyph-name="Emacron" unicode="Ē" horiz-adv-x="472" d="M520 664l-28 -56q-4 -10 -18 -10h-209l-42 -197h184q12 0 12 -9q0 -3 -2 -11l-11 -53q-2 -8 -5 -11t-11 -3h-185l-48 -226h227q13 0 13 -7q0 -2 -1.5 -6.5t-1.5 -6.5l-11 -55q-2 -13 -16 -13h-319q-12 0 -12 10q0 3 2 11l138 652q2 13 16 13h320q13 0 13 -8q0 -6 -5 -14z M485 826l-11 -47q-2 -9 -4.5 -11t-11.5 -2h-216q-14 0 -14 6q0 3 1 5l10 51q2 13 17 13h218q12 0 12 -7q0 -5 -1 -8z"/>
    <glyph glyph-name="emacron" unicode="ē" horiz-adv-x="454" d="M437 372q0 -48 -26 -86t-69 -59q-78 -39 -193 -39q-3 0 -10 0.5t-11 0.5q-1 -8 -1 -23q0 -98 90 -98q55 0 120 39q12 7 15 7q5 0 9 -7l23 -46q3 -6 3 -9q0 -5 -10 -12q-78 -55 -180 -55q-82 0 -125 47t-43 137q0 140 78 236.5t190 96.5q65 0 102.5 -34.5t37.5 -95.5z M343 367q0 28 -16 44t-45 16q-52 0 -89 -42t-54 -119q204 0 204 101zM433 647l-11 -47q-2 -9 -4.5 -11t-11.5 -2h-216q-14 0 -14 6q0 3 1 5l10 51q2 13 17 13h218q12 0 12 -7q0 -5 -1 -8z"/>
    <glyph glyph-name="Ebreve" unicode="Ĕ" horiz-adv-x="472" d="M520 664l-28 -56q-4 -10 -18 -10h-209l-42 -197h184q12 0 12 -9q0 -3 -2 -11l-11 -53q-2 -8 -5 -11t-11 -3h-185l-48 -226h227q13 0 13 -7q0 -2 -1.5 -6.5t-1.5 -6.5l-11 -55q-2 -13 -16 -13h-319q-12 0 -12 10q0 3 2 11l138 652q2 13 16 13h320q13 0 13 -8q0 -6 -5 -14z M502 857q0 -16 -26 -57q-45 -64 -130 -64q-54 0 -83.5 29t-29.5 83q0 17 15 18l48 6h6q8 0 8 -7v-10q0 -53 44 -53q49 0 68 56q5 15 13 15q1 0 4 -0.5t5 -0.5l48 -7q10 -1 10 -8z"/>
    <glyph glyph-name="ebreve" unicode="ĕ" horiz-adv-x="454" d="M437 372q0 -48 -26 -86t-69 -59q-78 -39 -193 -39q-3 0 -10 0.5t-11 0.5q-1 -8 -1 -23q0 -98 90 -98q55 0 120 39q12 7 15 7q5 0 9 -7l23 -46q3 -6 3 -9q0 -5 -10 -12q-78 -55 -180 -55q-82 0 -125 47t-43 137q0 140 78 236.5t190 96.5q65 0 102.5 -34.5t37.5 -95.5z M343 367q0 28 -16 44t-45 16q-52 0 -89 -42t-54 -119q204 0 204 101zM450 678q0 -16 -26 -57q-45 -64 -130 -64q-54 0 -83.5 29t-29.5 83q0 17 15 18l48 6h6q8 0 8 -7v-10q0 -53 44 -53q49 0 68 56q5 15 13 15q1 0 4 -0.5t5 -0.5l48 -7q10 -1 10 -8z"/>
    <glyph glyph-name="Edotaccent" unicode="Ė" horiz-adv-x="472" d="M520 664l-28 -56q-4 -10 -18 -10h-209l-42 -197h184q12 0 12 -9q0 -3 -2 -11l-11 -53q-2 -8 -5 -11t-11 -3h-185l-48 -226h227q13 0 13 -7q0 -2 -1.5 -6.5t-1.5 -6.5l-11 -55q-2 -13 -16 -13h-319q-12 0 -12 10q0 3 2 11l138 652q2 13 16 13h320q13 0 13 -8q0 -6 -5 -14z M423 809q0 -28 -19 -47t-46 -19t-46.5 19.5t-19.5 46.5q0 26 20 45t46 19q27 0 46 -19t19 -45z"/>
    <glyph glyph-name="edotaccent" unicode="ė" horiz-adv-x="454" d="M437 372q0 -48 -26 -86t-69 -59q-78 -39 -193 -39q-3 0 -10 0.5t-11 0.5q-1 -8 -1 -23q0 -98 90 -98q55 0 120 39q12 7 15 7q5 0 9 -7l23 -46q3 -6 3 -9q0 -5 -10 -12q-78 -55 -180 -55q-82 0 -125 47t-43 137q0 140 78 236.5t190 96.5q65 0 102.5 -34.5t37.5 -95.5z M343 367q0 28 -16 44t-45 16q-52 0 -89 -42t-54 -119q204 0 204 101zM371 630q0 -28 -19 -47t-46 -19t-46.5 19.5t-19.5 46.5q0 26 20 45t46 19q27 0 46 -19t19 -45z"/>
    <glyph glyph-name="Eogonek" unicode="Ę" horiz-adv-x="472" d="M222 0h-174q-12 0 -12 10q0 3 2 11l138 652q2 13 16 13h320q13 0 13 -8q0 -6 -5 -14l-28 -56q-4 -10 -18 -10h-209l-42 -197h184q12 0 12 -9q0 -3 -2 -11l-11 -53q-2 -8 -5 -11t-11 -3h-185l-48 -226h227q13 0 13 -7q0 -2 -1.5 -6.5t-1.5 -6.5l-11 -55q-2 -13 -16 -13 h-93q-59 -56 -59 -103q0 -20 25 -20q22 0 50 12q2 1 5.5 2.5t4.5 1.5q3 0 6 -7l10 -37q0 -1 0.5 -2.5t0.5 -2.5q0 -7 -14 -13q-41 -22 -85 -22q-37 0 -57.5 17.5t-20.5 48.5q0 59 82 125z"/>
    <glyph glyph-name="eogonek" unicode="ę" horiz-adv-x="454" d="M326 -151q0 -1 0.5 -2.5t0.5 -2.5q0 -7 -14 -13q-41 -22 -85 -22q-37 0 -57.5 17.5t-20.5 48.5q0 53 65 111q-6 -1 -18 -1q-82 0 -125 47t-43 137q0 140 78 236.5t190 96.5q65 0 102.5 -34.5t37.5 -95.5q0 -48 -26 -86t-69 -59q-78 -39 -193 -39q-3 0 -10 0.5t-11 0.5 q-1 -8 -1 -23q0 -98 90 -98q55 0 120 39q12 7 15 7q5 0 9 -7l23 -46q3 -6 3 -9q0 -5 -10 -12q-44 -32 -98 -44q-54 -54 -54 -99q0 -20 25 -20q22 0 50 12q2 1 5.5 2.5t4.5 1.5q3 0 6 -7zM343 367q0 28 -16 44t-45 16q-52 0 -89 -42t-54 -119q204 0 204 101z"/>
    <glyph glyph-name="Ecaron" unicode="Ě" horiz-adv-x="472" d="M520 664l-28 -56q-4 -10 -18 -10h-209l-42 -197h184q12 0 12 -9q0 -3 -2 -11l-11 -53q-2 -8 -5 -11t-11 -3h-185l-48 -226h227q13 0 13 -7q0 -2 -1.5 -6.5t-1.5 -6.5l-11 -55q-2 -13 -16 -13h-319q-12 0 -12 10q0 3 2 11l138 652q2 13 16 13h320q13 0 13 -8q0 -6 -5 -14z M360 825l96 56q8 5 11 5q4 0 10 -9l17 -30q3 -6 3 -9q0 -4 -8 -9l-130 -88q-11 -7 -13 -7q-3 0 -10 7l-94 95q-6 6 -6 9q0 4 5 9l23 26q6 7 9 7q1 0 11 -6z"/>
    <glyph glyph-name="ecaron" unicode="ě" horiz-adv-x="454" d="M437 372q0 -48 -26 -86t-69 -59q-78 -39 -193 -39q-3 0 -10 0.5t-11 0.5q-1 -8 -1 -23q0 -98 90 -98q55 0 120 39q12 7 15 7q5 0 9 -7l23 -46q3 -6 3 -9q0 -5 -10 -12q-78 -55 -180 -55q-82 0 -125 47t-43 137q0 140 78 236.5t190 96.5q65 0 102.5 -34.5t37.5 -95.5z M343 367q0 28 -16 44t-45 16q-52 0 -89 -42t-54 -119q204 0 204 101zM308 646l96 56q8 5 11 5q4 0 10 -9l17 -30q3 -6 3 -9q0 -4 -8 -9l-130 -88q-10 -7 -13 -7t-10 7l-94 95q-6 6 -6 9q0 4 5 9l23 26q6 7 9 7q1 0 11 -6z"/>
    <glyph glyph-name="Gcircumflex" unicode="Ĝ" horiz-adv-x="537" d="M552 632l-40 -59q-4 -6 -8 -6q-3 0 -12 7q-51 41 -108 41q-104 0 -157 -114q-31 -64 -49.5 -147t-18.5 -155q0 -64 25.5 -94.5t80.5 -30.5q38 0 79 16l39 180h-76q-14 0 -14 6q0 3 2 11l13 60q2 11 14 11h165q12 0 12 -10q0 -6 -1 -10l-62 -289q-2 -10 -6.5 -14.5 t-17.5 -10.5q-85 -39 -170 -39q-94 0 -143 59t-49 161q0 77 22 167t56 157q41 80 109 126t154 46q93 0 155 -49q9 -7 9 -12q0 -4 -3 -8zM536 766l-23 -25q-6 -7 -10 -7q-3 0 -10 6l-76 55l-96 -55q-8 -5 -12 -5q-5 0 -9 8l-17 31q-1 1 -2 3l-1.5 3t-0.5 2q0 5 9 10l130 88 q8 6 12 6t11 -7l94 -94q6 -6 6 -10q0 -2 -5 -9z"/>
    <glyph glyph-name="gcircumflex" unicode="ĝ" d="M486 442q-37 -48 -49 -110l-43 -211l-17 -95q-15 -86 -29 -124.5t-41 -63.5q-55 -50 -151 -50q-40 0 -90.5 12.5t-74.5 28.5q-6 4 -6 9q0 4 3 10l23 56q3 9 10 9q4 0 14 -5q74 -38 130 -38q44 0 68.5 20t36.5 66q7 27 17.5 78t12.5 60q-36 -49 -70.5 -71t-76.5 -22 q-56 0 -87 40.5t-31 113.5q0 84 29.5 163.5t76.5 127.5q54 56 124 56q35 0 61 -11t58 -41q12 21 27 35.5t23 14.5q5 0 11 -4l39 -26q10 -7 10 -13q0 -5 -8 -15zM354 388q-47 37 -87 37q-34 0 -61.5 -32t-42 -78.5t-22 -89.5t-7.5 -74q0 -70 49 -70q46 0 84 42.5t53 110.5z M434 587l-23 -25q-6 -7 -10 -7q-2 0 -10 6l-76 55l-96 -55q-8 -5 -12 -5q-5 0 -9 8l-17 31q-1 1 -2 3l-1.5 3t-0.5 2q0 5 9 10l130 88q7 6 12 6q4 0 11 -7l94 -94q6 -6 6 -10q0 -2 -5 -9z"/>
    <glyph glyph-name="Gbreve" unicode="Ğ" horiz-adv-x="537" d="M552 632l-40 -59q-4 -6 -8 -6q-3 0 -12 7q-51 41 -108 41q-104 0 -157 -114q-31 -64 -49.5 -147t-18.5 -155q0 -64 25.5 -94.5t80.5 -30.5q38 0 79 16l39 180h-76q-14 0 -14 6q0 3 2 11l13 60q2 11 14 11h165q12 0 12 -10q0 -6 -1 -10l-62 -289q-2 -10 -6.5 -14.5 t-17.5 -10.5q-85 -39 -170 -39q-94 0 -143 59t-49 161q0 77 22 167t56 157q41 80 109 126t154 46q93 0 155 -49q9 -7 9 -12q0 -4 -3 -8zM544 857q0 -16 -26 -57q-45 -64 -130 -64q-54 0 -83.5 29t-29.5 83q0 17 15 18l48 6h6q8 0 8 -7v-10q0 -53 44 -53q49 0 68 56 q5 15 13 15q1 0 4 -0.5t5 -0.5l48 -7q10 -1 10 -8z"/>
    <glyph glyph-name="gbreve" unicode="ğ" d="M486 442q-37 -48 -49 -110l-43 -211l-17 -95q-15 -86 -29 -124.5t-41 -63.5q-55 -50 -151 -50q-40 0 -90.5 12.5t-74.5 28.5q-6 4 -6 9q0 4 3 10l23 56q3 9 10 9q4 0 14 -5q74 -38 130 -38q44 0 68.5 20t36.5 66q7 27 17.5 78t12.5 60q-36 -49 -70.5 -71t-76.5 -22 q-56 0 -87 40.5t-31 113.5q0 84 29.5 163.5t76.5 127.5q54 56 124 56q35 0 61 -11t58 -41q12 21 27 35.5t23 14.5q5 0 11 -4l39 -26q10 -7 10 -13q0 -5 -8 -15zM354 388q-47 37 -87 37q-34 0 -61.5 -32t-42 -78.5t-22 -89.5t-7.5 -74q0 -70 49 -70q46 0 84 42.5t53 110.5z M457 678q0 -16 -26 -57q-45 -64 -130 -64q-54 0 -83.5 29t-29.5 83q0 17 15 18l48 6h6q8 0 8 -7v-10q0 -53 44 -53q49 0 68 56q5 15 13 15q1 0 4 -0.5t5 -0.5l48 -7q10 -1 10 -8z"/>
    <glyph glyph-name="Gdotaccent" unicode="Ġ" horiz-adv-x="537" d="M552 632l-40 -59q-4 -6 -8 -6q-3 0 -12 7q-51 41 -108 41q-104 0 -157 -114q-31 -64 -49.5 -147t-18.5 -155q0 -64 25.5 -94.5t80.5 -30.5q38 0 79 16l39 180h-76q-14 0 -14 6q0 3 2 11l13 60q2 11 14 11h165q12 0 12 -10q0 -6 -1 -10l-62 -289q-2 -10 -6.5 -14.5 t-17.5 -10.5q-85 -39 -170 -39q-94 0 -143 59t-49 161q0 77 22 167t56 157q41 80 109 126t154 46q93 0 155 -49q9 -7 9 -12q0 -4 -3 -8zM475 809q0 -28 -19 -47t-46 -19t-46.5 19.5t-19.5 46.5q0 26 20 45t46 19q27 0 46 -19t19 -45z"/>
    <glyph glyph-name="gdotaccent" unicode="ġ" d="M486 442q-37 -48 -49 -110l-43 -211l-17 -95q-15 -86 -29 -124.5t-41 -63.5q-55 -50 -151 -50q-40 0 -90.5 12.5t-74.5 28.5q-6 4 -6 9q0 4 3 10l23 56q3 9 10 9q4 0 14 -5q74 -38 130 -38q44 0 68.5 20t36.5 66q7 27 17.5 78t12.5 60q-36 -49 -70.5 -71t-76.5 -22 q-56 0 -87 40.5t-31 113.5q0 84 29.5 163.5t76.5 127.5q54 56 124 56q35 0 61 -11t58 -41q12 21 27 35.5t23 14.5q5 0 11 -4l39 -26q10 -7 10 -13q0 -5 -8 -15zM354 388q-47 37 -87 37q-34 0 -61.5 -32t-42 -78.5t-22 -89.5t-7.5 -74q0 -70 49 -70q46 0 84 42.5t53 110.5z M378 630q0 -28 -19 -47t-46 -19t-46.5 19.5t-19.5 46.5q0 26 20 45t46 19q27 0 46 -19t19 -45z"/>
    <glyph glyph-name="Gcommaaccent" unicode="Ģ" horiz-adv-x="537" d="M552 632l-40 -59q-4 -6 -8 -6q-3 0 -12 7q-51 41 -108 41q-104 0 -157 -114q-31 -64 -49.5 -147t-18.5 -155q0 -64 25.5 -94.5t80.5 -30.5q38 0 79 16l39 180h-76q-14 0 -14 6q0 3 2 11l13 60q2 11 14 11h165q12 0 12 -10q0 -6 -1 -10l-62 -289q-2 -10 -6.5 -14.5 t-17.5 -10.5q-85 -39 -170 -39q-94 0 -143 59t-49 161q0 77 22 167t56 157q41 80 109 126t154 46q93 0 155 -49q9 -7 9 -12q0 -4 -3 -8zM293 -75l-108 -152q-11 -14 -21 -14q-3 0 -11 2l-18 5q-12 4 -12 10q0 4 5 16l64 141q9 17 26 17h65q19 0 19 -8q0 -4 -9 -17z"/>
    <glyph glyph-name="gcommaaccent" unicode="ģ" d="M236 567l108 152q11 14 21 14q3 0 11 -2l18 -5q12 -4 12 -10q0 -4 -5 -16l-64 -141q-9 -17 -26 -17h-65q-19 0 -19 8q0 6 9 17zM486 442q-37 -48 -49 -110l-43 -211l-17 -95q-15 -86 -29 -124.5t-41 -63.5q-55 -50 -151 -50q-40 0 -90.5 12.5t-74.5 28.5q-6 4 -6 9 q0 4 3 10l23 56q3 9 10 9q4 0 14 -5q74 -38 130 -38q44 0 68.5 20t36.5 66q7 27 17.5 78t12.5 60q-36 -49 -70.5 -71t-76.5 -22q-56 0 -87 40.5t-31 113.5q0 84 29.5 163.5t76.5 127.5q54 56 124 56q35 0 61 -11t58 -41q12 21 27 35.5t23 14.5q5 0 11 -4l39 -26 q10 -7 10 -13q0 -5 -8 -15zM354 388q-47 37 -87 37q-34 0 -61.5 -32t-42 -78.5t-22 -89.5t-7.5 -74q0 -70 49 -70q46 0 84 42.5t53 110.5z"/>
    <glyph glyph-name="Hcircumflex" unicode="Ĥ" horiz-adv-x="592" d="M591 665l-138 -652q-2 -13 -17 -13h-76q-12 0 -12 9q0 4 2 12l61 291h-207l-64 -299q-2 -8 -4.5 -10.5t-11.5 -2.5h-76q-12 0 -12 9q0 2 2 12l138 652q2 13 16 13h75q14 0 14 -8q0 -3 -2 -13l-56 -265h207l59 273q2 13 16 13h75q13 0 13 -9q0 -4 -2 -12zM523 766l-23 -25 q-6 -7 -10 -7q-2 0 -10 6l-76 55l-96 -55q-8 -5 -12 -5q-5 0 -9 8l-17 31q-1 1 -2 3l-1.5 3t-0.5 2q0 5 9 10l130 88q7 6 12 6q4 0 11 -7l94 -94q6 -6 6 -10q0 -2 -5 -9z"/>
    <glyph glyph-name="hcircumflex" unicode="ĥ" horiz-adv-x="509" d="M465 408q0 -30 -11 -78l-70 -319q-2 -11 -14 -11h-72q-10 0 -10 8q0 5 1 8l67 309q9 45 9 55q0 38 -40 38q-55 0 -98.5 -54t-63.5 -145l-44 -208q-2 -11 -14 -11h-72q-11 0 -11 6q0 5 1 9l145 678q2 12 13 14l67 15q4 1 10 1q9 0 9 -8q0 -5 -1 -8l-49 -235 q-6 -35 -17 -64q41 47 78 70.5t89 23.5q46 0 72 -25t26 -69zM372 803l-23 -25q-6 -7 -10 -7q-3 0 -10 6l-76 55l-96 -55q-8 -5 -12 -5q-5 0 -9 8l-17 31q-1 1 -2 3l-1.5 3t-0.5 2q0 5 9 10l130 88q8 6 12 6t11 -7l94 -94q6 -6 6 -10q0 -2 -5 -9z"/>
    <glyph glyph-name="Hbar" unicode="Ħ" horiz-adv-x="592" d="M591 665l-19 -87h63q12 0 12 -7q0 -4 -1 -7l-10 -46q-1 -9 -4.5 -11.5t-12.5 -2.5h-62l-104 -491q-2 -13 -17 -13h-76q-12 0 -12 9q0 4 2 12l61 291h-207l-64 -299q-2 -8 -4.5 -10.5t-11.5 -2.5h-76q-12 0 -12 9q0 2 2 12l102 483h-64q-12 0 -12 7q0 4 1 7l10 46 q4 14 17 14h64l20 95q2 13 16 13h75q14 0 14 -8q0 -3 -2 -13l-19 -87h208l21 95q2 13 16 13h75q13 0 13 -9q0 -4 -2 -12zM223 400h207l22 104h-207z"/>
    <glyph glyph-name="hbar" unicode="ħ" horiz-adv-x="509" d="M465 408q0 -30 -11 -78l-70 -319q-2 -11 -14 -11h-72q-10 0 -10 8q0 5 1 8l67 309q9 45 9 55q0 38 -40 38q-55 0 -98.5 -54t-63.5 -145l-44 -208q-2 -11 -14 -11h-72q-11 0 -11 6q0 5 1 9l118 551h-63q-12 0 -12 7q0 4 1 7l8 37q4 14 17 14h63l13 62q2 12 13 14l67 15 q4 1 10 1q9 0 9 -8q0 -5 -1 -8l-16 -76h125q12 0 12 -7q0 -4 -1 -7l-8 -37q-1 -9 -4.5 -11.5t-12.5 -2.5h-125l-19 -94q-6 -35 -17 -64q41 47 78 70.5t89 23.5q46 0 72 -25t26 -69z"/>
    <glyph glyph-name="Itilde" unicode="Ĩ" horiz-adv-x="343" d="M399 666l-10 -46q-2 -13 -17 -13h-74l-112 -528h73q12 0 12 -9q0 -4 -2 -12l-9 -45q-2 -13 -17 -13h-252q-13 0 -13 9q0 3 2 11l10 46q2 8 4.5 10.5t11.5 2.5h75l112 528h-74q-12 0 -12 8q0 2 2 12l9 46q2 13 17 13h253q12 0 12 -12q0 -1 -0.5 -3.5t-0.5 -4.5zM431 825 q-16 -28 -47 -49t-61 -21q-27 0 -55 19t-42 19q-20 0 -49 -34q-4 -5 -8 -5q-2 0 -9 5l-28 22q-5 4 -5 8t7 13q46 65 102 65q25 0 57 -19t43 -19q23 0 47 32q3 6 9 6q4 0 7 -3l28 -22q7 -7 7 -9q0 -3 -3 -8z"/>
    <glyph glyph-name="itilde" unicode="ĩ" horiz-adv-x="268" d="M239 472l-98 -461q-2 -11 -13 -11h-72q-12 0 -12 7q0 4 1 7l86 399h-79q-11 0 -11 7q0 5 1 8l10 48q3 11 13 11h164q11 0 11 -9q0 -1 -0.5 -3t-0.5 -3zM335 646q-16 -28 -47 -49t-61 -21q-27 0 -55 19t-42 19q-20 0 -49 -34q-4 -5 -8 -5q-2 0 -9 5l-28 22q-5 4 -5 8t7 13 q46 65 102 65q25 0 57 -19t43 -19q23 0 47 32q3 6 9 6q4 0 7 -3l28 -22q7 -7 7 -9q0 -4 -3 -8z"/>
    <glyph glyph-name="Imacron" unicode="Ī" horiz-adv-x="343" d="M399 666l-10 -46q-2 -13 -17 -13h-74l-112 -528h73q12 0 12 -9q0 -4 -2 -12l-9 -45q-2 -13 -17 -13h-252q-13 0 -13 9q0 3 2 11l10 46q2 8 4.5 10.5t11.5 2.5h75l112 528h-74q-12 0 -12 8q0 2 2 12l9 46q2 13 17 13h253q12 0 12 -12q0 -1 -0.5 -3.5t-0.5 -4.5zM406 826 l-11 -47q-2 -9 -4.5 -11t-11.5 -2h-216q-14 0 -14 6q0 3 1 5l10 51q2 13 17 13h218q12 0 12 -7q0 -5 -1 -8z"/>
    <glyph glyph-name="imacron" unicode="ī" horiz-adv-x="268" d="M239 472l-98 -461q-2 -11 -13 -11h-72q-12 0 -12 7q0 4 1 7l86 399h-79q-11 0 -11 7q0 5 1 8l10 48q3 11 13 11h164q11 0 11 -9q0 -1 -0.5 -3t-0.5 -3zM310 647l-11 -47q-2 -9 -4.5 -11t-11.5 -2h-216q-14 0 -14 6q0 3 1 5l10 51q2 13 17 13h218q12 0 12 -7q0 -5 -1 -8z "/>
    <glyph glyph-name="Ibreve" unicode="Ĭ" horiz-adv-x="343" d="M399 666l-10 -46q-2 -13 -17 -13h-74l-112 -528h73q12 0 12 -9q0 -4 -2 -12l-9 -45q-2 -13 -17 -13h-252q-13 0 -13 9q0 3 2 11l10 46q2 8 4.5 10.5t11.5 2.5h75l112 528h-74q-12 0 -12 8q0 2 2 12l9 46q2 13 17 13h253q12 0 12 -12q0 -1 -0.5 -3.5t-0.5 -4.5zM423 857 q0 -16 -26 -57q-45 -64 -130 -64q-54 0 -83.5 29t-29.5 83q0 17 15 18l48 6h6q8 0 8 -7v-10q0 -53 44 -53q49 0 68 56q5 15 13 15q1 0 4 -0.5t5 -0.5l48 -7q10 -1 10 -8z"/>
    <glyph glyph-name="ibreve" unicode="ĭ" horiz-adv-x="268" d="M239 472l-98 -461q-2 -11 -13 -11h-72q-12 0 -12 7q0 4 1 7l86 399h-79q-11 0 -11 7q0 5 1 8l10 48q3 11 13 11h164q11 0 11 -9q0 -1 -0.5 -3t-0.5 -3zM327 678q0 -16 -26 -57q-45 -64 -130 -64q-54 0 -83.5 29t-29.5 83q0 17 15 18l48 6h6q8 0 8 -7v-10q0 -53 44 -53 q49 0 68 56q5 15 13 15q1 0 4 -0.5t5 -0.5l48 -7q10 -1 10 -8z"/>
    <glyph glyph-name="Iogonek" unicode="Į" horiz-adv-x="343" d="M81 79l112 528h-74q-12 0 -12 8q0 2 2 12l9 46q2 13 17 13h253q12 0 12 -12q0 -1 -0.5 -3.5t-0.5 -4.5l-10 -46q-2 -13 -17 -13h-74l-112 -528h73q12 0 12 -9q0 -4 -2 -12l-9 -45q-2 -13 -17 -13h-46q-59 -56 -59 -103q0 -20 25 -20q21 0 50 12q2 1 5.5 2.5t4.5 1.5 q3 0 6 -7l10 -37q0 -1 0.5 -2.5t0.5 -2.5q0 -7 -14 -13q-41 -22 -85 -22q-37 0 -57.5 17.5t-20.5 48.5q0 59 82 125h-154q-13 0 -13 9q0 3 2 11l10 46q2 8 4.5 10.5t11.5 2.5h75z"/>
    <glyph glyph-name="iogonek" unicode="į" horiz-adv-x="268" d="M161 -151q0 -1 0.5 -2.5t0.5 -2.5q0 -7 -14 -13q-41 -22 -85 -22q-37 0 -57.5 17.5t-20.5 48.5q0 59 82 125h-11q-12 0 -12 7q0 4 1 7l86 399h-79q-11 0 -11 7q0 5 1 8l10 48q3 11 13 11h164q11 0 11 -9q0 -1 -0.5 -3t-0.5 -3l-98 -461q-2 -11 -13 -11h-9 q-59 -56 -59 -103q0 -20 25 -20q21 0 50 12q2 1 5.5 2.5t4.5 1.5q3 0 6 -7zM293 650q0 -29 -20.5 -49.5t-48.5 -20.5q-29 0 -49.5 20.5t-20.5 49.5q0 28 20.5 48.5t49.5 20.5t49 -20t20 -49z"/>
    <glyph glyph-name="Idotaccent" unicode="İ" horiz-adv-x="343" d="M399 666l-10 -46q-2 -13 -17 -13h-74l-112 -528h73q12 0 12 -9q0 -4 -2 -12l-9 -45q-2 -13 -17 -13h-252q-13 0 -13 9q0 3 2 11l10 46q2 8 4.5 10.5t11.5 2.5h75l112 528h-74q-12 0 -12 8q0 2 2 12l9 46q2 13 17 13h253q12 0 12 -12q0 -1 -0.5 -3.5t-0.5 -4.5zM344 809 q0 -28 -19 -47t-46 -19t-46.5 19.5t-19.5 46.5q0 26 20 45t46 19q27 0 46 -19t19 -45z"/>
    <glyph glyph-name="dotlessi" unicode="ı" horiz-adv-x="268" d="M239 472l-98 -461q-2 -11 -13 -11h-72q-12 0 -12 7q0 4 1 7l86 399h-79q-11 0 -11 7q0 5 1 8l10 48q3 11 13 11h164q11 0 11 -9q0 -1 -0.5 -3t-0.5 -3z"/>
    <glyph glyph-name="Jcircumflex" unicode="Ĵ" horiz-adv-x="435" d="M443 666l-97 -455q-16 -73 -35 -113t-50 -66q-54 -45 -132 -45q-66 0 -104.5 37t-38.5 100q0 76 18 76h74q8 0 8 -10v-4q-5 -37 -5 -46q0 -65 60 -65q38 0 59.5 25t34.5 83l91 422h-159q-13 0 -13 9q0 1 2 11l11 48q2 13 16 13h249q12 0 12 -10q0 -7 -1 -10zM444 766 l-23 -25q-6 -7 -10 -7q-2 0 -10 6l-76 55l-96 -55q-8 -5 -12 -5q-5 0 -9 8l-17 31q-1 1 -2 3l-1.5 3t-0.5 2q0 5 9 10l130 88q8 6 12 6t11 -7l94 -94q6 -6 6 -10q0 -2 -5 -9z"/>
    <glyph glyph-name="jcircumflex" unicode="ĵ" horiz-adv-x="268" d="M239 473l-101 -474q-15 -71 -31 -112t-45 -68q-47 -42 -117 -42q-47 0 -93 23q-9 4 -9 10q0 4 3 11l20 51q4 9 9 9q4 0 7 -1q7 -2 16.5 -6.5t15.5 -6.5t15.5 -4t21.5 -2q37 0 55.5 30t37.5 117l87 405h-80q-10 0 -10 7q0 5 1 8l10 48q3 11 13 11h164q11 0 11 -8v-3 q-1 -2 -1 -3zM291 587l-23 -25q-6 -7 -10 -7q-2 0 -10 6l-76 55l-96 -55q-8 -5 -12 -5q-5 0 -9 8l-17 31q-1 1 -2 3l-1.5 3t-0.5 2q0 5 9 10l130 88q8 6 12 6t11 -7l94 -94q6 -6 6 -10q0 -2 -5 -9z"/>
    <glyph glyph-name="Kcommaaccent" unicode="Ķ" horiz-adv-x="528" d="M590 641l-281 -285l169 -311q5 -8 5 -12q0 -5 -10 -9l-71 -33q-10 -4 -11 -4q-6 0 -10 9l-172 338l-69 -321q-2 -8 -4.5 -10.5t-11.5 -2.5h-76q-12 0 -12 10q0 3 2 11l138 652q2 13 16 13h75q13 0 13 -10q0 -7 -1 -11l-60 -284l296 308q8 8 12 8q3 0 11 -5l49 -30 q9 -6 9 -11q0 -4 -6 -10zM282 -75l-108 -152q-11 -14 -21 -14q-3 0 -11 2l-18 5q-12 4 -12 10q0 4 5 16l64 141q9 17 26 17h65q19 0 19 -8q0 -4 -9 -17z"/>
    <glyph glyph-name="kcommaaccent" unicode="ķ" horiz-adv-x="454" d="M478 435l-210 -168l137 -222q3 -5 3 -8q0 -6 -6 -9l-61 -36q-5 -4 -10 -4t-8 6l-153 259l-51 -242q-2 -11 -14 -11h-72q-11 0 -11 7q0 4 1 6l145 680q2 12 13 14l69 16q3 1 8 1q10 0 10 -8q0 -1 -0.5 -3t-0.5 -3l-90 -424l239 205q8 6 13 6t9 -4l40 -41q4 -4 4 -9t-4 -8z M252 -75l-108 -152q-11 -14 -21 -14q-3 0 -11 2l-18 5q-12 4 -12 10q0 4 5 16l64 141q9 17 26 17h65q19 0 19 -8q0 -4 -9 -17z"/>
    <glyph glyph-name="kgreenlandic" unicode="ĸ" horiz-adv-x="454" d="M23 13l71 327q7 37 7 60q0 31 -8 55q-1 2 -1 6q0 6 7 10l74 27q5 2 10 2q4 0 8.5 -7.5t8 -23t3.5 -34.5q0 -22 -4 -42l-22 -107l239 205q8 6 13 6t9 -4l40 -41q4 -4 4 -9t-4 -8l-210 -168l137 -222q3 -5 3 -8q0 -6 -6 -9l-61 -36q-5 -4 -10 -4t-8 6l-153 259l-51 -242 q-2 -11 -14 -11h-72q-11 0 -11 7q0 4 1 6z"/>
    <glyph glyph-name="Lacute" unicode="Ĺ" horiz-adv-x="435" d="M413 74l-31 -64q-5 -10 -16 -10h-318q-12 0 -12 10q0 3 2 11l138 652q2 13 16 13h75q14 0 14 -10q0 -5 -1 -8l-122 -573h247q12 0 12 -8q0 -3 -4 -13zM364 882l30 -60q2 -6 2 -7q0 -5 -11 -9l-180 -74q-10 -4 -12 -4q-5 0 -8 7l-15 30q-3 5 -3 8q0 5 9 10l167 102 q8 5 12 5t9 -8z"/>
    <glyph glyph-name="lacute" unicode="ĺ" horiz-adv-x="259" d="M263 710l-113 -528q-13 -46 -13 -80q0 -29 26 -29q21 0 32 8q6 3 10 3q7 0 8 -7l8 -44q0 -2 1 -4v-2q0 -8 -8 -14q-29 -25 -86 -25q-90 0 -90 80q0 43 18 125l107 500q2 12 13 14l72 16h6q10 0 10 -8q0 -1 -0.5 -2.5t-0.5 -2.5zM356 919l30 -60q2 -6 2 -7q0 -5 -11 -9 l-180 -74q-10 -4 -12 -4q-5 0 -8 7l-15 30q-3 4 -3 8q0 5 9 10l167 102q8 5 12 5t9 -8z"/>
    <glyph glyph-name="Lcommaaccent" unicode="Ļ" horiz-adv-x="435" d="M413 74l-31 -64q-5 -10 -16 -10h-318q-12 0 -12 10q0 3 2 11l138 652q2 13 16 13h75q14 0 14 -10q0 -5 -1 -8l-122 -573h247q12 0 12 -8q0 -3 -4 -13zM256 -75l-108 -152q-11 -14 -21 -14q-3 0 -11 2l-18 5q-12 4 -12 10q0 4 5 16l64 141q9 17 26 17h65q19 0 19 -8 q0 -4 -9 -17z"/>
    <glyph glyph-name="lcommaaccent" unicode="ļ" horiz-adv-x="259" d="M263 710l-113 -528q-13 -46 -13 -80q0 -29 26 -29q21 0 32 8q6 3 10 3q7 0 8 -7l8 -44q0 -2 1 -4v-2q0 -8 -8 -14q-29 -25 -86 -25q-90 0 -90 80q0 43 18 125l107 500q2 12 13 14l72 16h6q10 0 10 -8q0 -1 -0.5 -2.5t-0.5 -2.5zM158 -75l-108 -152q-11 -14 -21 -14 q-3 0 -11 2l-18 5q-12 4 -12 10q0 4 5 16l64 141q9 17 26 17h65q19 0 19 -8q0 -4 -9 -17z"/>
    <glyph glyph-name="Lcaron" unicode="Ľ" horiz-adv-x="435" d="M413 74l-31 -64q-5 -10 -16 -10h-318q-12 0 -12 10q0 3 2 11l138 652q2 13 16 13h75q14 0 14 -10q0 -5 -1 -8l-122 -573h247q12 0 12 -8q0 -3 -4 -13zM255 825l96 56q8 5 11 5q4 0 10 -9l17 -30q3 -6 3 -9q0 -4 -8 -9l-130 -88q-10 -7 -13 -7t-10 7l-94 95q-6 6 -6 9 q0 4 5 9l23 26q6 7 9 7q1 0 11 -6z"/>
    <glyph glyph-name="lcaron" unicode="ľ" horiz-adv-x="259" d="M263 710l-113 -528q-13 -46 -13 -80q0 -29 26 -29q21 0 32 8q6 3 10 3q7 0 8 -7l8 -44q0 -2 1 -4v-2q0 -8 -8 -14q-29 -25 -86 -25q-90 0 -90 80q0 43 18 125l107 500q2 12 13 14l72 16h6q10 0 10 -8q0 -1 -0.5 -2.5t-0.5 -2.5zM443 683l-108 -152q-11 -14 -21 -14 q-3 0 -11 2l-18 5q-12 4 -12 10q0 4 5 16l64 141q9 17 26 17h65q19 0 19 -8q0 -4 -9 -17z"/>
    <glyph glyph-name="Ldot" unicode="Ŀ" horiz-adv-x="435" d="M413 74l-31 -64q-5 -10 -16 -10h-318q-12 0 -12 10q0 3 2 11l138 652q2 13 16 13h75q14 0 14 -10q0 -5 -1 -8l-122 -573h247q12 0 12 -8q0 -3 -4 -13zM446 360q0 -28 -19 -47t-46 -19t-46.5 19.5t-19.5 46.5q0 26 20 45t46 19q27 0 46 -19t19 -45z"/>
    <glyph glyph-name="ldot" unicode="ŀ" horiz-adv-x="391" d="M263 710l-113 -528q-13 -46 -13 -80q0 -29 26 -29q21 0 32 8q6 3 10 3q7 0 8 -7l8 -44q0 -2 1 -4v-2q0 -8 -8 -14q-29 -25 -86 -25q-90 0 -90 80q0 43 18 125l107 500q2 12 13 14l72 16h6q10 0 10 -8q0 -1 -0.5 -2.5t-0.5 -2.5zM401 360q0 -28 -19 -47t-46 -19 t-46.5 19.5t-19.5 46.5q0 26 20 45t46 19q27 0 46 -19t19 -45z"/>
    <glyph glyph-name="Lslash" unicode="Ł" horiz-adv-x="435" d="M413 74l-31 -63q-5 -11 -17 -11h-317q-13 0 -13 10q0 3 2 11l60 284l-81 -40q-8 -3 -11 -3q-7 0 -7 9q0 5 1 8l9 42q3 11 12 15l94 46l62 291q2 8 4.5 10.5t11.5 2.5h75q14 0 14 -10q0 -2 -2 -10l-51 -240l131 63q6 3 10 3q8 0 8 -10q0 -5 -1 -8l-9 -41q-3 -11 -13 -16 l-143 -68l-53 -254h247q12 0 12 -8q0 -5 -4 -13z"/>
    <glyph glyph-name="lslash" unicode="ł" horiz-adv-x="278" d="M330 474l-8 -41q-2 -9 -11 -13l-100 -48l-41 -190q-13 -57 -13 -83t26 -26q15 0 34 8l5 2q4 2 6 2q5 0 6 -7l7 -51l1 -8q0 -11 -31.5 -21t-63.5 -10q-89 0 -89 79q0 37 16 114l32 150l-81 -39q-7 -4 -12 -4q-7 0 -7 9q0 5 1 8l9 39q3 11 11 14l94 46l62 290q2 11 13 13 l71 16q4 1 9 1q7 0 7 -7q0 -5 -1 -9l-56 -263l87 42q5 3 10 3q8 0 8 -9q0 -1 -0.5 -3.5t-0.5 -3.5z"/>
    <glyph glyph-name="Nacute" unicode="Ń" horiz-adv-x="583" d="M588 670l-139 -657q-2 -13 -16 -13h-57q-9 0 -11.5 2t-4.5 11l-115 435q-16 63 -19 83q-4 -50 -13 -91l-90 -427q-2 -13 -17 -13h-65q-12 0 -12 8q0 4 1 6l140 659q2 13 17 13h65q8 0 11 -2.5t5 -10.5l107 -405q19 -72 23 -91q6 61 13 94l85 402q2 13 17 13h65 q11 0 11 -9q0 -4 -1 -7zM512 882l30 -60q2 -6 2 -7q0 -5 -11 -9l-180 -74q-10 -4 -12 -4q-5 0 -8 7l-15 30q-3 5 -3 8q0 5 9 10l167 102q8 5 12 5t9 -8z"/>
    <glyph glyph-name="nacute" unicode="ń" horiz-adv-x="509" d="M465 410q0 -27 -10 -74l-71 -325q-2 -11 -14 -11h-72q-10 0 -10 6q0 4 1 7l68 312q8 37 8 51q0 42 -39 42q-54 0 -97.5 -54t-63.5 -143l-45 -210q-2 -11 -14 -11h-71q-11 0 -11 8q0 4 1 7l71 325q9 41 9 64q0 21 -6 45q-2 8 -2 10q0 8 9 12l61 27q4 2 8 2q8 0 14 -21 t6 -51v-14q0 -9 -1 -16q37 50 75 74q47 30 99 30q45 0 71 -24.5t26 -67.5zM444 703l30 -60q2 -6 2 -7q0 -5 -11 -9l-180 -74q-10 -4 -12 -4q-5 0 -8 7l-15 30q-3 4 -3 8q0 5 9 10l167 102q8 5 12 5t9 -8z"/>
    <glyph glyph-name="Ncommaaccent" unicode="Ņ" horiz-adv-x="583" d="M588 670l-139 -657q-2 -13 -16 -13h-57q-9 0 -11.5 2t-4.5 11l-115 435q-16 63 -19 83q-4 -50 -13 -91l-90 -427q-2 -13 -17 -13h-65q-12 0 -12 8q0 4 1 6l140 659q2 13 17 13h65q8 0 11 -2.5t5 -10.5l107 -405q19 -72 23 -91q6 61 13 94l85 402q2 13 17 13h65 q11 0 11 -9q0 -4 -1 -7zM273 -75l-108 -152q-11 -14 -21 -14q-3 0 -11 2l-18 5q-12 4 -12 10q0 4 5 16l64 141q9 17 26 17h65q19 0 19 -8q0 -4 -9 -17z"/>
    <glyph glyph-name="ncommaaccent" unicode="ņ" horiz-adv-x="509" d="M465 410q0 -27 -10 -74l-71 -325q-2 -11 -14 -11h-72q-10 0 -10 6q0 4 1 7l68 312q8 37 8 51q0 42 -39 42q-54 0 -97.5 -54t-63.5 -143l-45 -210q-2 -11 -14 -11h-71q-11 0 -11 8q0 4 1 7l71 325q9 41 9 64q0 21 -6 45q-2 8 -2 10q0 8 9 12l61 27q4 2 8 2q8 0 14 -21 t6 -51v-14q0 -9 -1 -16q37 50 75 74q47 30 99 30q45 0 71 -24.5t26 -67.5zM250 -75l-108 -152q-11 -14 -21 -14q-3 0 -11 2l-18 5q-12 4 -12 10q0 4 5 16l64 141q9 17 26 17h65q19 0 19 -8q0 -4 -9 -17z"/>
    <glyph glyph-name="Ncaron" unicode="Ň" horiz-adv-x="583" d="M588 670l-139 -657q-2 -13 -16 -13h-57q-9 0 -11.5 2t-4.5 11l-115 435q-16 63 -19 83q-4 -50 -13 -91l-90 -427q-2 -13 -17 -13h-65q-12 0 -12 8q0 4 1 6l140 659q2 13 17 13h65q8 0 11 -2.5t5 -10.5l107 -405q19 -72 23 -91q6 61 13 94l85 402q2 13 17 13h65 q11 0 11 -9q0 -4 -1 -7zM403 825l96 56q8 5 11 5q4 0 10 -9l17 -30q3 -6 3 -9q0 -4 -8 -9l-130 -88q-10 -7 -13 -7t-10 7l-94 95q-6 6 -6 9q0 4 5 9l23 26q6 7 9 7q1 0 11 -6z"/>
    <glyph glyph-name="ncaron" unicode="ň" horiz-adv-x="509" d="M465 410q0 -27 -10 -74l-71 -325q-2 -11 -14 -11h-72q-10 0 -10 6q0 4 1 7l68 312q8 37 8 51q0 42 -39 42q-54 0 -97.5 -54t-63.5 -143l-45 -210q-2 -11 -14 -11h-71q-11 0 -11 8q0 4 1 7l71 325q9 41 9 64q0 21 -6 45q-2 8 -2 10q0 8 9 12l61 27q4 2 8 2q8 0 14 -21 t6 -51v-14q0 -9 -1 -16q37 50 75 74q47 30 99 30q45 0 71 -24.5t26 -67.5zM335 646l96 56q8 5 11 5q4 0 10 -9l17 -30q3 -6 3 -9q0 -4 -8 -9l-130 -88q-10 -7 -13 -7t-10 7l-94 95q-6 6 -6 9q0 4 5 9l23 26q6 7 9 7q1 0 11 -6z"/>
    <glyph glyph-name="Eng" unicode="Ŋ" horiz-adv-x="583" d="M356 7l5 24l-116 417q-13 45 -19 83q-4 -50 -13 -91l-90 -427q-2 -13 -17 -13h-65q-12 0 -12 8q0 4 1 6l140 659q2 13 17 13h65q8 0 11 -2.5t5 -10.5l110 -392q19 -72 23 -91q6 61 13 94l82 389q2 13 17 13h65q11 0 11 -9q0 -4 -1 -7l-143 -671q-16 -73 -31.5 -113.5 t-44.5 -66.5q-47 -42 -117 -42q-45 0 -89 22q-9 4 -9 10q0 3 3 11l21 51q4 9 9 9q4 0 7 -1q7 -2 16.5 -6.5t15.5 -6.5t15.5 -4t21.5 -2q33 0 54 31t39 116z"/>
    <glyph glyph-name="eng" unicode="ŋ" horiz-adv-x="509" d="M455 336l-74 -337q-16 -73 -31.5 -113.5t-44.5 -66.5q-47 -42 -117 -42q-47 0 -93 23q-9 4 -9 10q0 4 3 11l21 51q4 9 10 9q4 0 6 -1q7 -2 16.5 -6.5t15.5 -6.5t15.5 -4t21.5 -2q37 0 55.5 30t37.5 117l69 317q7 35 7 50q0 43 -38 43q-54 0 -97.5 -54t-63.5 -143 l-45 -210q-2 -11 -14 -11h-71q-11 0 -11 8q0 1 0.5 3.5t0.5 3.5l71 325q9 41 9 64q0 21 -6 45q-1 4 -1 11q0 8 8 11l61 27q4 2 8 2q8 0 14 -21t6 -51q0 -18 -1 -30q37 50 75 74q47 30 99 30q45 0 71 -24.5t26 -67.5q0 -27 -10 -74z"/>
    <glyph glyph-name="Omacron" unicode="Ō" horiz-adv-x="555" d="M543 498q0 -114 -40 -237t-111 -202q-66 -74 -166 -74q-177 0 -177 204q0 92 23.5 188.5t62.5 170.5q81 153 233 153q175 0 175 -203zM436 496q0 64 -18.5 92t-59.5 28q-53 0 -94.5 -50t-63.5 -123t-33 -139.5t-11 -115.5q0 -63 18.5 -90.5t59.5 -27.5q54 0 95.5 49.5 t63.5 122t32.5 138.5t10.5 116zM516 826l-11 -47q-2 -9 -4.5 -11t-11.5 -2h-216q-14 0 -14 6q0 3 1 5l10 51q2 13 17 13h218q12 0 12 -7q0 -5 -1 -8z"/>
    <glyph glyph-name="omacron" unicode="ō" horiz-adv-x="491" d="M456 329q0 -70 -23.5 -139t-64.5 -120q-68 -85 -181 -85q-159 0 -159 174q0 148 86 257q68 86 183 86q76 0 117.5 -45t41.5 -128zM355 333q0 43 -19.5 65.5t-55.5 22.5q-80 0 -117 -99q-34 -90 -34 -168q0 -88 74 -88q81 0 118 102q34 94 34 165zM442 647l-11 -47 q-2 -9 -4.5 -11t-11.5 -2h-216q-14 0 -14 6q0 3 1 5l10 51q2 13 17 13h218q12 0 12 -7q0 -5 -1 -8z"/>
    <glyph glyph-name="Obreve" unicode="Ŏ" horiz-adv-x="555" d="M543 498q0 -114 -40 -237t-111 -202q-66 -74 -166 -74q-177 0 -177 204q0 92 23.5 188.5t62.5 170.5q81 153 233 153q175 0 175 -203zM436 496q0 64 -18.5 92t-59.5 28q-53 0 -94.5 -50t-63.5 -123t-33 -139.5t-11 -115.5q0 -63 18.5 -90.5t59.5 -27.5q54 0 95.5 49.5 t63.5 122t32.5 138.5t10.5 116zM543 857q0 -16 -26 -57q-45 -64 -130 -64q-54 0 -83.5 29t-29.5 83q0 17 15 18l48 6h6q8 0 8 -7v-10q0 -53 44 -53q49 0 68 56q5 15 13 15q1 0 4 -0.5t5 -0.5l48 -7q10 -1 10 -8z"/>
    <glyph glyph-name="obreve" unicode="ŏ" horiz-adv-x="491" d="M456 329q0 -70 -23.5 -139t-64.5 -120q-68 -85 -181 -85q-159 0 -159 174q0 148 86 257q68 86 183 86q76 0 117.5 -45t41.5 -128zM355 333q0 43 -19.5 65.5t-55.5 22.5q-80 0 -117 -99q-34 -90 -34 -168q0 -88 74 -88q81 0 118 102q34 94 34 165zM459 678q0 -16 -26 -57 q-45 -64 -130 -64q-54 0 -83.5 29t-29.5 83q0 17 15 18l48 6h6q8 0 8 -7v-10q0 -53 44 -53q49 0 68 56q5 15 13 15q1 0 4 -0.5t5 -0.5l48 -7q10 -1 10 -8z"/>
    <glyph glyph-name="Ohungarumlaut" unicode="Ő" horiz-adv-x="555" d="M543 498q0 -114 -40 -237t-111 -202q-66 -74 -166 -74q-177 0 -177 204q0 92 23.5 188.5t62.5 170.5q81 153 233 153q175 0 175 -203zM436 496q0 64 -18.5 92t-59.5 28q-53 0 -94.5 -50t-63.5 -123t-33 -139.5t-11 -115.5q0 -63 18.5 -90.5t59.5 -27.5q54 0 95.5 49.5 t63.5 122t32.5 138.5t10.5 116zM624 860q6 -6 6 -10q0 -5 -8 -11l-147 -113q-7 -6 -10 -6t-9 6l-15 17q-5 5 -5 9q0 5 7 12l128 129q7 7 11 7t10 -6zM476 865q6 -6 6 -11t-8 -11l-147 -113q-7 -6 -10 -6t-9 6l-15 17q-5 5 -5 9q0 5 7 12l128 129q7 7 11 7q2 0 9 -5z"/>
    <glyph glyph-name="ohungarumlaut" unicode="ő" horiz-adv-x="491" d="M456 329q0 -70 -23.5 -139t-64.5 -120q-68 -85 -181 -85q-159 0 -159 174q0 148 86 257q68 86 183 86q76 0 117.5 -45t41.5 -128zM355 333q0 43 -19.5 65.5t-55.5 22.5q-80 0 -117 -99q-34 -90 -34 -168q0 -88 74 -88q81 0 118 102q34 94 34 165zM540 681q6 -6 6 -10 q0 -5 -8 -11l-147 -113q-7 -6 -10 -6t-9 6l-15 17q-5 5 -5 9q0 5 7 12l128 129q7 7 11 7t10 -6zM392 686q6 -6 6 -11t-8 -11l-147 -113q-7 -6 -10 -6t-9 6l-15 17q-5 5 -5 9q0 5 7 12l128 129q7 7 11 7q2 0 9 -5z"/>
    <glyph glyph-name="OE" unicode="Œ" horiz-adv-x="759" d="M810 664l-31 -56q-5 -10 -17 -10h-209l-42 -197h182q14 0 14 -9q0 -1 -0.5 -3.5t-0.5 -4.5l-13 -57q-2 -13 -15 -13h-186l-48 -226h227q12 0 12 -8l-1 -2v-3l-12 -62q-2 -13 -16 -13h-320q-6 0 -8 3.5t-4 14.5q-46 -33 -105 -33q-83 0 -126 53.5t-43 156.5 q0 57 10.5 121.5t35.5 133.5t60 124.5t89 91t118 35.5q59 0 93 -30q2 2 4.5 5.5t4 5t5 3t8.5 1.5h325q13 0 13 -9q0 -5 -4 -13zM442 570q-42 45 -87 45q-76 0 -131 -114q-67 -137 -67 -309q0 -63 18 -92t58 -29q55 0 113 44z"/>
    <glyph glyph-name="oe" unicode="œ" horiz-adv-x="750" d="M733 373q0 -53 -28 -91.5t-74.5 -57.5t-93.5 -27t-98 -8h-10q-1 -10 -1 -21q0 -100 88 -100q22 0 46 7.5t37 13.5t41 22q6 3 8 3q4 0 7 -5l23 -51l4 -10q0 -3 -10 -10q-81 -53 -178 -53q-52 0 -84.5 18.5t-55.5 60.5q-70 -79 -169 -79q-77 0 -116.5 43.5t-39.5 128.5 q0 145 76 245t187 100q51 0 83 -19t54 -63q64 82 167 82q65 0 101 -34t36 -95zM642 368q0 59 -62 59q-51 0 -86.5 -41.5t-51.5 -118.5q30 1 48.5 2t51 7t51.5 16t34 29.5t15 46.5zM352 333q0 88 -73 88q-77 0 -115 -99q-34 -86 -34 -168q0 -88 72 -88q78 0 116 102 q34 89 34 165z"/>
    <glyph glyph-name="Racute" unicode="Ŕ" horiz-adv-x="518" d="M523 538q0 -89 -45.5 -148t-121.5 -82l99 -280q3 -8 3 -12q0 -6 -10 -9l-77 -18q-8 -2 -10 -2q-6 0 -9 11l-93 298h-60l-61 -283q-2 -13 -16 -13h-74q-12 0 -12 12q0 6 1 9l139 652q2 13 16 13h143q89 0 138.5 -32.5t49.5 -115.5zM417 530q0 39 -21.5 55.5t-73.5 16.5 h-58l-47 -221h56q69 0 106.5 38.5t37.5 110.5zM470 882l30 -60q2 -6 2 -7q0 -5 -11 -9l-180 -74q-10 -4 -12 -4q-5 0 -8 7l-15 30q-3 5 -3 8q0 5 9 10l167 102q8 5 12 5t9 -8z"/>
    <glyph glyph-name="racute" unicode="ŕ" horiz-adv-x="324" d="M376 477l-31 -74q-3 -6 -7 -6l-2 1h-2q-13 4 -30 4q-36 0 -71 -38q-27 -29 -41 -59.5t-26 -85.5l-45 -208q-2 -11 -12 -11h-72q-11 0 -11 9q0 4 1 7l65 303q10 54 10 82q0 26 -6 50q-1 3 -1 9q0 9 8 12l62 26q4 2 8 2q8 0 14.5 -23t6.5 -53q0 -14 -2 -27q66 102 145 102 q21 0 32 -4q10 -3 10 -8q0 -4 -3 -10zM369 703l30 -60q2 -6 2 -7q0 -5 -11 -9l-180 -74q-10 -4 -12 -4q-5 0 -8 7l-15 30q-3 4 -3 8q0 5 9 10l167 102q8 5 12 5t9 -8z"/>
    <glyph glyph-name="Rcommaaccent" unicode="Ŗ" horiz-adv-x="518" d="M523 538q0 -89 -45.5 -148t-121.5 -82l99 -280q3 -8 3 -12q0 -6 -10 -9l-77 -18q-8 -2 -10 -2q-6 0 -9 11l-93 298h-60l-61 -283q-2 -13 -16 -13h-74q-12 0 -12 12q0 6 1 9l139 652q2 13 16 13h143q89 0 138.5 -32.5t49.5 -115.5zM417 530q0 39 -21.5 55.5t-73.5 16.5 h-58l-47 -221h56q69 0 106.5 38.5t37.5 110.5zM271 -75l-108 -152q-11 -14 -21 -14q-3 0 -11 2l-18 5q-12 4 -12 10q0 4 5 16l64 141q9 17 26 17h65q19 0 19 -8q0 -4 -9 -17z"/>
    <glyph glyph-name="rcommaaccent" unicode="ŗ" horiz-adv-x="324" d="M376 477l-31 -74q-3 -6 -7 -6l-2 1h-2q-13 4 -30 4q-36 0 -71 -38q-27 -29 -41 -59.5t-26 -85.5l-45 -208q-2 -11 -12 -11h-72q-11 0 -11 9q0 4 1 7l65 303q10 54 10 82q0 26 -6 50q-1 3 -1 9q0 9 8 12l62 26q4 2 8 2q8 0 14.5 -23t6.5 -53q0 -14 -2 -27q66 102 145 102 q21 0 32 -4q10 -3 10 -8q0 -4 -3 -10zM118 -74l-108 -152q-11 -14 -21 -14q-3 0 -11 2l-18 5q-12 4 -12 10q0 4 5 16l64 141q9 17 26 17h65q19 0 19 -8q0 -4 -9 -17z"/>
    <glyph glyph-name="Rcaron" unicode="Ř" horiz-adv-x="518" d="M523 538q0 -89 -45.5 -148t-121.5 -82l99 -280q3 -8 3 -12q0 -6 -10 -9l-77 -18q-8 -2 -10 -2q-6 0 -9 11l-93 298h-60l-61 -283q-2 -13 -16 -13h-74q-12 0 -12 12q0 6 1 9l139 652q2 13 16 13h143q89 0 138.5 -32.5t49.5 -115.5zM417 530q0 39 -21.5 55.5t-73.5 16.5 h-58l-47 -221h56q69 0 106.5 38.5t37.5 110.5zM361 825l96 56q8 5 11 5q4 0 10 -9l17 -30q3 -6 3 -9q0 -4 -8 -9l-130 -88q-10 -7 -13 -7t-10 7l-94 95q-6 6 -6 9q0 4 5 9l23 26q6 7 9 7q1 0 11 -6z"/>
    <glyph glyph-name="rcaron" unicode="ř" horiz-adv-x="324" d="M376 477l-31 -74q-3 -6 -7 -6l-2 1h-2q-13 4 -30 4q-36 0 -71 -38q-27 -29 -41 -59.5t-26 -85.5l-45 -208q-2 -11 -12 -11h-72q-11 0 -11 9q0 4 1 7l65 303q10 54 10 82q0 26 -6 50q-1 3 -1 9q0 9 8 12l62 26q4 2 8 2q8 0 14.5 -23t6.5 -53q0 -14 -2 -27q66 102 145 102 q21 0 32 -4q10 -3 10 -8q0 -4 -3 -10zM260 646l96 56q8 5 11 5q4 0 10 -9l17 -30q3 -6 3 -9q0 -4 -8 -9l-130 -88q-10 -7 -13 -7t-10 7l-94 95q-6 6 -6 9q0 4 5 9l23 26q6 7 9 7q1 0 11 -6z"/>
    <glyph glyph-name="Sacute" unicode="Ś" horiz-adv-x="472" d="M491 639l-33 -56q-8 -12 -14 -12q-5 0 -10 4q-33 21 -57 30t-57 9q-53 0 -85.5 -30t-32.5 -77q0 -28 12.5 -47t49.5 -45l44 -31q62 -43 87 -82.5t25 -92.5q0 -104 -73 -166q-65 -56 -172 -56q-88 0 -164 40q-15 7 -15 14q0 4 5 14l32 58q4 7 9 7q2 0 8 -2l22 -11t25 -12 t23.5 -9t30.5 -7.5t34 -2.5q58 0 91 31.5t33 84.5q0 32 -13.5 53t-54.5 52l-73 57q-41 34 -57.5 66t-16.5 75q0 105 78 161q59 43 161 43q87 0 141 -33q19 -13 19 -19q0 -5 -2 -8zM458 882l30 -60q2 -6 2 -7q0 -5 -11 -9l-180 -74q-10 -4 -12 -4q-5 0 -8 7l-15 30q-3 5 -3 8 q0 5 9 10l167 102q8 5 12 5t9 -8z"/>
    <glyph glyph-name="sacute" unicode="ś" horiz-adv-x="380" d="M361 454l-22 -47q-3 -7 -10 -7q-4 0 -18 6q-41 18 -73 18q-36 0 -57.5 -18.5t-21.5 -48.5q0 -15 6.5 -25t15 -16t37.5 -25l39 -25q39 -25 54 -49t15 -63q0 -77 -50 -123t-134 -46q-78 0 -143 36q-12 8 -12 12t3 10l18 49q2 6 10 6q7 0 15 -4q57 -31 113 -31q39 0 62.5 20 t23.5 54q0 23 -11 36t-44 33l-46 28q-37 22 -51.5 46t-14.5 60q0 73 48.5 117.5t127.5 44.5q71 0 112 -28q10 -6 10 -13q0 -1 -2 -7zM380 703l30 -60q2 -6 2 -7q0 -5 -11 -9l-180 -74q-10 -4 -12 -4q-5 0 -8 7l-15 30q-3 4 -3 8q0 5 9 10l167 102q8 5 12 5t9 -8z"/>
    <glyph glyph-name="Scircumflex" unicode="Ŝ" horiz-adv-x="472" d="M491 639l-33 -56q-8 -12 -14 -12q-5 0 -10 4q-33 21 -57 30t-57 9q-53 0 -85.5 -30t-32.5 -77q0 -28 12.5 -47t49.5 -45l44 -31q62 -43 87 -82.5t25 -92.5q0 -104 -73 -166q-65 -56 -172 -56q-88 0 -164 40q-15 7 -15 14q0 4 5 14l32 58q4 7 9 7q2 0 8 -2l22 -11t25 -12 t23.5 -9t30.5 -7.5t34 -2.5q58 0 91 31.5t33 84.5q0 32 -13.5 53t-54.5 52l-73 57q-41 34 -57.5 66t-16.5 75q0 105 78 161q59 43 161 43q87 0 141 -33q19 -13 19 -19q0 -5 -2 -8zM468 766l-23 -25q-6 -7 -10 -7q-3 0 -10 6l-76 55l-96 -55q-8 -5 -12 -5q-5 0 -9 8l-17 31 q-1 1 -2 3l-1.5 3t-0.5 2q0 5 9 10l130 88q8 6 12 6t11 -7l94 -94q6 -6 6 -10q0 -2 -5 -9z"/>
    <glyph glyph-name="scircumflex" unicode="ŝ" horiz-adv-x="380" d="M361 454l-22 -47q-3 -7 -10 -7q-4 0 -18 6q-41 18 -73 18q-36 0 -57.5 -18.5t-21.5 -48.5q0 -15 6.5 -25t15 -16t37.5 -25l39 -25q39 -25 54 -49t15 -63q0 -77 -50 -123t-134 -46q-78 0 -143 36q-12 8 -12 12t3 10l18 49q2 6 10 6q7 0 15 -4q57 -31 113 -31q39 0 62.5 20 t23.5 54q0 23 -11 36t-44 33l-46 28q-37 22 -51.5 46t-14.5 60q0 73 48.5 117.5t127.5 44.5q71 0 112 -28q10 -6 10 -13q0 -1 -2 -7zM390 587l-23 -25q-6 -7 -10 -7q-3 0 -10 6l-76 55l-96 -55q-8 -5 -12 -5q-5 0 -9 8l-17 31q-1 1 -2 3l-1.5 3t-0.5 2q0 5 9 10l130 88 q8 6 12 6t11 -7l94 -94q6 -6 6 -10q0 -2 -5 -9z"/>
    <glyph glyph-name="Scedilla" unicode="Ş" horiz-adv-x="472" d="M251 -115q0 -42 -30 -67t-80 -25q-71 0 -71 17v3q0 2 1 5l12 35q1 6 7 6q2 0 8 -2q17 -6 37 -6q40 0 40 27q0 4 -1.5 7.5t-5 6t-6.5 4t-8 2.5t-8 1.5t-8.5 1t-7.5 0.5q-16 1 -16 7q0 3 1 6l22 75q-70 8 -126 38q-15 7 -15 14q0 4 5 14l32 58q4 7 9 7q2 0 8 -2l22 -11 t25 -12t23.5 -9t30.5 -7.5t34 -2.5q58 0 91 31.5t33 84.5q0 32 -13.5 53t-54.5 52l-73 57q-41 34 -57.5 66t-16.5 75q0 105 78 161q59 43 161 43q87 0 141 -33q19 -13 19 -19q0 -5 -2 -8l-33 -56q-8 -12 -14 -12q-5 0 -10 4q-33 21 -57 30t-57 9q-53 0 -85.5 -30t-32.5 -77 q0 -28 12.5 -47t49.5 -45l44 -31q62 -43 87 -82.5t25 -92.5q0 -104 -73 -166q-55 -47 -143 -55l-12 -45q59 -8 59 -58z"/>
    <glyph glyph-name="scedilla" unicode="ş" horiz-adv-x="380" d="M211 -115q0 -42 -30 -67t-80 -25q-71 0 -71 17v3q0 2 1 5l12 35q1 6 7 6q2 0 8 -2q17 -6 37 -6q40 0 40 27q0 4 -1.5 7.5t-5 6t-6.5 4t-8 2.5t-8 1.5t-8.5 1t-7.5 0.5q-16 1 -16 7q0 3 1 6l22 75q-54 7 -98 32q-12 8 -12 12t3 10l18 49q2 6 10 6q7 0 15 -4 q57 -31 113 -31q39 0 62.5 20t23.5 54q0 23 -11 36t-44 33l-46 28q-37 22 -51.5 46t-14.5 60q0 73 48.5 117.5t127.5 44.5q71 0 112 -28q10 -6 10 -13q0 -1 -2 -7l-22 -47q-3 -7 -10 -7q-4 0 -18 6q-41 18 -73 18q-36 0 -57.5 -18.5t-21.5 -48.5q0 -15 6.5 -25t15 -16 t37.5 -25l39 -25q39 -25 54 -49t15 -63q0 -72 -44 -117t-119 -51l-11 -43q59 -8 59 -58z"/>
    <glyph glyph-name="Scaron" unicode="Š" horiz-adv-x="472" d="M475 849q3 -6 3 -9q0 -4 -8 -9l-130 -88q-10 -7 -13 -7t-10 7l-94 95q-6 6 -6 9q0 4 5 9l23 26q6 7 9 7q1 0 11 -6l76 -56l96 56q8 5 11 5q4 0 10 -9zM491 639l-33 -56q-8 -12 -14 -12q-5 0 -10 4q-33 21 -57 30t-57 9q-53 0 -85.5 -30t-32.5 -77q0 -28 12.5 -47 t49.5 -45l44 -31q62 -43 87 -82.5t25 -92.5q0 -104 -73 -166q-65 -56 -172 -56q-88 0 -164 40q-15 7 -15 14q0 4 5 14l32 58q4 7 9 7q2 0 8 -2q5 -2 27.5 -13.5t32.5 -15t31.5 -8.5t43.5 -5q58 0 91 31.5t33 84.5q0 32 -13.5 53t-54.5 52l-73 57q-41 34 -57.5 66t-16.5 75 q0 105 78 161q59 43 161 43q87 0 141 -33q19 -13 19 -19q0 -5 -2 -8z"/>
    <glyph glyph-name="scaron" unicode="š" horiz-adv-x="380" d="M395 668q3 -6 3 -9q0 -4 -8 -9l-130 -88q-10 -7 -13 -7t-10 7l-94 95q-6 6 -6 9q0 4 5 9l23 26q6 7 9 7q1 0 11 -6l76 -56l96 56q8 5 11 5q4 0 10 -9zM361 454l-22 -47q-3 -7 -10 -7q-4 0 -18 6q-41 18 -73 18q-36 0 -57.5 -18.5t-21.5 -48.5q0 -15 6.5 -25t15 -16 t37.5 -25l39 -25q39 -25 54 -49t15 -63q0 -77 -50 -123t-134 -46q-78 0 -143 36q-12 8 -12 12t3 10l18 49q2 6 10 6q7 0 15 -4q57 -31 113 -31q39 0 62.5 20t23.5 54q0 23 -11 36t-44 33l-46 28q-37 22 -51.5 46t-14.5 60q0 73 48.5 117.5t127.5 44.5q71 0 112 -28 q10 -6 10 -13q0 -1 -2 -7z"/>
    <glyph glyph-name="Tcedilla" unicode="Ţ" horiz-adv-x="407" d="M512 670l-33 -67q-5 -11 -17 -11h-136l-123 -579q-2 -13 -16 -13h-76q-13 0 -13 9q0 2 2 10l121 573h-139q-12 0 -12 10q0 4 1 7l14 65q2 12 16 12h401q12 0 12 -8q0 -5 -2 -8zM184 -75l-108 -152q-11 -14 -21 -14q-3 0 -11 2l-18 5q-12 4 -12 10q0 4 5 16l64 141 q9 17 26 17h65q19 0 19 -8q0 -4 -9 -17z"/>
    <glyph glyph-name="tcedilla" unicode="ţ" horiz-adv-x="343" d="M377 470l-20 -48q-3 -9 -13 -9h-125l-55 -257q-6 -27 -6 -48q0 -41 43 -41q13 0 26 3t34 11t26 9q6 2 7 2q4 0 6 -6l11 -48q1 -4 1 -8q0 -6 -14 -13q-64 -32 -132 -32q-108 0 -108 100q0 26 8 62l56 266h-70q-10 0 -10 7q0 3 2 11l9 45q2 11 13 11h72l28 131q3 11 12 12 l74 14h5q9 0 9 -8v-2q-1 -3 -1 -4l-31 -143h135q11 0 11 -7q0 -2 -1 -6q-2 -2 -2 -4zM210 -75l-108 -152q-11 -14 -21 -14q-3 0 -11 2l-18 5q-12 4 -12 10q0 4 5 16l64 141q9 17 26 17h65q19 0 19 -8q0 -4 -9 -17z"/>
    <glyph glyph-name="Tcaron" unicode="Ť" horiz-adv-x="407" d="M512 670l-33 -67q-5 -11 -17 -11h-136l-123 -579q-2 -13 -16 -13h-76q-13 0 -13 9q0 2 2 10l121 573h-139q-12 0 -12 10q0 4 1 7l14 65q2 12 16 12h401q12 0 12 -8q0 -5 -2 -8zM314 825l96 56q8 5 11 5q4 0 10 -9l17 -30q3 -6 3 -9q0 -4 -8 -9l-130 -88q-10 -7 -13 -7 t-10 7l-94 95q-6 6 -6 9q0 4 5 9l23 26q6 7 9 7q1 0 11 -6z"/>
    <glyph glyph-name="tcaron" unicode="ť" horiz-adv-x="343" d="M377 470l-20 -48q-3 -9 -13 -9h-125l-55 -257q-6 -27 -6 -48q0 -41 43 -41q13 0 26 3t34 11t26 9q6 2 7 2q4 0 6 -6l11 -48q1 -4 1 -8q0 -6 -14 -13q-64 -32 -132 -32q-108 0 -108 100q0 26 8 62l56 266h-70q-10 0 -10 7q0 3 2 11l9 45q2 11 13 11h72l28 131q3 11 12 12 l74 14h5q9 0 9 -8v-2q-1 -3 -1 -4l-31 -143h135q11 0 11 -7q0 -2 -1 -6q-2 -2 -2 -4zM480 703l-108 -152q-11 -14 -21 -14q-3 0 -11 2l-18 5q-12 4 -12 10q0 4 5 16l64 141q9 17 26 17h65q19 0 19 -8q0 -4 -9 -17z"/>
    <glyph glyph-name="Tbar" unicode="Ŧ" horiz-adv-x="407" d="M512 670l-33 -67q-5 -11 -17 -11h-136l-42 -197h98q12 0 12 -7q0 -1 -0.5 -3t-0.5 -4l-10 -46q-4 -14 -17 -14h-98l-65 -308q-2 -13 -16 -13h-76q-13 0 -13 9q0 2 2 10l64 302h-96q-12 0 -12 6q0 5 1 8l10 46q1 9 4.5 11.5t12.5 2.5h95l42 197h-139q-12 0 -12 10q0 4 1 7 l14 65q2 12 16 12h401q12 0 12 -8q0 -5 -2 -8z"/>
    <glyph glyph-name="tbar" unicode="ŧ" horiz-adv-x="343" d="M377 470l-20 -48q-3 -9 -13 -9h-125l-23 -108h95q12 0 12 -7q0 -1 -0.5 -3t-0.5 -4l-9 -39q-4 -14 -17 -14h-95l-17 -82q-6 -27 -6 -48q0 -41 43 -41q13 0 26 3t34 11t26 9q6 2 7 2q4 0 6 -6l11 -48q1 -4 1 -8q0 -6 -14 -13q-64 -32 -132 -32q-108 0 -108 100q0 26 8 62 l19 91h-62q-12 0 -12 6q0 5 1 8l9 39q1 9 4.5 11.5t12.5 2.5h61l23 108h-70q-10 0 -10 7q0 3 2 11l9 45q2 11 13 11h72l28 131q3 11 12 12l74 14h5q9 0 9 -8v-2q-1 -3 -1 -4l-31 -143h135q11 0 11 -7q0 -2 -1 -6q-2 -2 -2 -4z"/>
    <glyph glyph-name="Utilde" unicode="Ũ" horiz-adv-x="592" d="M606 671l-98 -461q-15 -72 -35.5 -112.5t-70.5 -72.5q-61 -38 -153 -38q-187 0 -187 149q0 35 9 74l98 463q2 13 17 13h73q15 0 15 -10v-4l-99 -462q-7 -33 -7 -58q0 -78 94 -78q115 0 144 135l99 464q2 13 17 13h73q12 0 12 -9q0 -1 -0.5 -3t-0.5 -3zM559 825 q-16 -28 -47 -49t-61 -21q-27 0 -55 19t-42 19q-20 0 -49 -34q-4 -5 -8 -5q-2 0 -9 5l-28 22q-5 4 -5 8t7 13q46 65 102 65q25 0 57 -19t43 -19q23 0 47 32q3 6 9 6q4 0 7 -3l28 -22q7 -7 7 -9q0 -3 -3 -8z"/>
    <glyph glyph-name="utilde" unicode="ũ" horiz-adv-x="509" d="M479 477l-72 -331q-8 -35 -8 -63t9 -55v-4q0 -4 -7 -8l-63 -28q-4 -2 -8 -2q-20 0 -20 70v15q0 6 1 13q-80 -99 -169 -99q-48 0 -75 26t-27 74q0 32 11 78l67 305q2 10 13 12l74 16h5q6 0 6 -8q0 -6 -1 -10l-65 -297q-9 -43 -9 -63t12.5 -32.5t32.5 -12.5q60 0 106 68 q29 42 44 112l46 215q1 6 2 7.5t3 3t7 2.5l70 15q3 1 8 1q8 0 8 -10q0 -6 -1 -10zM475 646q-16 -28 -47 -49t-61 -21q-27 0 -55 19t-42 19q-20 0 -49 -34q-4 -5 -8 -5q-2 0 -9 5l-28 22q-5 4 -5 8t7 13q46 65 102 65q25 0 57 -19t43 -19q23 0 47 32q3 6 9 6q4 0 7 -3l28 -22 q7 -7 7 -9q0 -4 -3 -8z"/>
    <glyph glyph-name="Umacron" unicode="Ū" horiz-adv-x="592" d="M606 671l-98 -461q-15 -72 -35.5 -112.5t-70.5 -72.5q-61 -38 -153 -38q-187 0 -187 149q0 35 9 74l98 463q2 13 17 13h73q15 0 15 -10v-4l-99 -462q-7 -33 -7 -58q0 -78 94 -78q115 0 144 135l99 464q2 13 17 13h73q12 0 12 -9q0 -1 -0.5 -3t-0.5 -3zM534 826l-11 -47 q-2 -9 -4.5 -11t-11.5 -2h-216q-14 0 -14 6q0 3 1 5l10 51q2 13 17 13h218q12 0 12 -7q0 -5 -1 -8z"/>
    <glyph glyph-name="umacron" unicode="ū" horiz-adv-x="509" d="M479 477l-72 -331q-8 -35 -8 -63t9 -55v-4q0 -4 -7 -8l-63 -28q-4 -2 -8 -2q-20 0 -20 70v15q0 6 1 13q-80 -99 -169 -99q-48 0 -75 26t-27 74q0 32 11 78l67 305q2 10 13 12l74 16h5q6 0 6 -8q0 -6 -1 -10l-65 -297q-9 -43 -9 -63t12.5 -32.5t32.5 -12.5q60 0 106 68 q29 42 44 112l46 215q1 6 2 7.5t3 3t7 2.5l70 15q3 1 8 1q8 0 8 -10q0 -6 -1 -10zM460 647l-11 -47q-2 -9 -4.5 -11t-11.5 -2h-216q-14 0 -14 6q0 3 1 5l10 51q2 13 17 13h218q12 0 12 -7q0 -5 -1 -8z"/>
    <glyph glyph-name="Ubreve" unicode="Ŭ" horiz-adv-x="592" d="M606 671l-98 -461q-15 -72 -35.5 -112.5t-70.5 -72.5q-61 -38 -153 -38q-187 0 -187 149q0 35 9 74l98 463q2 13 17 13h73q15 0 15 -10v-4l-99 -462q-7 -33 -7 -58q0 -78 94 -78q115 0 144 135l99 464q2 13 17 13h73q12 0 12 -9q0 -1 -0.5 -3t-0.5 -3zM551 857 q0 -16 -26 -57q-45 -64 -130 -64q-54 0 -83.5 29t-29.5 83q0 17 15 18l48 6h6q8 0 8 -7v-10q0 -53 44 -53q49 0 68 56q5 15 13 15q1 0 4 -0.5t5 -0.5l48 -7q10 -1 10 -8z"/>
    <glyph glyph-name="ubreve" unicode="ŭ" horiz-adv-x="509" d="M479 477l-72 -331q-8 -35 -8 -63t9 -55v-4q0 -4 -7 -8l-63 -28q-4 -2 -8 -2q-20 0 -20 70v15q0 6 1 13q-80 -99 -169 -99q-48 0 -75 26t-27 74q0 32 11 78l67 305q2 10 13 12l74 16h5q6 0 6 -8q0 -6 -1 -10l-65 -297q-9 -43 -9 -63t12.5 -32.5t32.5 -12.5q60 0 106 68 q29 42 44 112l46 215q1 6 2 7.5t3 3t7 2.5l70 15q3 1 8 1q8 0 8 -10q0 -6 -1 -10zM477 678q0 -16 -26 -57q-45 -64 -130 -64q-54 0 -83.5 29t-29.5 83q0 17 15 18l48 6h6q8 0 8 -7v-10q0 -53 44 -53q49 0 68 56q5 15 13 15q1 0 4 -0.5t5 -0.5l48 -7q10 -1 10 -8z"/>
    <glyph glyph-name="Uring" unicode="Ů" horiz-adv-x="592" d="M606 671l-98 -461q-15 -72 -35.5 -112.5t-70.5 -72.5q-61 -38 -153 -38q-187 0 -187 149q0 35 9 74l98 463q2 13 17 13h73q15 0 15 -10v-4l-99 -462q-7 -33 -7 -58q0 -78 94 -78q115 0 144 135l99 464q2 13 17 13h73q12 0 12 -9q0 -1 -0.5 -3t-0.5 -3zM499 814 q0 -40 -28.5 -67.5t-69.5 -27.5t-69.5 28t-28.5 68q0 39 29 67t69 28q41 0 69.5 -28t28.5 -68zM444 814q0 19 -12.5 32t-30.5 13t-30.5 -13.5t-12.5 -31.5t12.5 -31.5t30.5 -13.5q17 0 30 13.5t13 31.5z"/>
    <glyph glyph-name="uring" unicode="ů" horiz-adv-x="509" d="M479 477l-72 -331q-8 -35 -8 -63t9 -55v-4q0 -4 -7 -8l-63 -28q-4 -2 -8 -2q-20 0 -20 70v15q0 6 1 13q-80 -99 -169 -99q-48 0 -75 26t-27 74q0 32 11 78l67 305q2 10 13 12l74 16h5q6 0 6 -8q0 -6 -1 -10l-65 -297q-9 -43 -9 -63t12.5 -32.5t32.5 -12.5q60 0 106 68 q29 42 44 112l46 215q1 6 2 7.5t3 3t7 2.5l70 15q3 1 8 1q8 0 8 -10q0 -6 -1 -10zM425 635q0 -40 -28.5 -67.5t-69.5 -27.5t-69.5 28t-28.5 68q0 39 29 67t69 28q41 0 69.5 -28t28.5 -68zM370 635q0 19 -12.5 32t-30.5 13t-30.5 -13.5t-12.5 -31.5t12.5 -31.5t30.5 -13.5 q17 0 30 13.5t13 31.5z"/>
    <glyph glyph-name="Uhungarumlaut" unicode="Ű" horiz-adv-x="592" d="M606 671l-98 -461q-15 -72 -35.5 -112.5t-70.5 -72.5q-61 -38 -153 -38q-187 0 -187 149q0 35 9 74l98 463q2 13 17 13h73q15 0 15 -10v-4l-99 -462q-7 -33 -7 -58q0 -78 94 -78q115 0 144 135l99 464q2 13 17 13h73q12 0 12 -9q0 -1 -0.5 -3t-0.5 -3zM632 860 q6 -6 6 -10q0 -5 -8 -11l-147 -113q-7 -6 -10 -6t-9 6l-15 17q-5 5 -5 9q0 5 7 12l128 129q7 7 11 7t10 -6zM484 865q6 -6 6 -11t-8 -11l-147 -113q-7 -6 -10 -6t-9 6l-15 17q-5 5 -5 9q0 5 7 12l128 129q7 7 11 7q2 0 9 -5z"/>
    <glyph glyph-name="uhungarumlaut" unicode="ű" horiz-adv-x="509" d="M479 477l-72 -331q-8 -35 -8 -63t9 -55v-4q0 -4 -7 -8l-63 -28q-4 -2 -8 -2q-20 0 -20 70v15q0 6 1 13q-80 -99 -169 -99q-48 0 -75 26t-27 74q0 32 11 78l67 305q2 10 13 12l74 16h5q6 0 6 -8q0 -6 -1 -10l-65 -297q-9 -43 -9 -63t12.5 -32.5t32.5 -12.5q60 0 106 68 q29 42 44 112l46 215q1 6 2 7.5t3 3t7 2.5l70 15q3 1 8 1q8 0 8 -10q0 -6 -1 -10zM558 681q6 -6 6 -10q0 -5 -8 -11l-147 -113q-7 -6 -10 -6t-9 6l-15 17q-5 5 -5 9q0 5 7 12l128 129q7 7 11 7t10 -6zM410 686q6 -6 6 -11t-8 -11l-147 -113q-8 -6 -10 -6q-3 0 -9 6l-15 17 q-5 5 -5 9q0 5 7 12l128 129q7 7 11 7q2 0 9 -5z"/>
    <glyph glyph-name="Uogonek" unicode="Ų" horiz-adv-x="592" d="M606 671l-98 -461q-15 -72 -35.5 -112.5t-70.5 -72.5q-30 -20 -64 -27q-56 -55 -56 -101q0 -20 25 -20q21 0 50 12q2 1 5.5 2.5t4.5 1.5q3 0 6 -7l10 -37q0 -1 0.5 -2.5t0.5 -2.5q0 -7 -14 -13q-41 -22 -85 -22q-37 0 -57.5 17.5t-20.5 48.5q0 53 67 113q-8 -1 -25 -1 q-187 0 -187 149q0 35 9 74l98 463q2 13 17 13h73q15 0 15 -10v-4l-99 -462q-7 -33 -7 -58q0 -78 94 -78q115 0 144 135l99 464q2 13 17 13h73q12 0 12 -9q0 -1 -0.5 -3t-0.5 -3z"/>
    <glyph glyph-name="uogonek" unicode="ų" horiz-adv-x="509" d="M398 -114l10 -37q0 -1 0.5 -2.5t0.5 -2.5q0 -7 -14 -13q-41 -22 -85 -22q-37 0 -57.5 17.5t-20.5 48.5q0 60 84 127q-6 18 -6 54v15q0 6 1 13q-80 -99 -169 -99q-48 0 -75 26t-27 74q0 32 11 78l67 305q2 10 13 12l74 16h5q6 0 6 -8q0 -6 -1 -10l-65 -297q-9 -43 -9 -63 t12.5 -32.5t32.5 -12.5q60 0 106 68q29 42 44 112l46 215q1 6 2 7.5t3 3t7 2.5l70 15q3 1 8 1q8 0 8 -10q0 -6 -1 -10l-72 -331q-8 -35 -8 -63t9 -55v-4q0 -4 -7 -8l-34 -15q-60 -56 -60 -104q0 -20 25 -20q22 0 50 12q2 1 5.5 2.5t4.5 1.5q3 0 6 -7z"/>
    <glyph glyph-name="Wcircumflex" unicode="Ŵ" horiz-adv-x="704" d="M772 659l-281 -653q-5 -11 -17 -11h-72q-10 0 -12.5 4t-2.5 14l15 366q0 58 8 146q-14 -41 -57 -145l-159 -374q-5 -11 -17 -11h-73q-15 0 -15 17l12 651q0 14 14 16l72 13q2 0 4 0.5t3 0.5q9 0 9 -12v-5l-22 -431q-4 -59 -12 -125q28 84 45 125l182 430q5 11 16 11h64 q10 0 12.5 -3.5t2.5 -13.5l-12 -422q-1 -32 -9 -122q22 77 39 122l169 435q4 11 11 11q1 0 3 -0.5t3 -0.5l71 -15q8 -1 8 -10q0 -2 -2 -8zM585 766l-23 -25q-6 -7 -10 -7q-2 0 -10 6l-76 55l-96 -55q-8 -5 -12 -5q-5 0 -9 8l-17 31q-1 1 -2 3l-1.5 3t-0.5 2q0 5 9 10l130 88 q7 6 12 6q4 0 11 -7l94 -94q6 -6 6 -10q0 -2 -5 -9z"/>
    <glyph glyph-name="wcircumflex" unicode="ŵ" horiz-adv-x="620" d="M653 466l-229 -465q-3 -8 -14 -8h-65q-7 0 -9 2t-2 9l-2 286q0 50 3 75q-13 -35 -31 -75l-136 -288q-4 -9 -14 -9h-60q-12 0 -12 11l-20 462v4q0 9 10 11l65 12q3 1 9 1q11 0 11 -12l-3 -289q0 -29 -4 -87q14 42 39 95l129 277q4 9 13 9h64q11 0 11 -11l2 -282 q0 -46 -3 -91q10 34 38 99l121 284q3 8 10 8q5 0 8 -1l63 -12q11 -3 11 -7q0 -3 -3 -8zM504 587l-23 -25q-6 -7 -10 -7q-2 0 -10 6l-76 55l-96 -55q-8 -5 -12 -5q-5 0 -9 8l-17 31q-1 1 -2 3l-1.5 3t-0.5 2q0 5 9 10l130 88q8 6 12 6t11 -7l94 -94q6 -6 6 -10q0 -2 -5 -9z "/>
    <glyph glyph-name="Ycircumflex" unicode="Ŷ" horiz-adv-x="444" d="M543 655l-261 -370l-58 -272q-2 -13 -17 -13h-75q-13 0 -13 9q0 4 1 7l57 270l-108 370q-2 6 -2 7q0 8 10 11l76 19q8 2 11 2q8 0 11 -11l44 -177q22 -85 26 -132q17 35 57 95l141 216q5 8 13 8q2 0 12 -2l67 -17q12 -3 12 -11q0 -3 -4 -9zM449 766l-23 -25q-6 -7 -10 -7 q-2 0 -10 6l-76 55l-96 -55q-8 -5 -12 -5q-5 0 -9 8l-17 31q-1 1 -2 3l-1.5 3t-0.5 2q0 5 9 10l130 88q8 6 12 6t11 -7l94 -94q6 -6 6 -10q0 -2 -5 -9z"/>
    <glyph glyph-name="ycircumflex" unicode="ŷ" horiz-adv-x="426" d="M458 460l-189 -401q-44 -93 -62 -126q-37 -71 -79 -109.5t-109 -38.5q-55 0 -103 28q-11 7 -11 13q0 5 4 10l30 50q3 6 7 6q1 0 7 -2q5 -2 15.5 -7.5t16.5 -8t17 -5t23 -2.5q56 0 94 71l33 62h-37q-12 0 -13 11l-60 452q0 2 -0.5 4.5t-0.5 3.5q0 6 9 7l73 15q3 1 9 1 q7 0 8 -10l27 -254q14 -152 15 -171l70 165l115 264q4 8 10 8q2 0 10 -2l66 -16q8 -3 8 -8q0 -1 -3 -10zM398 587l-23 -25q-6 -7 -10 -7q-3 0 -10 6l-76 55l-96 -55q-8 -5 -12 -5q-5 0 -9 8l-17 31q-1 1 -2 3l-1.5 3t-0.5 2q0 5 9 10l130 88q8 6 12 6t11 -7l94 -94 q6 -6 6 -10q0 -2 -5 -9z"/>
    <glyph glyph-name="Ydieresis" unicode="Ÿ" horiz-adv-x="444" d="M482 798q0 -26 -17 -43.5t-42 -17.5t-43 17.5t-18 42.5t17.5 42.5t42.5 17.5t42.5 -17t17.5 -42zM296 797q0 -25 -18 -42.5t-43 -17.5t-42.5 17.5t-17.5 42.5t17.5 42.5t42.5 17.5t43 -17.5t18 -42.5zM543 655l-261 -370l-58 -272q-2 -13 -17 -13h-75q-13 0 -13 9 q0 4 1 7l57 270l-108 370q-2 6 -2 7q0 8 10 11l76 19q8 2 11 2q8 0 11 -11l44 -177q22 -85 26 -132q17 35 57 95l141 216q5 8 13 8q2 0 12 -2l67 -17q12 -3 12 -11q0 -3 -4 -9z"/>
    <glyph glyph-name="Zacute" unicode="Ź" horiz-adv-x="444" d="M509 669l-16 -68l-389 -506h293q13 0 13 -9q0 -2 -2 -8l-20 -66q-4 -12 -17 -12h-393q-12 0 -12 8q0 5 1 9l13 66l392 512h-249q-14 0 -14 7q0 4 3 10l26 59q6 15 17 15h341q14 0 14 -11q0 -4 -1 -6zM456 882l30 -60q2 -6 2 -7q0 -5 -11 -9l-180 -74q-10 -4 -12 -4 q-5 0 -8 7l-15 30q-3 5 -3 8q0 5 9 10l167 102q8 5 12 5t9 -8z"/>
    <glyph glyph-name="zacute" unicode="ź" horiz-adv-x="407" d="M424 472l-12 -54l-302 -336h240q8 0 8 -5q0 -4 -5 -11l-37 -57q-6 -9 -17 -9h-313q-11 0 -11 8q0 4 1 6l12 55l309 337h-203q-10 0 -10 8q0 4 1 7l11 55q2 11 14 11h304q11 0 11 -9q0 -1 -0.5 -3t-0.5 -3zM393 703l30 -60q2 -6 2 -7q0 -5 -11 -9l-180 -74q-10 -4 -12 -4 q-5 0 -8 7l-15 30q-3 4 -3 8q0 5 9 10l167 102q8 5 12 5t9 -8z"/>
    <glyph glyph-name="Zdotaccent" unicode="Ż" horiz-adv-x="444" d="M509 669l-16 -68l-389 -506h293q13 0 13 -9q0 -2 -2 -8l-20 -66q-4 -12 -17 -12h-393q-12 0 -12 8q0 5 1 9l13 66l392 512h-249q-14 0 -14 7q0 4 3 10l26 59q6 15 17 15h341q14 0 14 -11q0 -4 -1 -6zM410 809q0 -28 -19 -47t-46 -19t-46.5 19.5t-19.5 46.5q0 26 20 45 t46 19q27 0 46 -19t19 -45z"/>
    <glyph glyph-name="zdotaccent" unicode="ż" horiz-adv-x="407" d="M424 472l-12 -54l-302 -336h240q8 0 8 -5q0 -4 -5 -11l-37 -57q-6 -9 -17 -9h-313q-11 0 -11 8q0 4 1 6l12 55l309 337h-203q-10 0 -10 8q0 4 1 7l11 55q2 11 14 11h304q11 0 11 -9q0 -1 -0.5 -3t-0.5 -3zM347 630q0 -28 -19 -47t-46 -19t-46.5 19.5t-19.5 46.5 q0 26 20 45t46 19q27 0 46 -19t19 -45z"/>
    <glyph glyph-name="Zcaron" unicode="Ž" horiz-adv-x="444" d="M475 849q3 -6 3 -9q0 -4 -8 -9l-130 -88q-10 -7 -13 -7t-10 7l-94 95q-6 6 -6 9q0 4 5 9l23 26q6 7 9 7q1 0 11 -6l76 -56l96 56q8 5 11 5q4 0 10 -9zM509 669l-16 -68l-389 -506h293q13 0 13 -9q0 -2 -2 -8l-20 -66q-4 -12 -17 -12h-393q-12 0 -12 8q0 5 1 9l13 66 l392 512h-249q-14 0 -14 7q0 4 3 10l26 59q6 15 17 15h341q14 0 14 -11q0 -4 -1 -6z"/>
    <glyph glyph-name="zcaron" unicode="ž" horiz-adv-x="407" d="M415 668q3 -6 3 -9q0 -4 -8 -9l-130 -88q-10 -7 -13 -7t-10 7l-94 95q-6 6 -6 9q0 4 5 9l23 26q6 7 9 7q1 0 11 -6l76 -56l96 56q8 5 11 5q4 0 10 -9zM424 472l-12 -54l-302 -336h240q8 0 8 -5q0 -4 -5 -11l-37 -57q-6 -9 -17 -9h-313q-11 0 -11 8q0 4 1 6l12 55l309 337 l-203 1q-10 0 -10 7q0 4 1 7l11 55q2 11 14 11h304q11 0 11 -9q0 -1 -0.5 -3t-0.5 -3z"/>
    <glyph glyph-name="florin" unicode="ƒ" horiz-adv-x="509" d="M562 681l-24 -54q-3 -6 -8 -6q-4 0 -14 5q-33 13 -60 13q-32 0 -50.5 -19.5t-31.5 -67.5l-17 -65h125q12 0 12 -7q0 -3 -2 -7l-19 -49q-4 -11 -13 -11h-4h-120l-110 -425q-25 -97 -69.5 -144.5t-135.5 -47.5q-47 0 -68 8q-12 4 -12 9q0 3 4 11l21 54q2 6 7 6h4 q20 -4 45 -4q46 0 69 24.5t41 93.5l109 415h-67q-13 0 -13 5q0 2 2 10l13 46q2 9 4.5 11t12.5 2h70l21 81q20 79 60.5 115t117.5 36q21 0 53 -6t47 -17q3 -3 3 -6z"/>
    <glyph glyph-name="AEacute" unicode="Ǽ" horiz-adv-x="731" d="M783 668l-32 -60q-5 -10 -17 -10h-209l-42 -197h182q13 0 13 -9q0 -1 -0.5 -3t-0.5 -4l-11 -57q-2 -8 -5 -11t-11 -3h-186l-47 -226h225q14 0 14 -10q0 -1 -0.5 -3t-0.5 -3l-14 -61q-2 -11 -15 -11h-317q-14 0 -14 7q0 1 2 9l37 177h-170l-118 -184q-6 -9 -16 -9h-86 q-11 0 -11 8q0 4 3 8l441 661q6 9 17 9h383q9 0 9 -7q0 -5 -3 -11zM428 627q-31 -61 -90 -153l-129 -201h142l50 232zM618 882l30 -60q2 -6 2 -7q0 -5 -11 -9l-180 -74q-10 -4 -12 -4q-5 0 -8 7l-15 30q-3 5 -3 8q0 5 9 10l167 102q8 5 12 5t9 -8z"/>
    <glyph glyph-name="aeacute" unicode="ǽ" horiz-adv-x="694" d="M677 373q0 -37 -13 -64.5t-38.5 -44.5t-52.5 -27.5t-65.5 -15t-65.5 -6t-64 -1.5q-5 -28 -5 -52q0 -94 88 -94q49 0 117 40q8 5 14 5t10 -7l24 -48q2 -6 2 -8q0 -6 -12 -13q-82 -52 -173 -52q-109 0 -148 86q-69 -86 -164 -86q-56 0 -88.5 34t-32.5 92q0 173 288 175 l9 45q4 26 4 36q0 58 -66 58q-45 0 -107 -27q-15 -5 -16 -5q-6 0 -9 8l-15 46q-1 3 -1 7q0 3 1 4.5t3.5 3.5t4 3t6.5 3t7 3q73 31 141 31q91 0 117 -70q42 38 78.5 54t83.5 16q64 0 101 -34.5t37 -94.5zM586 369q0 28 -16.5 43t-46.5 15q-49 0 -84.5 -37.5t-48.5 -102.5 q108 1 152 19t44 63zM282 214q-91 -3 -124 -16q-53 -22 -53 -79t51 -57q44 0 75 28t41 77zM520 703l30 -60q2 -6 2 -7q0 -5 -11 -9l-180 -74q-10 -4 -12 -4q-5 0 -8 7l-15 30q-3 4 -3 8q0 5 9 10l167 102q8 5 12 5t9 -8z"/>
    <glyph glyph-name="Oslashacute" unicode="Ǿ" horiz-adv-x="555" d="M565 687l-47 -69q25 -50 25 -121q0 -91 -24 -190t-62 -170q-82 -152 -232 -152q-70 0 -113 36l-35 -54q-4 -8 -11 -8q-2 0 -4 2l-37 25q-5 2 -5 6q0 3 5 10l47 69q-23 49 -23 125q0 147 62 302q36 91 100 147t154 56q70 0 112 -33l37 55q4 7 9 7q1 0 9 -4l30 -20 q7 -4 7 -9t-4 -10zM424 588q-16 32 -65 32q-104 0 -164 -174q-49 -141 -49 -249v-27zM446 486q0 3 -2 33l-279 -420q21 -33 66 -33q105 0 167 172q48 131 48 248zM514 882l30 -60q2 -6 2 -7q0 -5 -11 -9l-180 -74q-10 -4 -12 -4q-5 0 -8 7l-15 30q-3 5 -3 8q0 5 9 10 l167 102q8 5 12 5t9 -8z"/>
    <glyph glyph-name="oslashacute" unicode="ǿ" horiz-adv-x="491" d="M466 499l-42 -54q32 -47 32 -118q0 -58 -17 -117t-49 -110t-84.5 -83t-116.5 -32q-55 0 -96 24l-38 -51q-5 -6 -9 -6t-8 4l-25 20q-5 4 -5 8q0 3 3 8l42 55q-25 46 -25 114q0 81 29.5 157.5t91.5 130t144 53.5q52 0 89 -20l40 52q5 5 8 5q2 0 7 -3l29 -22q4 -3 4 -6 q0 -1 -4 -9zM330 414q-23 11 -48 11q-43 0 -76 -28t-50.5 -71.5t-26 -87t-8.5 -82.5q0 -12 3 -28zM362 330q0 19 -6 39l-209 -291q21 -16 54 -16q86 0 127 105q34 85 34 163zM429 703l30 -60q2 -6 2 -7q0 -5 -11 -9l-180 -74q-10 -4 -12 -4q-5 0 -8 7l-15 30q-3 4 -3 8 q0 5 9 10l167 102q8 5 12 5t9 -8z"/>
    <glyph glyph-name="Scommaaccent" unicode="Ș" horiz-adv-x="472" d="M491 639l-33 -56q-8 -12 -14 -12q-5 0 -10 4q-33 21 -57 30t-57 9q-53 0 -85.5 -30t-32.5 -77q0 -28 12.5 -47t49.5 -45l44 -31q62 -43 87 -82.5t25 -92.5q0 -104 -73 -166q-65 -56 -172 -56q-88 0 -164 40q-15 7 -15 14q0 4 5 14l32 58q4 7 9 7q2 0 8 -2l22 -11t25 -12 t23.5 -9t30.5 -7.5t34 -2.5q58 0 91 31.5t33 84.5q0 32 -13.5 53t-54.5 52l-73 57q-41 34 -57.5 66t-16.5 75q0 105 78 161q59 43 161 43q87 0 141 -33q19 -13 19 -19q0 -5 -2 -8zM227 -75l-108 -152q-11 -14 -21 -14q-3 0 -11 2l-18 5q-12 4 -12 10q0 4 5 16l64 141 q9 17 26 17h65q19 0 19 -8q0 -4 -9 -17z"/>
    <glyph glyph-name="scommaaccent" unicode="ș" horiz-adv-x="380" d="M361 454l-22 -47q-3 -7 -10 -7q-4 0 -18 6q-41 18 -73 18q-36 0 -57.5 -18.5t-21.5 -48.5q0 -15 6.5 -25t15 -16t37.5 -25l39 -25q39 -25 54 -49t15 -63q0 -77 -50 -123t-134 -46q-78 0 -143 36q-12 8 -12 12t3 10l18 49q2 6 10 6q7 0 15 -4q57 -31 113 -31q39 0 62.5 20 t23.5 54q0 23 -11 36t-44 33l-46 28q-37 22 -51.5 46t-14.5 60q0 73 48.5 117.5t127.5 44.5q71 0 112 -28q10 -6 10 -13q0 -1 -2 -7zM187 -75l-108 -152q-11 -14 -21 -14q-3 0 -11 2l-18 5q-12 4 -12 10q0 4 5 16l64 141q9 17 26 17h65q19 0 19 -8q0 -4 -9 -17z"/>
    <glyph glyph-name="Tcommaaccent" unicode="Ț" horiz-adv-x="407" d="M512 670l-33 -67q-5 -11 -17 -11h-136l-123 -579q-2 -13 -16 -13h-76q-13 0 -13 9q0 2 2 10l121 573h-139q-12 0 -12 10q0 4 1 7l14 65q2 12 16 12h401q12 0 12 -8q0 -5 -2 -8zM184 -75l-108 -152q-11 -14 -21 -14q-3 0 -11 2l-18 5q-12 4 -12 10q0 4 5 16l64 141 q9 17 26 17h65q19 0 19 -8q0 -4 -9 -17z"/>
    <glyph glyph-name="tcommaaccent" unicode="ț" horiz-adv-x="343" d="M377 470l-20 -48q-3 -9 -13 -9h-125l-55 -257q-6 -27 -6 -48q0 -41 43 -41q13 0 26 3t34 11t26 9q6 2 7 2q4 0 6 -6l11 -48q1 -4 1 -8q0 -6 -14 -13q-64 -32 -132 -32q-108 0 -108 100q0 26 8 62l56 266h-70q-10 0 -10 7q0 3 2 11l9 45q2 11 13 11h72l28 131q3 11 12 12 l74 14h5q9 0 9 -8v-2q-1 -3 -1 -4l-31 -143h135q11 0 11 -7q0 -2 -1 -6q-2 -2 -2 -4zM210 -75l-108 -152q-11 -14 -21 -14q-3 0 -11 2l-18 5q-12 4 -12 10q0 4 5 16l64 141q9 17 26 17h65q19 0 19 -8q0 -4 -9 -17z"/>
    <glyph glyph-name="circumflex" unicode="ˆ" d="M450 587l-23 -25q-6 -7 -10 -7q-3 0 -10 6l-76 55l-96 -55q-8 -5 -12 -5q-5 0 -9 8l-17 31q-1 1 -2 3l-1.5 3t-0.5 2q0 5 9 10l130 88q8 6 12 6t11 -7l94 -94q6 -6 6 -10q0 -2 -5 -9z"/>
    <glyph glyph-name="caron" unicode="ˇ" d="M331 646l96 56q8 5 11 5q4 0 10 -9l17 -30q3 -6 3 -9q0 -4 -8 -9l-130 -88q-10 -7 -13 -7t-10 7l-94 95q-6 6 -6 9q0 4 5 9l23 26q6 7 9 7q1 0 11 -6z"/>
    <glyph glyph-name="uni02C9" unicode="ˉ" d="M456 647l-11 -47q-2 -9 -4.5 -11t-11.5 -2h-216q-14 0 -14 6q0 3 1 5l10 51q2 13 17 13h218q12 0 12 -7q0 -5 -1 -8z"/>
    <glyph glyph-name="breve" unicode="˘" d="M473 678q0 -16 -26 -57q-45 -64 -130 -64q-54 0 -83.5 29t-29.5 83q0 17 15 18l48 6h6q8 0 8 -7v-10q0 -53 44 -53q49 0 68 56q5 15 13 15q1 0 4 -0.5t5 -0.5l48 -7q10 -1 10 -8z"/>
    <glyph glyph-name="dotaccent" unicode="˙" d="M394 630q0 -28 -19 -47t-46 -19t-46.5 19.5t-19.5 46.5q0 26 20 45t46 19q27 0 46 -19t19 -45z"/>
    <glyph glyph-name="ring" unicode="˚" d="M421 635q0 -40 -28.5 -67.5t-69.5 -27.5t-69.5 28t-28.5 68q0 39 29 67t69 28q41 0 69.5 -28t28.5 -68zM366 635q0 19 -12.5 32t-30.5 13t-30.5 -13.5t-12.5 -31.5t12.5 -31.5t30.5 -13.5q17 0 30 13.5t13 31.5z"/>
    <glyph glyph-name="ogonek" unicode="˛" d="M296 13h49q-73 -66 -73 -116q0 -20 25 -20q21 0 50 12q2 1 5.5 2.5t4.5 1.5q3 0 6 -7l10 -37q0 -1 0.5 -2.5t0.5 -2.5q0 -7 -14 -13q-41 -22 -85 -22q-37 0 -57.5 17.5t-20.5 48.5q0 63 99 138z"/>
    <glyph glyph-name="tilde" unicode="˜" d="M481 646q-16 -28 -47 -49t-61 -21q-27 0 -55 19t-42 19q-20 0 -49 -34q-4 -5 -8 -5q-2 0 -9 5l-28 22q-5 4 -5 8t7 13q46 65 102 65q25 0 57 -19t43 -19q23 0 47 32q3 6 9 6q4 0 7 -3l28 -22q7 -7 7 -9q0 -4 -3 -8z"/>
    <glyph glyph-name="hungarumlaut" unicode="˝" d="M554 681q6 -6 6 -10q0 -5 -8 -11l-147 -113q-7 -6 -10 -6t-9 6l-15 17q-5 5 -5 9q0 5 7 12l128 129q7 7 11 7t10 -6zM406 686q6 -6 6 -11t-8 -11l-147 -113q-7 -6 -10 -6t-9 6l-15 17q-5 5 -5 9q0 5 7 12l128 129q7 7 11 7q2 0 9 -5z"/>
    <glyph glyph-name="uni03A9" unicode="Ω" horiz-adv-x="670" d="M612 0h-226v87q113 118 113 285q0 112 -44 179.5t-125 67.5t-128 -69t-47 -180q0 -170 115 -283v-87h-226v87h136q-138 126 -138 305q0 139 81 229.5t210 90.5q131 0 206 -87.5t75 -229.5q0 -182 -138 -308h136v-87z"/>
    <glyph glyph-name="uni03BC" unicode="μ" horiz-adv-x="509" d="M479 477l-72 -331q-8 -35 -8 -63t9 -55v-4q0 -4 -7 -8l-63 -28q-4 -2 -8 -2q-20 0 -20 70v15q0 6 1 13q-80 -99 -169 -99l-32 6l-36 -171q-2 -11 -13 -13l-71 -17q-8 -2 -10 -2q-7 0 -7 7q0 5 1 8l144 665q2 10 13 12l74 16h5q6 0 6 -8q0 -6 -1 -10l-65 -297 q-9 -43 -9 -63t12.5 -32.5t32.5 -12.5q60 0 106 68q29 42 44 112l46 215q1 6 2 7.5t3 3t7 2.5l70 15q3 1 8 1q8 0 8 -10q0 -6 -1 -10z"/>
    <glyph glyph-name="pi" unicode="π" horiz-adv-x="588" d="M540 80l19 -70q-29 -18 -79 -18q-68 0 -98.5 40.5t-30.5 104.5v284h-105v-276q0 -87 -15 -145h-109q17 61 17 154v267q-52 -2 -89 -23l-29 70q56 32 148 32h385v-79h-96v-271q0 -79 52 -79q14 0 30 9z"/>
    <glyph glyph-name="Wgrave" unicode="Ẁ" horiz-adv-x="704" d="M772 659l-281 -653q-5 -11 -17 -11h-72q-10 0 -12.5 4t-2.5 14l15 366q0 58 8 146q-14 -41 -57 -145l-159 -374q-5 -11 -17 -11h-73q-15 0 -15 17l12 651q0 14 14 16l72 13q2 0 4 0.5t3 0.5q9 0 9 -12v-5l-22 -431q-4 -59 -12 -125q28 84 45 125l182 430q5 11 16 11h64 q10 0 12.5 -3.5t2.5 -13.5l-12 -422q-1 -32 -9 -122q22 77 39 122l169 435q4 11 11 11q1 0 3 -0.5t3 -0.5l71 -15q8 -1 8 -10q0 -2 -2 -8zM552 761l-23 -30q-4 -5 -7 -5q-4 0 -8 3l-148 79q-8 4 -8 9q0 3 3 8l48 63q3 5 10 5q6 0 11 -5l121 -112q4 -4 4 -8t-3 -7z"/>
    <glyph glyph-name="wgrave" unicode="ẁ" horiz-adv-x="620" d="M653 466l-229 -465q-3 -8 -14 -8h-65q-7 0 -9 2t-2 9l-2 286q0 50 3 75q-13 -35 -31 -75l-136 -288q-4 -9 -14 -9h-60q-12 0 -12 11l-20 462v4q0 9 10 11l65 12q3 1 9 1q11 0 11 -12l-3 -289q0 -29 -4 -87q14 42 39 95l129 277q4 9 13 9h64q11 0 11 -11l2 -282 q0 -46 -3 -91q10 34 38 99l121 284q3 8 10 8q5 0 8 -1l63 -12q11 -3 11 -7q0 -3 -3 -8zM447 582l-23 -30q-4 -5 -7 -5t-8 3l-148 79q-8 4 -8 9q0 4 3 8l48 63q3 5 10 5q6 0 11 -5l121 -112q4 -4 4 -8t-3 -7z"/>
    <glyph glyph-name="Wacute" unicode="Ẃ" horiz-adv-x="704" d="M772 659l-281 -653q-5 -11 -17 -11h-72q-10 0 -12.5 4t-2.5 14l15 366q0 58 8 146q-14 -41 -57 -145l-159 -374q-5 -11 -17 -11h-73q-15 0 -15 17l12 651q0 14 14 16l72 13q2 0 4 0.5t3 0.5q9 0 9 -12v-5l-22 -431q-4 -59 -12 -125q28 84 45 125l182 430q5 11 16 11h64 q10 0 12.5 -3.5t2.5 -13.5l-12 -422q-1 -32 -9 -122q22 77 39 122l169 435q4 11 11 11q1 0 3 -0.5t3 -0.5l71 -15q8 -1 8 -10q0 -2 -2 -8zM585 882l30 -60q2 -6 2 -7q0 -5 -11 -9l-180 -74q-10 -4 -12 -4q-5 0 -8 7l-15 30q-3 5 -3 8q0 5 9 10l167 102q8 5 12 5t9 -8z"/>
    <glyph glyph-name="wacute" unicode="ẃ" horiz-adv-x="620" d="M653 466l-229 -465q-3 -8 -14 -8h-65q-7 0 -9 2t-2 9l-2 286q0 50 3 75q-13 -35 -31 -75l-136 -288q-4 -9 -14 -9h-60q-12 0 -12 11l-20 462v4q0 9 10 11l65 12q3 1 9 1q11 0 11 -12l-3 -289q0 -29 -4 -87q14 42 39 95l129 277q4 9 13 9h64q11 0 11 -11l2 -282 q0 -46 -3 -91q10 34 38 99l121 284q3 8 10 8q5 0 8 -1l63 -12q11 -3 11 -7q0 -3 -3 -8zM500 703l30 -60q2 -6 2 -7q0 -5 -11 -9l-180 -74q-10 -4 -12 -4q-5 0 -8 7l-15 30q-3 4 -3 8q0 5 9 10l167 102q8 5 12 5t9 -8z"/>
    <glyph glyph-name="Wdieresis" unicode="Ẅ" horiz-adv-x="704" d="M772 659l-281 -653q-5 -11 -17 -11h-72q-10 0 -12.5 4t-2.5 14l15 366q0 58 8 146q-14 -41 -57 -145l-159 -374q-5 -11 -17 -11h-73q-15 0 -15 17l12 651q0 14 14 16l72 13q2 0 4 0.5t3 0.5q9 0 9 -12v-5l-22 -431q-4 -59 -12 -125q28 84 45 125l182 430q5 11 16 11h64 q10 0 12.5 -3.5t2.5 -13.5l-12 -422q-1 -32 -9 -122q22 77 39 122l169 435q4 11 11 11q1 0 3 -0.5t3 -0.5l71 -15q8 -1 8 -10q0 -2 -2 -8zM609 809q0 -26 -17 -43.5t-42 -17.5t-43 17.5t-18 42.5t17.5 42.5t42.5 17.5t42.5 -17t17.5 -42zM423 808q0 -25 -18 -42.5t-43 -17.5 t-42.5 17.5t-17.5 42.5t17.5 42.5t42.5 17.5t43 -17.5t18 -42.5z"/>
    <glyph glyph-name="wdieresis" unicode="ẅ" horiz-adv-x="620" d="M653 466l-229 -465q-3 -8 -14 -8h-65q-7 0 -9 2t-2 9l-2 286q0 50 3 75q-13 -35 -31 -75l-136 -288q-4 -9 -14 -9h-60q-12 0 -12 11l-20 462v4q0 9 10 11l65 12q3 1 9 1q11 0 11 -12l-3 -289q0 -29 -4 -87q14 42 39 95l129 277q4 9 13 9h64q11 0 11 -11l2 -282 q0 -46 -3 -91q10 34 38 99l121 284q3 8 10 8q5 0 8 -1l63 -12q11 -3 11 -7q0 -3 -3 -8zM532 630q0 -26 -17 -43.5t-42 -17.5t-43 17.5t-18 42.5t17.5 42.5t42.5 17.5t42.5 -17t17.5 -42zM346 629q0 -25 -18 -42.5t-43 -17.5t-42.5 17.5t-17.5 42.5t17.5 42.5t42.5 17.5 t43 -17.5t18 -42.5z"/>
    <glyph glyph-name="Ygrave" unicode="Ỳ" horiz-adv-x="444" d="M543 655l-261 -370l-58 -272q-2 -13 -17 -13h-75q-13 0 -13 9q0 4 1 7l57 270l-108 370q-2 6 -2 7q0 8 10 11l76 19q8 2 11 2q8 0 11 -11l44 -177q22 -85 26 -132q17 35 57 95l141 216q5 8 13 8q2 0 12 -2l67 -17q12 -3 12 -11q0 -3 -4 -9zM390 761l-23 -30q-4 -5 -7 -5 q-4 0 -8 3l-148 79q-8 4 -8 9q0 3 3 8l48 63q3 5 10 5q6 0 11 -5l121 -112q4 -4 4 -8t-3 -7z"/>
    <glyph glyph-name="ygrave" unicode="ỳ" horiz-adv-x="426" d="M458 460l-189 -401q-44 -93 -62 -126q-37 -71 -79 -109.5t-109 -38.5q-55 0 -103 28q-11 7 -11 13q0 5 4 10l30 50q3 6 7 6q1 0 7 -2q5 -2 15.5 -7.5t16.5 -8t17 -5t23 -2.5q56 0 94 71l33 62h-37q-12 0 -13 11l-60 452q0 2 -0.5 4.5t-0.5 3.5q0 6 9 7l73 15q3 1 9 1 q7 0 8 -10l27 -254q14 -152 15 -171l70 165l115 264q4 8 10 8q2 0 10 -2l66 -16q8 -3 8 -8q0 -1 -3 -10zM355 582l-23 -30q-4 -5 -7 -5t-8 3l-148 79q-8 4 -8 9q0 4 3 8l48 63q3 5 10 5q6 0 11 -5l121 -112q4 -4 4 -8t-3 -7z"/>
    <glyph glyph-name="endash" unicode="–" horiz-adv-x="514" d="M486 277l-11 -51q-2 -13 -16 -13h-419q-14 0 -14 7q0 3 1 6l12 56q2 13 16 13h419q13 0 13 -10q0 -1 -0.5 -3.5t-0.5 -4.5z"/>
    <glyph glyph-name="emdash" unicode="—" horiz-adv-x="805" d="M776 277l-11 -51q-2 -13 -16 -13h-709q-14 0 -14 7q0 3 1 6l12 56q2 13 16 13h709q13 0 13 -10q0 -1 -0.5 -3.5t-0.5 -4.5z"/>
    <glyph glyph-name="quoteleft" unicode="‘" horiz-adv-x="224" d="M254 680l-93 -202q-4 -8 -6 -9.5t-10 -1.5h-98q-13 0 -13 9q0 4 5 11l160 226q5 8 10 8q3 0 8 -3l32 -18q9 -6 9 -9q0 -1 -4 -11z"/>
    <glyph glyph-name="quoteright" unicode="’" horiz-adv-x="224" d="M295 695l-160 -226q-6 -9 -10 -9t-9 4l-31 17q-9 5 -9 9q0 3 3 9l93 206q4 10 17 10h96q14 0 14 -9q0 -3 -4 -11z"/>
    <glyph glyph-name="quotesinglbase" unicode="‚" horiz-adv-x="224" d="M158 100l-160 -227q-5 -8 -10 -8q-4 0 -9 4l-31 17q-9 4 -9 9q0 3 3 9l94 205q4 10 17 10h95q14 0 14 -8q0 -3 -4 -11z"/>
    <glyph glyph-name="quotedblleft" unicode="“" horiz-adv-x="400" d="M430 680l-93 -202q-4 -8 -6 -9.5t-10 -1.5h-98q-14 0 -14 9q0 4 4 9l162 228q6 7 10 7q5 0 12 -4l30 -17q6 -3 6 -9q0 -4 -3 -10zM254 680l-93 -202q-4 -8 -6 -9.5t-10 -1.5h-98q-13 0 -13 9q0 4 5 11l160 226q5 8 10 8q3 0 8 -3l32 -18q9 -6 9 -9q0 -1 -4 -11z"/>
    <glyph glyph-name="quotedblright" unicode="”" horiz-adv-x="400" d="M472 696l-160 -227q-5 -8 -10 -8q-2 0 -8 3l-32 17q-10 4 -10 9q0 1 4 11l93 204q4 10 17 10h96q14 0 14 -9q0 -5 -4 -10zM296 695l-160 -226q-6 -9 -10 -9t-9 4l-31 17q-9 5 -9 9q0 3 3 9l93 206q4 10 17 10h96q14 0 14 -9q0 -3 -4 -11z"/>
    <glyph glyph-name="quotedblbase" unicode="„" horiz-adv-x="400" d="M334 100l-160 -227q-5 -8 -10 -8q-2 0 -8 3l-32 18q-9 4 -9 9q0 4 4 11l93 203q4 10 17 10h95q14 0 14 -9q0 -2 -4 -10zM158 100l-160 -227q-5 -8 -10 -8q-4 0 -9 4l-31 17q-9 4 -9 9q0 3 3 9l94 205q4 10 17 10h95q14 0 14 -8q0 -3 -4 -11z"/>
    <glyph glyph-name="dagger" unicode="†" horiz-adv-x="509" d="M476 452l-11 -54q-2 -13 -17 -13h-119l-123 -580q-2 -13 -16 -13h-71q-10 0 -10 7q0 4 1 7l123 579h-119q-11 0 -11 8q0 1 2 9l11 53q2 13 16 13h119l44 205q2 13 16 13h66q14 0 14 -7q0 -5 -1 -8l-43 -203h116q14 0 14 -8q0 -5 -1 -8z"/>
    <glyph glyph-name="daggerdbl" unicode="‡" horiz-adv-x="509" d="M476 454l-11 -56q-2 -13 -17 -13h-119l-58 -280h115q14 0 14 -9q0 -1 -0.5 -3.5t-0.5 -4.5l-11 -53q-2 -8 -5 -10t-12 -2h-118l-47 -218q-2 -9 -5 -11t-11 -2h-69q-11 0 -11 7q0 5 1 9l46 215h-118q-12 0 -12 7q0 5 1 8l11 55q2 12 16 12h119l59 280h-116q-14 0 -14 8 q0 5 1 8l12 54q3 13 16 13h119l44 205q2 13 16 13h68q12 0 12 -8q0 -5 -1 -8l-43 -202h116q13 0 13 -9v-5z"/>
    <glyph glyph-name="bullet" unicode="•" d="M410 350q0 -59 -42 -101.5t-100 -42.5t-99.5 42.5t-41.5 101.5t41.5 101.5t100.5 42.5q58 0 99.5 -42.5t41.5 -101.5z"/>
    <glyph glyph-name="ellipsis" unicode="…" horiz-adv-x="889" d="M779 66q0 -33 -23.5 -56t-55.5 -23q-33 0 -56.5 23t-23.5 56t23.5 56t56.5 23q32 0 55.5 -23t23.5 -56zM482 66q0 -33 -23 -56t-55 -23q-33 0 -56 23t-23 56t23 56t56 23q32 0 55 -23t23 -56zM186 66q0 -33 -23.5 -56t-55.5 -23q-33 0 -56 23t-23 56t23 56t56 23 q32 0 55.5 -23t23.5 -56z"/>
    <glyph glyph-name="perthousand" unicode="‰" horiz-adv-x="1129" d="M1072 214q0 -95 -53 -161.5t-129 -66.5q-52 0 -82 32t-30 88q0 55 20 106.5t63.5 87.5t99.5 36q53 0 82 -32t29 -90zM743 214q0 -95 -53 -161.5t-129 -66.5q-53 0 -83 32t-30 88q0 87 50 158.5t134 71.5q53 0 82 -32t29 -90zM663 651l-422 -672q-6 -8 -18 -8h-54 q-12 0 -12 8q0 6 4 11l422 669q6 10 17 10h56q11 0 11 -8q0 -2 -4 -10zM378 536q0 -95 -53 -160.5t-129 -65.5q-52 0 -82 31.5t-30 87.5q0 88 49.5 158.5t133.5 70.5q52 0 81.5 -32.5t29.5 -89.5zM994 218q0 51 -42 51q-39 0 -67 -48.5t-28 -117.5q0 -50 42 -50 q39 0 67 48.5t28 116.5zM665 218q0 51 -42 51q-39 0 -67 -48.5t-28 -117.5q0 -50 42 -50q39 0 67 48.5t28 116.5zM300 541q0 51 -42 51q-39 0 -67 -48.5t-28 -116.5q0 -51 42 -51q39 0 67 48.5t28 116.5z"/>
    <glyph glyph-name="guilsinglleft" unicode="‹" horiz-adv-x="343" d="M333 432l-173 -193l83 -187q3 -8 3 -11q0 -6 -8 -10l-43 -21q-10 -4 -11 -4q-6 0 -10 8l-125 223q-4 7 -4 10t6 9l225 222q6 6 10 6q3 0 10 -5l36 -27q6 -6 6 -10q0 -3 -5 -10z"/>
    <glyph glyph-name="guilsinglright" unicode="›" horiz-adv-x="343" d="M176 253l-81 185q-4 10 -4 12q0 5 9 9l44 22q6 3 10 3q5 0 10 -8l123 -220q5 -10 5 -11q0 -4 -6 -10l-224 -223q-6 -6 -10 -6q-3 0 -10 5l-36 27q-8 6 -8 11q0 4 6 10z"/>
    <glyph glyph-name="fraction" unicode="⁄" horiz-adv-x="134" d="M323 652l-424 -673q-5 -8 -17 -8h-53q-13 0 -13 8q0 3 3 8l423 672q7 10 16 10h55q14 0 14 -8q0 -1 -4 -9z"/>
    <glyph glyph-name="zero.superior" unicode="⁰" horiz-adv-x="345" d="M403 716v-4q0 -57 -18 -116t-49 -101q-54 -74 -138 -74q-112 0 -114 118q0 58 19 119t50 104q50 72 138 72q54 0 83 -30.5t29 -87.5zM326 716q0 53 -47 53q-46 0 -78 -60q-16 -32 -27.5 -82.5t-11.5 -83.5v-3q0 -54 45 -54q49 0 79 62q17 31 28.5 82t11.5 86z"/>
    <glyph glyph-name="four.superior" unicode="⁴" horiz-adv-x="345" d="M241 516h-161q-13 0 -13 11q0 2 2 12l7 33q2 7 7 14l211 245q6 7 13 7q10 0 13 -3l34 -8q11 -3 11 -10q0 -5 -8 -15l-201 -228h96l31 93q4 12 17 12h32q15 0 15 -11q0 -3 -2 -11l-19 -82h43q12 0 12 -10q0 -1 -2 -13l-4 -21q-4 -15 -18 -15h-43l-17 -73q-3 -14 -18 -14 h-42q-14 0 -14 11q0 3 2 11z"/>
    <glyph glyph-name="five.superior" unicode="⁵" horiz-adv-x="345" d="M232 763l-33 -89q27 14 63 14q47 0 76 -26.5t30 -69.5q0 -83 -72 -137q-46 -34 -116 -34q-57 0 -93 17q-13 6 -13 12q0 4 3 13l11 28q4 11 12 11q1 0 3.5 -0.5t6 -1.5t7.5 -2q36 -13 69 -13q47 0 78 28t31 72q0 43 -48 43q-43 0 -73 -27q-10 -9 -17 -9q-3 0 -12 3 q-6 2 -23 7q-11 4 -11 11q0 5 3 12l65 189q5 12 16 12h185q13 0 13 -10q0 -3 -2 -11l-8 -29q-3 -13 -15 -13h-136z"/>
    <glyph glyph-name="six.superior" unicode="⁶" horiz-adv-x="345" d="M216 686q28 20 66 20q45 0 70.5 -26.5t25.5 -73.5v-2q0 -76 -48.5 -129.5t-119.5 -53.5q-52 0 -81 29t-30 83q0 54 21.5 113t57.5 104q67 84 166 84q39 0 62 -13q9 -5 9 -11q0 -3 -2 -7l-17 -33q-3 -6 -11 -6q-2 0 -10 2q-16 6 -35 6q-81 0 -124 -86zM302 602 q0 44 -44 44t-65 -41q-17 -31 -17 -76q0 -46 43 -46q39 0 65 45q18 34 18 74z"/>
    <glyph glyph-name="seven.superior" unicode="⁷" horiz-adv-x="345" d="M314 760h-158q-12 0 -12 10q0 4 2 12q1 6 3.5 17t4.5 16q3 11 14 11h236q12 0 12 -10q0 -3 -2 -12.5t-2 -12.5q0 -2 -6 -13l-226 -347q-4 -8 -13 -8q-2 0 -7.5 0.5t-6.5 0.5l-42 6q-9 1 -9 9q0 6 4 13z"/>
    <glyph glyph-name="eight.superior" unicode="⁸" horiz-adv-x="345" d="M401 746v-3q0 -68 -83 -105q56 -31 58 -87q0 -63 -50 -96.5t-118 -33.5q-63 0 -98.5 25.5t-35.5 71.5q0 84 109 123q-46 29 -46 78q0 52 39.5 83.5t104.5 31.5q56 0 88 -23t32 -65zM299 546q-1 23 -15 36.5t-42 22.5q-91 -26 -91 -78q0 -21 17 -33t48 -12q37 0 60 17.5 t23 46.5zM327 738q-2 36 -50 36q-29 0 -47 -14.5t-18 -36.5q0 -17 8.5 -27.5t33.5 -26.5q39 15 56 31t17 38z"/>
    <glyph glyph-name="nine.superior" unicode="⁹" horiz-adv-x="345" d="M272 569q-28 -19 -67 -19q-45 0 -70.5 26t-25.5 73q0 77 48.5 131t119.5 54q53 0 82 -29t29 -83t-21 -112.5t-57 -104.5q-68 -84 -163 -84q-24 0 -48 8q-15 6 -16 14q0 3 2 7l11 34q1 7 9 7q7 0 13 -3q18 -5 33 -5q69 0 121 86zM185 652q0 -43 44 -43q43 0 63 38 q18 29 20 79q-2 46 -44 46q-38 0 -63 -43q-20 -34 -20 -77z"/>
    <glyph glyph-name="zero.inferior" unicode="₀" horiz-adv-x="345" d="M289 121v-4q0 -57 -18 -116t-49 -101q-54 -74 -138 -74q-112 0 -114 118q0 58 19 119t50 104q50 72 138 72q54 0 83 -30.5t29 -87.5zM212 121q0 53 -47 53q-46 0 -78 -60q-16 -32 -27.5 -82.5t-11.5 -83.5v-3q0 -54 45 -54q49 0 79 62q17 31 28.5 82t11.5 86z"/>
    <glyph glyph-name="one.inferior" unicode="₁" horiz-adv-x="345" d="M226 219q0 -5 -1 -7l-73 -318h50q12 0 12 -9q0 -1 -1 -5q-1 -3 -1 -6q-1 -4 -2.5 -14t-2.5 -13q-3 -13 -17 -13h-185q-14 0 -14 11q0 2 2 10q1 6 6 25q3 14 18 14h60l59 255l-74 -36q-7 -4 -13 -4q-7 0 -11 6l-10 20q-3 6 -3 9q0 7 8 12l128 69q8 5 16 5h35q14 0 14 -11z "/>
    <glyph glyph-name="two.inferior" unicode="₂" horiz-adv-x="345" d="M282 152q0 -53 -42 -97q-17 -16 -98 -67q-78 -48 -96 -89h165q12 0 12 -8q0 -6 -2 -14l-6 -28q-1 -6 -2.5 -9t-5 -4.5t-9.5 -1.5h-231q-13 0 -13 10t21 67q17 36 46 63.5t80 60.5q71 46 85 63q16 19 16 44q0 33 -40 33q-23 0 -39.5 -12t-35.5 -40q-9 -11 -16 -11t-10 2 q-18 5 -32 11q-8 3 -8 8v2q0 4 5 16q23 41 62.5 64t85.5 23q50 0 79 -23t29 -63z"/>
    <glyph glyph-name="three.inferior" unicode="₃" horiz-adv-x="345" d="M190 47q47 -23 47 -74q0 -64 -51 -105.5t-125 -41.5q-36 0 -73.5 12t-37.5 23l2 6l19 36q3 7 13 7q4 0 13 -5q35 -17 72 -17q39 0 64.5 22t25.5 57q0 45 -70 45h-25q-13 0 -13 11q0 3 2 13l5 24q2 8 5.5 10.5t12.5 2.5h26q37 0 62 20t25 51q0 34 -42 34q-29 0 -66 -29 q-9 -8 -17 -8q-7 0 -11 4l-24 21q-3 3 -3 9q0 5 13 18q48 45 119 45q49 0 78 -22.5t29 -60.5q0 -72 -75 -108z"/>
    <glyph glyph-name="four.inferior" unicode="₄" horiz-adv-x="345" d="M127 -79h-161q-13 0 -13 11q0 2 2 12l7 33q2 7 7 14l211 245q6 7 13 7q10 0 13 -3l34 -8q11 -3 11 -10q0 -5 -8 -15l-201 -228h96l31 93q4 12 17 12h32q15 0 15 -11q0 -3 -2 -11l-19 -82h43q12 0 12 -10q0 -1 -2 -13l-4 -21q-4 -15 -18 -15h-43l-17 -73q-3 -14 -18 -14 h-42q-14 0 -14 11q0 3 2 11z"/>
    <glyph glyph-name="five.inferior" unicode="₅" horiz-adv-x="345" d="M118 168l-33 -89q27 14 63 14q47 0 76 -26.5t30 -69.5q0 -83 -72 -137q-46 -34 -116 -34q-57 0 -93 17q-13 6 -13 12q0 4 3 13l11 28q4 11 12 11q1 0 3.5 -0.5t6 -1.5t7.5 -2q36 -13 69 -13q47 0 78 28t31 72q0 43 -48 43q-43 0 -73 -27q-10 -9 -17 -9q-3 0 -12 3 q-6 2 -23 7q-11 4 -11 11q0 4 3 12l65 189q5 12 16 12h185q13 0 13 -10q0 -3 -2 -11l-8 -29q-3 -13 -15 -13h-136z"/>
    <glyph glyph-name="six.inferior" unicode="₆" horiz-adv-x="345" d="M102 91q28 20 66 20q45 0 70.5 -26.5t25.5 -73.5v-2q0 -76 -48.5 -129.5t-119.5 -53.5q-52 0 -81 29t-30 83q0 54 21.5 113t57.5 104q67 84 166 84q39 0 62 -13q9 -5 9 -11q0 -3 -2 -7l-17 -33q-3 -6 -11 -6q-2 0 -10 2q-17 6 -35 6q-81 0 -124 -86zM188 7q0 44 -44 44 t-65 -41q-17 -31 -17 -76q0 -46 43 -46q39 0 65 45q18 34 18 74z"/>
    <glyph glyph-name="seven.inferior" unicode="₇" horiz-adv-x="345" d="M200 165h-158q-12 0 -12 10q0 4 2 12q1 5 4 16t4 17q3 11 14 11h236q12 0 12 -10q0 -3 -2 -12.5t-2 -12.5q0 -2 -6 -13l-226 -347q-4 -8 -13 -8q-2 0 -7.5 0.5t-6.5 0.5l-42 6q-9 1 -9 9q0 6 4 13z"/>
    <glyph glyph-name="eight.inferior" unicode="₈" horiz-adv-x="345" d="M287 151v-3q0 -68 -83 -105q56 -31 58 -87q0 -63 -50 -96.5t-118 -33.5q-63 0 -98.5 25.5t-35.5 71.5q0 84 109 123q-46 29 -46 78q0 52 39.5 83.5t104.5 31.5q56 0 88 -23t32 -65zM185 -49q-1 23 -15 36.5t-42 22.5q-91 -26 -91 -78q0 -21 17 -33t48 -12q37 0 60 17.5 t23 46.5zM213 143q-2 36 -50 36q-29 0 -47 -14.5t-18 -36.5q0 -17 8.5 -27.5t33.5 -26.5q39 15 56 31t17 38z"/>
    <glyph glyph-name="nine.inferior" unicode="₉" horiz-adv-x="345" d="M158 -26q-28 -19 -67 -19q-45 0 -70.5 26t-25.5 73q0 77 48.5 131t119.5 54q53 0 82 -29t29 -83t-21 -112.5t-57 -104.5q-68 -84 -163 -84q-24 0 -48 8q-15 6 -16 14q0 3 2 7l11 34q1 7 9 7q7 0 13 -3q18 -5 33 -5q69 0 121 86zM71 57q0 -43 44 -43q43 0 63 38 q18 29 20 79q-2 46 -44 46q-38 0 -63 -43q-20 -34 -20 -77z"/>
    <glyph glyph-name="Euro" unicode="€" horiz-adv-x="509" d="M566 607q0 -3 -5 -11l-33 -51q-4 -6 -9 -6q-7 0 -16 9q-48 36 -93 36q-105 0 -163 -177h176q10 0 10 -6q0 -4 -1 -6l-7 -19q-3 -10 -17 -10h-172q-5 -16 -11 -52h161q11 0 11 -5q0 -2 -2 -8l-8 -19q-3 -7 -5 -8t-11 -1h-152q-6 -45 -6 -81q0 -68 26.5 -93.5t78.5 -25.5 q32 0 100 34q7 4 14 4q5 0 10 -10l19 -42q2 -8 2 -9q0 -5 -3.5 -8t-11.5 -7q-79 -49 -162 -49q-89 0 -131 58.5t-42 150.5q0 33 5 78h-68q-13 0 -13 4q0 2 2 8l5 18q3 11 18 11h61q4 21 11 52h-69q-12 0 -12 5q0 2 2 8l6 18q4 10 18 10h66q35 115 102.5 189.5t169.5 74.5 q75 0 136 -48q13 -9 13 -16z"/>
    <glyph glyph-name="litre" unicode="ℓ" horiz-adv-x="464" d="M381 44q-63 -59 -125 -59q-55 0 -89 34q-40 42 -40 128v89l-52 -56q-5 8 -17 23.5t-17 23.5l86 93v221q0 93 36.5 140t96.5 47q54 0 79.5 -35t25.5 -79q0 -68 -28.5 -130t-82.5 -132q-5 -5 -15.5 -18.5t-14.5 -17.5v-162q0 -92 56 -92q32 0 71 41zM304 602q0 50 -34 50 q-46 0 -46 -99v-146q9 9 14 18q66 96 66 177z"/>
    <glyph glyph-name="trademark" unicode="™" horiz-adv-x="694" d="M687 287v-4q0 -6 -10 -6h-50q-8 0 -9.5 2.5t-1.5 10.5l-5 210v26q0 18 1 26l-9.5 -27.5t-9.5 -26.5l-45 -126q-3 -8 -13 -8h-25q-11 0 -14 9l-41 119q-11 30 -19 61v-20v-41l-5 -206q0 -9 -10 -9h-48q-11 0 -11 7v4l21 369q0 11 11 11h50q11 0 15 -10l56 -167 q6 -17 9 -33q6 27 8 33l60 168q3 9 13 9h50q12 0 12 -14zM328 650l-12 -38q-3 -10 -14 -10h-75v-313q0 -13 -13 -13h-47q-14 0 -14 12v314h-77q-13 0 -13 16v37q0 13 13 13h239q15 0 15 -9q0 -3 -2 -9z"/>
    <glyph glyph-name="Omega" unicode="Ω" horiz-adv-x="670" d="M612 0h-226v87q113 118 113 285q0 112 -44 179.5t-125 67.5t-128 -69t-47 -180q0 -170 115 -283v-87h-226v87h136q-138 126 -138 305q0 139 81 229.5t210 90.5q131 0 206 -87.5t75 -229.5q0 -182 -138 -308h136v-87z"/>
    <glyph glyph-name="estimated" unicode="℮" horiz-adv-x="637" d="M573 270h-417v-185q61 -61 148 -61q126 0 198 123l36 -21q-48 -69 -102 -103.5t-132 -34.5q-119 0 -191 80.5t-72 201.5t71.5 201.5t191.5 80.5q122 0 193 -79t76 -203zM453 306v148q-61 63 -150 63q-87 0 -147 -62v-149h297z"/>
    <glyph glyph-name="onethird" unicode="⅓" horiz-adv-x="824" d="M308 648q0 -5 -1 -7l-73 -318h50q12 0 12 -9q0 -1 -1 -5q-1 -3 -1 -6q-1 -4 -2.5 -14t-2.5 -13q-3 -13 -17 -13h-185q-14 0 -14 11q0 2 2 10q1 6 6 25q3 14 18 14h60l59 255l-74 -36q-7 -4 -13 -4q-7 0 -11 6l-10 20q-3 6 -3 9q0 7 8 12l128 69q8 5 16 5h35q14 0 14 -11z M668 652l-424 -673q-5 -8 -17 -8h-53q-13 0 -13 8q0 3 3 8l423 672q7 10 16 10h55q14 0 14 -8q0 -1 -4 -9zM701 213q47 -23 47 -74q0 -64 -51 -105.5t-125 -41.5q-36 0 -73.5 12t-37.5 23l2 6l19 36q4 7 13 7q4 0 13 -5q35 -17 72 -17q39 0 64.5 22t25.5 57q0 45 -70 45h-25 q-13 0 -13 11q0 3 2 13l5 24q2 8 5.5 10.5t12.5 2.5h26q37 0 62 20t25 51q0 34 -42 34q-29 0 -66 -29q-9 -8 -17 -8q-7 0 -11 4l-24 21q-3 3 -3 9q0 5 13 18q48 45 119 45q49 0 78 -22.5t29 -60.5q0 -72 -75 -108z"/>
    <glyph glyph-name="twothirds" unicode="⅔" horiz-adv-x="824" d="M364 581q0 -53 -42 -97q-17 -16 -98 -67q-78 -48 -96 -89h165q12 0 12 -8q0 -6 -2 -14l-6 -28q-1 -6 -2.5 -9t-5 -4.5t-9.5 -1.5h-231q-13 0 -13 10t21 67q17 36 46 63.5t80 60.5q71 46 85 63q16 19 16 44q0 33 -40 33q-23 0 -39.5 -12t-35.5 -40q-9 -11 -16 -11t-10 2 q-18 5 -32 11q-8 3 -8 8v2q0 4 5 16q23 41 62.5 64t85.5 23q50 0 79 -23t29 -63zM668 652l-424 -673q-5 -8 -17 -8h-53q-13 0 -13 8q0 3 3 8l423 672q7 10 16 10h55q14 0 14 -8q0 -1 -4 -9zM701 213q47 -23 47 -74q0 -64 -51 -105.5t-125 -41.5q-36 0 -73.5 12t-37.5 23l2 6 l19 36q4 7 13 7q4 0 13 -5q35 -17 72 -17q39 0 64.5 22t25.5 57q0 45 -70 45h-25q-13 0 -13 11q0 3 2 13l5 24q2 8 5.5 10.5t12.5 2.5h26q37 0 62 20t25 51q0 34 -42 34q-29 0 -66 -29q-9 -8 -17 -8q-7 0 -11 4l-24 21q-3 3 -3 9q0 5 13 18q48 45 119 45q49 0 78 -22.5 t29 -60.5q0 -72 -75 -108z"/>
    <glyph glyph-name="oneeighth" unicode="⅛" horiz-adv-x="824" d="M308 648q0 -5 -1 -7l-73 -318h50q12 0 12 -9q0 -1 -1 -5q-1 -3 -1 -6q-1 -4 -2.5 -14t-2.5 -13q-3 -13 -17 -13h-185q-14 0 -14 11q0 2 2 10q1 6 6 25q3 14 18 14h60l59 255l-74 -36q-7 -4 -13 -4q-7 0 -11 6l-10 20q-3 6 -3 9q0 7 8 12l128 69q8 5 16 5h35q14 0 14 -11z M668 652l-424 -673q-5 -8 -17 -8h-53q-13 0 -13 8q0 3 3 8l423 672q7 10 16 10h55q14 0 14 -8q0 -1 -4 -9zM798 317v-3q0 -68 -83 -105q56 -31 58 -87q0 -63 -50 -96.5t-118 -33.5q-63 0 -98.5 25.5t-35.5 71.5q0 84 109 123q-46 29 -46 78q0 52 39.5 83.5t104.5 31.5 q56 0 88 -23t32 -65zM696 117q-1 23 -15 36.5t-42 22.5q-91 -26 -91 -78q0 -21 17 -33t48 -12q37 0 60 17.5t23 46.5zM724 309q-2 36 -50 36q-29 0 -47 -14.5t-18 -36.5q0 -17 8.5 -27.5t33.5 -26.5q39 15 56 31t17 38z"/>
    <glyph glyph-name="threeeighths" unicode="⅜" horiz-adv-x="824" d="M272 476q47 -24 47 -74q0 -64 -51 -105.5t-125 -41.5q-36 0 -73.5 12t-37.5 23l2 6l19 36q3 7 13 7q4 0 13 -5q35 -17 72 -17q39 0 64.5 22t25.5 57q0 45 -70 45h-25q-13 0 -13 11q0 3 2 13l5 24q2 8 5.5 10.5t12.5 2.5h26q37 0 62 20t25 51q0 34 -42 34q-29 0 -66 -29 q-9 -8 -17 -8q-7 0 -11 4l-24 21q-3 3 -3 9q0 5 13 18q48 45 119 45q49 0 78 -22.5t29 -60.5q0 -72 -75 -108zM668 652l-424 -673q-5 -8 -17 -8h-53q-13 0 -13 8q0 3 3 8l423 672q7 10 16 10h55q14 0 14 -8q0 -1 -4 -9zM798 317v-3q0 -68 -83 -105q56 -31 58 -87 q0 -63 -50 -96.5t-118 -33.5q-63 0 -98.5 25.5t-35.5 71.5q0 84 109 123q-46 29 -46 78q0 52 39.5 83.5t104.5 31.5q56 0 88 -23t32 -65zM696 117q-1 23 -15 36.5t-42 22.5q-91 -26 -91 -78q0 -21 17 -33t48 -12q37 0 60 17.5t23 46.5zM724 309q-2 36 -50 36 q-29 0 -47 -14.5t-18 -36.5q0 -17 8.5 -27.5t33.5 -26.5q39 15 56 31t17 38z"/>
    <glyph glyph-name="fiveeighths" unicode="⅝" horiz-adv-x="824" d="M200 597l-33 -89q27 14 63 14q47 0 76 -26.5t30 -69.5q0 -83 -72 -137q-46 -34 -116 -34q-57 0 -93 17q-13 6 -13 12q0 4 3 13l11 28q4 11 12 11q1 0 3.5 -0.5t6 -1.5t7.5 -2q36 -13 69 -13q47 0 78 28t31 72q0 43 -48 43q-43 0 -73 -27q-10 -9 -17 -9q-3 0 -12 3 q-6 2 -23 7q-11 4 -11 11q0 5 3 12l65 189q5 12 16 12h185q13 0 13 -10q0 -3 -2 -11l-8 -29q-3 -13 -15 -13h-136zM668 652l-424 -673q-5 -8 -17 -8h-53q-13 0 -13 8q0 3 3 8l423 672q7 10 16 10h55q14 0 14 -8q0 -1 -4 -9zM798 317v-3q0 -68 -83 -105q56 -31 58 -87 q0 -63 -50 -96.5t-118 -33.5q-63 0 -98.5 25.5t-35.5 71.5q0 84 109 123q-46 29 -46 78q0 52 39.5 83.5t104.5 31.5q56 0 88 -23t32 -65zM696 117q-1 23 -15 36.5t-42 22.5q-91 -26 -91 -78q0 -21 17 -33t48 -12q37 0 60 17.5t23 46.5zM724 309q-2 36 -50 36 q-29 0 -47 -14.5t-18 -36.5q0 -17 8.5 -27.5t33.5 -26.5q39 15 56 31t17 38z"/>
    <glyph glyph-name="seveneighths" unicode="⅞" horiz-adv-x="824" d="M282 594h-158q-12 0 -12 10q0 4 2 12q2 6 4 17t4 16q3 11 14 11h236q12 0 12 -10q0 -3 -2 -12.5t-2 -12.5q0 -2 -6 -13l-226 -347q-4 -8 -13 -8q-2 0 -7.5 0.5t-6.5 0.5l-42 6q-9 1 -9 9q0 6 4 13zM648 652l-424 -673q-5 -8 -17 -8h-53q-13 0 -13 8q0 3 3 8l423 672 q7 10 16 10h55q14 0 14 -8q0 -1 -4 -9zM798 317v-3q0 -68 -83 -105q56 -31 58 -87q0 -63 -50 -96.5t-118 -33.5q-63 0 -98.5 25.5t-35.5 71.5q0 84 109 123q-46 29 -46 78q0 52 39.5 83.5t104.5 31.5q56 0 88 -23t32 -65zM696 117q-1 23 -15 36.5t-42 22.5q-91 -26 -91 -78 q0 -21 17 -33t48 -12q37 0 60 17.5t23 46.5zM724 309q-2 36 -50 36q-29 0 -47 -14.5t-18 -36.5q0 -17 8.5 -27.5t33.5 -26.5q39 15 56 31t17 38z"/>
    <glyph glyph-name="partialdiff" unicode="∂" horiz-adv-x="537" d="M511 478q0 -91 -23 -192q-30 -124 -100 -210.5t-169 -86.5q-82 0 -133 53t-51 138q0 141 76 228t175 87q40 0 71 -17.5t44 -41.5h2q4 42 4 66q0 73 -32 110t-88 37q-45 0 -86 -24q-16 48 -23 72q48 32 122 32q97 0 154 -64t57 -187zM392 350q-23 70 -92 70 q-62 0 -110 -73t-48 -174q0 -47 21 -74.5t56 -27.5q61 0 107 79t66 200z"/>
    <glyph glyph-name="Delta" unicode="∆" horiz-adv-x="559" d="M576 0h-556v48l207 652h147l202 -652v-48zM450 88l-139 458q-1 4 -14 60h-4q0 -1 -4.5 -22.5t-8.5 -35.5l-139 -460h309z"/>
    <glyph glyph-name="product" unicode="∏" horiz-adv-x="667" d="M594 -230h-108v837h-305v-837h-108v930h521v-930z"/>
    <glyph glyph-name="summation" unicode="∑" horiz-adv-x="589" d="M531 -230h-506v54l273 415l-254 401v60h466v-87h-341l236 -371l-252 -385h378v-87z"/>
    <glyph glyph-name="minus" unicode="−" d="M54 373h421q11 0 14.5 -3.5t3.5 -14.5v-54q0 -11 -3 -14t-14 -3h-421q-12 0 -15.5 3t-3.5 14v54q0 11 3.5 14.5t14.5 3.5z"/>
    <glyph glyph-name="uni2215" unicode="∕" horiz-adv-x="228" d="M370 652l-424 -673q-5 -8 -17 -8h-53q-13 0 -13 8q0 3 3 8l423 672q7 10 16 10h55q14 0 14 -8q0 -1 -4 -9z"/>
    <glyph glyph-name="uni2219" unicode="∙" d="M327 329q0 -25 -18.5 -43.5t-43.5 -18.5q-26 0 -44.5 18.5t-18.5 43.5t18.5 43t43.5 18t44 -18t19 -43z"/>
    <glyph glyph-name="radical" unicode="√" horiz-adv-x="461" d="M474 729l-156 -741h-92l-116 317l-51 -32l-36 55l136 90l112 -310l129 621h74z"/>
    <glyph glyph-name="infinity" unicode="∞" horiz-adv-x="723" d="M680 293q0 -71 -45.5 -119.5t-113.5 -48.5q-50 0 -93.5 27.5t-71.5 72.5h-2q-68 -100 -161 -100q-66 0 -114 44.5t-48 121.5q0 75 47.5 120t113.5 45q99 0 162 -99h2q25 40 66.5 69.5t96.5 29.5q69 0 115 -46t46 -117zM596 293q0 38 -22 63.5t-62 25.5q-36 0 -63 -22.5 t-54 -67.5q48 -92 116 -92q41 0 63 27t22 66zM316 292q-54 90 -117 90q-40 0 -62 -27t-22 -65q0 -39 24 -65t61 -26q63 0 116 93z"/>
    <glyph glyph-name="integral" unicode="∫" horiz-adv-x="462" d="M383 660q-16 7 -38 7q-69 0 -69 -90v-623q0 -82 -39.5 -131.5t-121.5 -49.5q-46 0 -72 11q12 52 19 78q15 -7 38 -7q69 0 69 89v623q0 83 41 132.5t123 49.5q50 0 72 -13q-4 -13 -11 -38t-11 -38z"/>
    <glyph glyph-name="approxequal" unicode="≈" d="M489 421q-55 -87 -133 -87q-56 0 -103 31q-49 31 -84 31q-42 0 -78 -65l-59 68q57 88 133 88q51 0 102 -30q52 -32 86 -32q41 0 77 64zM489 194q-55 -87 -133 -87q-55 0 -103 30q-50 32 -84 32q-42 0 -78 -65l-59 69q28 42 58.5 64.5t74.5 22.5q52 0 102 -31t86 -31 q41 0 77 64z"/>
    <glyph glyph-name="notequal" unicode="≠" d="M462 138h-220l-48 -111h-98l48 111h-86v91h124l59 137h-183v91h221l53 124h99l-53 -124h84v-91h-123l-59 -137h182v-91z"/>
    <glyph glyph-name="lessequal" unicode="≤" d="M462 0h-404v91h404v-91zM462 140l-404 179v80l404 178v-95l-289 -123v-2l289 -123v-94z"/>
    <glyph glyph-name="greaterequal" unicode="≥" d="M462 0h-404v91h404v-91zM462 319l-404 -179v96l290 123v2l-290 123v94l404 -179v-80z"/>
    <glyph glyph-name="lozenge" unicode="◊" horiz-adv-x="516" d="M269 700l181 -350l-181 -350h-52l-180 349l180 351h52zM370 350l-127 250l-127 -250l127 -250z"/>
    <glyph glyph-name="zero.fitted" unicode="" horiz-adv-x="527" d="M511 485q0 -96 -29 -202.5t-74 -178.5q-34 -55 -89.5 -86.5t-116.5 -31.5q-80 0 -122.5 47.5t-42.5 137.5q0 97 29.5 204.5t75.5 180.5q35 55 89.5 85t117.5 30q78 0 120 -48t42 -138zM412 481q0 103 -82 103q-80 0 -129 -112q-24 -55 -44 -146.5t-20 -148.5 q0 -104 81 -104q80 0 130 114q25 56 44.5 146t19.5 148z"/>
    <glyph glyph-name="two.fitted" unicode="" horiz-adv-x="459" d="M464 528q0 -89 -59 -153q-24 -27 -51.5 -48t-99.5 -70q-74 -50 -107.5 -86t-47.5 -82h257q12 0 12 -9q0 -7 -1 -11l-11 -56q-2 -13 -17 -13h-347q-10 0 -10 7q0 11 9.5 46.5t18.5 57.5q26 62 68.5 109.5t130.5 108.5q97 67 124 101q29 37 29 85q0 34 -17.5 52.5 t-50.5 18.5q-37 0 -65.5 -21.5t-58.5 -72.5q-9 -16 -17 -16q-5 0 -8 2l-50 21q-8 3 -8 9q0 8 19 41q72 122 204 122q72 0 113 -38t41 -105z"/>
    <glyph glyph-name="three.fitted" unicode="" horiz-adv-x="451" d="M435 539q0 -62 -34.5 -111t-95.5 -74q45 -21 64.5 -51.5t19.5 -79.5q0 -100 -67 -167q-70 -70 -188 -70q-85 0 -144 31q-18 10 -18 17q0 5 2 8l28 59q3 7 9 7q3 0 13 -5q58 -33 120 -33t102 37q46 43 46 109q0 87 -117 87h-33q-13 0 -13 10q0 6 1 10l11 52q3 14 17 14h37 q72 0 112 46q32 37 32 86q0 68 -72 68q-50 0 -113 -57q-11 -9 -13 -9q-4 0 -7 4l-39 38q-4 4 -4 8q0 7 17 24q34 35 81 55t94 20q69 0 110.5 -36.5t41.5 -96.5z"/>
    <glyph glyph-name="four.fitted" unicode="" horiz-adv-x="469" d="M446 215l-10 -48q-2 -8 -5 -11t-10 -3h-74l-29 -140q-2 -13 -17 -13h-62q-14 0 -14 9q0 3 2 11l28 133h-250q-14 0 -14 9q0 3 2 11l12 55q5 26 17 40l330 409q6 7 11 7q2 0 10 -2l56 -21q9 -5 9 -10q0 -4 -4 -8l-331 -407h171l51 164q3 12 17 12h45q12 0 12 -9 q0 -7 -1 -11l-33 -156h70q12 0 12 -10q0 -7 -1 -11z"/>
    <glyph glyph-name="five.fitted" unicode="" horiz-adv-x="476" d="M468 637l-12 -53q-3 -13 -16 -13h-211l-58 -183q51 33 106 33q69 0 111 -42.5t42 -111.5q0 -58 -25 -114.5t-67 -97.5q-72 -69 -190 -69q-89 0 -139 24q-14 7 -14 13q0 4 3 10l20 55q2 10 13 10q6 0 16 -4q61 -23 110 -23q77 0 128 52.5t51 131.5q0 41 -21.5 63.5 t-61.5 22.5q-64 0 -118 -52q-10 -10 -16 -10q-1 0 -7 2l-42 14q-14 4 -14 9q0 1 4 13l101 328q4 12 17 12h278q13 0 13 -10q0 -6 -1 -10z"/>
    <glyph glyph-name="six.fitted" unicode="" horiz-adv-x="474" d="M492 639l-28 -57q-4 -7 -10 -7q-3 0 -13 4q-27 10 -55 10q-73 0 -134 -62q-52 -53 -82 -132q62 59 131 59q62 0 98 -43t36 -119q0 -149 -94 -243q-63 -63 -155 -63q-76 0 -116.5 46.5t-40.5 133.5q0 96 36 201.5t95 181.5q94 123 235 123q60 0 90 -16q9 -5 9 -10 q0 -1 -2 -7zM338 282q0 89 -77 89q-34 0 -63 -22t-46 -59q-26 -57 -26 -130q0 -91 75 -91q69 0 109 86q28 59 28 127z"/>
    <glyph glyph-name="seven.fitted" unicode="" horiz-adv-x="417" d="M470 637l-5 -20q-2 -10 -10 -23l-349 -597q-5 -9 -14 -9q-6 0 -9 1l-66 13q-11 1 -11 9q0 4 5 12l333 544h-255q-13 0 -13 10q0 6 1 10l12 57q3 13 16 13h353q14 0 14 -10q0 -2 -2 -10z"/>
    <glyph glyph-name="eight.fitted" unicode="" horiz-adv-x="493" d="M489 533q0 -118 -145 -185q102 -51 102 -151q0 -87 -67 -149q-68 -62 -180 -62q-92 0 -142.5 39.5t-50.5 112.5q0 96 84 159q34 25 97 50q-84 52 -84 139q0 83 58.5 134t154.5 51q80 0 126.5 -37t46.5 -101zM393 516q0 35 -22 54.5t-62 19.5q-49 0 -79 -27.5t-30 -71.5 q0 -33 15.5 -54.5t59.5 -50.5q61 26 89.5 57t28.5 73zM347 189q0 56 -43 87q-18 13 -52 29q-78 -29 -112.5 -64t-34.5 -84q0 -42 28.5 -65t79.5 -23q61 0 97.5 33t36.5 87z"/>
    <glyph glyph-name="nine.fitted" unicode="" horiz-adv-x="474" d="M465 499q0 -111 -41.5 -227t-106.5 -190q-84 -96 -208 -96q-50 0 -75 11q-13 5 -13 12q0 2 2 10l15 52q3 9 11 9l15 -3q22 -6 48 -6q71 0 130 56q53 52 92 153q-62 -74 -140 -74q-61 0 -97 44.5t-36 119.5q0 140 82 230q65 71 166 71q76 0 116 -44t40 -128zM368 506 q0 39 -19 60.5t-54 21.5q-57 0 -95 -59q-42 -66 -42 -151q0 -43 19 -66t54 -23q56 0 89 46q21 28 34.5 76t13.5 95z"/>
    <glyph glyph-name="zero.taboldstyle" unicode="" horiz-adv-x="509" d="M517 421q0 -71 -16.5 -144t-50 -140t-93.5 -109.5t-138 -42.5q-166 0 -166 188q0 70 17 141.5t51 137.5t93.5 107.5t135.5 41.5q80 0 123.5 -46.5t43.5 -133.5zM416 408q0 104 -83 104q-41 0 -76.5 -35.5t-57 -88.5t-33.5 -108.5t-12 -101.5q0 -104 82 -104 q44 0 80.5 37.5t57 92.5t31.5 109t11 95z"/>
    <glyph glyph-name="one.taboldstyle" unicode="" horiz-adv-x="509" d="M410 571l-105 -495h80q13 0 13 -11q0 -1 -0.5 -3.5t-0.5 -4.5l-9 -44q-2 -13 -17 -13h-275q-14 0 -14 11q0 2 2 10l9 42q2 13 16 13h103l82 390l-140 -67q-6 -2 -7 -2q-6 0 -11 13l-11 33q-2 6 -2 7q0 6 13 13l202 125h56q17 0 17 -12l-1 -2v-3z"/>
    <glyph glyph-name="two.taboldstyle" unicode="" horiz-adv-x="509" d="M505 461q0 -84 -65 -144q-34 -32 -112 -73.5t-110 -69.5q-35 -30 -53 -85h251q13 0 13 -12q0 -1 -0.5 -3.5t-0.5 -4.5l-12 -56q-2 -13 -16 -13h-349q-9 0 -9 11q0 8 2 16q8 46 30 93.5t53 80.5q27 29 62 52.5t81.5 49t68.5 40.5q68 44 68 102q0 68 -71 68q-40 0 -67 -21 t-52 -61q-16 -20 -22 -22q-5 0 -11 3l-48 22q-5 2 -5 8q0 5 11 27q33 61 88 94.5t121 33.5q70 0 112 -37t42 -99z"/>
    <glyph glyph-name="three.taboldstyle" unicode="" horiz-adv-x="509" d="M483 469q0 -129 -130 -187q45 -20 64.5 -50.5t19.5 -79.5q0 -104 -71.5 -171t-183.5 -67q-83 0 -152 37q-11 5 -11 11q0 4 4 11l27 58q2 5 7 5q3 0 9 -2q69 -34 132 -34q66 0 103 44t37 101q0 85 -115 85h-34q-12 0 -12 9q0 7 1 11l11 53q2 8 5 11t11 3h40q60 0 100.5 37 t40.5 94q0 32 -18.5 50t-52.5 18q-48 0 -108 -53q-15 -13 -18 -13q-5 0 -9 5l-36 35q-5 4 -5 10t7 13q76 86 184 86q68 0 110.5 -36t42.5 -94z"/>
    <glyph glyph-name="four.taboldstyle" unicode="" horiz-adv-x="509" d="M477 125l-11 -54q-2 -13 -16 -13h-72l-30 -139q-2 -8 -5 -11t-11 -3h-64q-13 0 -13 7q0 5 1 8l29 138h-251q-14 0 -14 8q0 1 2 9l18 84l340 423q8 9 12 9q2 0 8 -2l61 -22q10 -3 10 -8q0 -3 -6 -10l-331 -407h169l51 163q2 8 5.5 10.5t11.5 2.5h46q14 0 14 -8 q0 -1 -0.5 -3t-0.5 -4l-35 -162h71q12 0 12 -8q0 -5 -1 -8z"/>
    <glyph glyph-name="five.taboldstyle" unicode="" horiz-adv-x="509" d="M506 571l-13 -58q-2 -8 -5 -11t-11 -3h-210l-59 -181q52 33 106 33q70 0 112 -42t42 -112q0 -58 -24.5 -116.5t-65.5 -99.5q-73 -73 -194 -73q-81 0 -144 28q-10 4 -10 9q0 1 4 13l19 53q4 11 13 11q2 0 8 -2q78 -26 119 -26q77 0 128 54t51 136q0 42 -21.5 64t-61.5 22 q-60 0 -120 -55q-7 -7 -13 -7q-5 0 -11 3l-40 15q-12 4 -12 10q0 2 3 10l101 327q2 8 5.5 10.5t11.5 2.5h281q12 0 12 -7q0 -5 -1 -8z"/>
    <glyph glyph-name="six.taboldstyle" unicode="" horiz-adv-x="509" d="M526 630l-28 -57q-3 -6 -9 -6q-4 0 -12 4q-28 11 -56 11q-75 0 -129 -56t-87 -138q33 30 62 44.5t69 14.5q63 0 98.5 -42.5t35.5 -118.5q0 -131 -71.5 -219t-177.5 -88q-77 0 -117.5 46.5t-40.5 134.5q0 82 30 174.5t78 165.5q108 165 260 165q61 0 90 -16q7 -4 7 -10 q0 -3 -2 -9zM373 275q0 89 -76 89q-60 0 -97.5 -59t-37.5 -153q0 -88 74 -88q56 0 96.5 62t40.5 149z"/>
    <glyph glyph-name="seven.taboldstyle" unicode="" horiz-adv-x="509" d="M514 571l-7 -33l-356 -610q-7 -11 -13 -11q-4 0 -6 1l-68 14q-11 2 -11 6q0 3 5 11l328 547h-254q-14 0 -14 8q0 6 1 9l13 60q2 9 4.5 11t11.5 2h353q14 0 14 -8q0 -1 -0.5 -3.5t-0.5 -3.5z"/>
    <glyph glyph-name="eight.taboldstyle" unicode="" horiz-adv-x="509" d="M521 530q0 -66 -40 -113.5t-105 -74.5q102 -49 102 -151q0 -85 -63 -146q-70 -68 -186 -68q-91 0 -141 40t-50 114q0 78 51.5 131.5t128.5 78.5q-84 52 -84 137t59.5 137t155.5 52q79 0 125.5 -37.5t46.5 -99.5zM423 512q0 75 -83 75q-48 0 -78 -28t-30 -73 q0 -36 18.5 -58.5t55.5 -47.5q55 23 86 52.5t31 79.5zM378 183q0 43 -25 69.5t-69 45.5q-77 -29 -112 -64t-35 -84q0 -42 28.5 -65t79.5 -23q59 0 96 33.5t37 87.5z"/>
    <glyph glyph-name="nine.taboldstyle" unicode="" horiz-adv-x="509" d="M496 426q0 -95 -33.5 -198t-87.5 -181q-93 -133 -236 -133q-55 0 -78 13q-9 5 -9 13q0 3 1 5l17 58q1 7 9 7q5 0 7 -1q40 -11 61 -11q72 0 126.5 58t82.5 136q-62 -60 -130 -60q-62 0 -98.5 44.5t-36.5 121.5q0 130 71 215.5t178 85.5q76 0 116 -44.5t40 -128.5zM398 429 q0 85 -70 85q-46 0 -79 -36.5t-46 -82t-13 -90.5q0 -43 19.5 -66.5t53.5 -23.5q59 0 97 59.5t38 154.5z"/>
    <glyph glyph-name="zero.denominator" unicode="" horiz-adv-x="345" d="M321 287v-4q0 -57 -18 -116t-49 -101q-54 -74 -138 -74q-112 0 -114 118q0 58 19 119t50 104q50 72 138 72q54 0 83 -30.5t29 -87.5zM244 287q0 53 -47 53q-46 0 -78 -60q-16 -32 -27.5 -82.5t-11.5 -83.5v-3q0 -54 45 -54q49 0 79 62q17 31 28.5 82t11.5 86z"/>
    <glyph glyph-name="one.denominator" unicode="" horiz-adv-x="345" d="M258 385q0 -5 -1 -7l-73 -318h50q12 0 12 -9q0 -1 -1 -5q-1 -3 -1 -6q-1 -4 -2.5 -14t-2.5 -13q-3 -13 -17 -13h-185q-14 0 -14 11q0 2 2 10q1 6 6 25q3 14 18 14h60l59 255l-74 -36q-7 -4 -13 -4q-7 0 -11 6l-10 20q-3 6 -3 9q0 7 8 12l128 69q8 5 16 5h35q14 0 14 -11z "/>
    <glyph glyph-name="two.denominator" unicode="" horiz-adv-x="345" d="M314 318q0 -53 -42 -97q-17 -16 -98 -67q-78 -48 -96 -89h165q12 0 12 -8q0 -6 -2 -14l-6 -28q-1 -6 -2.5 -9t-5 -4.5t-9.5 -1.5h-231q-13 0 -13 10t21 67q17 36 46 63.5t80 60.5q71 46 85 63q16 19 16 44q0 33 -40 33q-23 0 -39.5 -12t-35.5 -40q-9 -11 -16 -11t-10 2 q-18 5 -32 11q-8 3 -8 8v2q0 4 5 16q23 41 62.5 64t85.5 23q50 0 79 -23t29 -63z"/>
    <glyph glyph-name="three.denominator" unicode="" horiz-adv-x="345" d="M222 213q47 -23 47 -74q0 -64 -51 -105.5t-125 -41.5q-36 0 -73.5 12t-37.5 23l2 6l19 36q3 7 13 7q4 0 13 -5q35 -17 72 -17q39 0 64.5 22t25.5 57q0 45 -70 45h-25q-13 0 -13 11q0 3 2 13l5 24q2 8 5.5 10.5t12.5 2.5h26q37 0 62 20t25 51q0 34 -42 34q-29 0 -66 -29 q-9 -8 -17 -8q-7 0 -11 4l-24 21q-3 3 -3 9q0 5 13 18q48 45 119 45q49 0 78 -22.5t29 -60.5q0 -72 -75 -108z"/>
    <glyph glyph-name="four.denominator" unicode="" horiz-adv-x="345" d="M159 87h-161q-13 0 -13 11q0 2 2 12l7 33q2 7 7 14l211 245q6 7 13 7q10 0 13 -3l34 -8q11 -3 11 -10q0 -5 -8 -15l-201 -228h96l31 93q4 12 17 12h32q15 0 15 -11q0 -3 -2 -11l-19 -82h43q12 0 12 -10q0 -1 -2 -13l-4 -21q-4 -15 -18 -15h-43l-17 -73q-3 -14 -18 -14 h-42q-14 0 -14 11q0 3 2 11z"/>
    <glyph glyph-name="five.denominator" unicode="" horiz-adv-x="345" d="M150 334l-33 -89q27 14 63 14q47 0 76 -26.5t30 -69.5q0 -83 -72 -137q-46 -34 -116 -34q-57 0 -93 17q-13 6 -13 12q0 4 3 13l11 28q4 11 12 11q1 0 3.5 -0.5t6 -1.5t7.5 -2q36 -13 69 -13q47 0 78 28t31 72q0 43 -48 43q-43 0 -73 -27q-10 -9 -17 -9q-3 0 -12 3 q-6 2 -23 7q-11 4 -11 11q0 4 3 12l65 189q5 12 16 12h185q13 0 13 -10q0 -3 -2 -11l-8 -29q-3 -13 -15 -13h-136z"/>
    <glyph glyph-name="six.denominator" unicode="" horiz-adv-x="345" d="M134 257q28 20 66 20q45 0 70.5 -26.5t25.5 -73.5v-2q0 -76 -48.5 -129.5t-119.5 -53.5q-52 0 -81 29t-30 83q0 54 21.5 113t57.5 104q67 84 166 84q39 0 62 -13q9 -5 9 -11q0 -3 -2 -7l-17 -33q-3 -6 -11 -6q-2 0 -10 2q-16 6 -35 6q-81 0 -124 -86zM220 173 q0 44 -44 44t-65 -41q-17 -31 -17 -76q0 -46 43 -46q39 0 65 45q18 34 18 74z"/>
    <glyph glyph-name="seven.denominator" unicode="" horiz-adv-x="345" d="M232 331h-158q-12 0 -12 10q0 4 2 12q2 6 4.5 17t3.5 16q3 11 14 11h236q12 0 12 -10q0 -3 -2 -12.5t-2 -12.5q0 -2 -6 -13l-226 -347q-4 -8 -13 -8q-2 0 -7.5 0.5t-6.5 0.5l-42 6q-9 1 -9 9q0 6 4 13z"/>
    <glyph glyph-name="eight.denominator" unicode="" horiz-adv-x="345" d="M319 317v-3q0 -68 -83 -105q56 -31 58 -87q0 -63 -50 -96.5t-118 -33.5q-63 0 -98.5 25.5t-35.5 71.5q0 84 109 123q-46 29 -46 78q0 52 39.5 83.5t104.5 31.5q56 0 88 -23t32 -65zM217 117q-1 23 -15 36.5t-42 22.5q-91 -26 -91 -78q0 -21 17 -33t48 -12q37 0 60 17.5 t23 46.5zM245 309q-2 36 -50 36q-29 0 -47 -14.5t-18 -36.5q0 -17 8.5 -27.5t33.5 -26.5q39 15 56 31t17 38z"/>
    <glyph glyph-name="nine.denominator" unicode="" horiz-adv-x="345" d="M190 140q-28 -19 -67 -19q-45 0 -70.5 26t-25.5 73q0 77 48.5 131t119.5 54q53 0 82 -29t29 -83t-21 -112.5t-57 -104.5q-68 -84 -163 -84q-24 0 -48 8q-15 6 -16 14q0 3 2 7l11 34q1 7 9 7q7 0 13 -3q18 -5 33 -5q69 0 121 86zM103 223q0 -43 44 -43q43 0 63 38 q18 29 20 79q-2 46 -44 46q-38 0 -63 -43q-20 -34 -20 -77z"/>
    <glyph glyph-name="zero.numerator" unicode="" horiz-adv-x="345" d="M371 550v-4q0 -57 -18 -116t-49 -101q-54 -74 -138 -74q-112 0 -114 118q0 58 19 119t50 104q50 72 138 72q54 0 83 -30.5t29 -87.5zM294 550q0 53 -47 53q-46 0 -78 -60q-16 -32 -27.5 -82.5t-11.5 -83.5v-3q0 -54 45 -54q49 0 79 62q17 31 28.5 82t11.5 86z"/>
    <glyph glyph-name="one.numerator" unicode="" horiz-adv-x="345" d="M308 648q0 -5 -1 -7l-73 -318h50q12 0 12 -9q0 -1 -1 -5q-1 -3 -1 -6q-1 -4 -2.5 -14t-2.5 -13q-3 -13 -17 -13h-185q-14 0 -14 11q0 2 2 10q1 6 6 25q3 14 18 14h60l59 255l-74 -36q-7 -4 -13 -4q-7 0 -11 6l-10 20q-3 6 -3 9q0 7 8 12l128 69q8 5 16 5h35q14 0 14 -11z "/>
    <glyph glyph-name="two.numerator" unicode="" horiz-adv-x="345" d="M364 581q0 -53 -42 -97q-17 -16 -98 -67q-78 -48 -96 -89h165q12 0 12 -8q0 -6 -2 -14l-6 -28q-1 -6 -2.5 -9t-5 -4.5t-9.5 -1.5h-231q-13 0 -13 10t21 67q17 36 46 63.5t80 60.5q71 46 85 63q16 19 16 44q0 33 -40 33q-23 0 -39.5 -12t-35.5 -40q-9 -11 -16 -11t-10 2 q-18 5 -32 11q-8 3 -8 8v2q0 4 5 16q23 41 62.5 64t85.5 23q50 0 79 -23t29 -63z"/>
    <glyph glyph-name="three.numerator" unicode="" horiz-adv-x="345" d="M272 476q47 -24 47 -74q0 -64 -51 -105.5t-125 -41.5q-36 0 -73.5 12t-37.5 23l2 6l19 36q3 7 13 7q4 0 13 -5q35 -17 72 -17q39 0 64.5 22t25.5 57q0 45 -70 45h-25q-13 0 -13 11q0 3 2 13l5 24q2 8 5.5 10.5t12.5 2.5h26q37 0 62 20t25 51q0 34 -42 34q-29 0 -66 -29 q-9 -8 -17 -8q-7 0 -11 4l-24 21q-3 3 -3 9q0 5 13 18q48 45 119 45q49 0 78 -22.5t29 -60.5q0 -72 -75 -108z"/>
    <glyph glyph-name="four.numerator" unicode="" horiz-adv-x="345" d="M209 350h-161q-13 0 -13 11q0 2 2 12l7 33q2 7 7 14l211 245q6 7 13 7q10 0 13 -3l34 -8q11 -3 11 -10q0 -5 -8 -15l-201 -228h96l31 93q4 12 17 12h32q15 0 15 -11q0 -3 -2 -11l-19 -82h43q12 0 12 -10q0 -1 -2 -13l-4 -21q-4 -15 -18 -15h-43l-17 -73q-3 -14 -18 -14 h-42q-14 0 -14 11q0 3 2 11z"/>
    <glyph glyph-name="five.numerator" unicode="" horiz-adv-x="345" d="M200 597l-33 -89q27 14 63 14q47 0 76 -26.5t30 -69.5q0 -83 -72 -137q-46 -34 -116 -34q-57 0 -93 17q-13 6 -13 12q0 4 3 13l11 28q4 11 12 11q1 0 3.5 -0.5t6 -1.5t7.5 -2q36 -13 69 -13q47 0 78 28t31 72q0 43 -48 43q-43 0 -73 -27q-10 -9 -17 -9q-3 0 -12 3 q-6 2 -23 7q-11 4 -11 11q0 5 3 12l65 189q5 12 16 12h185q13 0 13 -10q0 -3 -2 -11l-8 -29q-3 -13 -15 -13h-136z"/>
    <glyph glyph-name="six.numerator" unicode="" horiz-adv-x="345" d="M184 520q28 20 66 20q45 0 70.5 -26.5t25.5 -73.5v-2q0 -76 -48.5 -129.5t-119.5 -53.5q-52 0 -81 29t-30 83q0 54 21.5 113t57.5 104q67 84 166 84q39 0 62 -13q9 -5 9 -11q0 -3 -2 -7l-17 -33q-3 -6 -11 -6q-2 0 -10 2q-16 6 -35 6q-81 0 -124 -86zM270 436 q0 44 -44 44t-65 -41q-17 -31 -17 -76q0 -46 43 -46q39 0 65 45q18 34 18 74z"/>
    <glyph glyph-name="seven.numerator" unicode="" horiz-adv-x="345" d="M282 594h-158q-12 0 -12 10q0 4 2 12q2 6 4 17t4 16q3 11 14 11h236q12 0 12 -10q0 -3 -2 -12.5t-2 -12.5q0 -2 -6 -13l-226 -347q-4 -8 -13 -8q-2 0 -7.5 0.5t-6.5 0.5l-42 6q-9 1 -9 9q0 6 4 13z"/>
    <glyph glyph-name="eight.numerator" unicode="" horiz-adv-x="345" d="M369 580v-3q0 -68 -83 -105q56 -31 58 -87q0 -63 -50 -96.5t-118 -33.5q-63 0 -98.5 25.5t-35.5 71.5q0 84 109 123q-46 29 -46 78q0 52 39.5 83.5t104.5 31.5q56 0 88 -23t32 -65zM267 380q-1 23 -15 36.5t-42 22.5q-91 -26 -91 -78q0 -21 17 -33t48 -12q37 0 60 17.5 t23 46.5zM295 572q-2 36 -50 36q-29 0 -47 -14.5t-18 -36.5q0 -17 8.5 -27.5t33.5 -26.5q39 15 56 31t17 38z"/>
    <glyph glyph-name="nine.numerator" unicode="" horiz-adv-x="345" d="M240 403q-28 -19 -67 -19q-45 0 -70.5 26t-25.5 73q0 77 48.5 131t119.5 54q53 0 82 -29t29 -83t-21 -112.5t-57 -104.5q-68 -84 -163 -84q-24 0 -48 8q-15 6 -16 14q0 3 2 7l11 34q1 7 9 7q7 0 13 -3q18 -5 33 -5q69 0 121 86zM153 486q0 -43 44 -43q43 0 63 38 q18 29 20 79q-2 46 -44 46q-38 0 -63 -43q-20 -34 -20 -77z"/>
    <glyph glyph-name="guillemotleft.cap" unicode="" horiz-adv-x="555" d="M566 537l-173 -193l83 -187q4 -10 4 -12q0 -5 -9 -9l-43 -21q-10 -4 -11 -4q-6 0 -10 8l-125 223q-4 7 -4 10t6 9l225 222q6 6 10 6q3 0 10 -5l36 -27q6 -6 6 -10q0 -3 -5 -10zM353 537l-173 -193l83 -187q3 -8 3 -11q0 -6 -8 -10l-43 -21q-10 -4 -11 -4q-6 0 -10 8 l-125 223q-4 7 -4 10t6 9l225 222q6 6 10 6q3 0 10 -5l36 -27q6 -6 6 -10q0 -3 -5 -10z"/>
    <glyph glyph-name="guillemotright.cap" unicode="" horiz-adv-x="555" d="M521 359q4 -7 4 -10t-6 -9l-224 -223q-6 -6 -10 -6q-3 0 -10 5l-36 27q-8 6 -8 11q0 4 6 10l172 194l-81 185q-4 10 -4 12q0 5 9 9l44 22q8 4 9 4q4 0 10 -9zM307 361q5 -10 5 -11q0 -4 -6 -10l-224 -223q-6 -6 -10 -6q-3 0 -10 5l-36 27q-8 6 -8 11q0 4 6 10l172 194 l-81 185q-4 10 -4 12q0 5 9 9l44 22q6 3 10 3q5 0 10 -8z"/>
    <glyph glyph-name="guilsinglleft.cap" unicode="" horiz-adv-x="343" d="M353 537l-173 -193l83 -187q3 -8 3 -11q0 -6 -8 -10l-43 -21q-10 -4 -11 -4q-6 0 -10 8l-125 223q-4 7 -4 10t6 9l225 222q6 6 10 6q3 0 10 -5l36 -27q6 -6 6 -10q0 -3 -5 -10z"/>
    <glyph glyph-name="guilsinglright.cap" unicode="" horiz-adv-x="343" d="M196 358l-81 185q-4 10 -4 12q0 5 9 9l44 22q6 3 10 3q5 0 10 -8l123 -220q5 -10 5 -11q0 -4 -6 -10l-224 -223q-6 -6 -10 -6q-3 0 -10 5l-36 27q-8 6 -8 11q0 4 6 10z"/>
    <glyph glyph-name="at.cap" unicode="" horiz-adv-x="972" d="M921 452q0 -127 -77 -219.5t-184 -92.5q-82 0 -90 81q-59 -81 -128 -81q-41 0 -64.5 31.5t-23.5 87.5q0 55 18 112.5t61 103.5t100 46q49 0 81 -36q1 1 4.5 10.5t5.5 10.5q5 5 10 5h52q8 0 8 -9q0 -6 -1 -9l-47 -219q-2 -9 -2 -18v-10q0 -39 40 -39q64 0 111 71.5 t47 168.5q0 110 -71.5 172.5t-196.5 62.5q-169 0 -279.5 -117t-110.5 -289q0 -143 82 -217t226 -74q88 0 156 18.5t143 52.5q5 3 10 3q6 0 7 -4l17 -46q0 -1 0.5 -2.5t0.5 -2.5q0 -11 -15 -17q-58 -32 -147.5 -52t-176.5 -20q-181 0 -284 93.5t-103 267.5q0 200 139 338.5 t339 138.5q152 0 247.5 -78t95.5 -223zM595 427q-32 29 -60 29q-24 0 -44 -23.5t-30 -57t-15.5 -64t-5.5 -52.5q0 -48 32 -48q35 0 63 33.5t39 86.5z"/>
    <glyph glyph-name="braceleft.cap" unicode="" horiz-adv-x="514" d="M506 798l-18 -81q-64 -2 -85 -16.5t-34 -74.5l-32 -150q-10 -51 -29 -76.5t-60 -46.5q42 -26 42 -76q0 -23 -6 -49l-35 -162q-4 -16 -4 -31q0 -29 19.5 -37t68.5 -8l-17 -82q-13 -1 -36 -1q-67 0 -100 19t-33 75q0 26 7 57l35 166q5 22 5 39q0 44 -42 54l16 78 q32 7 50 28t26 59l37 174q18 85 63 114t124 29q6 0 18.5 -0.5t19.5 -0.5z"/>
    <glyph glyph-name="braceright.cap" unicode="" horiz-adv-x="514" d="M405 379l-16 -77q-33 -7 -51 -28t-26 -60l-37 -173q-18 -81 -62.5 -113t-121.5 -32q-12 0 -40 2l18 82q60 1 82.5 14.5t34.5 68.5l34 158q11 51 29 76t59 46q-42 29 -42 76q0 23 6 48l33 154q6 27 6 42q0 27 -18.5 34.5t-69.5 9.5l17 81q7 0 19 0.5t18 0.5 q67 0 100 -20.5t33 -73.5q0 -25 -7 -56l-36 -166q-6 -28 -6 -40q0 -44 44 -54z"/>
    <glyph glyph-name="bracketleft.cap" unicode="" horiz-adv-x="435" d="M493 786l-11 -50q-3 -13 -17 -13h-106l-160 -755h104q13 0 13 -7q0 -1 -0.5 -3.5t-0.5 -4.5l-12 -59q-2 -9 -16 -9h-189q-12 0 -12 7q0 1 2 11l189 889q2 13 17 13h187q13 0 13 -10q0 -1 -0.5 -4t-0.5 -5z"/>
    <glyph glyph-name="bracketright.cap" unicode="" horiz-adv-x="435" d="M386 792l-189 -894q-3 -13 -17 -13h-187q-13 0 -13 10q0 4 1 7l11 52q2 8 5 11t11 3h106l161 755h-104q-14 0 -14 9q0 3 1 6l12 54q2 13 17 13h188q12 0 12 -7q0 -1 -0.5 -3t-0.5 -3z"/>
    <glyph glyph-name="emdash.cap" unicode="" horiz-adv-x="805" d="M796 380l-11 -51q-2 -13 -16 -13h-709q-14 0 -14 7q0 3 1 6l12 56q2 13 16 13h709q13 0 13 -10q0 -1 -0.5 -3.5t-0.5 -4.5z"/>
    <glyph glyph-name="endash.cap" unicode="" horiz-adv-x="514" d="M506 380l-11 -51q-2 -13 -16 -13h-419q-14 0 -14 7q0 3 1 6l12 56q2 13 16 13h419q13 0 13 -10q0 -1 -0.5 -3.5t-0.5 -4.5z"/>
    <glyph glyph-name="hyphen.cap" unicode="" horiz-adv-x="315" d="M305 386l-13 -62q-3 -14 -17 -14h-215q-13 0 -13 10q0 3 2 11l13 61q2 13 16 13h215q13 0 13 -11q0 -1 -0.5 -3.5t-0.5 -4.5z"/>
    <glyph glyph-name="parenleft.cap" unicode="" horiz-adv-x="435" d="M458 833l35 -29q5 -4 5 -10q0 -8 -14 -22q-100 -113 -160.5 -216.5t-84.5 -230.5q-13 -68 -13 -128q0 -147 71 -291q6 -14 6 -19q0 -8 -10 -13l-41 -21q-3 -2 -9 -2q-9 0 -18 17q-102 174 -102 342q0 321 302 609q17 17 25 17q4 0 8 -3z"/>
    <glyph glyph-name="parenright.cap" unicode="" horiz-adv-x="435" d="M348 476q0 -316 -302 -609q-17 -17 -25 -17q-3 0 -8 3l-36 29q-6 4 -6 9q0 4 2.5 7.5t7.5 8t6 6.5q120 133 188.5 271.5t68.5 304.5q0 159 -70 291q-7 12 -7 17q0 9 11 14l40 22q6 3 10 3q8 0 15 -14q53 -96 79 -174.5t26 -171.5z"/>
    <glyph glyph-name="exclamdown.cap" unicode="" horiz-adv-x="343" d="M58 15l109 405q2 8 5 10.5t12 2.5h47q11 0 11 -9q0 -1 -0.5 -3t-0.5 -4l-62 -402q-2 -10 -4.5 -12.5t-11.5 -2.5h-92q-14 0 -14 8q0 5 1 7zM171 630q0 31 21.5 52t52.5 21t52 -21t21 -52t-21 -52.5t-52 -21.5t-52.5 21.5t-21.5 52.5z"/>
    <glyph glyph-name="questiondown.cap" unicode="" horiz-adv-x="463" d="M43 126q0 56 30.5 105t82.5 75q35 17 85 29l18 83q2 13 16 13h62q13 0 13 -10q0 -1 -0.5 -3t-0.5 -3l-27 -126q-2 -9 -7.5 -13t-22.5 -8q-30 -7 -50.5 -14.5t-43.5 -21.5t-35 -35.5t-12 -51.5q0 -65 78 -65q38 0 103 23l6 2q6 2 9 2q7 0 10 -7l22 -57q1 -2 1 -5 q0 -8 -22 -18q-78 -32 -153 -32q-74 0 -118 37.5t-44 100.5zM272 630q0 31 21 52t52 21t52.5 -21t21.5 -52t-21.5 -52.5t-52.5 -21.5t-52 21.5t-21 52.5z"/>
    <glyph glyph-name="commaaccent" unicode="" horiz-adv-x="508" d="M293 -75l-108 -152q-11 -14 -21 -14q-3 0 -11 2l-18 5q-12 4 -12 10q0 4 5 16l64 141q9 17 26 17h65q19 0 19 -8q0 -4 -9 -17z"/>
    <glyph glyph-name="one.fitted" unicode="" horiz-adv-x="409" d="M358 637l-118 -559h91q11 0 11 -11q0 -7 -1 -10l-9 -44q-2 -13 -17 -13h-285q-13 0 -13 11q0 6 1 9l10 45q3 13 16 13h102l100 470l-125 -69q-8 -5 -12 -5q-5 0 -11 11l-14 28q-4 10 -4 12q0 5 8 10l190 117q7 5 20 5h49q12 0 12 -9q0 -7 -1 -11z"/>
    <glyph glyph-name="zero.oldstyle" unicode="" horiz-adv-x="514" d="M520 421q0 -71 -16.5 -144t-50 -140t-93.5 -109.5t-138 -42.5q-166 0 -166 188q0 70 17 141.5t51 137.5t93.5 107.5t135.5 41.5q80 0 123.5 -46.5t43.5 -133.5zM419 408q0 104 -83 104q-41 0 -76.5 -35.5t-57 -88.5t-33.5 -108.5t-12 -101.5q0 -104 82 -104 q44 0 80.5 37.5t57 92.5t31.5 109t11 95z"/>
    <glyph glyph-name="one.oldstyle" unicode="" horiz-adv-x="442" d="M376 571l-105 -495h80q13 0 13 -11q0 -1 -0.5 -3.5t-0.5 -4.5l-9 -44q-2 -13 -17 -13h-275q-14 0 -14 11q0 2 2 10l9 42q2 13 16 13h103l82 390l-140 -67q-6 -2 -7 -2q-6 0 -11 13l-11 33q-2 6 -2 7q0 6 13 13l202 125h56q17 0 17 -12l-1 -2v-3z"/>
    <glyph glyph-name="two.oldstyle" unicode="" horiz-adv-x="477" d="M489 461q0 -84 -65 -144q-34 -32 -112 -73.5t-110 -69.5q-35 -30 -53 -85h251q13 0 13 -12q0 -1 -0.5 -3.5t-0.5 -4.5l-12 -56q-2 -13 -16 -13h-349q-9 0 -9 11q0 8 2 16q8 46 30 93.5t53 80.5q27 29 62 52.5t81.5 49t68.5 40.5q68 44 68 102q0 68 -71 68q-40 0 -67 -21 t-52 -61q-16 -20 -22 -22q-5 0 -11 3l-48 22q-5 2 -5 8q0 5 11 27q33 61 88 94.5t121 33.5q70 0 112 -37t42 -99z"/>
    <glyph glyph-name="three.oldstyle" unicode="" horiz-adv-x="514" d="M486 469q0 -129 -130 -187q45 -20 64.5 -50.5t19.5 -79.5q0 -104 -71.5 -171t-183.5 -67q-83 0 -152 37q-11 5 -11 11q0 4 4 11l27 58q3 5 7 5q3 0 9 -2q69 -34 132 -34q66 0 103 44t37 101q0 85 -115 85h-34q-12 0 -12 9q0 7 1 11l11 53q2 8 5 11t11 3h40q60 0 100.5 37 t40.5 94q0 32 -18.5 50t-52.5 18q-48 0 -108 -53q-15 -13 -18 -13q-5 0 -9 5l-36 35q-5 4 -5 10t7 13q76 86 184 86q68 0 110.5 -36t42.5 -94z"/>
    <glyph glyph-name="four.oldstyle" unicode="" horiz-adv-x="494" d="M470 125l-11 -54q-2 -13 -16 -13h-72l-30 -139q-2 -8 -5 -11t-11 -3h-64q-13 0 -13 7q0 5 1 8l29 138h-251q-14 0 -14 8q0 1 2 9l18 84l340 423q7 9 12 9q2 0 8 -2l61 -22q10 -3 10 -8q0 -3 -6 -10l-331 -407h169l51 163q2 8 5.5 10.5t11.5 2.5h46q14 0 14 -8 q0 -1 -0.5 -3t-0.5 -4l-35 -162h71q12 0 12 -8q0 -5 -1 -8z"/>
    <glyph glyph-name="five.oldstyle" unicode="" horiz-adv-x="514" d="M509 571l-13 -58q-2 -8 -5 -11t-11 -3h-210l-59 -181q52 33 106 33q70 0 112 -42t42 -112q0 -58 -24.5 -116.5t-65.5 -99.5q-73 -73 -194 -73q-81 0 -144 28q-10 4 -10 9q0 1 4 13l19 53q4 11 13 11q2 0 8 -2q78 -26 119 -26q77 0 128 54t51 136q0 42 -21.5 64t-61.5 22 q-60 0 -120 -55q-7 -7 -13 -7q-5 0 -11 3l-40 15q-12 4 -12 10q0 2 3 10l101 327q2 8 5.5 10.5t11.5 2.5h281q12 0 12 -7q0 -5 -1 -8z"/>
    <glyph glyph-name="six.oldstyle" unicode="" horiz-adv-x="502" d="M522 630l-28 -57q-3 -6 -9 -6q-4 0 -12 4q-27 11 -56 11q-75 0 -129 -56t-87 -138q33 30 62 44.5t69 14.5q63 0 98.5 -42.5t35.5 -118.5q0 -131 -71.5 -219t-177.5 -88q-77 0 -117.5 46.5t-40.5 134.5q0 82 30 174.5t78 165.5q108 165 260 165q61 0 90 -16q7 -4 7 -10 q0 -3 -2 -9zM369 275q0 89 -76 89q-60 0 -97.5 -59t-37.5 -153q0 -88 74 -88q56 0 96.5 62t40.5 149z"/>
    <glyph glyph-name="seven.oldstyle" unicode="" horiz-adv-x="454" d="M487 571l-7 -33l-356 -610q-7 -11 -13 -11q-4 0 -6 1l-68 14q-11 2 -11 6q0 3 5 11l328 547h-254q-14 0 -14 8q0 6 1 9l13 60q2 9 4.5 11t11.5 2h353q14 0 14 -8q0 -1 -0.5 -3.5t-0.5 -3.5z"/>
    </font>
</defs>
</svg>
